osu file format v14

[General]
AudioFilename: audio.mp3
AudioLeadIn: 0
PreviewTime: 132111
Countdown: 0
SampleSet: None
StackLeniency: 0.4
Mode: 0
LetterboxInBreaks: 0
WidescreenStoryboard: 0

[Editor]
Bookmarks: 9694,21694,33861,52528,55194,77028,78694,79694,95028,107194,117851,124027,125027,130360,130860,154693
DistanceSpacing: 1
BeatDivisor: 4
GridSize: 8
TimelineZoom: 1

[Metadata]
Title:Haruoto*Veil
TitleUnicode:春音*ベール
Artist:Ceui
ArtistUnicode:Ceui
Creator:Hanasaka Yui
Version:Realization of Dreams
Source:春音アリス*グラム
Tags:Haruoto Alice * Gram opening full version size version spring is just around the corner eroge visual novel
BeatmapID:1914896
BeatmapSetID:916869

[Difficulty]
HPDrainRate:5
CircleSize:4
OverallDifficulty:9
ApproachRate:9.2
SliderMultiplier:1.4
SliderTickRate:1

[Events]
//Background and Video events
0,0,"eroge.jpg",0,0
//Break Periods
//Storyboard Layer 0 (Background)
//Storyboard Layer 1 (Fail)
//Storyboard Layer 2 (Pass)
//Storyboard Layer 3 (Foreground)
//Storyboard Sound Samples

[TimingPoints]
-806,333.333333333333,4,2,1,40,1,0
12527,-83.3333333333333,4,2,1,40,0,0
23193,-100,4,2,1,40,0,0
33860,-90.9090909090909,4,2,1,40,0,0
59193,-71.4285714285714,4,2,1,40,0,1
83193,-83.3333333333333,4,2,1,40,0,1
85860,-83.3333333333333,4,2,1,40,0,0
97027,-100,4,2,1,40,0,0
107193,-100,4,2,1,40,0,0
117860,-83.3333333333333,4,2,1,40,0,0
118693,-76.9230769230769,4,2,1,40,0,0
125527,-500,4,2,1,40,0,0
125860,-76.9230769230769,4,2,1,40,0,0
132527,-64.5161290322581,4,2,1,40,0,1
140527,-48.780487804878,4,2,1,40,0,1
143193,-64.5161290322581,4,2,1,40,0,1
159193,-74.0740740740741,4,2,1,40,0,0
161693,-68.9655172413793,4,2,1,40,0,0

[Colours]
Combo1 : 255,138,141
Combo2 : 179,196,253
Combo3 : 186,150,252

[HitObjects]
90,76,360,6,0,P|91:57|91:26,2,35
35,140,693,1,0,0:0:0:0:
21,223,860,1,0,0:0:0:0:
92,267,1026,1,0,0:0:0:0:
167,229,1527,1,0,0:0:0:0:
241,266,1860,5,0,0:0:0:0:
320,240,2026,1,0,0:0:0:0:
169,316,2193,1,0,0:0:0:0:
247,184,2360,1,0,0:0:0:0:
301,323,2693,5,0,0:0:0:0:
377,358,2860,1,0,0:0:0:0:
460,352,3027,1,0,0:0:0:0:
377,358,3193,5,0,0:0:0:0:
369,274,3360,1,0,0:0:0:0:
404,197,3527,1,0,0:0:0:0:
473,150,3693,1,0,0:0:0:0:
502,228,4193,1,0,0:0:0:0:
473,150,4360,1,0,0:0:0:0:
412,91,4527,5,0,0:0:0:0:
369,274,4693,1,0,0:0:0:0:
473,150,4860,1,0,0:0:0:0:
316,211,5027,1,0,0:0:0:0:
335,58,5360,5,0,0:0:0:0:
235,82,5527,1,0,0:0:0:0:
328,32,5693,1,0,0:0:0:0:
289,136,5860,5,0,0:0:0:0:
218,181,6027,1,0,0:0:0:0:
134,179,6193,1,0,0:0:0:0:
65,130,6360,1,0,0:0:0:0:
84,48,6527,1,0,0:0:0:0:
152,96,6693,1,0,0:0:0:0:
235,82,6860,1,0,0:0:0:0:
178,19,7027,1,0,0:0:0:0:
260,3,7193,5,0,0:0:0:0:
328,86,7360,1,0,0:0:0:0:
426,20,7527,1,0,0:0:0:0:
492,119,7693,1,0,0:0:0:0:
411,111,8193,5,0,0:0:0:0:
443,188,8527,1,0,0:0:0:0:
370,229,8693,1,0,0:0:0:0:
319,296,8860,1,0,0:0:0:0:
235,287,9027,1,0,0:0:0:0:
222,369,9193,1,0,0:0:0:0:
149,326,9360,1,0,0:0:0:0:
81,375,9527,1,0,0:0:0:0:
30,308,9693,5,0,0:0:0:0:
99,259,10027,1,0,0:0:0:0:
81,375,10193,1,0,0:0:0:0:
23,218,10360,1,0,0:0:0:0:
149,326,10527,1,0,0:0:0:0:
235,287,10693,1,0,0:0:0:0:
256,192,10777,12,0,12443,0:0:0:0:
372,279,12527,6,0,P|416:286|461:283,2,83.9999974365235
235,243,13027,2,0,L|209:345,1,83.9999974365235
131,232,13360,1,0,0:0:0:0:
303,349,13527,1,0,0:0:0:0:
105,363,13693,1,0,0:0:0:0:
105,363,14027,1,0,0:0:0:0:
109,367,14360,1,0,0:0:0:0:
109,367,14527,5,0,0:0:0:0:
64,195,14693,1,0,0:0:0:0:
20,336,14860,1,0,0:0:0:0:
68,160,15027,1,0,0:0:0:0:
252,218,15193,6,0,P|208:167|219:61,1,167.999994873047
319,17,15693,1,0,0:0:0:0:
390,87,15860,1,0,0:0:0:0:
341,175,16027,1,0,0:0:0:0:
397,41,16193,1,0,0:0:0:0:
404,245,16360,1,0,0:0:0:0:
254,309,16527,1,0,0:0:0:0:
358,339,16693,1,0,0:0:0:0:
321,252,16860,1,0,0:0:0:0:
191,213,17027,1,0,0:0:0:0:
35,256,17193,5,0,0:0:0:0:
137,101,17360,1,0,0:0:0:0:
0,121,17527,1,0,0:0:0:0:
124,308,17693,1,0,0:0:0:0:
134,321,17777,1,0,0:0:0:0:
144,334,17860,5,0,0:0:0:0:
271,177,18027,1,0,0:0:0:0:
35,256,18193,1,0,0:0:0:0:
304,363,18360,1,0,0:0:0:0:
320,363,18443,1,0,0:0:0:0:
337,360,18527,1,0,0:0:0:0:
149,182,18693,1,0,0:0:0:0:
133,182,18776,1,0,0:0:0:0:
116,179,18860,1,0,0:0:0:0:
294,24,19027,1,0,0:0:0:0:
294,40,19110,1,0,0:0:0:0:
289,54,19193,6,0,P|328:61|381:65,1,83.9999974365235
511,41,19527,1,0,0:0:0:0:
436,151,19693,1,0,0:0:0:0:
482,258,19860,1,0,0:0:0:0:
309,177,20027,1,0,0:0:0:0:
331,165,20110,1,0,0:0:0:0:
359,150,20193,1,0,0:0:0:0:
334,295,20360,1,0,0:0:0:0:
512,179,20527,1,0,0:0:0:0:
222,234,20693,5,0,0:0:0:0:
423,364,20860,1,0,0:0:0:0:
197,258,21027,1,0,0:0:0:0:
425,334,21193,1,0,0:0:0:0:
188,292,21360,1,0,0:0:0:0:
423,298,21527,1,0,0:0:0:0:
163,152,21693,5,0,0:0:0:0:
256,192,21777,12,0,23110,0:0:0:0:
384,188,23193,6,0,P|396:145|391:104,1,70
257,0,23527,2,0,P|245:43|250:84,1,70
296,198,23860,1,0,0:0:0:0:
267,284,24027,1,0,0:0:0:0:
319,362,24193,1,0,0:0:0:0:
154,384,24360,2,0,L|77:372,1,70
12,227,24693,5,0,0:0:0:0:
154,218,24860,1,0,0:0:0:0:
154,218,25027,2,0,L|231:230,1,70
12,227,25360,5,0,0:0:0:0:
81,150,25527,1,0,0:0:0:0:
163,226,25693,1,0,0:0:0:0:
163,226,25777,1,0,0:0:0:0:
163,226,25860,2,0,L|240:238,1,70
444,262,26193,6,0,P|456:303|449:352,1,70
322,380,26527,2,0,P|310:339|317:290,1,70
431,181,26860,1,0,0:0:0:0:
431,181,27027,2,0,L|361:180,1,70
251,145,27360,1,0,0:0:0:0:
388,89,27527,1,0,0:0:0:0:
205,30,27693,2,0,P|282:33|346:25,1,140
136,93,28193,2,0,P|92:87|48:64,1,70
251,145,28527,5,0,0:0:0:0:
67,183,28693,2,0,P|23:177|-21:154,1,70
168,278,29027,2,0,P|212:272|256:249,1,70
0,336,29360,2,0,P|32:348|67:351,1,70
247,349,29693,1,0,0:0:0:0:
247,349,29777,1,0,0:0:0:0:
247,349,29860,5,0,0:0:0:0:
189,197,30027,1,0,0:0:0:0:
149,364,30193,1,0,0:0:0:0:
320,269,30360,2,0,P|314:234|299:202,2,70
402,353,30860,2,0,P|447:365|487:360,1,70
436,141,31193,6,0,L|451:304,1,140
320,269,31693,1,0,0:0:0:0:
306,120,31860,2,0,L|321:283,1,140
196,235,32360,1,0,0:0:0:0:
306,120,32527,1,0,0:0:0:0:
246,300,32693,1,0,0:0:0:0:
186,96,32860,1,0,0:0:0:0:
106,310,33027,2,0,L|93:170,1,140
86,96,33443,1,0,0:0:0:0:
85,87,33527,1,0,0:0:0:0:
12,271,33693,1,0,0:0:0:0:
14,252,33777,1,0,0:0:0:0:
16,234,33860,6,0,P|54:243|102:234,1,77.0000023498536
189,166,34193,2,0,P|226:161|264:170,1,77.0000023498536
357,256,34527,1,0,0:0:0:0:
363,125,34693,1,0,0:0:0:0:
258,271,34860,1,0,0:0:0:0:
416,346,35027,5,0,0:0:0:0:
416,346,35360,1,0,0:0:0:0:
218,369,35527,1,0,0:0:0:0:
438,339,35693,2,0,P|450:291|452:248,1,77.0000023498536
463,6,36110,1,0,0:0:0:0:
457,31,36193,1,0,0:0:0:0:
452,47,36277,1,0,0:0:0:0:
445,56,36360,1,0,0:0:0:0:
291,27,36527,6,0,P|303:75|305:118,1,77.0000023498536
258,271,36860,2,0,P|210:259|167:257,1,77.0000023498536
33,365,37193,1,0,0:0:0:0:
97,179,37360,2,0,P|94:219|103:268,1,77.0000023498536
339,374,37693,6,0,P|342:334|333:285,1,77.0000023498536
289,166,38027,1,0,0:0:0:0:
204,355,38193,1,0,0:0:0:0:
204,355,38527,5,0,0:0:0:0:
183,254,38693,1,0,0:0:0:0:
33,365,38860,1,0,0:0:0:0:
32,145,39027,1,0,0:0:0:0:
31,131,39110,1,0,0:0:0:0:
31,120,39193,5,0,0:0:0:0:
178,90,39360,1,0,0:0:0:0:
99,255,39527,1,0,0:0:0:0:
287,166,39693,2,0,P|326:164|361:178,1,77.0000023498536
441,304,40027,1,0,0:0:0:0:
507,132,40193,1,0,0:0:0:0:
337,324,40360,6,0,P|298:325|263:311,2,77.0000023498536
501,221,40860,1,0,0:0:0:0:
313,244,41027,2,0,L|131:207,1,154.000004699707
91,196,41443,1,0,0:0:0:0:
73,191,41527,1,0,0:0:0:0:
226,119,41693,1,0,0:0:0:0:
254,111,41777,1,0,0:0:0:0:
281,107,41860,6,0,L|359:90,1,77.0000023498536
460,65,42193,1,0,0:0:0:0:
208,32,42360,2,0,L|364:-2,1,154.000004699707
17,273,42860,6,0,L|173:307,1,154.000004699707
324,351,43360,1,0,0:0:0:0:
324,351,43443,1,0,0:0:0:0:
324,351,43527,2,0,P|346:310|344:271,1,77.0000023498536
328,104,43860,6,0,L|418:94,1,77.0000023498536
198,38,44193,1,0,0:0:0:0:
435,12,44360,1,0,0:0:0:0:
396,16,44443,1,0,0:0:0:0:
358,20,44527,6,0,L|268:30,1,77.0000023498536
108,50,44860,1,0,0:0:0:0:
198,38,45027,2,0,P|213:93|209:118,1,77.0000023498536
75,213,45360,2,0,P|115:172|138:163,1,77.0000023498536
297,250,45693,2,0,P|241:235|222:219,1,77.0000023498536
384,206,46027,2,0,P|398:261|395:286,1,77.0000023498536
184,370,46360,2,0,P|169:314|173:290,2,77.0000023498536
247,323,47027,1,0,0:0:0:0:
247,323,47193,6,0,L|138:339,1,77.0000023498536
0,359,47527,2,0,L|109:343,1,77.0000023498536
226,223,47860,2,0,L|117:207,1,77.0000023498536
11,192,48193,1,0,0:0:0:0:
251,132,48360,2,0,L|142:116,1,77.0000023498536
22,96,48693,1,0,0:0:0:0:
277,40,48860,5,0,0:0:0:0:
174,120,49027,1,0,0:0:0:0:
321,201,49193,2,0,L|430:185,1,77.0000023498536
511,180,49527,1,0,0:0:0:0:
477,269,49693,1,0,0:0:0:0:
435,371,49860,6,0,P|389:380|352:374,1,77.0000023498536
259,333,50193,1,0,0:0:0:0:
120,374,50360,2,0,P|74:383|37:377,1,77.0000023498536
0,265,50693,1,0,0:0:0:0:
169,295,50860,1,0,0:0:0:0:
329,208,51027,1,0,0:0:0:0:
329,208,51110,1,0,0:0:0:0:
329,208,51193,6,0,P|340:126|321:52,1,154.000004699707
127,57,51693,1,0,0:0:0:0:
266,2,51860,1,0,0:0:0:0:
128,94,52027,1,0,0:0:0:0:
107,258,52193,2,0,P|60:234|27:178,1,115.50000352478
3,24,52527,5,0,0:0:0:0:
10,145,52693,1,0,0:0:0:0:
128,94,52860,5,0,0:0:0:0:
121,215,53026,1,0,0:0:0:0:
240,70,53193,5,0,0:0:0:0:
247,191,53359,1,0,0:0:0:0:
365,140,53526,5,0,0:0:0:0:
358,261,53692,1,0,0:0:0:0:
496,129,53860,5,0,0:0:0:0:
464,314,54027,1,0,0:0:0:0:
365,140,54193,5,0,0:0:0:0:
265,306,54360,1,0,0:0:0:0:
240,70,54527,5,0,0:0:0:0:
121,215,54693,1,0,0:0:0:0:
187,12,54860,5,0,0:0:0:0:
3,24,55027,1,0,0:0:0:0:
246,190,55193,5,0,0:0:0:0:
32,191,55360,1,0,0:0:0:0:
10,159,55443,1,0,0:0:0:0:
0,122,55527,2,0,L|61:104,1,38.5000011749268
216,260,55693,1,0,0:0:0:0:
248,282,55776,1,0,0:0:0:0:
285,292,55860,2,0,L|303:231,1,38.5000011749268
390,46,56027,1,0,0:0:0:0:
395,92,56110,1,0,0:0:0:0:
401,138,56193,1,0,0:0:0:0:
406,185,56277,1,0,0:0:0:0:
412,231,56360,1,0,0:0:0:0:
418,278,56443,1,0,0:0:0:0:
423,324,56527,5,0,0:0:0:0:
256,192,56610,12,0,58693,0:0:0:0:
266,372,58860,6,0,P|276:322|269:250,1,115.50000352478
181,344,59193,6,0,P|267:322|379:338,2,195.999994018555
69,384,60027,1,0,0:0:0:0:
36,209,60193,2,0,P|57:257|97:297,1,97.9999970092774
307,182,60527,2,0,P|258:179|212:193,1,97.9999970092774,0|0,0:3|0:3,0:3:0:0:
450,276,60860,1,0,0:0:0:0:
494,97,61027,1,0,0:0:0:0:
498,77,61110,2,0,L|505:22,1,48.9999985046387
240,86,61360,2,0,P|288:89|336:77,1,97.9999970092774,0|0,0:3|0:3,0:3:0:0:
79,0,61693,1,0,0:0:0:0:
75,20,61776,1,0,0:0:0:0:
69,43,61860,6,0,L|41:165,1,97.9999970092774
11,329,62193,2,0,P|64:312|107:308,1,97.9999970092774
370,334,62527,2,0,P|325:314|278:305,1,97.9999970092774
132,384,62860,1,0,0:0:0:0:
183,177,63027,1,0,0:0:0:0:
187,225,63110,1,0,0:0:0:0:
191,274,63193,5,0,0:0:0:0:
299,139,63360,1,0,0:0:0:0:
171,35,63527,1,0,0:0:0:0:
279,230,63693,1,0,0:0:0:0:
308,237,63777,2,0,L|366:245,1,48.9999985046387
105,308,64027,1,0,0:0:0:0:
60,317,64111,1,0,0:0:0:0:
18,317,64194,1,0,0:0:0:0:
232,384,64360,1,0,0:0:0:0:
469,333,64527,6,0,P|437:298|431:231,1,97.9999970092774
457,98,64860,1,0,0:0:0:0:
308,237,65027,2,0,L|298:122,1,97.9999970092774
167,15,65360,1,0,0:0:0:0:
119,2,65443,1,0,0:0:0:0:
70,0,65527,6,0,L|57:120,2,97.9999970092774
286,73,66027,1,0,0:0:0:0:
309,67,66110,1,0,0:0:0:0:
333,61,66193,1,0,0:0:0:0:
154,191,66360,1,0,0:0:0:0:
105,185,66443,2,0,L|50:179,1,48.9999985046387
253,254,66693,1,0,0:0:0:0:
26,379,66860,1,0,0:0:0:0:
170,288,67027,1,0,0:0:0:0:
159,335,67110,1,0,0:0:0:0:
149,383,67193,6,0,P|169:304|138:155,1,195.999994018555
474,226,67693,2,0,P|398:287|305:316,1,195.999994018555
74,277,68193,5,0,0:0:0:0:
338,201,68360,1,0,0:0:0:0:
402,34,68527,1,0,0:0:0:0:
248,101,68693,1,0,0:0:0:0:
235,121,68776,1,0,0:0:0:0:
227,144,68859,1,0,0:0:0:0:
486,142,69027,5,0,0:0:0:0:
437,135,69110,1,0,0:0:0:0:
388,129,69193,1,0,0:0:0:0:
98,78,69360,1,0,0:0:0:0:
98,78,69443,1,0,0:0:0:0:
98,78,69527,1,0,0:0:0:0:
134,129,69610,1,0,0:0:0:0:
98,182,69693,1,0,0:0:0:0:
35,162,69777,1,0,0:0:0:0:
35,96,69860,6,0,P|9:190|17:284,2,146.999995513916
173,21,70693,1,0,0:0:0:0:
328,178,70860,2,0,P|281:152|223:147,1,97.9999970092774
13,294,71193,6,0,L|140:283,1,97.9999970092774
344,269,71527,1,0,0:0:0:0:
221,368,71693,2,0,P|237:320|234:262,1,97.9999970092774
157,115,72027,2,0,P|156:66|172:20,1,97.9999970092774
332,173,72360,1,0,0:0:0:0:
349,132,72443,1,0,0:0:0:0:
338,97,72527,6,0,P|291:81|243:82,1,97.9999970092774
96,203,72860,2,0,P|47:204|1:188,1,97.9999970092774
331,261,73193,2,0,P|284:276|236:275,1,97.9999970092774
60,115,73527,1,0,0:0:0:0:
88,369,73693,6,0,L|298:363,1,195.999994018555
488,297,74193,1,0,0:0:0:0:
268,200,74360,1,0,0:0:0:0:
405,380,74527,2,0,L|409:266,1,97.9999970092774
409,114,74860,2,0,P|386:96|362:90,1,48.9999985046387
175,121,75027,2,0,P|151:138|139:160,1,48.9999985046387
110,346,75193,5,0,0:0:0:0:
295,325,75360,1,0,0:0:0:0:
66,281,75527,5,0,0:0:0:0:
322,252,75693,1,0,0:0:0:0:
353,241,75777,1,0,0:0:0:0:
374,212,75860,5,0,0:0:0:0:
197,383,76027,1,0,0:0:0:0:
282,127,76193,1,0,0:0:0:0:
34,155,76360,1,0,0:0:0:0:
192,301,76527,5,0,0:0:0:0:
237,22,76693,1,0,0:0:0:0:
246,230,76860,1,0,0:0:0:0:
142,60,77027,1,0,0:0:0:0:
142,60,77110,1,0,0:0:0:0:
142,60,77193,5,0,0:0:0:0:
246,230,77360,1,0,0:0:0:0:
34,155,77527,1,0,0:0:0:0:
311,50,77693,1,0,0:0:0:0:
389,26,77777,1,0,0:0:0:0:
461,2,77860,5,0,0:0:0:0:
447,314,78027,1,0,0:0:0:0:
481,78,78193,1,0,0:0:0:0:
246,230,78360,1,0,0:0:0:0:
512,213,78527,1,0,0:0:0:0:
280,334,78693,1,0,0:0:0:0:
280,334,78776,1,0,0:0:0:0:
280,334,78859,5,0,0:0:0:0:
282,127,79027,1,0,0:0:0:0:
376,382,79193,1,0,0:0:0:0:
138,183,79360,1,0,0:0:0:0:
420,228,79527,1,0,0:0:0:0:
110,361,79693,1,0,0:0:0:0:
61,363,79776,1,0,0:0:0:0:
23,335,79860,5,0,0:0:0:0:
223,287,80027,1,0,0:0:0:0:
10,246,80193,5,0,0:0:0:0:
217,172,80360,1,0,0:0:0:0:
26,146,80527,5,0,0:0:0:0:
138,183,80693,1,0,0:0:0:0:
116,74,80860,1,0,0:0:0:0:
219,266,81027,5,0,0:0:0:0:
102,288,81193,1,0,0:0:0:0:
138,183,81360,5,0,0:0:0:0:
191,358,81527,1,0,0:0:0:0:
217,172,81693,1,0,0:0:0:0:
102,288,81860,1,0,0:0:0:0:
398,279,82027,5,0,0:0:0:0:
272,338,82193,1,0,0:0:0:0:
486,382,82360,2,0,L|377:377,1,97.9999970092774
319,219,82693,5,0,0:0:0:0:
495,287,82859,1,0,0:0:0:0:
471,146,83027,1,0,0:0:0:0:
421,118,83110,1,0,0:0:0:0:
380,119,83193,6,0,L|274:115,1,83.9999974365235
221,115,83444,1,0,0:0:0:0:
204,114,83527,1,0,0:0:0:0:
5,112,83693,1,0,0:0:0:0:
28,116,83777,1,0,0:0:0:0:
43,134,83860,2,0,P|77:216|59:296,1,167.999994873047
157,384,84360,1,0,0:0:0:0:
150,362,84444,1,0,0:0:0:0:
157,340,84527,2,0,P|211:269|289:245,1,167.999994873047
374,316,85027,1,0,0:0:0:0:
493,255,85193,6,0,P|415:232|332:169,1,167.999994873047
360,72,85693,1,0,0:0:0:0:
360,72,85860,5,0,0:0:0:0:
246,103,86027,1,0,0:0:0:0:
131,88,86193,1,0,0:0:0:0:
246,19,86360,2,0,P|242:62|250:122,1,83.9999974365235
283,245,86693,5,0,0:0:0:0:
129,206,86860,1,0,0:0:0:0:
315,268,87027,2,0,L|414:257,1,83.9999974365235
0,326,87360,2,0,L|167:338,1,167.999994873047
288,346,87860,1,0,0:0:0:0:
398,258,88027,1,0,0:0:0:0:
310,127,88193,1,0,0:0:0:0:
464,35,88360,1,0,0:0:0:0:
236,16,88527,6,0,P|234:99|219:182,1,167.999994873047
6,254,89027,1,0,0:0:0:0:
142,136,89193,1,0,0:0:0:0:
31,227,89360,1,0,0:0:0:0:
156,103,89527,1,0,0:0:0:0:
100,339,89693,6,0,P|95:297|102:256,1,83.9999974365235
219,182,90027,1,0,0:0:0:0:
341,284,90193,1,0,0:0:0:0:
507,176,90360,1,0,0:0:0:0:
489,19,90527,1,0,0:0:0:0:
430,237,90693,1,0,0:0:0:0:
380,28,90860,1,0,0:0:0:0:
320,198,91027,1,0,0:0:0:0:
309,167,91110,1,0,0:0:0:0:
301,139,91193,5,0,0:0:0:0:
236,16,91360,1,0,0:0:0:0:
94,6,91527,1,0,0:0:0:0:
0,98,91693,2,0,L|113:92,1,83.9999974365235
219,182,92027,2,0,P|223:223|217:265,1,83.9999974365235
0,357,92360,1,0,0:0:0:0:
47,352,92443,1,0,0:0:0:0:
98,353,92527,5,0,0:0:0:0:
340,374,92693,2,0,L|257:380,1,83.9999974365235
486,368,93027,1,0,0:0:0:0:
476,356,93110,1,0,0:0:0:0:
473,344,93193,1,0,0:0:0:0:
510,162,93360,1,0,0:0:0:0:
510,162,93443,1,0,0:0:0:0:
510,162,93527,1,0,0:0:0:0:
476,184,93610,1,0,0:0:0:0:
438,171,93693,1,0,0:0:0:0:
425,133,93776,1,0,0:0:0:0:
447,99,93860,5,0,0:0:0:0:
320,197,94027,1,0,0:0:0:0:
181,289,94193,1,0,0:0:0:0:
432,313,94360,5,0,0:0:0:0:
320,197,94527,1,0,0:0:0:0:
225,73,94693,1,0,0:0:0:0:
304,334,94860,5,0,0:0:0:0:
344,56,95027,1,0,0:0:0:0:
256,192,95110,12,0,96527,0:0:0:0:
399,337,97027,5,0,0:0:0:0:
399,337,97193,1,0,0:0:0:0:
399,337,97360,2,0,L|308:333,1,70
206,326,97693,2,0,L|122:322,1,70
96,239,98027,2,0,L|179:242,1,70
275,248,98360,2,0,L|358:251,1,70
453,260,98693,1,0,0:0:0:0:
490,341,98860,1,0,0:0:0:0:
401,166,99027,6,0,L|317:162,2,70
193,150,99527,2,0,L|124:147,1,70
416,86,99860,2,0,L|346:82,1,70
198,69,100193,1,0,0:0:0:0:
198,69,100360,2,0,L|128:65,1,70
276,68,100860,1,0,0:0:0:0:
276,68,101194,1,0,0:0:0:0:
276,68,101527,1,0,0:0:0:0:
276,68,101860,5,0,0:0:0:0:
281,72,102193,1,0,0:0:0:0:
281,72,102360,5,0,0:0:0:0:
331,162,102527,1,0,0:0:0:0:
409,170,102693,1,0,0:0:0:0:
344,250,102860,1,0,0:0:0:0:
283,325,103027,2,0,P|245:331|192:321,1,70
78,282,103360,5,0,0:0:0:0:
153,290,103527,1,0,0:0:0:0:
8,356,103693,2,0,L|1:267,1,70
76,184,104027,5,0,0:0:0:0:
151,176,104194,1,0,0:0:0:0:
6,110,104360,2,0,L|-1:199,2,70
47,32,104860,6,0,P|85:22|125:26,1,70
198,86,105193,2,0,P|232:87|266:77,1,70
346,18,105527,1,0,0:0:0:0:
428,101,105693,1,0,0:0:0:0:
428,101,105777,1,0,0:0:0:0:
427,100,105860,2,0,P|446:167|443:236,2,140
346,18,106693,5,0,0:0:0:0:
266,77,106860,2,0,P|232:87|198:86,1,70
76,184,107193,6,0,L|161:177,1,70
102,272,107527,2,0,L|272:258,1,140
349,255,108027,1,0,0:0:0:0:
237,379,108193,1,0,0:0:0:0:
423,360,108360,1,0,0:0:0:0:
423,360,108443,1,0,0:0:0:0:
423,360,108527,6,0,L|338:353,1,70
488,266,108860,2,0,L|318:252,1,140
239,248,109360,1,0,0:0:0:0:
262,108,109527,1,0,0:0:0:0:
76,184,109693,1,0,0:0:0:0:
76,184,109777,1,0,0:0:0:0:
76,184,109860,6,0,L|246:170,1,140
54,98,110360,2,0,L|139:91,1,70
19,23,110693,2,0,L|104:16,2,70
207,35,111193,6,0,L|292:28,1,70
391,26,111527,1,0,0:0:0:0:
262,108,111693,2,0,L|347:101,2,70
456,94,112193,1,0,0:0:0:0:
491,181,112360,1,0,0:0:0:0:
418,248,112527,6,0,L|348:253,1,70
236,259,112860,1,0,0:0:0:0:
440,343,113027,2,0,L|300:354,1,140
172,366,113527,1,0,0:0:0:0:
55,375,113693,6,0,P|40:335|43:294,1,70
53,212,114027,1,0,0:0:0:0:
73,114,114193,1,0,0:0:0:0:
144,285,114360,2,0,L|149:215,2,70
244,212,114860,1,0,0:0:0:0:
224,114,115026,1,0,0:0:0:0:
148,32,115193,5,0,0:0:0:0:
148,32,115527,6,0,L|130:144,1,105
138,26,115860,2,0,L|149:138,1,105
125,19,116193,6,0,P|190:48|284:33,1,140
342,22,116693,1,0,0:0:0:0:
433,27,116860,1,0,0:0:0:0:
472,115,117027,1,0,0:0:0:0:
436,210,117193,1,0,0:0:0:0:
433,27,117360,1,0,0:0:0:0:
374,282,117527,1,0,0:0:0:0:
479,121,117693,1,0,0:0:0:0:
479,121,117777,1,0,0:0:0:0:
481,122,117860,6,0,P|410:134|390:132,1,83.9999974365235
125,19,118193,1,0,0:0:0:0:
125,19,118693,2,0,L|229:7,1,90.9999958343508
0,145,119027,6,0,L|104:157,1,90.9999958343508
251,239,119360,2,0,L|147:251,1,90.9999958343508
14,267,119693,1,0,0:0:0:0:
14,267,119777,1,0,0:0:0:0:
14,267,119860,5,0,0:0:0:0:
216,154,120027,1,0,0:0:0:0:
180,364,120193,1,0,0:0:0:0:
171,309,120276,1,0,0:0:0:0:
160,248,120359,1,0,0:0:0:0:
334,382,120527,6,0,L|340:332,1,45.4999979171754
376,58,120860,2,0,L|382:8,1,45.4999979171754
512,206,121360,6,0,L|462:200,1,45.4999979171754
113,176,121693,6,0,L|14:164,1,90.9999958343508
174,310,122027,1,0,0:0:0:0:
301,193,122193,2,0,L|313:94,1,90.9999958343508
221,15,122527,1,0,0:0:0:0:
202,54,122610,1,0,0:0:0:0:
207,97,122693,1,0,0:0:0:0:
393,156,122860,1,0,0:0:0:0:
193,179,123027,1,0,0:0:0:0:
212,140,123110,1,0,0:0:0:0:
207,97,123193,6,0,P|185:98|298:234,1,454.999979171754
285,144,124193,1,0,0:0:0:0:
343,57,124360,1,0,0:0:0:0:
478,212,124527,6,0,P|499:201|416:194,1,272.999987503052
405,241,125193,1,0,0:0:0:0:
380,340,125360,1,0,0:0:0:0:
250,368,125527,2,0,L|249:354,1,14
248,237,125860,5,0,0:0:0:0:
176,371,126027,1,0,0:0:0:0:
183,185,126193,5,0,0:0:0:0:
249,354,126360,1,0,0:0:0:0:
120,229,126527,5,0,0:0:0:0:
307,292,126693,1,0,0:0:0:0:
78,303,126860,5,0,0:0:0:0:
285,144,127027,1,0,0:0:0:0:
454,315,127193,5,0,0:0:0:0:
249,354,127360,1,0,0:0:0:0:
464,238,127527,5,0,0:0:0:0:
214,288,127693,1,0,0:0:0:0:
476,164,127860,5,0,0:0:0:0:
167,225,128027,1,0,0:0:0:0:
123,214,128110,1,0,0:0:0:0:
91,182,128193,1,0,0:0:0:0:
80,138,128276,1,0,0:0:0:0:
93,95,128360,1,0,0:0:0:0:
126,65,128443,1,0,0:0:0:0:
171,56,128526,5,0,0:0:0:0:
345,138,128693,1,0,0:0:0:0:
392,125,128777,1,0,0:0:0:0:
421,83,128860,1,0,0:0:0:0:
272,235,129027,1,0,0:0:0:0:
264,200,129110,1,0,0:0:0:0:
255,156,129193,1,0,0:0:0:0:
333,51,129360,5,0,0:0:0:0:
333,51,129443,1,0,0:0:0:0:
333,51,129527,1,0,0:0:0:0:
333,51,129610,1,0,0:0:0:0:
333,51,129693,1,0,0:0:0:0:
333,51,129777,1,0,0:0:0:0:
333,51,129860,5,0,0:0:0:0:
341,95,129943,1,0,0:0:0:0:
350,140,130026,1,0,0:0:0:0:
359,184,130109,1,0,0:0:0:0:
368,229,130193,1,0,0:0:0:0:
377,274,130276,1,0,0:0:0:0:
384,321,130360,5,0,0:0:0:0:
339,313,130443,1,0,0:0:0:0:
294,304,130526,1,0,0:0:0:0:
250,295,130609,1,0,0:0:0:0:
205,286,130693,1,0,0:0:0:0:
160,277,130776,1,0,0:0:0:0:
116,268,130860,5,0,0:0:0:0:
85,220,130943,1,0,0:0:0:0:
73,165,131026,1,0,0:0:0:0:
79,108,131110,1,0,0:0:0:0:
105,58,131193,6,0,L|112:118,1,45.4999979171754
140,360,131360,1,0,0:0:0:0:
271,384,131693,5,0,0:0:0:0:
368,87,131860,1,0,0:0:0:0:
437,168,132193,6,0,P|391:178|290:161,1,136.499993751526
368,87,132527,6,0,P|383:206|362:302,2,217.000001655579
220,6,133360,1,0,0:0:0:0:
76,142,133527,2,0,P|124:114|181:100,1,108.500000827789
269,295,133860,2,0,P|220:267|180:225,1,108.500000827789
287,95,134193,1,0,0:0:0:0:
103,219,134360,1,0,0:0:0:0:
92,236,134443,2,0,L|82:318,1,54.2500004138947
279,384,134693,2,0,P|327:356|367:314,1,108.500000827789
422,104,135027,1,0,0:0:0:0:
426,125,135110,1,0,0:0:0:0:
430,145,135193,6,0,L|455:267,1,108.500000827789
279,384,135527,2,0,P|221:382|165:362,1,108.500000827789
0,129,135860,2,0,P|11:181|37:229,1,108.500000827789
248,278,136193,1,0,0:0:0:0:
104,162,136360,1,0,0:0:0:0:
78,114,136443,1,0,0:0:0:0:
66,61,136527,6,0,P|113:35|166:23,1,108.500000827789
361,69,136860,1,0,0:0:0:0:
189,205,137027,1,0,0:0:0:0:
186,176,137110,2,0,L|181:109,1,54.2500004138947
365,191,137360,1,0,0:0:0:0:
254,48,137527,1,0,0:0:0:0:
327,312,137693,1,0,0:0:0:0:
359,334,137777,1,0,0:0:0:0:
402,330,137860,6,0,P|432:269|428:205,1,108.500000827789
325,84,138193,1,0,0:0:0:0:
175,288,138360,2,0,L|56:270,1,108.500000827789
378,159,138693,2,0,L|486:143,1,108.500000827789
113,160,139027,1,0,0:0:0:0:
71,139,139110,1,0,0:0:0:0:
43,98,139193,6,0,L|25:217,1,108.500000827789
0,373,139527,1,0,0:0:0:0:
259,314,139693,1,0,0:0:0:0:
227,300,139777,2,0,L|175:288,1,54.2500004138947
393,375,140027,1,0,0:0:0:0:
499,163,140193,1,0,0:0:0:0:
478,367,140360,1,0,0:0:0:0:
469,341,140443,1,0,0:0:0:0:
459,310,140527,6,0,P|369:307|307:282,1,143.500002189636
248,79,140860,1,0,0:0:0:0:
174,384,141027,6,0,P|171:294|146:232,1,143.500002189636
9,62,141360,1,0,0:0:0:0:
309,16,141527,2,0,P|232:63|191:116,1,143.500002189636
299,303,141860,1,0,0:0:0:0:
84,227,142027,1,0,0:0:0:0:
40,225,142110,1,0,0:0:0:0:
0,223,142193,1,0,0:0:0:0:
352,174,142360,1,0,0:0:0:0:
396,172,142443,1,0,0:0:0:0:
436,170,142526,1,0,0:0:0:0:
191,21,142693,1,0,0:0:0:0:
186,80,142776,1,0,0:0:0:0:
181,140,142859,1,0,0:0:0:0:
176,199,142943,1,0,0:0:0:0:
171,259,143026,1,0,0:0:0:0:
166,318,143109,1,0,0:0:0:0:
162,378,143193,6,0,P|212:388|272:373,1,108.500000827789
436,170,143527,1,0,0:0:0:0:
272,287,143693,2,0,P|260:234|270:181,1,108.500000827789
394,38,144027,1,0,0:0:0:0:
361,237,144193,1,0,0:0:0:0:
244,24,144360,1,0,0:0:0:0:
244,24,144443,1,0,0:0:0:0:
244,24,144527,5,0,0:0:0:0:
106,133,144693,2,0,P|41:145|-21:138,1,108.500000827789
255,229,145027,2,0,P|320:241|382:234,1,108.500000827789
60,374,145360,2,0,P|48:309|55:247,1,108.500000827789
207,129,145693,1,0,0:0:0:0:
404,363,145860,6,0,P|351:375|300:361,1,108.500000827789
159,236,146193,1,0,0:0:0:0:
384,121,146360,1,0,0:0:0:0:
397,100,146443,2,0,L|412:42,1,54.2500004138947
146,23,146693,1,0,0:0:0:0:
356,195,146860,6,0,P|367:247|353:299,2,108.500000827789
268,77,147360,1,0,0:0:0:0:
268,77,147527,1,0,0:0:0:0:
278,244,147693,1,0,0:0:0:0:
69,139,147860,5,0,0:0:0:0:
117,160,147943,1,0,0:0:0:0:
148,204,148026,1,0,0:0:0:0:
151,258,148110,1,0,0:0:0:0:
142,311,148193,5,0,0:0:0:0:
164,262,148276,1,0,0:0:0:0:
208,232,148359,1,0,0:0:0:0:
261,229,148443,1,0,0:0:0:0:
311,250,148527,6,0,L|445:231,1,108.500000827789
502,115,148777,1,0,0:0:0:0:
505,91,148860,2,0,L|371:72,1,108.500000827789
128,43,149193,1,0,0:0:0:0:
314,37,149360,1,0,0:0:0:0:
86,152,149527,1,0,0:0:0:0:
233,7,149693,1,0,0:0:0:0:
261,229,149860,5,0,0:0:0:0:
0,69,150027,2,0,L|67:81,1,54.2500004138947
272,126,150193,1,0,0:0:0:0:
44,272,150360,2,0,L|194:252,1,108.500000827789
434,234,150693,6,0,P|463:284|462:351,1,108.500000827789
183,357,151027,1,0,0:0:0:0:
183,357,151110,1,0,0:0:0:0:
183,357,151193,6,0,P|154:307|155:240,1,108.500000827789
198,54,151527,1,0,0:0:0:0:
279,326,151693,2,0,P|250:276|251:209,1,108.500000827789
310,42,152027,1,0,0:0:0:0:
327,257,152193,1,0,0:0:0:0:
121,168,152360,1,0,0:0:0:0:
89,124,152443,1,0,0:0:0:0:
91,77,152527,5,0,0:0:0:0:
360,189,152693,1,0,0:0:0:0:
79,246,152860,1,0,0:0:0:0:
267,47,153027,2,0,L|290:199,1,108.500000827789
312,372,153360,1,0,0:0:0:0:
304,319,153443,1,0,0:0:0:0:
296,276,153527,1,0,0:0:0:0:
434,377,153693,1,0,0:0:0:0:
478,348,153776,1,0,0:0:0:0:
490,296,153859,5,0,0:0:0:0:
388,274,154027,1,0,0:0:0:0:
452,189,154193,1,0,0:0:0:0:
233,222,154360,5,0,0:0:0:0:
360,189,154528,1,0,0:0:0:0:
296,104,154693,5,0,0:0:0:0:
388,274,154860,1,0,0:0:0:0:
436,108,155027,2,0,P|424:55|364:29,1,108.500000827789
166,16,155360,5,0,0:0:0:0:
296,104,155527,1,0,0:0:0:0:
125,228,155693,2,0,L|232:221,1,108.500000827789
146,116,156027,5,0,0:0:0:0:
16,204,156194,1,0,0:0:0:0:
187,328,156360,1,0,0:0:0:0:
187,328,156443,1,0,0:0:0:0:
187,328,156527,6,0,L|79:321,1,108.500000827789
384,371,156860,2,0,L|276:378,1,108.500000827789
452,298,157193,1,0,0:0:0:0:
477,191,157360,1,0,0:0:0:0:
409,90,157527,1,0,0:0:0:0:
401,48,157610,1,0,0:0:0:0:
426,18,157693,6,0,P|442:71|307:111,1,217.000001655579
170,29,158193,2,0,P|112:10|60:8,1,108.500000827789
7,141,158527,1,0,0:0:0:0:
6,151,158610,1,0,0:0:0:0:
5,160,158693,1,0,0:0:0:0:
5,169,158777,1,0,0:0:0:0:
4,179,158860,1,0,0:0:0:0:
3,188,158943,1,0,0:0:0:0:
2,197,159027,1,0,0:0:0:0:
1,206,159110,1,0,0:0:0:0:
0,216,159193,5,0,0:0:0:0:
240,132,159360,1,0,0:0:0:0:
175,232,159693,5,0,0:0:0:0:
307,30,159860,1,0,0:0:0:0:
229,18,160193,5,0,0:0:0:0:
298,304,160360,1,0,0:0:0:0:
368,233,160693,5,0,0:0:0:0:
162,354,160860,1,0,0:0:0:0:
35,281,161193,6,0,L|92:288,1,47.2500001802444
298,304,161527,2,0,L|355:311,1,47.2500001802444
421,358,161693,6,0,P|389:266|454:185,1,203.000006195069
