osu file format v14

[General]
AudioFilename: audio.mp3
AudioLeadIn: 0
PreviewTime: 201855
Countdown: 0
SampleSet: Soft
StackLeniency: 0.7
Mode: 0
LetterboxInBreaks: 0
WidescreenStoryboard: 1

[Editor]
Bookmarks: 16522,17855,80522,83189,130355,130855,234022,234355
DistanceSpacing: 1.9
BeatDivisor: 8
GridSize: 8
TimelineZoom: 2.5

[Metadata]
Title:Haruoto*Veil
TitleUnicode:春音*ベール
Artist:Ceui
ArtistUnicode:Ceui
Creator:GodKei
Version:Koe
Source:春音アリス*グラム
Tags:Haruoto Alice*Gram Galgame Eroge Opening full version Bellicose door weapon xIced 小高光太郎 ラムシーニ visual novel japanese video game ​jpop pop j-pop NanaWind
BeatmapID:2235779
BeatmapSetID:1067923

[Difficulty]
HPDrainRate:6
CircleSize:3.8
OverallDifficulty:9
ApproachRate:9.3
SliderMultiplier:1.5
SliderTickRate:1

[Events]
//Background and Video events
0,0,"BG.jpg",0,0
//Break Periods
2,96722,106635
2,202055,211968
//Storyboard Layer 0 (Background)
//Storyboard Layer 1 (Fail)
//Storyboard Layer 2 (Pass)
//Storyboard Layer 3 (Foreground)
//Storyboard Layer 4 (Overlay)
//Storyboard Sound Samples

[TimingPoints]
-2144,333.333333333333,4,2,1,100,1,0
355,-153.846153846153,4,2,1,40,0,0
522,-153.846153846153,4,2,1,40,0,0
9855,-222.22222222222,4,2,1,40,0,0
12522,-125,4,2,1,60,0,0
16522,-153.846153846153,4,2,1,50,0,0
17855,-100,4,2,1,50,0,0
23188,-100,4,2,1,60,0,0
30855,-100,4,2,1,60,0,0
31105,-100,4,2,1,5,0,0
31188,-100,4,2,1,60,0,0
42106,-100,4,2,1,60,0,0
42189,-100,4,2,1,60,0,0
42772,-100,4,2,1,60,0,0
42855,-100,4,2,1,60,0,0
44522,-125,4,2,1,60,0,0
45939,-100,4,2,1,60,0,0
46022,-125,4,2,1,60,0,0
46272,-100,4,2,1,60,0,0
46355,-125,4,2,1,60,0,0
52439,-125,4,2,1,5,0,0
52520,-100,4,2,1,70,0,0
52522,-100,4,2,1,70,0,0
56522,-200,4,2,1,55,0,0
58855,-399.999999999997,4,2,1,55,0,0
59105,-399.999999999997,4,2,1,5,0,0
59189,-76.9230769230769,4,2,1,80,0,1
71105,-76.9230769230769,4,2,1,80,0,1
71189,-76.9230769230769,4,2,1,80,0,1
83189,-125,4,2,1,80,0,1
84522,-125,4,2,1,60,0,0
89939,-125,4,2,1,60,0,0
90022,-125,4,2,1,60,0,0
90605,-125,4,2,1,60,0,0
90689,-125,4,2,1,60,0,0
90855,-90.9090909090909,4,2,1,65,0,0
91189,-90.9090909090909,4,2,1,60,0,0
96522,-153.846153846153,4,2,1,50,0,0
107105,-153.846153846153,4,2,1,60,0,0
107189,-125,4,2,1,60,0,0
109772,-125,4,2,1,5,0,0
109855,-125,4,2,1,60,0,0
117855,-100,4,2,1,60,0,0
125772,-100,4,2,1,5,0,0
125855,-100,4,2,1,70,0,0
129855,-100,4,2,1,70,0,0
132189,-399.999999999997,4,2,1,70,0,0
132439,-105.263157894737,4,2,1,5,0,0
132522,-76.9230769230769,4,2,1,80,0,1
146772,-76.9230769230769,4,2,1,80,0,1
146855,-76.9230769230769,4,2,1,80,0,1
158439,-76.9230769230769,4,2,1,5,0,1
158522,-76.9230769230769,4,2,1,80,0,1
159189,-90.9090909090909,4,2,1,70,0,0
161689,-83.3333333333333,4,2,1,70,0,0
164439,-83.3333333333333,4,2,1,5,0,0
164522,-83.3333333333333,4,2,1,70,0,0
169772,-83.3333333333333,4,2,1,5,0,0
169855,-83.3333333333333,4,2,1,70,0,0
176605,-83.3333333333333,4,2,1,5,0,0
176689,-83.3333333333333,4,2,1,70,0,0
177855,-100,4,2,1,60,0,0
184105,-100,4,2,1,5,0,0
184189,-100,4,2,1,60,0,0
185772,-100,4,2,1,5,0,0
185855,-100,4,2,1,60,0,0
196522,-133.333333333333,4,2,1,50,0,0
199189,-222.222222222221,4,2,1,40,0,0
212522,-133.333333333333,4,2,1,55,0,0
216189,-100,4,2,1,55,0,0
217855,-100,4,2,1,70,0,0
219855,-100,4,2,1,80,0,0
220855,-100,4,2,1,80,0,1
221272,-100,4,2,1,5,0,0
221355,-100,4,2,1,80,0,0
221522,-66.6666666666667,4,2,1,60,0,0
221772,-100,4,2,1,5,0,0
221855,-83.3333333333333,4,2,1,60,0,0
222105,-83.3333333333333,4,2,1,5,0,0
222189,-66.6666666666667,4,2,1,60,0,0
222272,-66.6666666666667,4,2,1,5,0,0
222355,-66.6666666666667,4,2,1,60,0,0
222605,-66.6666666666667,4,2,1,5,0,0
222689,-66.6666666666667,4,2,1,60,0,0
222939,-66.6666666666667,4,2,1,5,0,0
223022,-58.8235294117647,4,2,1,80,0,1
223522,-76.9230769230769,4,2,1,80,0,1
232439,-76.9230769230769,4,2,1,5,0,1
232522,-66.6666666666667,4,2,1,80,0,1
232855,-76.9230769230769,4,2,1,80,0,1
244522,-125,4,2,1,80,0,1
245855,-125,4,2,1,70,0,0
247189,-100,4,2,1,60,0,0
259189,-100,4,2,1,30,0,0

[Colours]
Combo1 : 221,238,17
Combo2 : 255,92,15
Combo3 : 47,208,67
Combo4 : 255,0,0

[HitObjects]
123,87,355,5,0,0:0:0:0:
123,87,439,1,0,0:0:0:0:
123,87,522,6,0,P|104:127|104:140,1,48.7499977684022,2|0,0:0|0:0,0:0:0:0:
67,227,855,1,2,0:0:0:0:
67,227,1022,2,0,P|125:237|152:275,1,97.4999955368044,2|0,0:0|0:0,0:0:0:0:
97,347,1522,1,2,0:0:0:0:
97,347,1855,6,0,L|76:300,2,48.7499977684022,2|0|0,0:0|0:0|0:0,0:0:0:0:
209,311,2355,2,0,P|253:306|316:336,1,97.4999955368044,2|0,0:0|0:0,0:0:0:0:
387,349,2855,1,2,0:0:0:0:
415,262,3022,1,2,0:0:0:0:
332,210,3189,6,0,P|301:213|272:226,1,48.7499977684022,2|0,0:0|0:0,0:0:0:0:
195,241,3522,1,0,0:0:0:0:
224,152,3689,1,2,0:0:0:0:
224,152,4189,2,0,P|249:146|288:148,1,48.7499977684022,2|2,0:0|0:0,0:0:0:0:
364,143,4522,5,2,0:0:0:0:
419,68,4689,1,0,0:0:0:0:
348,6,4855,1,0,0:0:0:0:
348,6,5022,2,0,P|308:16|279:70,1,97.4999955368044,2|2,0:0|0:0,0:0:0:0:
208,130,5522,1,2,0:0:0:0:
208,130,5689,1,2,0:0:0:0:
115,133,5855,6,0,P|127:86|162:53,1,97.4999955368044,2|2,0:0|0:0,0:0:0:0:
158,316,6522,2,0,P|135:311|109:309,2,48.7499977684022,0|2|2,0:0|0:0|0:0,0:0:0:0:
235,367,7022,1,2,0:0:0:0:
235,367,7189,6,0,L|235:253,1,97.4999955368044,2|0,0:0|0:0,0:0:0:0:
346,221,7689,2,0,B|341:325,1,97.4999955368044,2|0,0:0|0:0,0:0:0:0:
476,227,8189,1,2,0:0:0:0:
476,227,8522,6,0,B|480:130,1,97.4999955368044,2|0,0:0|0:0,0:0:0:0:
374,95,9022,1,2,0:0:0:0:
305,36,9189,1,2,0:0:0:0:
228,116,9355,1,2,0:0:0:0:
201,104,9522,1,2,0:0:0:0:
189,78,9689,1,2,0:0:0:0:
189,78,10022,6,0,L|149:79,1,33.7499989700318,2|2,0:0|0:0,0:0:0:0:
97,155,10355,2,0,L|56:155,1,33.7499989700318,2|2,0:0|0:0,0:0:0:0:
12,71,10689,1,2,0:0:0:0:
256,192,10855,12,0,12355,0:0:0:0:
387,53,12522,6,0,P|363:101|405:169,1,120,6|2,1:2|0:0,0:0:0:0:
319,239,13022,2,0,L|180:213,1,120,2|2,0:0|0:0,0:0:0:0:
151,300,13522,1,2,0:0:0:0:
249,321,13689,2,0,L|321:334,1,60,2|0,0:0|0:0,0:0:0:0:
463,274,14022,6,0,P|400:306|413:367,1,120,2|0,0:0|0:0,0:0:0:0:
377,203,14522,2,0,L|375:124,2,60,2|2|2,0:0|0:0|3:2,0:0:0:0:
454,107,15022,1,2,0:0:0:0:
274,73,15189,6,0,P|233:73|176:153,1,120,6|0,1:2|0:0,0:0:0:0:
256,222,15689,2,0,L|256:137,2,60,2|0|2,0:0|0:0|0:0,0:0:0:0:
233,309,16189,1,2,0:0:0:0:
175,249,16355,1,2,0:0:0:0:
338,236,16522,6,0,P|303:298|232:309,1,146.249993305207,2|2,0:0|0:0,0:0:0:0:
444,302,17189,2,0,P|441:252|435:185,1,97.4999955368044,0|2,0:0|3:2,0:0:0:0:
369,32,17689,1,2,3:2:0:0:
369,32,17772,1,0,3:2:0:0:
369,32,17855,6,0,L|369:120,1,75,6|2,1:2|3:2,0:0:0:0:
288,208,18189,1,2,1:2:0:0:
224,47,18355,2,0,L|207:145,1,75,2|0,0:0|1:2,0:0:0:0:
136,234,18689,1,2,3:2:0:0:
213,350,18855,1,0,1:2:0:0:
338,299,19022,1,0,1:2:0:0:
338,299,19105,1,0,1:2:0:0:
338,299,19189,6,0,P|387:296|416:280,1,75,2|0,1:2|3:2,0:0:0:0:
479,158,19522,1,0,1:2:0:0:
328,53,19689,1,0,1:2:0:0:
398,213,19855,1,0,1:2:0:0:
447,59,20022,1,0,1:2:0:0:
467,58,20105,1,0,1:2:0:0:
488,57,20188,1,0,1:2:0:0:
310,157,20355,1,0,1:2:0:0:
165,48,20522,5,2,1:2:0:0:
192,211,20689,1,0,1:2:0:0:
328,53,20855,1,2,1:2:0:0:
128,135,21022,1,0,1:2:0:0:
329,239,21189,1,2,1:2:0:0:
247,38,21355,1,0,1:2:0:0:
166,315,21522,1,2,1:2:0:0:
405,127,21689,1,2,1:2:0:0:
256,192,21855,12,2,23022,0:0:0:0:
387,203,23189,6,0,P|437:183|479:193,1,75,6|0,3:1|0:0,0:0:0:0:
315,250,23522,2,0,B|286:192|322:146|322:146|312:91,1,150,2|2,3:2|3:2,0:0:0:0:
247,20,24022,1,2,0:0:0:0:
137,37,24189,1,2,3:2:0:0:
92,152,24355,2,0,P|126:137|179:227,1,150,2|2,0:0|0:0,0:0:0:0:
79,262,24855,1,2,3:2:0:0:
154,344,25022,2,0,P|214:297|300:297,1,150,2|2,0:0|0:0,0:0:0:0:
398,358,25522,1,2,3:2:0:0:
466,260,25689,1,2,0:0:0:0:
292,142,25855,6,0,L|284:305,1,150,0|2,3:2|3:2,0:0:0:0:
352,81,26522,2,0,P|307:60|277:58,1,75,2|0,3:2|0:0,0:0:0:0:
209,129,26855,1,2,3:2:0:0:
132,56,27022,2,0,P|176:28|217:20,1,75,2|0,0:0|3:2,0:0:0:0:
63,134,27355,1,2,0:0:0:0:
181,210,27522,1,2,3:2:0:0:
86,357,27689,2,0,L|102:181,1,150,2|0,0:0|0:0,0:0:0:0:
209,129,28189,1,2,3:2:0:0:
439,258,28522,5,2,3:2:0:0:
337,213,28689,2,0,L|324:304,1,75,2|0,0:0|3:2,0:0:0:0:
468,104,29022,2,0,L|476:178,1,75,2|0,0:0|3:2,0:0:0:0:
314,24,29355,2,0,L|408:24,1,75,2|0,0:0|3:2,0:0:0:0:
373,135,29689,1,2,0:0:0:0:
220,49,29855,6,0,L|224:140,1,75,0|2,3:2|0:0,0:0:0:0:
130,138,30189,1,2,3:2:0:0:
133,249,30355,2,0,P|200:229|244:295,1,150,2|0,0:0|0:0,0:0:0:0:
70,202,30855,2,0,P|56:246|66:298,1,75,2|0,3:2|0:0,0:0:0:0:
192,345,31189,6,0,P|248:364|320:305,1,150,2|0,3:2|3:2,0:0:0:0:
243,284,31689,1,2,0:0:0:0:
248,135,31855,2,0,P|245:201|244:296,1,150,2|0,3:2|3:2,0:0:0:0:
350,140,32355,1,2,0:0:0:0:
209,28,32522,5,2,3:2:0:0:
133,122,32689,1,2,0:0:0:0:
248,135,32855,1,0,3:2:0:0:
69,27,33022,1,2,1:2:0:0:
69,27,33355,2,0,L|60:71,2,37.5,0|0|0,1:2|1:2|1:2,0:0:0:0:
92,207,33689,1,4,0:3:0:0:
92,207,33772,1,4,0:3:0:0:
92,207,33855,6,0,P|134:211|186:231,1,75,6|0,3:2|0:0,0:0:0:0:
257,333,34189,2,0,P|194:306|113:346,1,150,2|2,1:2|3:2,0:0:0:0:
297,244,34689,1,2,1:2:0:0:
334,363,34855,1,2,3:2:0:0:
217,173,35022,2,0,B|230:133|230:133|184:98|220:27,1,150,6|2,1:2|3:2,0:0:0:0:
124,153,35522,1,2,1:2:0:0:
363,125,35689,2,0,P|421:174|399:267,1,150,2|2,0:0|1:2,0:0:0:0:
398,265,36105,1,0,1:2:0:0:
398,265,36189,2,0,L|354:273,1,37.5,10|8,0:3|0:3,0:0:0:0:
274,321,36356,2,0,L|238:311,1,37.5,6|4,0:3|0:3,0:0:0:0:
216,203,36522,6,0,P|253:197|290:205,1,75,6|0,3:2|0:0,0:0:0:0:
193,66,36855,2,0,P|156:60|119:68,1,75,2|0,1:2|0:0,0:0:0:0:
330,132,37189,1,2,3:2:0:0:
133,208,37355,2,0,P|140:172|158:139,1,75,2|0,3:2|1:2,0:0:0:0:
410,26,37689,6,0,B|358:41|358:41|325:151,1,150,6|0,3:2|3:2,0:0:0:0:
500,154,38189,2,0,P|420:125|430:184,1,150,2|0,1:2|3:2,0:0:0:0:
483,275,38689,1,2,3:2:0:0:
419,368,38855,1,2,1:2:0:0:
419,368,38939,1,0,3:3:0:0:
419,368,39022,1,2,3:2:0:0:
270,229,39189,6,0,L|195:228,1,75,6|2,3:2|0:0,0:0:0:0:
235,367,39522,1,2,1:2:0:0:
128,288,39689,2,0,P|101:206|162:151,1,150,2|2,0:0|3:2,0:0:0:0:
270,229,40189,1,2,1:2:0:0:
371,142,40355,6,0,B|325:141|325:141|265:239,1,150,6|2,3:2|3:2,0:0:0:0:
397,245,40855,1,2,1:2:0:0:
454,134,41022,2,0,P|428:74|342:59,1,150,2|0,0:0|1:2,0:0:0:0:
306,62,41439,1,0,1:2:0:0:
306,62,41522,1,2,1:2:0:0:
211,215,41689,1,2,1:2:0:0:
211,215,41772,1,0,1:2:0:0:
211,215,41855,5,6,0:3:0:0:
211,215,42189,2,0,B|208:120,1,75,6|4,0:3|1:2,0:0:0:0:
36,75,42522,1,6,0:3:0:0:
36,75,42855,2,0,P|113:62|196:31,1,150,6|0,3:2|0:0,0:0:0:0:
125,233,43355,2,0,L|134:130,2,75,0|0|0,3:2|3:2|0:0,0:0:0:0:
289,358,43855,2,0,P|228:321|146:339,1,150,10|10,0:3|0:3,0:0:0:0:
358,278,44355,1,6,0:3:0:0:
358,278,44439,1,4,0:3:0:0:
358,278,44522,6,0,L|359:142,1,120,6|2,3:2|3:2,0:0:0:0:
337,79,45022,2,0,P|383:75|438:132,1,120,2|2,0:0|3:2,0:0:0:0:
435,121,45689,2,0,L|435:203,1,60,2|0,3:2|0:0,0:0:0:0:
262,154,46022,2,0,L|260:94,1,60,2|0,3:2|0:0,0:0:0:0:
201,38,46355,1,2,3:2:0:0:
201,38,46522,2,0,P|243:14|315:32,1,120,0|0,1:2|0:0,0:0:0:0:
374,273,47189,6,0,P|370:227|358:132,2,120,2|2|2,3:2|3:2|1:2,0:0:0:0:
374,273,48189,1,2,0:0:0:0:
249,196,48355,6,0,P|217:225|225:309,1,120,2|2,3:2|1:2,0:0:0:0:
178,384,48855,1,10,0:3:0:0:
106,256,49022,1,8,0:3:0:0:
61,380,49189,5,2,3:2:0:0:
216,297,49355,1,0,0:0:0:0:
12,246,49522,1,6,0:3:0:0:
153,167,49689,1,6,0:3:0:0:
293,384,49855,6,0,L|295:243,1,120,6|2,3:2|3:2,0:0:0:0:
438,206,50355,2,0,L|436:325,1,120,2|2,0:0|0:0,0:0:0:0:
512,262,50855,1,2,3:2:0:0:
358,216,51022,1,2,0:0:0:0:
413,126,51189,6,0,P|366:157|372:240,1,120,0|0,1:2|3:2,0:0:0:0:
258,325,51689,1,2,0:0:0:0:
202,173,51855,1,2,3:2:0:0:
344,294,52022,1,2,0:0:0:0:
144,234,52189,2,0,P|117:192|135:131,1,90,2|0,3:2|0:0,0:0:0:0:
180,94,52522,5,6,1:2:0:0:
320,176,52689,1,0,1:2:0:0:
235,248,52855,1,0,1:2:0:0:
292,73,53022,1,0,1:2:0:0:
393,269,53189,5,0,1:2:0:0:
202,173,53355,1,0,1:2:0:0:
429,114,53522,1,0,1:2:0:0:
298,299,53689,1,2,1:2:0:0:
125,116,53855,5,2,1:2:0:0:
122,355,54022,1,0,1:2:0:0:
286,182,54189,1,0,1:2:0:0:
19,183,54355,1,0,1:2:0:0:
221,57,54522,5,0,1:2:0:0:
164,277,54689,1,0,1:2:0:0:
372,105,54855,1,0,1:2:0:0:
108,203,55022,1,0,1:2:0:0:
393,269,55189,6,0,L|476:260,1,75,6|0,3:2|1:2,0:0:0:0:
512,229,55439,1,0,1:2:0:0:
512,229,55522,1,2,3:2:0:0:
410,110,55689,1,0,1:2:0:0:
372,105,55772,1,0,1:2:0:0:
335,100,55855,1,2,3:2:0:0:
164,277,56022,1,0,1:2:0:0:
163,252,56105,1,0,1:2:0:0:
163,227,56188,1,2,1:2:0:0:
163,202,56272,1,0,1:2:0:0:
162,177,56355,1,0,1:2:0:0:
162,152,56438,1,0,1:2:0:0:
161,128,56522,6,0,P|225:123|254:160,2,112.5,6|2|2,0:0|0:0|0:0,0:0:0:0:
256,192,57689,12,0,58689,0:0:0:0:
369,212,58855,6,0,L|336:213,1,28.125,2|0,0:0|0:0,0:0:0:0:
365,115,59189,6,0,P|420:128|451:259,2,194.999991073609,14|0|0,3:1|1:2|3:2,0:0:0:0:
185,98,60022,1,0,0:0:0:0:
327,242,60189,2,0,L|216:246,1,97.4999955368044,2|0,1:2|3:2,0:0:0:0:
206,273,60439,1,0,0:0:0:0:
206,273,60522,6,0,P|109:247|54:319,1,194.999991073609,2|2,0:0|1:2,0:0:0:0:
281,375,61022,2,0,L|284:323,1,48.7499977684022,2|0,3:2|1:2,0:0:0:0:
327,242,61189,1,0,3:2:0:0:
185,98,61355,2,0,L|171:222,1,97.4999955368044,2|0,3:2|1:2,0:0:0:0:
327,36,61689,1,2,0:0:0:0:
67,215,61855,6,0,P|89:126|100:11,1,194.999991073609,2|2,3:1|1:2,0:0:0:0:
118,287,62355,1,0,0:0:0:0:
282,110,62522,2,0,L|178:98,1,97.4999955368044,2|0,3:2|3:2,0:0:0:0:
414,216,62855,1,2,1:2:0:0:
361,29,63022,1,2,3:2:0:0:
212,191,63189,6,0,P|211:294|301:320,1,194.999991073609,2|0,0:1|1:2,0:0:0:0:
414,216,63689,1,0,1:2:0:0:
414,216,63772,1,0,1:2:0:0:
414,216,63855,1,2,3:1:0:0:
212,191,64022,1,0,3:2:0:0:
341,374,64189,1,0,1:2:0:0:
407,135,64355,1,0,1:2:0:0:
191,272,64522,6,0,P|114:258|58:351,1,194.999991073609,6|2,3:1|1:2,0:0:0:0:
286,223,65022,1,2,0:0:0:0:
107,148,65189,1,0,3:2:0:0:
142,338,65355,1,0,3:2:0:0:
286,223,65522,6,0,B|283:28,1,194.999991073609,2|0,1:2|0:0,0:0:0:0:
390,152,66022,1,0,3:2:0:0:
223,271,66189,2,0,P|262:300|315:300,1,97.4999955368044,2|0,1:2|3:2,0:0:0:0:
344,306,66439,1,0,1:2:0:0:
344,306,66522,1,2,3:2:0:0:
198,148,66689,1,0,3:2:0:0:
84,253,66855,2,0,P|122:285|133:338,1,97.4999955368044,2|0,1:2|3:2,0:0:0:0:
37,327,67105,1,0,1:2:0:0:
37,327,67189,6,0,P|3:291|62:175,1,194.999991073609,6|0,1:1|3:2,0:0:0:0:
250,15,67689,2,0,B|247:85|247:85|276:124|276:124|283:210,1,194.999991073609,6|0,1:1|3:2,0:0:0:0:
260,356,68189,1,6,1:1:0:0:
406,139,68355,1,8,0:3:0:0:
193,160,68522,1,0,1:2:0:0:
260,356,68689,6,0,L|264:286,1,48.7499977684022,0|0,3:2|3:2,0:0:0:0:
455,215,68855,2,0,L|464:316,1,97.4999955368044,2|0,1:1|1:2,0:0:0:0:
398,353,69105,1,0,1:2:0:0:
398,353,69189,2,0,L|339:334,1,48.7499977684022,2|0,1:2|1:2,0:0:0:0:
299,227,69355,2,0,L|358:208,1,48.7499977684022,2|0,1:2|1:2,0:0:0:0:
250,90,69522,1,2,1:2:0:0:
213,86,69605,1,0,1:2:0:0:
179,99,69688,1,2,1:2:0:0:
154,125,69771,1,0,1:2:0:0:
143,160,69855,6,0,L|15:162,1,97.4999955368044,6|0,3:1|0:0,0:0:0:0:
156,339,70189,2,0,L|372:337,1,194.999991073609,0|0,1:2|3:2,0:0:0:0:
350,337,70689,1,0,0:0:0:0:
332,185,70855,2,0,P|416:152|470:200,1,146.249993305207,2|0,1:2|0:0,0:0:0:0:
493,252,71189,6,0,P|499:290|477:348,1,97.4999955368044,6|0,3:2|0:0,0:0:0:0:
333,374,71522,1,2,1:2:0:0:
261,234,71689,2,0,P|247:178|268:127,1,97.4999955368044,2|0,0:0|3:2,0:0:0:0:
410,286,72022,1,2,0:0:0:0:
233,379,72189,1,0,1:2:0:0:
333,187,72355,1,2,0:0:0:0:
126,379,72522,6,0,L|113:184,1,194.999991073609,0|2,3:2|1:2,0:0:0:0:
337,107,73022,1,0,3:2:0:0:
337,107,73105,1,0,3:2:0:0:
337,107,73189,1,2,3:2:0:0:
109,79,73355,1,0,3:2:0:0:
236,241,73522,1,2,1:2:0:0:
345,18,73689,6,0,P|281:28|254:143,1,194.999991073609,6|0,3:1|3:2,0:0:0:0:
270,315,74189,1,0,1:2:0:0:
383,266,74355,2,0,L|367:167,1,97.4999955368044,4|2,1:2|0:0,0:0:0:0:
159,348,74689,5,8,0:3:0:0:
126,323,74772,1,8,0:3:0:0:
106,287,74855,1,0,1:2:0:0:
103,246,74938,1,0,1:2:0:0:
116,207,75022,1,2,1:2:0:0:
144,177,75105,1,0,1:2:0:0:
182,161,75189,6,0,P|224:165|274:205,1,97.4999955368044,6|0,1:1|3:2,0:0:0:0:
425,129,75522,1,0,1:2:0:0:
497,323,75689,2,0,P|441:338|387:317,1,97.4999955368044,2|0,3:2|1:2,0:0:0:0:
327,84,76022,1,2,3:2:0:0:
480,226,76189,1,2,1:2:0:0:
272,299,76355,1,2,3:2:0:0:
272,299,76439,1,0,3:2:0:0:
272,299,76522,5,2,1:1:0:0:
482,109,76689,1,2,3:2:0:0:
398,323,76855,1,2,1:2:0:0:
275,152,77022,2,0,P|247:96|264:38,1,97.4999955368044,2|0,3:2|1:2,0:0:0:0:
376,234,77355,1,2,3:2:0:0:
399,52,77522,1,2,1:2:0:0:
179,241,77689,1,2,3:2:0:0:
179,241,77772,1,0,3:2:0:0:
179,241,77855,5,2,1:1:0:0:
395,159,78022,1,2,3:2:0:0:
113,81,78189,1,2,1:2:0:0:
266,288,78355,1,2,3:2:0:0:
276,16,78522,1,2,1:2:0:0:
65,202,78689,2,0,P|49:242|61:307,1,97.4999955368044,2|0,3:2|1:2,0:0:0:0:
248,155,79022,1,2,3:2:0:0:
248,155,79105,1,0,3:2:0:0:
248,155,79189,5,2,1:1:0:0:
25,91,79355,1,2,3:2:0:0:
168,327,79522,1,2,1:2:0:0:
333,157,79689,1,2,3:2:0:0:
65,202,79855,1,0,1:2:0:0:
382,361,80022,2,0,L|381:251,1,97.4999955368044,2|0,3:2|1:2,0:0:0:0:
292,65,80355,1,2,3:2:0:0:
292,65,80439,1,0,3:2:0:0:
292,65,80522,6,0,P|368:65|431:158,1,194.999991073609,4|0,1:2|3:2,0:0:0:0:
260,256,81022,2,0,P|208:242|130:255,1,97.4999955368044,0|0,3:2|0:0,0:0:0:0:
46,183,81355,1,2,3:2:0:0:
185,104,81522,1,2,1:2:0:0:
44,0,81689,2,0,L|46:103,1,97.4999955368044,2|0,3:2|1:2,0:0:0:0:
324,183,82022,1,2,1:2:0:0:
185,104,82189,1,2,0:0:0:0:
326,0,82356,2,0,L|324:103,1,97.4999955368044,10|0,0:3|0:0,0:0:0:0:
185,262,82689,1,10,0:3:0:0:
185,104,82855,1,6,0:3:0:0:
324,183,83022,1,6,0:3:0:0:
83,298,83189,6,0,L|85:178,1,120,6|0,1:1|0:0,0:0:0:0:
185,104,83689,2,0,L|175:59,2,30,8|8|4,0:3|0:3|0:3,0:0:0:0:
265,197,84355,1,10,0:3:0:0:
265,197,84439,1,8,0:3:0:0:
265,197,84522,6,0,L|339:185,1,60,6|8,0:3|0:3,0:0:0:0:
399,123,85022,1,2,0:0:0:0:
399,123,85189,2,0,P|426:173|399:251,1,120,0|6,1:2|0:3,0:0:0:0:
257,275,85689,1,6,0:3:0:0:
257,275,85855,6,0,P|315:268|342:335,1,120,6|2,1:2|0:0,0:0:0:0:
255,364,86355,2,0,L|174:359,2,60,2|0|2,0:0|0:0|3:2,0:0:0:0:
442,346,86855,1,2,0:0:0:0:
442,346,87022,6,0,L|452:218,2,120,2|2|2,3:2|3:2|0:0,0:0:0:0:
385,168,87855,2,0,P|417:144|462:149,1,60,2|0,3:2|0:0,0:0:0:0:
461,56,88189,1,6,0:3:0:0:
357,68,88355,1,6,0:3:0:0:
357,68,88439,1,2,0:0:0:0:
357,68,88522,6,0,P|308:73|269:133,1,120,6|0,1:2|0:0,0:0:0:0:
150,45,89022,2,0,P|179:71|194:116,2,60,2|0|2,0:0|0:0|3:2,0:0:0:0:
80,133,89522,1,2,0:0:0:0:
80,133,89689,2,0,L|68:257,1,120,6|2,3:2|1:2,0:0:0:0:
86,354,90189,1,2,1:2:0:0:
259,320,90355,2,0,L|247:200,1,120,2|2,1:2|1:2,0:0:0:0:
420,352,90855,1,2,1:2:0:0:
419,314,90939,1,0,1:2:0:0:
418,277,91022,1,2,1:2:0:0:
417,239,91105,1,0,1:2:0:0:
420,206,91189,6,0,L|420:108,1,82.5000025177003,6|0,3:2|1:2,0:0:0:0:
369,12,91522,1,0,1:2:0:0:
269,127,91689,2,0,P|317:91|357:91,1,82.5000025177003,0|0,1:2|1:2,0:0:0:0:
193,51,92022,1,0,1:2:0:0:
98,160,92189,1,0,1:2:0:0:
223,245,92355,1,0,1:2:0:0:
223,245,92439,1,0,1:2:0:0:
223,245,92522,6,0,P|283:211|268:126,1,165.000005035401,0|0,3:2|1:2,0:0:0:0:
222,369,93022,1,0,1:2:0:0:
333,287,93189,1,0,1:2:0:0:
473,349,93355,1,0,1:2:0:0:
469,317,93438,1,0,1:2:0:0:
466,286,93522,2,0,L|463:231,1,41.2500012588501,0|0,1:2|1:2,0:0:0:0:
334,153,93689,2,0,L|333:194,1,41.2500012588501,0|0,1:2|1:2,0:0:0:0:
426,141,93855,5,0,3:2:0:0:
238,105,94022,1,0,1:2:0:0:
332,36,94189,1,0,1:2:0:0:
242,192,94355,1,0,1:2:0:0:
137,66,94522,1,0,1:2:0:0:
342,122,94689,1,0,1:2:0:0:
139,158,94855,1,0,1:2:0:0:
229,19,95022,1,6,1:2:0:0:
256,192,95189,12,6,96522,0:0:0:0:
307,305,107189,6,0,P|287:241|236:214,2,120,6|0|0,3:2|3:2|3:2,0:0:0:0:
477,239,108022,2,0,L|473:163,1,60,2|2,0:0|3:2,0:0:0:0:
389,184,108355,1,2,0:0:0:0:
389,184,108522,6,0,P|409:120|460:93,2,120,0|0|2,3:2|3:2|3:2,0:0:0:0:
313,64,109355,1,2,0:0:0:0:
313,64,109522,2,0,P|265:81|240:126,1,90,2|0,3:2|0:0,0:0:0:0:
243,111,109855,6,0,L|247:239,1,120,6|0,1:2|3:2,0:0:0:0:
88,208,110355,2,0,L|69:144,1,60,2|0,0:0|3:2,0:0:0:0:
166,246,110689,2,0,P|126:291|58:291,1,120,2|0,0:0|0:0,0:0:0:0:
263,319,111189,6,0,L|337:311,1,60,2|0,3:2|0:0,0:0:0:0:
420,296,111522,1,2,3:2:0:0:
383,200,111689,2,0,L|241:216,1,120,2|0,0:0|0:0,0:0:0:0:
414,122,112189,1,2,3:2:0:0:
414,122,112522,6,0,P|454:151|462:225,1,120,6|2,1:2|3:2,0:0:0:0:
263,213,113022,2,0,P|268:154|332:113,1,120,2|0,0:0|0:0,0:0:0:0:
363,246,113522,1,2,3:2:0:0:
255,311,113689,6,0,L|131:316,1,120,2|2,0:0|0:0,0:0:0:0:
40,298,114189,1,2,3:2:0:0:
81,213,114355,2,0,L|202:216,1,120,2|0,0:0|0:0,0:0:0:0:
70,139,114855,2,0,P|32:155|13:187,1,60,2|2,3:2|0:0,0:0:0:0:
211,141,115189,5,6,3:2:0:0:
211,141,115522,2,0,P|249:157|274:196,1,60,2|2,0:2|0:0,0:0:0:0:
253,292,115855,1,2,1:2:0:0:
253,292,116189,2,0,P|301:340|361:325,1,120,6|0,3:2|0:0,0:0:0:0:
462,216,116689,5,0,3:2:0:0:
404,142,116855,1,0,1:2:0:0:
326,185,117022,1,0,1:2:0:0:
499,139,117189,5,0,1:2:0:0:
321,97,117355,1,0,1:2:0:0:
383,266,117522,1,0,1:2:0:0:
192,65,117689,1,0,1:2:0:0:
192,65,117772,1,0,1:2:0:0:
192,65,117855,6,0,L|193:147,1,75,6|0,3:2|0:0,0:0:0:0:
102,287,118189,1,2,3:2:0:0:
326,185,118689,2,0,L|407:186,1,75,2|0,3:2|0:0,0:0:0:0:
363,350,119022,2,0,L|262:343,1,75,6|0,3:2|0:0,0:0:0:0:
94,212,119355,6,0,L|102:287,1,75,2|0,3:2|1:2,0:0:0:0:
231,157,119689,1,2,3:2:0:0:
51,126,119855,1,0,1:2:0:0:
210,262,120022,1,0,1:2:0:0:
167,82,120189,1,0,1:2:0:0:
167,82,120272,1,0,1:2:0:0:
167,82,120355,2,0,L|114:86,1,37.5,0|0,1:2|0:0,0:0:0:0:
287,214,120522,5,6,3:2:0:0:
49,267,120855,1,2,1:2:0:0:
167,82,121355,5,0,1:2:0:0:
206,306,121689,6,0,L|358:330,1,150,2|2,3:2|1:2,0:0:0:0:
168,156,122189,1,2,1:2:0:0:
205,384,122355,1,0,3:2:0:0:
324,188,122522,1,10,0:3:0:0:
359,183,122605,1,8,0:3:0:0:
394,178,122689,1,8,0:3:0:0:
271,62,122855,1,2,1:2:0:0:
405,266,123022,1,2,1:2:0:0:
405,266,123105,1,0,1:2:0:0:
405,266,123189,6,0,P|454:240|356:94,1,300,6|0,3:2|0:0,0:0:0:0:
240,159,124022,1,2,0:0:0:0:
271,62,124189,1,2,0:0:0:0:
187,6,124355,1,2,3:2:0:0:
42,102,124522,6,0,L|195:89,1,150,6|0,1:2|0:0,0:0:0:0:
176,193,125022,1,2,0:0:0:0:
247,238,125189,1,2,0:0:0:0:
107,250,125355,1,2,0:0:0:0:
187,383,125522,2,0,L|181:242,1,112.5,2|0,0:0|0:0,0:0:0:0:
176,193,125855,5,6,1:2:0:0:
383,126,126022,1,0,1:2:0:0:
196,85,126189,1,0,1:2:0:0:
320,268,126355,1,0,1:2:0:0:
339,31,126522,5,2,1:2:0:0:
248,157,126689,1,0,1:2:0:0:
459,211,126855,1,0,1:2:0:0:
254,33,127022,1,0,1:2:0:0:
320,268,127189,5,2,1:2:0:0:
154,76,127355,1,0,1:2:0:0:
418,97,127522,1,0,1:2:0:0:
162,247,127689,1,0,1:2:0:0:
345,41,127855,5,2,1:2:0:0:
394,310,128022,1,0,1:2:0:0:
154,76,128189,1,0,1:2:0:0:
158,331,128355,1,0,1:2:0:0:
418,203,128522,5,2,1:2:0:0:
154,76,128689,1,0,1:2:0:0:
118,81,128772,1,0,1:2:0:0:
83,86,128855,1,2,1:2:0:0:
238,202,129022,1,0,1:2:0:0:
273,207,129105,1,0,1:2:0:0:
308,212,129189,1,2,1:2:0:0:
158,331,129355,1,0,1:2:0:0:
123,336,129438,1,0,1:2:0:0:
88,341,129522,2,0,L|20:352,3,37.5,2|0|0|0,1:2|1:2|1:2|1:2,0:0:0:0:
158,248,129855,5,2,1:2:0:0:
194,253,129938,1,0,1:2:0:0:
224,276,130021,1,0,1:2:0:0:
239,309,130104,1,0,1:2:0:0:
237,346,130189,2,0,L|298:364,1,37.5,0|0,1:2|1:2,0:0:0:0:
438,301,130355,5,2,1:2:0:0:
438,263,130438,1,0,1:2:0:0:
438,226,130521,1,0,1:2:0:0:
438,188,130604,1,0,1:2:0:0:
438,151,130689,2,0,L|436:84,1,37.5,0|0,1:2|1:2,0:0:0:0:
346,31,130855,2,0,L|394:18,1,37.5,2|0,1:2|1:2,0:0:0:0:
291,127,131022,2,0,L|243:114,1,37.5,0|0,1:2|1:2,0:0:0:0:
320,251,131189,5,0,1:2:0:0:
233,36,131355,1,0,1:2:0:0:
174,308,131689,5,0,1:2:0:0:
265,45,131855,1,0,1:2:0:0:
117,212,132189,6,0,L|117:247,1,28.125,2|0,1:2|0:0,0:0:0:0:
37,182,132522,6,0,P|105:128|194:180,2,194.999991073609,14|0|0,3:1|1:2|3:2,0:0:0:0:
85,320,133355,1,0,0:0:0:0:
201,271,133522,2,0,P|245:250|312:256,1,97.4999955368044,2|0,1:2|3:2,0:0:0:0:
312,284,133772,1,0,0:0:0:0:
312,284,133855,6,0,B|401:226|419:323|500:256,1,194.999991073609,2|2,0:0|1:2,0:0:0:0:
319,179,134355,2,0,L|259:178,1,48.7499977684022,2|0,3:2|1:2,0:0:0:0:
205,124,134522,1,0,3:2:0:0:
459,109,134688,2,0,P|439:156|445:233,1,97.4999955368044,2|0,3:2|1:2,0:0:0:0:
315,34,135022,1,2,0:0:0:0:
120,147,135188,6,0,B|80:192|119:263|119:263|101:350,1,194.999991073609,2|2,3:1|1:2,0:0:0:0:
50,89,135688,1,0,0:0:0:0:
281,211,135855,2,0,L|177:199,1,97.4999955368044,2|0,3:2|3:2,0:0:0:0:
350,47,136188,1,2,1:2:0:0:
446,225,136355,1,2,3:2:0:0:
290,368,136522,6,0,P|249:333|285:210,1,194.999991073609,2|0,0:1|1:2,0:0:0:0:
416,132,137022,1,0,1:2:0:0:
416,132,137105,1,0,1:2:0:0:
416,132,137188,1,2,3:1:0:0:
184,138,137355,5,0,3:2:0:0:
405,237,137522,1,0,1:2:0:0:
306,23,137688,1,0,1:2:0:0:
43,253,137855,6,0,B|115:223|166:281|166:281|249:278,1,194.999991073609,6|2,3:1|1:2,0:0:0:0:
411,338,138355,1,2,0:0:0:0:
315,132,138522,1,0,3:2:0:0:
224,279,138689,1,2,3:2:0:0:
453,173,138855,1,0,1:2:0:0:
279,19,139022,6,0,P|173:26|80:38,1,194.999991073609,2|0,3:2|3:2,0:0:0:0:
10,197,139522,2,0,L|114:193,1,97.4999955368044,2|0,1:2|3:2,0:0:0:0:
144,191,139772,1,0,1:2:0:0:
144,191,139855,1,2,3:2:0:0:
283,317,140022,1,0,3:2:0:0:
108,305,140189,2,0,P|44:308|19:334,1,97.4999955368044,2|0,1:2|3:2,0:0:0:0:
87,384,140439,1,0,1:2:0:0:
87,384,140522,6,0,P|164:363|176:255,1,194.999991073609,6|2,1:1|3:2,0:0:0:0:
400,65,141022,2,0,B|361:100|361:100|411:165|364:251,1,194.999991073609,6|2,1:1|3:2,0:0:0:0:
474,101,141522,1,6,1:1:0:0:
287,174,141689,1,10,0:3:0:0:
423,307,141855,1,0,1:2:0:0:
273,369,142022,6,0,L|209:363,1,48.7499977684022,0|0,3:2|3:2,0:0:0:0:
57,189,142189,2,0,L|165:193,1,97.4999955368044,2|2,1:1|1:2,0:0:0:0:
202,272,142439,1,0,1:2:0:0:
202,272,142522,2,0,B|250:273,1,48.7499977684022,2|0,1:2|1:2,0:0:0:0:
363,171,142689,2,0,L|302:165,1,48.7499977684022,2|0,1:2|1:2,0:0:0:0:
202,75,142855,1,2,1:2:0:0:
238,75,142938,1,0,1:2:0:0:
275,76,143021,1,2,1:2:0:0:
311,77,143105,1,0,1:2:0:0:
348,78,143189,6,0,P|400:86|440:216,1,194.999991073609,6|0,3:1|1:2,0:0:0:0:
377,366,143689,2,0,P|366:264|363:171,1,194.999991073609,2|2,0:0|0:0,0:0:0:0:
272,18,144189,1,2,1:2:0:0:
139,101,144355,2,0,L|126:212,1,97.4999955368044,2|2,0:0|3:2,0:0:0:0:
260,261,144689,2,0,L|275:357,1,97.4999955368044,2|0,0:0|1:2,0:0:0:0:
125,299,145022,1,2,0:0:0:0:
298,173,145189,1,0,3:2:0:0:
139,101,145355,2,0,P|93:84|19:84,1,97.4999955368044,2|0,0:0|1:2,0:0:0:0:
125,299,145689,1,2,0:0:0:0:
376,24,145855,6,0,B|326:136|434:120|375:233,1,194.999991073609,6|2,3:2|1:2,0:0:0:0:
209,164,146355,1,0,3:2:0:0:
209,164,146439,1,0,3:2:0:0:
209,164,146522,1,0,3:2:0:0:
445,76,146689,1,0,3:2:0:0:
179,32,146855,6,0,P|124:25|109:158,1,194.999991073609,6|0,1:1|0:0,0:0:0:0:
185,249,147355,5,0,3:2:0:0:
84,136,147522,1,0,1:2:0:0:
0,238,147689,1,0,1:2:0:0:
155,322,147855,5,0,1:2:0:0:
175,299,147938,1,0,1:2:0:0:
200,282,148021,1,0,1:2:0:0:
229,272,148105,1,0,1:2:0:0:
259,268,148188,1,2,1:2:0:0:
289,272,148271,1,0,1:2:0:0:
318,283,148355,1,2,1:2:0:0:
343,300,148438,1,0,1:2:0:0:
363,323,148522,6,0,P|411:324|468:290,1,97.4999955368044,6|0,1:1|3:2,0:0:0:0:
482,280,148772,1,0,3:2:0:0:
482,280,148855,1,0,1:2:0:0:
375,117,149022,2,0,P|321:113|266:146,1,97.4999955368044,2|0,3:2|1:2,0:0:0:0:
172,309,149355,1,2,3:2:0:0:
152,77,149522,1,2,1:2:0:0:
374,241,149689,1,2,3:2:0:0:
401,29,149855,5,2,1:1:0:0:
180,156,150022,1,2,3:2:0:0:
180,156,150105,1,0,3:2:0:0:
180,156,150189,1,2,1:2:0:0:
374,241,150355,2,0,L|489:237,1,97.4999955368044,2|0,3:2|1:2,0:0:0:0:
317,47,150689,1,2,3:2:0:0:
234,264,150855,1,2,1:2:0:0:
498,357,151022,1,2,3:2:0:0:
498,357,151105,1,0,3:2:0:0:
498,357,151189,6,0,P|473:298|484:241,1,97.4999955368044,2|2,1:1|3:2,0:0:0:0:
512,79,151522,1,2,1:2:0:0:
317,47,151689,2,0,P|268:52|220:61,1,97.4999955368044,2|2,3:2|1:2,0:0:0:0:
126,250,152022,1,2,3:2:0:0:
370,344,152189,1,0,1:2:0:0:
359,127,152355,1,2,3:2:0:0:
359,127,152439,1,0,3:2:0:0:
359,127,152522,5,2,1:1:0:0:
126,250,152689,1,2,3:2:0:0:
396,212,152855,1,2,1:2:0:0:
146,94,153022,1,2,3:2:0:0:
285,360,153189,1,0,1:2:0:0:
396,212,153355,1,2,3:2:0:0:
437,210,153439,1,0,3:2:0:0:
478,208,153522,1,0,1:2:0:0:
359,66,153689,1,2,3:2:0:0:
317,64,153772,1,0,3:2:0:0:
275,62,153855,6,0,B|189:25|184:120|76:44,1,194.999991073609,6|0,1:2|3:2,0:0:0:0:
17,215,154355,2,0,P|74:205|125:227,1,97.4999955368044,0|0,3:2|0:0,0:0:0:0:
232,330,154689,1,2,3:2:0:0:
371,251,154856,1,2,1:2:0:0:
230,147,155023,2,0,L|232:250,1,97.4999955368044,2|0,3:2|1:2,0:0:0:0:
510,330,155356,1,2,1:2:0:0:
371,251,155523,1,2,0:0:0:0:
512,147,155690,2,0,L|510:250,1,97.4999955368044,10|0,0:3|0:0,0:0:0:0:
331,336,156022,1,10,0:3:0:0:
411,161,156189,1,6,0:3:0:0:
264,47,156355,1,6,0:3:0:0:
264,47,156439,1,2,0:0:0:0:
264,47,156522,6,0,P|186:51|142:176,1,194.999991073609,6|0,1:1|1:2,0:0:0:0:
26,312,157022,1,0,0:0:0:0:
181,343,157189,2,0,P|193:294|174:245,1,97.4999955368044,0|0,3:2|3:2,0:0:0:0:
133,145,157522,1,0,1:2:0:0:
388,351,157689,6,0,P|379:259|394:140,1,194.999991073609,6|0,3:2|3:2,0:0:0:0:
223,63,158189,2,0,P|168:69|135:155,1,146.249993305207,2|0,1:2|0:0,0:0:0:0:
206,191,158522,1,2,1:2:0:0:
235,170,158605,1,0,1:2:0:0:
269,156,158688,1,0,1:2:0:0:
305,151,158772,1,0,1:2:0:0:
342,155,158855,2,0,L|411:159,1,48.7499977684022,2|0,1:2|1:2,0:0:0:0:
483,77,159022,2,0,L|435:67,1,48.7499977684022,2|0,1:2|1:2,0:0:0:0:
378,312,159188,5,6,1:2:0:0:
292,54,159355,1,2,1:2:0:0:
279,79,159689,5,2,1:2:0:0:
215,315,159855,1,2,1:2:0:0:
223,290,160189,5,2,1:2:0:0:
149,58,160355,1,2,1:2:0:0:
150,86,160689,5,2,1:2:0:0:
86,318,160855,1,2,1:2:0:0:
102,289,161189,5,2,1:2:0:0:
278,201,161522,2,0,L|222:203,1,41.2500012588501,2|0,1:2|0:0,0:0:0:0:
0,146,161689,6,0,P|59:129|100:229,1,179.999994506836,6|0,3:2|3:2,0:0:0:0:
229,350,162189,2,0,L|327:345,1,89.9999972534181,2|0,1:2|0:0,0:0:0:0:
396,217,162522,1,0,3:2:0:0:
453,361,162689,1,0,0:0:0:0:
278,201,162855,2,0,L|178:194,1,89.9999972534181,0|2,1:2|0:0,0:0:0:0:
465,264,163189,6,0,P|480:187|390:132,1,179.999994506836,2|2,0:0|1:2,0:0:0:0:
279,22,163689,1,0,3:2:0:0:
279,22,163772,1,0,1:2:0:0:
279,22,163855,2,0,P|276:60|275:132,1,89.9999972534181,2|0,3:2|3:2,0:0:0:0:
355,292,164189,2,0,P|281:289|263:361,1,134.999995880127,2|0,1:2|0:0,0:0:0:0:
183,342,164522,6,0,P|110:337|71:355,1,89.9999972534181,2|0,3:2|0:0,0:0:0:0:
110,197,164855,1,0,1:2:0:0:
254,170,165022,2,0,P|312:158|349:167,1,89.9999972534181,2|0,0:0|3:2,0:0:0:0:
191,30,165355,1,2,3:2:0:0:
191,30,165439,1,2,0:0:0:0:
191,30,165522,2,0,P|133:18|80:123,1,179.999994506836,2|0,1:2|0:0,0:0:0:0:
152,291,166022,5,2,3:2:0:0:
254,99,166189,1,2,1:2:0:0:
40,215,166355,1,2,3:2:0:0:
40,215,166439,1,0,1:2:0:0:
40,215,166522,1,2,3:2:0:0:
274,274,166689,1,2,3:2:0:0:
150,93,166855,1,2,1:2:0:0:
156,325,167022,1,2,1:2:0:0:
156,325,167105,1,0,1:2:0:0:
156,325,167189,6,0,P|265:313|292:376,1,179.999994506836,6|2,3:2|1:2,0:0:0:0:
368,238,167689,1,0,0:0:0:0:
456,376,167855,2,0,L|459:259,1,89.9999972534181,0|2,3:2|3:2,0:0:0:0:
282,179,168189,1,0,1:2:0:0:
437,117,168355,1,2,3:2:0:0:
291,0,168522,6,0,L|282:186,1,179.999994506836,2|0,0:0|1:2,0:0:0:0:
149,276,169022,1,0,3:2:0:0:
149,276,169105,1,0,1:2:0:0:
149,276,169189,1,2,3:2:0:0:
171,107,169355,1,2,3:2:0:0:
375,340,169522,2,0,P|369:267|380:174,1,134.999995880127,0|0,1:2|0:0,0:0:0:0:
381,123,169855,6,0,P|428:146|448:178,1,89.9999972534181,0|0,3:2|0:0,0:0:0:0:
375,340,170189,1,0,1:2:0:0:
278,152,170355,1,2,0:0:0:0:
232,358,170522,2,0,P|191:340|165:304,1,89.9999972534181,0|2,3:2|3:2,0:0:0:0:
355,232,170855,1,2,1:2:0:0:
147,117,171022,6,0,L|50:137,1,89.9999972534181,6|2,3:2|0:0,0:0:0:0:
269,223,171355,1,0,1:2:0:0:
117,29,171522,1,0,1:2:0:0:
85,269,171689,1,0,1:2:0:0:
318,75,171855,1,2,1:2:0:0:
58,135,172022,1,0,1:2:0:0:
215,304,172189,1,0,1:2:0:0:
252,304,172272,1,0,1:2:0:0:
290,304,172355,1,0,1:2:0:0:
327,304,172439,1,0,1:2:0:0:
365,304,172522,6,0,P|408:302|452:264,1,89.9999972534181,6|0,1:2|3:2,0:0:0:0:
318,75,172855,2,0,P|275:77|231:115,1,89.9999972534181,0|0,1:2|3:2,0:0:0:0:
410,163,173189,1,2,1:2:0:0:
166,14,173355,1,0,3:2:0:0:
269,223,173522,2,0,L|359:220,1,89.9999972534181,0|0,1:2|3:2,0:0:0:0:
171,100,173855,5,2,1:2:0:0:
60,306,174022,1,0,3:2:0:0:
40,72,174189,5,0,1:2:0:0:
191,288,174355,1,0,3:2:0:0:
360,52,174522,5,2,1:2:0:0:
397,52,174605,1,0,1:2:0:0:
434,53,174689,1,0,3:2:0:0:
201,134,174855,1,0,1:2:0:0:
340,240,175022,1,0,1:2:0:0:
337,277,175105,1,0,1:2:0:0:
334,314,175189,5,6,1:2:0:0:
39,158,175355,1,6,1:2:0:0:
39,158,176022,6,0,L|43:40,1,89.9999972534181,6|0,3:2|0:0,0:0:0:0:
198,200,176355,2,0,B|192:355,1,134.999995880127,6|0,3:2|0:0,0:0:0:0:
260,378,176689,5,0,3:2:0:0:
343,291,176855,1,0,1:2:0:0:
429,373,177022,1,0,1:2:0:0:
295,199,177189,1,0,1:2:0:0:
344,384,177355,1,0,1:2:0:0:
471,226,177522,1,0,1:2:0:0:
468,188,177605,1,0,1:2:0:0:
465,151,177689,1,0,1:2:0:0:
463,113,177772,1,0,1:2:0:0:
459,77,177855,6,0,P|412:29|374:17,1,75,6|0,3:2|0:0,0:0:0:0:
240,111,178189,2,0,L|326:120,1,75,2|0,3:2|0:0,0:0:0:0:
257,27,178522,2,0,P|198:34|163:140,1,150,2|2,3:2|3:2,0:0:0:0:
195,181,179022,1,2,0:0:0:0:
32,271,179189,6,0,P|89:275|89:377,1,150,0|0,3:2|3:2,0:0:0:0:
293,329,179689,2,0,P|253:337|224:228,1,150,2|2,0:0|0:0,0:0:0:0:
85,156,180189,2,0,P|114:177|126:212,1,75,2|2,3:2|0:0,0:0:0:0:
273,191,180522,6,0,L|358:190,1,75,2|0,3:2|0:0,0:0:0:0:
230,108,180855,2,0,L|145:107,1,75,2|0,3:2|0:0,0:0:0:0:
233,14,181189,2,0,P|307:58|319:132,1,150,2|2,3:2|3:2,0:0:0:0:
396,169,181689,1,2,0:0:0:0:
349,252,181855,6,0,L|439:247,1,75,0|0,3:2|0:0,0:0:0:0:
288,326,182189,2,0,P|253:241|284:177,2,150,0|2|0,3:2|3:2|3:2,0:0:0:0:
288,326,183189,6,0,L|202:327,1,75,2|2,3:2|0:0,0:0:0:0:
84,231,183522,2,0,L|158:230,1,75,2|2,3:2|0:0,0:0:0:0:
278,232,183855,1,2,3:2:0:0:
278,232,184189,2,0,L|274:147,1,75,2|2,3:2|0:0,0:0:0:0:
159,58,184522,2,0,L|149:155,1,75,2|2,1:2|0:0,0:0:0:0:
158,229,184855,1,2,3:2:0:0:
262,75,185022,1,0,1:2:0:0:
262,75,185105,1,0,1:2:0:0:
262,75,185189,2,0,P|301:82|341:112,1,75,2|0,3:2|0:0,0:0:0:0:
358,309,185522,2,0,P|326:301|283:359,1,112.5,2|0,3:2|0:0,0:0:0:0:
263,370,185855,6,0,L|89:370,1,150,6|2,3:2|3:2,0:0:0:0:
8,328,186355,1,2,1:2:0:0:
89,203,186522,1,0,3:2:0:0:
155,287,186689,1,0,0:0:0:0:
6,222,186855,2,0,L|9:121,1,75,2|0,3:2|0:0,0:0:0:0:
171,53,187189,6,0,L|171:137,1,75,2|0,3:2|1:2,0:0:0:0:
205,165,187439,1,0,1:2:0:0:
205,165,187522,1,2,3:2:0:0:
311,58,187689,2,0,L|308:12,2,37.5,0|0|2,1:2|1:2|3:2,0:0:0:0:
436,116,188022,1,0,1:2:0:0:
436,134,188105,1,0,1:2:0:0:
436,153,188189,1,0,1:2:0:0:
437,172,188272,1,0,1:2:0:0:
437,190,188355,1,0,1:2:0:0:
438,209,188439,1,0,1:2:0:0:
439,231,188522,6,0,L|442:309,1,75,6|0,3:2|0:0,0:0:0:0:
228,190,188855,2,0,P|264:178|311:192,1,75,2|0,3:2|0:0,0:0:0:0:
290,353,189189,2,0,P|254:365|207:351,1,75,2|0,3:2|0:0,0:0:0:0:
143,222,189522,1,10,0:3:0:0:
323,280,189689,1,2,0:0:0:0:
249,64,189855,5,4,3:2:0:0:
249,64,190189,2,0,P|293:72|323:107,1,75,2|0,3:2|0:0,0:0:0:0:
151,112,190522,2,0,P|135:69|151:26,1,75,2|0,3:2|0:0,0:0:0:0:
241,173,190855,2,0,P|212:207|166:215,1,75,2|0,3:2|0:0,0:0:0:0:
420,61,191189,6,0,P|424:112|424:161,1,75,2|0,3:2|0:0,0:0:0:0:
341,208,191522,2,0,L|336:255,1,37.5,2|0,1:2|0:0,0:0:0:0:
449,283,191689,2,0,L|452:334,1,37.5,0|0,1:2|1:2,0:0:0:0:
304,357,191855,1,2,3:2:0:0:
212,262,192022,1,8,0:3:0:0:
54,358,192189,1,0,3:2:0:0:
184,114,192355,6,0,P|201:212|215:275,1,150,6|0,3:2|3:2,0:0:0:0:
78,123,192855,2,0,P|37:148|25:179,2,75,0|0|0,1:2|3:2|1:2,0:0:0:0:
215,39,193355,1,2,3:2:0:0:
269,146,193522,1,2,1:2:0:0:
356,67,193689,1,2,1:2:0:0:
356,67,193772,1,0,1:2:0:0:
356,67,193855,5,6,1:2:0:0:
287,245,194022,1,2,1:2:0:0:
405,174,194189,1,2,1:2:0:0:
233,72,194355,1,2,1:2:0:0:
406,281,194522,5,0,1:2:0:0:
165,179,194689,1,2,1:2:0:0:
431,82,194855,1,2,1:2:0:0:
262,286,195022,1,2,1:2:0:0:
161,33,195189,5,0,1:2:0:0:
405,174,195355,1,0,1:2:0:0:
97,222,195522,1,0,1:2:0:0:
347,27,195689,1,0,1:2:0:0:
262,286,195855,5,2,1:2:0:0:
224,288,195939,1,0,1:2:0:0:
187,290,196022,1,0,1:2:0:0:
368,170,196189,1,2,1:2:0:0:
405,174,196272,1,0,1:2:0:0:
442,174,196355,1,0,1:2:0:0:
285,367,196522,6,0,P|337:319|263:201,1,225.000008583069,2|0,0:0|0:0,0:0:0:0:
262,286,197355,2,0,L|182:290,2,56.2500021457673,2|2|2,0:0|0:0|0:0,0:0:0:0:
256,192,197855,12,0,199022,0:0:0:0:
411,46,199189,6,0,L|301:51,1,101.249996910095,2|2,0:0|0:0,0:0:0:0:
215,100,200022,2,0,L|181:97,2,33.7499989700318,2|2|2,0:0|0:0|0:0,0:0:0:0:
259,169,200522,6,0,B|299:173|300:254|300:254|229:177|143:233,1,269.999991760254,2|2,0:0|0:0,0:0:0:0:
286,285,212522,6,0,P|326:275|389:329,1,112.500004291535,6|0,1:2|0:0,0:0:0:0:
463,259,213022,2,0,L|464:217,2,28.1250010728836,8|8|4,0:3|0:3|0:3,0:0:0:0:
403,86,213522,2,0,L|396:163,1,56.2500021457673,2|4,0:0|0:3,0:0:0:0:
388,173,213772,1,4,3:0:0:0:
388,173,213855,6,0,P|339:179|290:115,1,112.500004291535,6|2,1:2|0:0,0:0:0:0:
234,78,214355,2,0,P|249:63|266:56,2,28.1250010728836,10|8|4,0:3|0:3|0:3,0:0:0:0:
234,78,214855,1,8,0:3:0:0:
161,173,215022,1,6,0:3:0:0:
161,173,215105,1,4,3:0:0:0:
161,173,215189,6,0,P|186:212|198:287,1,112.500004291535,6|2,1:2|0:0,0:0:0:0:
198,276,215689,1,4,0:3:0:0:
334,362,216022,1,4,0:3:0:0:
429,312,216189,1,10,0:3:0:0:
429,312,216272,1,0,3:2:0:0:
429,312,216355,6,0,P|437:262|430:224,1,75,6|0,1:2|0:0,0:0:0:0:
341,116,216689,1,0,3:2:0:0:
248,197,216855,1,0,1:2:0:0:
341,278,217022,1,0,3:2:0:0:
355,79,217189,5,2,1:2:0:0:
219,197,217355,1,0,3:2:0:0:
355,314,217522,1,0,1:2:0:0:
317,86,217689,2,0,L|264:73,1,37.5,2|0,3:2|0:0,0:0:0:0:
127,29,217855,6,0,P|87:52|72:99,1,75,6|2,3:2|0:0,0:0:0:0:
70,116,218105,1,0,0:0:0:0:
70,116,218189,2,0,P|98:147|110:188,1,75,2|0,1:2|0:0,0:0:0:0:
91,361,218522,1,2,3:2:0:0:
293,248,218689,1,2,3:2:0:0:
114,206,218855,1,2,1:2:0:0:
219,377,219022,1,6,3:2:0:0:
410,268,219189,5,2,1:2:0:0:
447,264,219272,1,0,1:2:0:0:
484,261,219355,1,0,1:2:0:0:
381,78,219522,1,2,1:2:0:0:
343,74,219605,1,0,1:2:0:0:
306,71,219689,1,0,1:2:0:0:
150,241,219855,5,2,1:2:0:0:
442,178,220022,1,2,1:2:0:0:
124,44,220189,1,2,1:2:0:0:
254,347,220355,1,2,1:2:0:0:
259,72,220855,6,0,P|288:118|269:247,1,187.5,14|0,3:1|0:0,0:0:0:0:
327,299,221355,2,0,L|372:293,1,37.5,8|0,0:3|0:0,0:0:0:0:
404,232,221522,6,0,P|411:179|504:206,1,168.750006437302,2|0,1:2|0:0,0:0:0:0:
481,82,221855,6,0,P|465:118|401:81,1,134.999995880127,2|0,3:2|0:0,0:0:0:0:
366,100,222189,6,0,P|329:98|293:99,1,56.2500021457673,2|0,1:2|0:0,0:0:0:0:
219,7,222355,6,0,B|256:32|256:32|201:68|232:149,1,168.750006437302,2|0,1:2|0:0,0:0:0:0:
139,191,222689,6,0,B|230:233|230:233|322:198,1,168.750006437302,2|0,1:2|0:0,0:0:0:0:
395,289,223022,6,0,B|316:281|316:281|227:311|227:311|151:278,1,255.000004863739,14|0,3:1|0:0,0:0:0:0:
421,206,223522,2,0,P|467:227|490:293,1,97.4999955368044,2|0,1:2|0:0,0:0:0:0:
257,100,223855,2,0,P|281:58|325:39,1,97.4999955368044,2|0,3:2|3:2,0:0:0:0:
395,289,224189,1,2,1:2:0:0:
485,98,224355,1,2,3:2:0:0:
229,196,224522,6,0,P|157:175|112:177,1,97.4999955368044,2|0,0:1|3:2,0:0:0:0:
175,364,224855,1,0,1:2:0:0:
329,233,225022,2,0,B|322:152|322:152|359:111|325:28,1,194.999991073609,0|0,1:2|3:2,0:0:0:0:
213,87,225522,1,0,1:2:0:0:
427,198,225689,1,0,1:2:0:0:
175,364,225855,6,0,P|121:346|104:216,1,194.999991073609,2|2,3:1|1:2,0:0:0:0:
213,87,226355,2,0,P|264:82|320:90,1,97.4999955368044,2|0,0:0|3:2,0:0:0:0:
174,278,226689,1,0,3:2:0:0:
466,368,226855,6,0,P|461:260|473:147,1,194.999991073609,2|0,1:2|0:0,0:0:0:0:
343,42,227355,1,0,3:2:0:0:
261,228,227523,2,0,L|261:325,1,97.4999955368044,2|0,1:2|3:2,0:0:0:0:
289,353,227772,1,0,1:2:0:0:
289,353,227855,1,2,3:2:0:0:
364,188,228023,1,0,3:2:0:0:
130,123,228189,2,0,P|167:153|179:199,1,97.4999955368044,2|0,1:2|1:2,0:0:0:0:
83,197,228439,1,0,1:2:0:0:
83,197,228523,6,0,P|42:115|102:46,1,194.999991073609,6|0,1:1|3:2,0:0:0:0:
355,0,229022,2,0,B|352:70|352:70|381:109|381:109|387:185,1,194.999991073609,6|0,1:1|3:2,0:0:0:0:
463,42,229522,1,6,1:1:0:0:
283,131,229688,1,8,0:3:0:0:
492,206,229855,1,0,1:2:0:0:
298,325,230022,6,0,L|374:324,1,48.7499977684022,0|0,3:2|3:2,0:0:0:0:
165,199,230188,2,0,L|47:195,1,97.4999955368044,2|0,1:1|1:2,0:0:0:0:
115,111,230438,1,0,1:2:0:0:
115,111,230522,2,0,L|174:111,1,48.7499977684022,2|0,1:2|1:2,0:0:0:0:
298,227,230688,2,0,L|240:224,1,48.7499977684022,2|0,1:2|1:2,0:0:0:0:
283,131,230855,1,2,1:2:0:0:
320,127,230938,1,0,1:2:0:0:
354,140,231021,1,2,1:2:0:0:
379,166,231104,1,0,1:2:0:0:
390,201,231188,6,0,L|518:203,1,97.4999955368044,6|0,3:1|0:0,0:0:0:0:
182,361,231522,2,0,P|190:266|178:137,1,194.999991073609,0|0,1:2|3:2,0:0:0:0:
369,68,232022,1,0,0:0:0:0:
111,80,232189,2,0,P|195:47|249:95,1,146.249993305207,2|0,1:2|0:0,0:0:0:0:
284,133,232522,6,0,P|290:171|262:243,1,112.500004291535,6|0,3:2|0:0,0:0:0:0:
102,240,232855,1,2,1:2:0:0:
371,314,233022,1,2,3:2:0:0:
371,314,233105,1,0,1:2:0:0:
371,314,233189,1,0,3:2:0:0:
177,148,233355,1,2,0:0:0:0:
234,383,233522,1,0,1:2:0:0:
368,176,233688,1,2,0:0:0:0:
70,54,233855,6,0,L|62:176,1,97.4999955368044,0|8,3:2|0:3,0:0:0:0:
67,197,234105,1,8,0:3:0:0:
67,197,234189,1,2,1:2:0:0:
244,103,234355,1,0,3:2:0:0:
281,103,234438,1,0,3:2:0:0:
318,102,234522,1,2,3:2:0:0:
82,21,234688,1,0,3:2:0:0:
331,296,234855,6,0,L|317:90,1,194.999991073609,6|0,3:1|0:0,0:0:0:0:
212,266,235355,1,0,3:2:0:0:
457,170,235522,1,0,1:2:0:0:
196,145,235688,1,4,3:2:0:0:
323,370,235855,1,2,1:2:0:0:
429,92,236022,1,8,0:3:0:0:
212,266,236189,1,0,1:2:0:0:
164,276,236272,1,0,1:2:0:0:
119,259,236355,1,2,1:2:0:0:
91,220,236439,1,0,1:2:0:0:
88,172,236522,6,0,P|96:115|140:73,1,97.4999955368044,6|0,1:1|3:2,0:0:0:0:
310,31,236855,1,0,1:2:0:0:
389,251,237022,2,0,L|377:351,1,97.4999955368044,2|0,3:2|1:2,0:0:0:0:
239,132,237355,1,2,3:2:0:0:
512,245,237522,1,2,1:2:0:0:
265,295,237688,1,2,3:2:0:0:
265,295,237772,1,0,3:2:0:0:
265,295,237855,5,2,1:1:0:0:
476,108,238022,1,2,3:2:0:0:
377,347,238188,1,2,1:2:0:0:
239,132,238355,2,0,P|191:115|119:137,1,97.4999955368044,2|0,3:2|1:2,0:0:0:0:
335,36,238688,1,2,3:2:0:0:
265,295,238855,1,2,1:2:0:0:
96,32,239022,1,2,3:2:0:0:
96,32,239105,1,0,3:2:0:0:
96,32,239188,5,2,1:1:0:0:
372,163,239355,1,2,3:2:0:0:
78,67,239522,1,2,1:2:0:0:
265,295,239688,1,2,3:2:0:0:
228,18,239855,1,2,1:2:0:0:
66,206,240022,2,0,P|50:246|62:311,1,97.4999955368044,2|0,3:2|1:2,0:0:0:0:
249,159,240355,1,2,3:2:0:0:
249,159,240439,1,0,3:2:0:0:
249,159,240522,5,2,1:1:0:0:
1,109,240688,1,2,3:2:0:0:
169,331,240855,1,2,1:2:0:0:
293,69,241022,1,2,3:2:0:0:
66,206,241188,1,0,1:2:0:0:
383,365,241355,2,0,L|382:255,1,97.4999955368044,2|0,3:2|1:2,0:0:0:0:
293,69,241688,1,2,3:2:0:0:
293,69,241772,1,0,3:2:0:0:
293,69,241855,6,0,P|369:69|432:162,1,194.999991073609,4|0,1:2|3:2,0:0:0:0:
261,260,242355,2,0,P|209:246|131:259,1,97.4999955368044,0|0,3:2|0:0,0:0:0:0:
47,187,242688,1,2,3:2:0:0:
186,108,242855,1,2,1:2:0:0:
45,4,243022,2,0,L|47:107,1,97.4999955368044,2|0,3:2|1:2,0:0:0:0:
325,187,243355,1,2,1:2:0:0:
186,108,243522,1,2,0:0:0:0:
327,4,243689,2,0,L|325:107,1,97.4999955368044,10|0,0:3|0:0,0:0:0:0:
186,266,244022,1,10,0:3:0:0:
186,108,244188,1,6,0:3:0:0:
325,187,244355,1,6,0:3:0:0:
84,302,244522,6,0,L|86:182,1,120,6|0,1:1|0:0,0:0:0:0:
186,108,245022,2,0,L|176:63,2,30,8|8|8,0:3|0:3|0:3,0:0:0:0:
265,197,245688,1,10,0:3:0:0:
265,197,245772,1,8,0:3:0:0:
265,197,245855,6,0,L|259:282,1,60,6|4,0:3|0:3,0:0:0:0:
383,345,246355,1,6,0:3:0:0:
383,345,246522,2,0,L|383:225,1,120,0|2,1:2|0:0,0:0:0:0:
371,131,247022,1,2,0:0:0:0:
168,43,247189,6,0,P|223:41|249:126,1,150,6|2,1:2|3:2,0:0:0:0:
130,139,247689,2,0,P|78:148|52:170,1,75,2|0,0:0|3:2,0:0:0:0:
130,269,248022,1,2,0:0:0:0:
226,196,248189,1,2,3:2:0:0:
406,316,248355,6,0,L|246:317,2,150,2|2|2,0:0|0:0|0:0,0:0:0:0:
448,100,249189,2,0,P|409:134|471:198,1,150,0|6,3:2|0:3,0:0:0:0:
284,31,249689,1,2,1:2:0:0:
298,181,249855,6,0,L|282:9,2,150,6|2|2,1:2|3:2|3:2,0:0:0:0:
185,258,250689,1,0,0:0:0:0:
185,258,250855,2,0,P|140:255|91:265,1,75,2|2,3:2|0:0,0:0:0:0:
214,360,251189,5,2,1:2:0:0:
301,255,251355,1,2,1:2:0:0:
381,346,251522,1,2,1:2:0:0:
339,174,251689,1,2,1:2:0:0:
298,351,251855,1,0,1:2:0:0:
419,130,252022,1,2,1:2:0:0:
211,196,252189,1,0,1:2:0:0:
182,196,252272,1,0,1:2:0:0:
154,197,252355,1,0,1:2:0:0:
126,198,252439,1,0,1:2:0:0:
97,199,252522,6,0,L|8:199,1,75,6|2,3:2|0:0,0:0:0:0:
162,75,252855,1,2,3:2:0:0:
282,152,253022,2,0,P|290:200|279:245,1,75,2|0,0:0|3:2,0:0:0:0:
454,146,253355,1,2,0:0:0:0:
354,93,253522,1,2,1:2:0:0:
373,277,253689,1,2,1:2:0:0:
373,277,253772,1,0,1:2:0:0:
373,277,253855,6,0,P|369:239|377:203,1,75,0|2,3:2|0:0,0:0:0:0:
471,281,254189,1,0,3:2:0:0:
330,372,254355,1,2,0:0:0:0:
269,167,254522,1,0,3:2:0:0:
189,301,254689,1,2,1:2:0:0:
225,302,254772,1,0,1:2:0:0:
263,304,254856,1,2,3:2:0:0:
151,137,255023,1,2,1:2:0:0:
113,138,255106,1,0,1:2:0:0:
76,140,255189,5,2,1:2:0:0:
375,239,255355,1,2,1:2:0:0:
100,327,255522,1,2,1:2:0:0:
371,262,255689,1,2,1:2:0:0:
52,233,255855,1,2,1:2:0:0:
329,149,256022,1,2,1:2:0:0:
43,260,256189,1,2,1:2:0:0:
222,235,256355,6,0,L|204:238,3,18.75,6|0|0|0,1:2|0:0|0:0|0:0,0:0:0:0:
256,192,256522,12,0,259189,0:0:0:0:
