osu file format v14

[General]
AudioFilename: audio.mp3
AudioLeadIn: 0
PreviewTime: 201855
Countdown: 0
SampleSet: Soft
StackLeniency: 0.7
Mode: 0
LetterboxInBreaks: 0
WidescreenStoryboard: 1

[Editor]
Bookmarks: 17855,125772,125855,129855,212522,216355,221355,223022,237855
DistanceSpacing: 1.4
BeatDivisor: 4
GridSize: 8
TimelineZoom: 2.5

[Metadata]
Title:Haruoto*Veil
TitleUnicode:春音*ベール
Artist:Ceui
ArtistUnicode:Ceui
Creator:GodKei
Version:Hard
Source:春音アリス*グラム
Tags:Haruoto Alice*Gram Galgame Eroge Opening full version Bellicose door weapon xIced 小高光太郎 ラムシーニ visual novel japanese video game ​jpop pop j-pop NanaWind
BeatmapID:2244126
BeatmapSetID:1067923

[Difficulty]
HPDrainRate:5
CircleSize:3.5
OverallDifficulty:6.5
ApproachRate:8
SliderMultiplier:1.4
SliderTickRate:1

[Events]
//Background and Video events
0,0,"BG.jpg",0,0
//Break Periods
2,96722,106439
2,202055,211772
//Storyboard Layer 0 (Background)
//Storyboard Layer 1 (Fail)
//Storyboard Layer 2 (Pass)
//Storyboard Layer 3 (Foreground)
//Storyboard Layer 4 (Overlay)
//Storyboard Sound Samples

[TimingPoints]
-2144,333.333333333333,4,2,1,100,1,0
355,-125,4,2,1,40,0,0
10855,-250,4,2,1,40,0,0
12522,-111.111111111111,4,2,1,50,0,0
17855,-100,4,2,1,50,0,0
23188,-111.111111111111,4,2,1,60,0,0
59189,-100,4,2,1,80,0,1
67105,-100,4,2,1,5,0,1
67189,-100,4,2,1,80,0,1
71105,-100,4,2,1,5,0,1
71189,-100,4,2,1,80,0,1
84522,-125,4,2,1,60,0,0
91189,-100,4,2,1,60,0,0
107189,-111.111111111111,4,2,1,60,0,0
125772,-111.111111111111,4,2,1,5,0,0
125855,-111.111111111111,4,2,1,60,0,0
129855,-111.111111111111,4,2,1,70,0,0
132439,-111.111111111111,4,2,1,5,0,0
132522,-100,4,2,1,80,0,1
140439,-100,4,2,1,5,0,1
140522,-100,4,2,1,80,0,1
156522,-100,4,2,1,60,0,0
177855,-100,4,2,1,60,0,0
196522,-166.666666666667,4,2,1,60,0,0
212522,-125,4,2,1,60,0,0
216355,-100,4,2,1,60,0,0
220855,-100,4,2,1,60,0,1
221355,-100,4,2,1,60,0,0
221855,-100,4,2,1,60,0,0
222105,-100,4,2,1,5,0,0
222189,-100,4,2,1,60,0,0
222272,-100,4,2,1,5,0,0
222355,-100,4,2,1,60,0,0
223022,-100,4,2,1,80,0,1
228439,-100,4,2,1,5,0,1
228522,-100,4,2,1,80,0,1
245855,-125,4,2,1,60,0,0
247189,-100,4,2,1,60,0,0
261855,-100,4,2,1,5,0,0

[Colours]
Combo1 : 221,238,17
Combo2 : 255,92,15
Combo3 : 47,208,67
Combo4 : 255,0,0

[HitObjects]
101,42,355,5,0,0:0:0:0:
101,42,439,1,0,0:0:0:0:
101,42,522,6,0,P|84:73|84:112,1,56,2|0,0:0|0:0,0:0:0:0:
83,174,855,1,2,0:0:0:0:
158,211,1022,1,2,0:0:0:0:
158,211,1522,2,0,P|197:206|231:194,1,56,2|0,0:0|0:0,0:0:0:0:
230,118,1855,6,0,L|224:42,2,56,2|0|0,0:0|0:0|0:0,0:0:0:0:
290,172,2355,1,2,0:0:0:0:
290,172,2689,2,0,P|329:175|364:196,1,56,0|2,0:0|0:0,0:0:0:0:
396,239,3022,1,2,0:0:0:0:
396,239,3189,6,0,P|429:240|463:258,1,56,2|0,0:0|0:0,0:0:0:0:
445,326,3522,1,0,0:0:0:0:
370,351,3689,1,2,0:0:0:0:
370,351,4189,2,0,P|324:349|297:353,1,56,2|2,0:0|0:0,0:0:0:0:
261,291,4522,6,0,P|262:261|281:222,2,56,2|0|0,0:0|0:0|0:0,0:0:0:0:
207,348,5022,1,2,0:0:0:0:
207,348,5355,2,0,L|155:306,1,56,2|2,0:0|0:0,0:0:0:0:
88,310,5689,1,2,0:0:0:0:
88,310,5855,6,0,L|72:191,1,112,2|2,0:0|0:0,0:0:0:0:
166,89,6522,1,0,0:0:0:0:
166,89,6689,2,0,P|141:62|119:56,2,56,2|2|2,0:0|0:0|0:0,0:0:0:0:
207,155,7189,6,0,B|195:219|195:219|211:280|276:279,2,168,2|2|2,0:0|0:0|0:0,0:0:0:0:
298,24,8522,6,0,P|326:55|343:130,1,112,2|0,0:0|0:0,0:0:0:0:
299,186,9022,2,0,P|340:203|373:201,1,56,2|2,0:0|0:0,0:0:0:0:
426,224,9355,2,0,P|426:257|430:302,1,56,2|2,0:0|0:0,0:0:0:0:
373,337,9689,1,2,0:0:0:0:
373,337,10022,6,0,P|322:322|299:324,1,56,2|2,0:0|0:0,0:0:0:0:
241,291,10355,2,0,P|264:256|293:243,2,56,2|2|2,0:0|0:0|0:0,0:0:0:0:
256,192,10855,12,0,12189,0:0:0:0:
438,31,12522,6,0,P|390:31|367:104,1,125.999996154785,6|2,1:2|0:0,0:0:0:0:
311,168,13022,1,2,0:0:0:0:
311,168,13355,2,0,P|288:125|278:111,2,62.9999980773926,2|2|2,0:0|0:0|0:0,0:0:0:0:
311,168,14022,6,0,P|257:173|200:226,1,125.999996154785,2|0,0:0|0:0,0:0:0:0:
187,308,14522,1,2,0:0:0:0:
187,308,14689,2,0,P|146:293|128:258,2,62.9999980773926,2|2|2,0:0|3:2|0:0,0:0:0:0:
272,287,15189,6,0,P|342:314|366:210,1,188.999994232178,6|2,1:2|0:0,0:0:0:0:
469,219,15855,1,0,0:0:0:0:
469,219,16022,2,0,L|466:293,2,62.9999980773926,2|2|2,0:0|0:0|0:0,0:0:0:0:
470,130,16522,6,0,P|418:144|379:223,1,125.999996154785,2|2,0:0|0:0,0:0:0:0:
264,68,17189,2,0,P|172:72|117:77,1,125.999996154785,0|2,0:0|3:2,0:0:0:0:
70,128,17689,1,2,3:2:0:0:
70,128,17772,1,0,3:2:0:0:
70,128,17855,6,0,P|103:161|106:253,1,140,6|2,1:2|1:2,0:0:0:0:
92,347,18355,2,0,P|137:336|233:334,1,140,2|2,0:0|3:2,0:0:0:0:
327,345,18855,1,0,1:2:0:0:
281,257,19022,1,0,1:2:0:0:
369,214,19189,6,0,P|429:198|460:201,1,70,2|0,1:2|3:2,0:0:0:0:
489,116,19522,1,0,1:2:0:0:
489,116,19689,2,0,P|439:99|406:95,1,70,0|0,1:2|1:2,0:0:0:0:
334,51,20022,2,0,P|357:29|386:24,2,35,0|0|0,1:2|1:2|1:2,0:0:0:0:
245,39,20355,1,0,1:2:0:0:
245,39,20439,1,0,1:2:0:0:
245,39,20522,6,0,P|190:37|157:43,1,70,2|0,1:2|1:2,0:0:0:0:
141,131,20855,2,0,P|175:128|210:131,1,70,2|0,1:2|1:2,0:0:0:0:
248,222,21189,2,0,L|250:296,1,70,2|2,1:2|1:2,0:0:0:0:
168,340,21522,1,2,1:2:0:0:
84,288,21689,1,0,1:2:0:0:
84,288,22022,6,0,L|71:365,2,70,8|0|4,0:3|0:0|0:3,0:0:0:0:
15,217,22522,2,0,L|13:144,2,70,2|10|6,0:0|0:3|0:3,0:0:0:0:
69,52,23189,6,0,P|110:52|150:69,1,62.9999980773926,6|0,3:1|0:0,0:0:0:0:
200,113,23522,2,0,P|241:113|283:95,1,62.9999980773926,2|0,3:2|0:0,0:0:0:0:
335,57,23855,1,2,3:2:0:0:
383,130,24022,2,0,P|425:126|467:131,1,62.9999980773926,2|2,0:0|3:2,0:0:0:0:
459,214,24355,6,0,P|401:216|313:223,1,125.999996154785,2|2,0:0|0:0,0:0:0:0:
288,297,24855,1,2,3:2:0:0:
199,291,25022,2,0,P|165:276|131:274,1,62.9999980773926,2|0,0:0|3:2,0:0:0:0:
55,206,25355,1,2,0:0:0:0:
55,206,25522,2,0,P|73:176|84:148,1,62.9999980773926,2|2,3:2|0:0,0:0:0:0:
90,61,25855,6,0,P|142:78|167:160,1,125.999996154785,0|2,3:2|3:2,0:0:0:0:
299,259,26522,2,0,P|310:202|315:184,1,62.9999980773926,2|0,3:2|0:0,0:0:0:0:
382,144,26855,1,2,3:2:0:0:
429,69,27022,6,0,P|374:55|302:107,1,125.999996154785,2|2,0:0|0:0,0:0:0:0:
236,127,27522,1,2,3:2:0:0:
236,127,27689,2,0,P|171:128|121:91,1,125.999996154785,2|0,0:0|0:0,0:0:0:0:
50,159,28189,1,2,3:2:0:0:
50,159,28522,6,0,P|64:195|63:242,1,62.9999980773926,2|2,3:2|0:0,0:0:0:0:
89,304,28855,1,0,3:2:0:0:
164,350,29022,2,0,P|214:329|248:328,1,62.9999980773926,2|0,0:0|3:2,0:0:0:0:
286,267,29355,2,0,P|336:288|369:289,1,62.9999980773926,2|0,0:0|3:2,0:0:0:0:
412,346,29689,6,0,P|457:309|455:218,1,125.999996154785,2|2,0:0|0:0,0:0:0:0:
475,156,30189,1,2,3:2:0:0:
452,67,30355,1,2,0:0:0:0:
452,67,30522,2,0,P|408:91|386:119,1,62.9999980773926,0|0,3:2|0:0,0:0:0:0:
326,149,30855,2,0,P|300:125|272:112,1,62.9999980773926,2|0,3:2|0:0,0:0:0:0:
284,24,31189,6,0,P|223:39|186:109,1,125.999996154785,2|0,3:2|3:2,0:0:0:0:
214,173,31689,1,2,0:0:0:0:
125,191,31855,2,0,P|60:199|58:264,1,125.999996154785,2|0,3:2|3:2,0:0:0:0:
91,328,32355,1,2,0:0:0:0:
91,328,32522,6,0,P|33:338|14:332,2,62.9999980773926,2|2|0,3:2|0:0|3:2,0:0:0:0:
170,289,33022,2,0,P|209:285|249:296,1,62.9999980773926,2|0,1:2|0:0,0:0:0:0:
314,322,33355,2,0,L|320:286,2,31.4999990386963,0|0|0,1:2|1:2|1:2,0:0:0:0:
409,344,33689,1,4,0:3:0:0:
409,344,33772,1,4,0:3:0:0:
409,344,33855,6,0,L|413:254,1,62.9999980773926,6|0,3:2|0:0,0:0:0:0:
448,211,34189,2,0,L|445:124,1,62.9999980773926,2|0,1:2|0:0,0:0:0:0:
428,61,34522,1,2,3:2:0:0:
349,32,34689,1,2,1:2:0:0:
349,32,34855,1,2,3:2:0:0:
315,113,35022,6,0,L|307:264,1,125.999996154785,6|2,1:2|3:2,0:0:0:0:
245,301,35522,1,2,1:2:0:0:
186,234,35689,2,0,P|165:215|114:201,1,62.9999980773926,2|0,0:0|3:2,0:0:0:0:
76,268,36022,2,0,P|54:247|42:226,2,31.4999990386963,2|0|10,1:2|1:2|0:3,0:0:0:0:
110,359,36355,1,6,0:3:0:0:
110,359,36439,1,4,0:3:0:0:
110,359,36522,6,0,P|152:346|191:352,1,62.9999980773926,6|0,3:2|0:0,0:0:0:0:
239,290,36855,2,0,P|274:307|298:338,1,62.9999980773926,2|0,1:2|0:0,0:0:0:0:
369,363,37189,1,2,3:2:0:0:
431,301,37355,2,0,P|425:264|432:231,1,62.9999980773926,2|0,3:2|1:2,0:0:0:0:
439,153,37689,6,0,P|366:166|341:230,1,125.999996154785,6|0,3:2|3:2,0:0:0:0:
272,262,38189,2,0,P|261:220|253:187,1,62.9999980773926,2|0,1:2|0:0,0:0:0:0:
225,118,38522,1,0,3:2:0:0:
225,118,38689,1,2,3:2:0:0:
155,63,38855,2,0,P|122:35|109:32,2,31.4999990386963,2|0|2,1:2|3:3|3:2,0:0:0:0:
91,124,39189,6,0,P|117:156|122:185,1,62.9999980773926,6|2,3:2|0:0,0:0:0:0:
57,236,39522,1,2,1:2:0:0:
110,306,39689,2,0,P|154:271|236:283,1,125.999996154785,2|2,0:0|3:2,0:0:0:0:
282,337,40189,1,2,1:2:0:0:
328,262,40355,6,0,B|293:203|293:203|225:167,1,125.999996154785,6|2,3:2|3:2,0:0:0:0:
194,101,40855,1,2,1:2:0:0:
269,55,41022,2,0,P|313:55|347:45,1,62.9999980773926,2|0,0:0|3:2,0:0:0:0:
407,96,41355,2,0,P|426:80|431:57,2,31.4999990386963,0|0|2,1:2|1:2|1:2,0:0:0:0:
349,163,41689,1,2,1:2:0:0:
349,163,41772,1,0,1:2:0:0:
349,163,41855,5,6,0:3:0:0:
401,237,42189,2,0,L|400:306,1,62.9999980773926,6|4,0:3|1:2,0:0:0:0:
318,331,42522,1,6,0:3:0:0:
318,331,42855,6,0,P|275:310|203:278,1,125.999996154785,6|0,3:2|0:0,0:0:0:0:
117,298,43355,2,0,L|105:378,2,62.9999980773926,0|0|0,3:2|3:2|0:0,0:0:0:0:
41,252,43855,2,0,L|48:178,1,62.9999980773926,10|4,0:3|0:3,0:0:0:0:
69,103,44189,1,10,0:3:0:0:
142,53,44355,1,6,0:3:0:0:
142,53,44439,1,4,0:3:0:0:
142,53,44522,6,0,P|189:37|270:88,1,125.999996154785,6|2,3:2|3:2,0:0:0:0:
216,145,45022,2,0,P|181:162|151:193,1,62.9999980773926,2|0,0:0|1:2,0:0:0:0:
185,263,45355,1,2,3:2:0:0:
185,263,45689,6,0,P|233:270|260:291,1,62.9999980773926,2|0,3:2|0:0,0:0:0:0:
287,355,46022,2,0,P|286:300|308:212,1,125.999996154785,2|2,3:2|3:2,0:0:0:0:
351,158,46522,2,0,P|378:186|389:220,2,62.9999980773926,0|0|0,1:2|3:2|0:0,0:0:0:0:
200,138,47189,6,0,B|183:123|183:123|164:231,1,125.999996154785,2|2,3:2|3:2,0:0:0:0:
28,336,47855,2,0,P|87:331|115:346,1,62.9999980773926,2|0,1:2|3:2,0:0:0:0:
171,366,48189,1,2,0:0:0:0:
174,278,48355,6,0,P|236:292|265:358,1,125.999996154785,2|2,3:2|1:2,0:0:0:0:
351,349,48855,2,0,P|394:343|420:329,1,62.9999980773926,10|8,0:3|0:3,0:0:0:0:
459,260,49189,2,0,P|417:227|410:159,1,125.999996154785,2|6,3:2|0:3,0:0:0:0:
503,183,49689,1,6,0:3:0:0:
453,77,49855,6,0,P|405:67|368:81,1,62.9999980773926,6|0,3:2|0:0,0:0:0:0:
311,31,50189,1,2,3:2:0:0:
272,110,50355,2,0,P|322:132|328:210,1,125.999996154785,2|2,0:0|0:0,0:0:0:0:
313,283,50855,2,0,P|266:279|239:287,1,62.9999980773926,2|2,3:2|0:0,0:0:0:0:
214,363,51189,6,0,P|181:340|166:250,1,125.999996154785,0|0,1:2|3:2,0:0:0:0:
222,172,51689,1,2,0:0:0:0:
140,138,51855,1,2,3:2:0:0:
72,207,52022,1,2,0:0:0:0:
72,207,52189,2,0,P|53:161|81:96,1,94.499997116089,2|0,3:2|0:0,0:0:0:0:
75,76,52522,6,0,P|129:61|228:65,1,125.999996154785,6|0,1:2|1:2,0:0:0:0:
285,74,53022,1,0,1:2:0:0:
285,74,53189,2,0,P|314:103|323:137,1,62.9999980773926,0|0,1:2|1:2,0:0:0:0:
373,194,53522,1,0,1:2:0:0:
333,273,53689,1,2,1:2:0:0:
276,206,53855,6,0,B|248:213|248:213|232:336,1,125.999996154785,2|0,1:2|1:2,0:0:0:0:
155,347,54355,1,0,1:2:0:0:
155,347,54522,2,0,P|119:355|79:335,1,62.9999980773926,0|0,1:2|1:2,0:0:0:0:
45,274,54855,2,0,P|62:240|70:202,1,62.9999980773926,0|0,1:2|1:2,0:0:0:0:
43,100,55189,5,6,3:2:0:0:
126,59,55355,2,0,P|121:34|112:20,2,31.4999990386963,0|0|2,1:2|1:2|3:2,0:0:0:0:
191,119,55689,2,0,P|183:134|183:152,2,31.4999990386963,0|0|2,1:2|1:2|3:2,0:0:0:0:
260,63,56022,2,0,P|257:45|251:32,2,31.4999990386963,0|0|2,1:2|1:2|1:2,0:0:0:0:
336,131,56355,1,0,1:2:0:0:
336,131,56439,1,0,1:2:0:0:
336,131,56522,6,0,P|367:136|384:271,2,188.999994232178,6|2|2,0:0|0:0|0:0,0:0:0:0:
454,329,58855,5,2,0:0:0:0:
454,329,59189,6,0,P|390:319|305:326,1,140,14|0,3:1|1:2,0:0:0:0:
245,254,59689,1,0,0:0:0:0:
333,215,59855,2,0,P|380:210|417:210,1,70,0|0,3:2|0:0,0:0:0:0:
471,138,60189,2,0,P|473:92|467:65,1,70,2|0,1:2|3:2,0:0:0:0:
376,32,60522,6,0,P|287:25|216:29,1,140,2|2,0:0|1:2,0:0:0:0:
163,91,61022,1,2,3:2:0:0:
163,91,61105,1,0,1:2:0:0:
163,91,61189,2,0,P|125:96|90:117,1,70,0|2,3:2|3:2,0:0:0:0:
17,168,61522,1,0,1:2:0:0:
89,233,61689,1,2,0:0:0:0:
23,305,61855,6,0,P|62:315|159:358,1,140,2|2,3:1|1:2,0:0:0:0:
251,357,62355,1,0,0:0:0:0:
324,292,62522,2,0,P|331:248|341:213,1,70,2|0,3:2|3:2,0:0:0:0:
420,170,62855,1,2,1:2:0:0:
323,118,63022,1,2,3:2:0:0:
362,28,63189,6,0,P|302:23|201:24,1,140,2|0,0:1|1:2,0:0:0:0:
208,126,63689,1,0,1:2:0:0:
208,126,63772,1,0,1:2:0:0:
208,126,63855,1,2,3:1:0:0:
136,58,64022,1,0,3:2:0:0:
59,122,64189,2,0,P|76:159|80:200,1,70,0|0,1:2|1:2,0:0:0:0:
36,305,64522,6,0,P|100:302|163:354,1,140,6|2,3:1|1:2,0:0:0:0:
253,384,65022,1,2,0:0:0:0:
253,384,65189,2,0,P|294:378|328:357,1,70,0|0,3:2|3:2,0:0:0:0:
345,270,65522,6,0,P|395:291|418:376,1,140,2|0,1:2|0:0,0:0:0:0:
497,307,66022,1,0,3:2:0:0:
452,219,66189,2,0,P|499:180|506:166,1,70,2|0,1:2|3:2,0:0:0:0:
504,142,66439,1,0,1:2:0:0:
504,142,66522,1,2,3:2:0:0:
457,55,66689,1,0,3:2:0:0:
371,101,66855,2,0,P|356:70|362:18,1,70,2|0,1:2|3:2,0:0:0:0:
254,140,67189,6,0,P|218:83|149:60,1,140,6|0,1:1|3:2,0:0:0:0:
70,241,67689,6,0,P|97:179|162:157,1,140,6|0,1:1|3:2,0:0:0:0:
293,254,68189,6,0,P|224:244|140:238,1,140,6|0,1:1|1:2,0:0:0:0:
208,332,68689,1,0,3:2:0:0:
208,332,68772,1,0,3:2:0:0:
208,332,68855,2,0,L|294:342,1,70,2|0,1:1|1:2,0:0:0:0:
373,362,69189,1,2,1:2:0:0:
423,273,69355,2,0,P|449:282|472:309,2,35,2|0|2,1:2|1:2|1:2,0:0:0:0:
369,190,69689,1,2,1:2:0:0:
369,190,69772,1,0,1:2:0:0:
369,190,69855,6,0,P|415:193|452:103,2,140,6|0|0,3:1|1:2|3:2,0:0:0:0:
317,105,70689,1,0,0:0:0:0:
240,44,70855,2,0,P|200:65|147:63,1,70,2|0,1:2|0:0,0:0:0:0:
53,114,71189,6,0,P|83:162|85:250,1,140,6|2,3:2|1:2,0:0:0:0:
54,336,71689,2,0,P|93:336|132:317,1,70,2|0,0:0|3:2,0:0:0:0:
207,357,72022,2,0,P|230:331|263:319,1,70,2|0,0:0|1:2,0:0:0:0:
318,232,72355,1,2,0:0:0:0:
318,232,72522,6,0,B|357:235|357:235|353:267|381:351,1,140,0|2,3:2|1:2,0:0:0:0:
463,290,73022,1,0,3:2:0:0:
463,290,73189,2,0,P|448:235|458:206,1,70,2|0,3:2|3:2,0:0:0:0:
499,138,73522,1,2,1:2:0:0:
431,34,73689,6,0,P|374:23|314:78,1,140,6|0,3:1|3:2,0:0:0:0:
327,170,74189,1,0,1:2:0:0:
241,127,74355,2,0,P|215:97|177:88,1,70,4|2,1:2|0:0,0:0:0:0:
117,17,74689,2,0,P|138:3|164:-3,2,35,8|8|0,0:3|0:3|1:2,0:0:0:0:
75,104,75022,1,2,1:2:0:0:
75,104,75105,1,0,1:2:0:0:
75,104,75189,6,0,P|112:138|121:164,1,70,6|0,1:1|3:2,0:0:0:0:
201,209,75522,2,0,P|164:243|155:269,1,70,0|2,1:2|3:2,0:0:0:0:
75,315,75855,2,0,P|112:349|121:375,1,70,0|2,1:2|3:2,0:0:0:0:
217,373,76189,1,2,1:2:0:0:
281,301,76355,1,2,3:2:0:0:
281,301,76439,1,0,3:2:0:0:
281,301,76522,6,0,P|298:263|303:219,1,70,2|2,1:1|3:2,0:0:0:0:
254,149,76855,2,0,P|216:135|178:137,1,70,2|2,1:2|3:2,0:0:0:0:
239,51,77189,2,0,P|271:38|315:39,1,70,0|2,1:2|3:2,0:0:0:0:
410,30,77522,1,2,1:2:0:0:
454,117,77689,1,2,3:2:0:0:
454,117,77772,1,0,3:0:0:0:
454,117,77855,6,0,P|466:164|468:208,1,70,2|2,1:1|3:2,0:0:0:0:
388,243,78189,2,0,P|376:290|374:334,1,70,2|2,1:2|3:2,0:0:0:0:
280,339,78522,2,0,P|252:316|197:311,1,70,2|2,1:2|3:2,0:0:0:0:
141,367,78855,1,0,1:2:0:0:
78,291,79022,1,2,3:2:0:0:
78,291,79105,1,0,3:2:0:0:
78,291,79189,6,0,P|97:243|94:199,1,70,2|2,1:1|3:2,0:0:0:0:
33,150,79522,2,0,P|14:102|17:58,1,70,2|2,1:2|3:2,0:0:0:0:
90,23,79855,1,0,1:2:0:0:
135,110,80022,1,2,3:2:0:0:
207,43,80189,2,0,P|258:47|280:58,1,70,0|2,1:2|3:2,0:0:0:0:
405,109,80522,6,0,P|356:154|362:252,1,140,4|0,1:2|3:2,0:0:0:0:
379,317,81022,2,0,P|330:338|288:330,1,70,0|0,3:2|0:0,0:0:0:0:
207,343,81355,1,2,3:2:0:0:
133,277,81522,1,2,1:2:0:0:
219,217,81689,1,2,3:2:0:0:
219,217,81772,1,0,3:2:0:0:
219,217,81855,6,0,P|192:165|158:151,1,70,0|2,1:2|1:2,0:0:0:0:
86,143,82189,1,2,0:0:0:0:
151,71,82355,2,0,P|202:71|230:62,1,70,10|0,0:3|0:0,0:0:0:0:
307,114,82689,1,10,0:3:0:0:
376,45,82855,1,6,0:3:0:0:
448,111,83022,1,6,0:3:0:0:
448,111,83105,1,2,0:0:0:0:
448,111,83189,6,0,P|400:157|400:256,1,140,6|0,1:1|0:0,0:0:0:0:
426,318,83689,2,0,P|445:317|465:303,2,35,8|8|4,0:3|0:3|0:3,0:0:0:0:
132,339,84355,1,10,0:3:0:0:
132,339,84439,1,8,0:3:0:0:
132,339,84522,6,0,P|131:294|123:219,1,112,6|0,0:3|0:0,0:0:0:0:
66,174,85022,2,0,P|105:150|174:167,1,112,2|8,0:0|0:3,0:0:0:0:
269,168,85522,1,6,0:3:0:0:
269,168,85855,6,0,P|268:209|267:284,1,112,6|2,1:2|0:0,0:0:0:0:
212,336,86355,2,0,P|273:317|322:356,1,112,2|2,0:0|3:2,0:0:0:0:
343,266,86855,1,2,0:0:0:0:
343,266,87022,2,0,P|376:299|377:380,2,112,2|2|2,3:2|3:2|0:0,0:0:0:0:
383,198,87855,2,0,P|421:191|460:177,1,56,2|0,3:2|0:0,0:0:0:0:
466,112,88189,1,6,0:3:0:0:
407,59,88355,1,6,0:3:0:0:
407,59,88439,1,2,0:0:0:0:
407,59,88522,6,0,P|375:60|277:44,1,112,6|0,1:2|0:0,0:0:0:0:
233,96,89022,2,0,P|260:120|302:128,2,56,2|0|2,0:0|0:0|3:2,0:0:0:0:
155,107,89522,1,2,0:0:0:0:
155,107,89689,2,0,P|106:87|89:34,2,112,6|2|2,3:2|1:2|1:2,0:0:0:0:
127,180,90522,2,0,P|75:184|51:187,1,56,0|2,1:2|1:2,0:0:0:0:
71,262,90855,2,0,L|22:249,3,28,2|0|2|0,1:2|1:2|1:2|1:2,0:0:0:0:
101,270,91189,6,0,P|141:270|177:354,1,140,6|0,3:2|1:2,0:0:0:0:
275,339,91689,2,0,P|313:326|362:326,1,70,0|0,1:2|1:2,0:0:0:0:
419,263,92022,1,0,1:2:0:0:
377,173,92189,1,0,1:2:0:0:
447,118,92355,1,0,1:2:0:0:
447,118,92439,1,0,1:2:0:0:
447,118,92522,6,0,P|399:81|314:110,1,140,0|0,3:2|1:2,0:0:0:0:
258,168,93022,1,0,1:2:0:0:
225,75,93189,1,0,1:2:0:0:
159,147,93355,2,0,L|156:186,2,35,0|0|0,1:2|1:2|1:2,0:0:0:0:
67,108,93689,1,0,1:2:0:0:
67,108,93772,1,0,1:2:0:0:
67,108,93855,6,0,L|56:203,1,70,0|0,3:2|1:2,0:0:0:0:
20,268,94189,1,0,1:2:0:0:
85,340,94355,1,0,1:2:0:0:
150,266,94522,2,0,P|203:286|237:280,1,70,0|0,1:2|1:2,0:0:0:0:
289,349,94855,1,0,1:2:0:0:
358,280,95022,1,6,1:2:0:0:
256,192,95189,12,6,96522,0:0:0:0:
192,263,107189,6,0,P|237:277|264:360,1,125.999996154785,6|0,3:2|3:2,0:0:0:0:
354,359,107689,1,0,0:0:0:0:
427,311,107855,2,0,L|492:293,1,62.9999980773926,0|2,3:2|0:0,0:0:0:0:
476,205,108189,1,2,3:2:0:0:
476,205,108355,1,2,0:0:0:0:
455,119,108522,6,0,P|401:158|388:226,1,125.999996154785,0|0,3:2|3:2,0:0:0:0:
325,279,109022,2,0,P|298:231|298:210,1,62.9999980773926,0|2,0:0|3:2,0:0:0:0:
327,141,109355,1,2,0:0:0:0:
273,70,109522,2,0,P|244:101|235:126,1,62.9999980773926,2|2,3:2|0:0,0:0:0:0:
212,204,109855,6,0,P|161:160|164:79,1,125.999996154785,6|0,1:2|3:2,0:0:0:0:
81,55,110355,2,0,L|61:121,1,62.9999980773926,2|0,0:0|3:2,0:0:0:0:
16,190,110689,6,0,P|67:234|64:315,1,125.999996154785,2|0,0:0|0:0,0:0:0:0:
129,357,111189,6,0,P|165:331|242:363,1,125.999996154785,2|2,3:2|3:2,0:0:0:0:
303,297,111689,1,2,0:0:0:0:
303,297,111855,2,0,P|292:267|255:245,1,62.9999980773926,0|0,3:2|0:0,0:0:0:0:
179,259,112189,1,0,0:0:0:0:
179,259,112522,6,0,P|136:254|108:180,1,125.999996154785,6|2,1:2|3:2,0:0:0:0:
32,135,113022,2,0,P|76:102|161:117,1,125.999996154785,2|0,0:0|0:0,0:0:0:0:
215,158,113522,1,2,3:2:0:0:
259,81,113689,2,0,P|294:55|336:128,1,125.999996154785,2|2,0:0|0:0,0:0:0:0:
374,191,114189,1,2,3:2:0:0:
374,191,114355,2,0,P|415:196|437:214,2,62.9999980773926,2|0|0,0:0|3:2|0:0,0:0:0:0:
357,277,114855,1,2,3:2:0:0:
436,315,115022,1,2,0:0:0:0:
278,315,115189,5,6,3:2:0:0:
278,315,115522,2,0,L|260:225,1,62.9999980773926,2|0,0:0|3:2,0:0:0:0:
282,166,115855,1,2,1:2:0:0:
282,166,116189,2,0,P|220:174|179:221,1,125.999996154785,6|0,3:2|0:0,0:0:0:0:
118,284,116689,5,0,3:2:0:0:
60,350,116855,2,0,P|34:320|30:289,1,62.9999980773926,0|0,1:2|1:2,0:0:0:0:
65,216,117189,1,0,1:2:0:0:
25,137,117355,2,0,P|33:106|55:84,1,62.9999980773926,0|0,1:2|1:2,0:0:0:0:
131,35,117689,1,0,1:2:0:0:
131,35,117772,1,0,1:2:0:0:
131,35,117855,6,0,P|183:49|226:109,1,125.999996154785,6|2,3:2|3:2,0:0:0:0:
220,193,118355,2,0,P|258:195|288:196,1,62.9999980773926,2|0,0:0|0:0,0:0:0:0:
350,138,118689,1,2,3:2:0:0:
350,138,119022,6,0,L|440:142,1,62.9999980773926,6|0,3:2|0:0,0:0:0:0:
495,171,119355,2,0,P|476:196|450:212,1,62.9999980773926,2|0,3:2|1:2,0:0:0:0:
405,291,119689,2,0,P|345:268|276:297,1,125.999996154785,2|0,3:2|1:2,0:0:0:0:
320,368,120189,2,0,L|369:340,2,31.4999990386963,0|0|0,1:2|1:2|1:2,0:0:0:0:
204,339,120522,5,6,3:2:0:0:
182,324,120855,1,2,1:2:0:0:
54,158,121355,5,0,1:2:0:0:
76,173,121689,2,0,P|72:220|66:307,1,125.999996154785,2|2,3:2|1:2,0:0:0:0:
137,351,122189,1,2,1:2:0:0:
202,292,122355,1,0,3:2:0:0:
202,292,122522,2,0,L|197:237,2,31.4999990386963,10|8|0,0:3|0:3|3:2,0:0:0:0:
269,351,122855,1,2,1:2:0:0:
334,292,123022,1,2,1:2:0:0:
334,292,123105,1,0,1:2:0:0:
334,292,123189,6,0,L|378:166,1,125.999996154785,6|2,3:2|0:0,0:0:0:0:
352,83,123689,1,2,0:0:0:0:
352,83,124022,2,0,P|343:53|320:33,2,62.9999980773926,2|2|2,0:0|0:0|3:2,0:0:0:0:
263,102,124522,6,0,P|198:87|116:87,1,125.999996154785,6|0,1:2|0:0,0:0:0:0:
70,140,125022,2,0,P|53:108|51:75,2,62.9999980773926,2|2|2,0:0|0:0|0:0,0:0:0:0:
38,222,125522,2,0,P|79:232|91:292,1,94.499997116089,2|0,0:0|0:0,0:0:0:0:
111,319,125855,6,0,P|151:320|241:352,1,125.999996154785,6|0,1:2|1:2,0:0:0:0:
299,289,126355,1,0,1:2:0:0:
299,289,126522,2,0,P|339:290|384:299,1,62.9999980773926,2|0,1:2|1:2,0:0:0:0:
443,259,126855,1,0,1:2:0:0:
394,185,127022,1,0,1:2:0:0:
441,110,127189,6,0,P|391:93|320:136,1,125.999996154785,2|0,1:2|1:2,0:0:0:0:
269,57,127689,1,0,1:2:0:0:
269,57,127855,2,0,P|218:54|188:61,1,62.9999980773926,2|0,1:2|1:2,0:0:0:0:
124,90,128189,1,0,1:2:0:0:
192,145,128355,1,0,1:2:0:0:
110,179,128522,6,0,P|68:198|50:217,1,62.9999980773926,2|0,1:2|1:2,0:0:0:0:
68,296,128855,2,0,P|104:300|147:325,1,62.9999980773926,2|0,1:2|1:2,0:0:0:0:
209,347,129189,2,0,P|245:343|288:318,1,62.9999980773926,2|0,1:2|1:2,0:0:0:0:
308,253,129522,2,0,P|342:281|354:317,1,62.9999980773926,2|0,1:2|1:2,0:0:0:0:
408,371,129855,6,0,L|438:361,3,31.4999990386963,2|0|0|0,1:2|1:2|1:2|1:2,0:0:0:0:
452,317,130189,2,0,L|456:282,3,31.4999990386963,0|0|2|0,1:2|1:2|1:2|1:2,0:0:0:0:
454,250,130522,2,0,L|432:218,3,31.4999990386963,0|0|0|0,1:2|1:2|1:2|1:2,0:0:0:0:
421,181,130855,2,0,L|444:146,3,31.4999990386963,2|0|0|0,1:2|1:2|1:2|1:2,0:0:0:0:
449,113,131189,5,0,1:2:0:0:
449,113,131355,1,0,1:2:0:0:
387,31,131689,5,0,1:2:0:0:
387,31,131855,1,0,1:2:0:0:
239,131,132189,5,2,1:2:0:0:
239,131,132522,6,0,P|305:142|379:169,1,140,14|0,3:1|1:2,0:0:0:0:
334,256,133022,1,0,0:0:0:0:
259,319,133189,2,0,P|224:313|189:317,1,70,0|0,3:2|0:0,0:0:0:0:
98,354,133522,2,0,P|58:340|23:336,1,70,2|0,1:2|3:2,0:0:0:0:
39,238,133855,6,0,L|49:144,1,70,2|0,0:0|3:2,0:0:0:0:
82,76,134189,1,2,1:2:0:0:
155,155,134355,1,2,3:2:0:0:
155,155,134439,1,0,1:2:0:0:
155,155,134522,2,0,L|179:244,1,70,0|2,3:2|3:2,0:0:0:0:
265,188,134855,1,0,1:2:0:0:
247,91,135022,1,2,0:0:0:0:
334,46,135189,6,0,P|420:40|464:87,1,140,2|2,3:1|1:2,0:0:0:0:
380,127,135689,1,0,0:0:0:0:
457,186,135855,2,0,P|462:244|453:273,1,70,2|0,3:2|3:2,0:0:0:0:
428,348,136189,1,2,1:2:0:0:
361,277,136355,1,2,3:2:0:0:
289,344,136522,6,0,P|220:338|158:371,1,140,2|0,0:1|1:2,0:0:0:0:
71,355,137022,1,0,1:2:0:0:
71,355,137105,1,0,1:2:0:0:
71,355,137188,1,2,3:1:0:0:
112,266,137355,1,0,3:2:0:0:
62,181,137522,2,0,P|23:157|-16:155,1,70,0|0,1:2|1:2,0:0:0:0:
103,68,137855,6,0,P|171:58|219:118,1,140,6|2,3:1|1:2,0:0:0:0:
204,204,138355,1,2,0:0:0:0:
139,278,138522,1,0,3:2:0:0:
219,334,138689,2,0,P|253:327|288:327,1,70,2|0,3:2|1:2,0:0:0:0:
326,235,139022,6,0,P|342:147|298:104,1,140,2|0,3:2|3:2,0:0:0:0:
241,45,139522,2,0,P|193:40|147:47,1,70,2|0,1:2|3:2,0:0:0:0:
134,73,139772,1,0,1:2:0:0:
134,73,139855,1,2,3:2:0:0:
64,142,140022,1,0,3:2:0:0:
144,198,140189,2,0,P|178:191|213:191,1,70,2|0,1:2|3:2,0:0:0:0:
280,298,140522,6,0,P|266:227|208:190,1,140,6|2,1:1|3:2,0:0:0:0:
115,362,141022,6,0,P|177:339|199:274,1,140,6|2,1:1|3:2,0:0:0:0:
102,141,141522,6,0,P|112:210|118:294,1,140,6|0,1:1|1:2,0:0:0:0:
20,276,142022,1,0,3:2:0:0:
20,276,142105,1,0,3:2:0:0:
20,276,142189,2,0,L|9:181,1,70,2|2,1:1|1:2,0:0:0:0:
28,109,142522,1,2,1:2:0:0:
115,66,142688,2,0,L|96:31,2,35,2|0|2,1:2|1:2|1:2,0:0:0:0:
221,78,143022,1,2,1:2:0:0:
221,78,143105,1,0,1:2:0:0:
221,78,143188,6,0,P|267:67|381:71,1,140,6|0,3:1|1:2,0:0:0:0:
416,153,143689,1,2,0:0:0:0:
416,153,143855,2,0,P|367:158|324:163,1,70,0|2,3:2|0:0,0:0:0:0:
271,224,144189,1,2,1:2:0:0:
217,142,144355,6,0,L|220:54,1,70,2|2,0:0|3:2,0:0:0:0:
132,24,144689,2,0,L|33:22,1,70,2|0,0:0|1:2,0:0:0:0:
15,108,145022,2,0,L|13:189,1,70,2|0,0:0|3:2,0:0:0:0:
95,231,145355,2,0,L|186:233,1,70,2|0,0:0|1:2,0:0:0:0:
259,260,145689,1,2,0:0:0:0:
384,342,145855,6,0,P|459:347|498:268,1,140,6|2,3:2|1:2,0:0:0:0:
457,222,146355,1,0,3:2:0:0:
457,222,146439,1,0,3:2:0:0:
457,222,146522,2,0,L|456:133,1,70,0|0,3:2|3:2,0:0:0:0:
447,38,146855,6,0,P|401:38|299:18,1,140,6|0,1:1|0:0,0:0:0:0:
257,112,147355,1,0,3:2:0:0:
257,112,147522,2,0,P|233:77|205:58,1,70,0|0,1:2|1:2,0:0:0:0:
166,149,147855,2,0,L|166:186,3,35,0|0|0|0,1:2|1:2|1:2|1:2,0:0:0:0:
216,189,148189,2,0,L|218:228,3,35,2|0|2|0,1:2|1:2|1:2|1:2,0:0:0:0:
265,239,148522,6,0,L|265:314,1,70,6|0,1:1|3:2,0:0:0:0:
373,245,148855,2,0,L|374:159,1,70,0|2,1:2|3:2,0:0:0:0:
410,95,149189,2,0,P|352:78|319:89,1,70,0|2,1:2|3:2,0:0:0:0:
262,133,149522,1,2,1:2:0:0:
215,46,149689,1,2,3:2:0:0:
215,46,149772,1,0,3:0:0:0:
215,46,149855,6,0,P|177:80|168:105,1,70,2|2,1:1|3:2,0:0:0:0:
87,139,150189,2,0,P|125:173|134:198,1,70,2|2,1:2|3:2,0:0:0:0:
216,239,150522,2,0,P|178:273|169:298,1,70,0|2,1:2|3:2,0:0:0:0:
241,358,150855,1,2,1:2:0:0:
320,300,151022,1,2,3:2:0:0:
320,300,151105,1,0,3:2:0:0:
320,300,151189,6,0,P|361:314|430:235,1,140,2|2,1:1|1:2,0:0:0:0:
502,192,151689,2,0,P|480:148|481:104,1,70,2|2,3:2|1:2,0:0:0:0:
414,52,152022,1,2,3:2:0:0:
344,121,152189,2,0,P|306:94|260:91,1,70,0|2,1:2|3:2,0:0:0:0:
178,20,152522,6,0,L|200:165,1,140,2|2,1:1|1:2,0:0:0:0:
189,256,153022,1,2,3:2:0:0:
111,196,153189,1,0,1:2:0:0:
62,278,153355,2,0,L|19:250,2,35,2|0|0,3:2|3:2|1:2,0:0:0:0:
140,354,153689,1,2,3:2:0:0:
140,354,153772,1,0,3:2:0:0:
140,354,153855,6,0,P|208:346|291:358,1,140,6|0,1:2|3:2,0:0:0:0:
316,264,154355,2,0,P|341:278|368:315,1,70,0|0,3:2|0:0,0:0:0:0:
457,273,154689,1,2,3:2:0:0:
404,190,154855,1,2,1:2:0:0:
467,116,155022,1,2,3:2:0:0:
467,116,155105,1,0,3:2:0:0:
467,116,155189,6,0,P|409:94|379:94,1,70,0|2,1:2|1:2,0:0:0:0:
303,99,155522,1,2,0:0:0:0:
256,16,155689,2,0,P|222:43|211:88,1,70,10|0,0:3|0:0,0:0:0:0:
184,160,156022,1,10,0:3:0:0:
98,101,156189,1,6,0:3:0:0:
55,189,156355,1,6,0:3:0:0:
55,189,156439,1,2,0:0:0:0:
55,189,156522,6,0,L|53:262,1,70,6|0,1:1|3:2,0:0:0:0:
133,315,156855,2,0,L|134:222,1,70,0|0,1:2|0:0,0:0:0:0:
184,160,157189,1,0,3:2:0:0:
240,239,157355,1,0,3:2:0:0:
240,239,157522,1,0,1:2:0:0:
363,183,157689,6,0,B|326:148|326:148|337:52,1,140,6|0,3:2|3:2,0:0:0:0:
421,11,158189,2,0,P|454:3|489:9,1,70,2|0,1:2|3:2,0:0:0:0:
474,106,158522,2,0,L|472:165,3,35,2|0|0|0,1:2|1:2|1:2|1:2,0:0:0:0:
454,186,158855,2,0,L|461:248,3,35,2|0|2|0,1:2|1:2|1:2|1:2,0:0:0:0:
436,267,159189,5,6,1:2:0:0:
436,267,159355,1,2,1:2:0:0:
369,196,159689,5,2,1:2:0:0:
369,196,159855,1,2,1:2:0:0:
367,341,160189,5,2,1:2:0:0:
367,341,160355,1,2,1:2:0:0:
300,270,160689,5,2,1:2:0:0:
300,270,160855,1,2,1:2:0:0:
172,311,161189,2,0,P|193:367|265:341,1,140,2|2,1:2|1:2,0:0:0:0:
300,270,161689,6,0,L|294:101,1,140,6|0,3:2|3:2,0:0:0:0:
363,60,162189,2,0,P|332:38|269:38,1,70,2|0,1:2|0:0,0:0:0:0:
213,76,162522,2,0,P|178:76|143:70,1,70,0|0,3:2|0:0,0:0:0:0:
54,29,162855,1,0,1:2:0:0:
11,117,163022,1,2,0:0:0:0:
94,168,163189,6,0,L|264:170,1,140,2|2,0:0|1:2,0:0:0:0:
284,265,163689,1,0,3:2:0:0:
284,265,163772,1,0,1:2:0:0:
284,265,163855,2,0,P|323:256|369:253,1,70,2|0,3:2|3:2,0:0:0:0:
408,171,164189,2,0,P|450:177|485:188,1,70,2|0,1:2|0:0,0:0:0:0:
495,88,164522,6,0,P|428:64|350:53,1,140,2|0,3:2|1:2,0:0:0:0:
268,19,165022,2,0,P|233:18|200:29,1,70,2|0,0:0|3:2,0:0:0:0:
184,132,165355,1,2,3:2:0:0:
184,132,165439,1,2,0:0:0:0:
184,132,165522,2,0,P|149:101|51:106,1,140,2|0,1:2|0:0,0:0:0:0:
16,188,166022,6,0,L|10:268,1,70,2|2,3:2|1:2,0:0:0:0:
97,323,166355,1,2,3:2:0:0:
97,323,166439,1,0,1:2:0:0:
97,323,166522,2,0,L|104:250,1,70,2|2,3:2|3:2,0:0:0:0:
174,185,166855,1,2,1:2:0:0:
209,281,167022,1,2,1:2:0:0:
209,281,167105,1,0,1:2:0:0:
209,281,167189,6,0,B|262:240|262:240|271:146,1,140,6|2,3:2|1:2,0:0:0:0:
295,72,167689,1,0,0:0:0:0:
380,119,167855,2,0,L|386:208,1,70,0|2,3:2|3:2,0:0:0:0:
468,241,168189,1,0,1:2:0:0:
475,143,168355,1,2,3:2:0:0:
449,48,168522,6,0,P|412:32|359:29,1,70,2|0,0:0|3:2,0:0:0:0:
295,72,168855,1,0,1:2:0:0:
228,143,169022,1,0,3:2:0:0:
228,143,169105,1,0,1:2:0:0:
228,143,169189,2,0,P|229:184|230:219,1,70,2|2,3:2|3:2,0:0:0:0:
322,243,169522,2,0,P|321:277|320:312,1,70,0|2,1:2|0:0,0:0:0:0:
234,361,169855,6,0,P|174:327|108:344,1,140,0|0,3:2|1:2,0:0:0:0:
36,276,170355,1,2,0:0:0:0:
115,218,170522,2,0,L|109:128,1,70,0|2,3:2|3:2,0:0:0:0:
25,98,170855,1,2,1:2:0:0:
104,40,171022,1,6,3:2:0:0:
191,85,171189,6,0,P|225:85|258:97,1,70,2|0,0:0|1:2,0:0:0:0:
310,180,171522,1,0,1:2:0:0:
295,277,171689,1,0,1:2:0:0:
220,214,171855,1,2,1:2:0:0:
220,214,172022,1,0,1:2:0:0:
174,301,172189,2,0,L|112:296,3,35,0|0|0|0,1:2|1:2|1:2|1:2,0:0:0:0:
94,277,172522,6,0,L|96:191,1,70,6|0,1:2|3:2,0:0:0:0:
41,124,172855,2,0,L|50:33,1,70,0|0,1:2|3:2,0:0:0:0:
143,27,173189,2,0,P|177:11|228:18,1,70,2|0,1:2|3:2,0:0:0:0:
267,96,173522,1,0,1:2:0:0:
267,96,173689,1,0,3:2:0:0:
174,127,173855,6,0,P|178:188|180:277,1,140,2|0,1:2|1:2,0:0:0:0:
249,335,174355,1,0,3:2:0:0:
318,265,174522,2,0,L|314:212,2,35,2|0|0,1:2|1:2|3:2,0:0:0:0:
380,340,174855,1,0,1:2:0:0:
436,262,175022,1,0,1:2:0:0:
436,262,175105,1,0,1:2:0:0:
436,262,175189,5,6,1:2:0:0:
321,196,175355,1,6,1:2:0:0:
321,196,176022,2,0,P|276:206|246:245,1,70,6|0,3:2|0:0,0:0:0:0:
165,190,176355,6,0,P|227:227|238:302,1,140,6|0,3:2|3:2,0:0:0:0:
189,373,176855,1,0,1:2:0:0:
94,347,177022,1,0,1:2:0:0:
159,273,177189,1,0,1:2:0:0:
79,217,177355,1,0,1:2:0:0:
95,120,177522,2,0,P|114:108|151:109,3,35,0|0|0|0,1:2|1:2|1:2|1:2,0:0:0:0:
155,65,177855,6,0,P|202:75|237:99,1,70,6|0,3:2|0:0,0:0:0:0:
303,139,178189,2,0,P|334:123|368:118,1,70,2|0,3:2|0:0,0:0:0:0:
442,53,178522,2,0,L|459:196,1,140,2|2,3:2|3:2,0:0:0:0:
489,285,179022,1,2,0:0:0:0:
406,326,179189,6,0,P|368:291|332:287,1,70,0|0,3:2|0:0,0:0:0:0:
253,275,179522,1,0,3:2:0:0:
253,275,179689,2,0,P|195:300|112:353,1,140,2|2,0:0|0:0,0:0:0:0:
36,372,180189,1,2,3:2:0:0:
48,274,180355,1,2,0:0:0:0:
48,274,180522,6,0,P|68:221|70:176,1,70,2|0,3:2|0:0,0:0:0:0:
12,128,180855,2,0,P|15:92|25:57,1,70,2|0,3:2|0:0,0:0:0:0:
115,22,181189,2,0,P|163:32|209:123,1,140,2|2,3:2|3:2,0:0:0:0:
286,166,181689,1,2,0:0:0:0:
369,114,181855,6,0,L|454:133,1,70,0|0,3:2|0:0,0:0:0:0:
442,227,182189,2,0,L|288:211,2,140,0|2|0,3:2|3:2|3:2,0:0:0:0:
254,284,183189,6,0,L|166:284,1,70,2|2,3:2|0:0,0:0:0:0:
127,360,183522,1,2,3:2:0:0:
127,360,183689,1,2,0:0:0:0:
42,310,183855,2,0,B|88:251|88:251|86:169,1,140,2|2,3:2|3:2,0:0:0:0:
168,131,184355,1,2,0:0:0:0:
258,93,184522,6,0,P|283:118|309:170,1,70,2|2,1:2|0:0,0:0:0:0:
378,207,184855,1,2,3:2:0:0:
472,126,185022,1,0,1:2:0:0:
472,126,185105,1,0,1:2:0:0:
472,126,185189,2,0,P|469:65|458:46,1,70,2|0,3:2|0:0,0:0:0:0:
377,15,185522,2,0,P|328:23|301:42,1,70,2|0,3:2|0:0,0:0:0:0:
214,119,185855,6,0,P|154:79|78:89,1,140,6|2,3:2|3:2,0:0:0:0:
22,156,186355,2,0,P|27:188|114:167,1,140,2|0,1:2|0:0,0:0:0:0:
205,209,186855,2,0,P|200:241|199:286,1,70,2|0,3:2|0:0,0:0:0:0:
238,367,187189,6,0,P|303:351|394:349,1,140,2|2,3:2|3:2,0:0:0:0:
361,250,187689,2,0,L|421:245,2,35,0|0|2,1:2|1:2|3:2,0:0:0:0:
298,177,188022,2,0,L|238:172,2,35,0|0|0,1:2|1:2|1:2,0:0:0:0:
385,131,188355,1,0,1:2:0:0:
385,131,188439,1,0,1:2:0:0:
385,131,188522,6,0,P|346:103|294:96,1,70,6|0,3:2|0:0,0:0:0:0:
268,16,188855,2,0,P|235:27|208:50,1,70,2|0,3:2|0:0,0:0:0:0:
147,127,189189,2,0,P|120:104|87:92,1,70,2|0,3:2|0:0,0:0:0:0:
38,178,189522,1,10,0:3:0:0:
114,239,189689,1,2,0:0:0:0:
55,317,189855,5,4,3:2:0:0:
55,317,190189,2,0,P|98:319|136:338,1,70,2|0,3:2|0:0,0:0:0:0:
206,278,190522,2,0,P|238:289|273:289,1,70,2|0,3:2|0:0,0:0:0:0:
346,356,190855,1,2,3:2:0:0:
346,356,191022,1,0,0:0:0:0:
414,285,191189,6,0,P|412:247|405:209,1,70,2|0,3:2|0:0,0:0:0:0:
337,145,191522,1,2,1:2:0:0:
405,74,191689,1,0,1:2:0:0:
405,74,191772,1,0,1:2:0:0:
405,74,191855,2,0,P|345:51|309:54,1,70,2|8,3:2|0:3,0:0:0:0:
263,112,192189,1,0,3:2:0:0:
164,14,192355,6,0,L|137:151,1,140,6|0,3:2|3:2,0:0:0:0:
85,235,192855,2,0,P|56:207|40:169,2,70,0|0|0,1:2|3:2|1:2,0:0:0:0:
33,317,193355,1,2,3:2:0:0:
125,351,193522,1,2,1:2:0:0:
196,280,193689,1,2,1:2:0:0:
196,280,193772,1,0,1:2:0:0:
196,280,193855,6,0,P|237:306|256:330,1,70,6|2,1:2|1:2,0:0:0:0:
348,339,194189,1,2,1:2:0:0:
424,279,194355,2,0,P|390:244|391:209,1,70,2|0,1:2|1:2,0:0:0:0:
451,149,194689,1,2,1:2:0:0:
397,67,194855,1,2,1:2:0:0:
332,140,195022,6,0,P|269:121|250:121,1,70,2|0,1:2|1:2,0:0:0:0:
197,49,195355,1,0,1:2:0:0:
127,118,195522,1,0,1:2:0:0:
188,194,195689,1,0,1:2:0:0:
108,250,195855,2,0,L|52:226,2,35,2|0|0,1:2|1:2|1:2,0:0:0:0:
176,321,196189,2,0,L|232:297,2,35,2|0|0,1:2|1:2|1:2,0:0:0:0:
264,363,196522,6,0,B|303:314|274:265|274:265|428:299,1,251.999992309571,2|2,0:0|0:0,0:0:0:0:
256,192,197689,12,2,199189,0:0:0:0:
257,191,201855,5,2,0:0:0:0:
87,56,212522,6,0,P|133:71|169:141,1,112,6|0,1:2|0:0,0:0:0:0:
99,162,213022,2,0,L|83:119,2,28,8|8|4,0:3|0:3|0:3,0:0:0:0:
234,78,213522,2,0,P|276:58|307:67,1,56,2|4,0:0|0:3,0:0:0:0:
315,83,213772,1,4,3:0:0:0:
315,83,213855,6,0,P|361:90|439:86,1,112,6|2,1:2|0:0,0:0:0:0:
483,142,214355,2,0,P|468:157|451:164,2,28.1250010728836,10|8|4,0:3|0:3|0:3,0:0:0:0:
361,186,215022,1,6,0:3:0:0:
361,186,215105,1,4,3:2:0:0:
361,186,215189,6,0,P|311:187|287:252,1,112,6|2,1:2|0:0,0:0:0:0:
250,308,215689,1,4,0:3:0:0:
110,337,216189,1,10,0:3:0:0:
110,337,216272,1,0,3:2:0:0:
110,337,216355,6,0,P|101:288|110:242,1,70,6|0,1:2|0:0,0:0:0:0:
25,206,216689,1,0,3:2:0:0:
107,153,216855,2,0,P|142:168|183:215,1,70,0|0,1:2|3:2,0:0:0:0:
260,223,217189,2,0,P|265:170|282:151,1,70,2|0,1:2|3:2,0:0:0:0:
338,83,217522,2,0,P|379:88|409:113,1,70,0|2,1:2|3:2,0:0:0:0:
475,168,217855,6,0,P|431:195|430:286,1,140,6|2,3:2|1:2,0:0:0:0:
227,351,218522,1,2,3:2:0:0:
227,351,218689,1,2,3:2:0:0:
153,276,218855,1,2,1:2:0:0:
153,276,219022,1,6,3:2:0:0:
68,338,219189,6,0,L|69:384,2,35,2|0|0,1:2|1:2|1:2,0:0:0:0:
9,250,219522,2,0,L|9:215,2,35,2|0|0,1:2|1:2|1:2,0:0:0:0:
98,190,219855,1,2,1:2:0:0:
28,120,220022,1,2,1:2:0:0:
97,50,220189,1,2,1:2:0:0:
166,119,220355,1,2,1:2:0:0:
166,119,220855,6,0,P|206:85|341:164,1,210,14|8,3:1|0:3,0:0:0:0:
242,179,221522,2,0,P|229:208|223:251,1,70,2|4,1:2|0:3,0:0:0:0:
133,285,221855,6,0,P|219:282|265:336,1,140,2|2,3:2|1:2,0:0:0:0:
342,362,222355,1,2,1:2:0:0:
385,334,222689,1,2,1:2:0:0:
397,284,223022,6,0,P|391:230|414:146,1,140,14|0,3:1|0:0,0:0:0:0:
423,51,223522,2,0,P|387:53|349:65,1,70,2|0,1:2|0:0,0:0:0:0:
287,134,223855,2,0,P|251:132|213:120,1,70,2|0,3:2|3:2,0:0:0:0:
154,47,224189,1,2,1:2:0:0:
89,120,224355,1,2,3:2:0:0:
160,192,224522,6,0,P|135:247|179:341,1,140,2|0,0:1|1:2,0:0:0:0:
232,258,225022,2,0,P|278:279|297:302,1,70,0|2,1:2|3:1,0:0:0:0:
366,354,225355,1,0,3:2:0:0:
440,290,225522,1,0,1:2:0:0:
384,214,225689,1,0,1:2:0:0:
499,129,225855,6,0,P|442:151|382:93,1,140,6|2,3:1|1:2,0:0:0:0:
406,9,226355,2,0,P|361:5|323:21,1,70,2|0,0:0|3:2,0:0:0:0:
246,41,226689,1,0,3:2:0:0:
246,41,226855,6,0,P|292:79|289:183,1,140,2|0,1:2|0:0,0:0:0:0:
201,133,227355,1,0,3:2:0:0:
142,212,227522,2,0,L|142:304,1,70,2|0,1:2|3:2,0:0:0:0:
160,327,227772,1,0,1:2:0:0:
160,327,227855,1,2,3:2:0:0:
246,374,228022,1,0,3:2:0:0:
298,290,228189,2,0,P|344:279|389:291,1,70,2|0,1:2|1:2,0:0:0:0:
470,157,228522,6,0,P|434:100|365:77,1,140,6|0,1:1|3:2,0:0:0:0:
286,258,229022,6,0,P|313:196|378:174,1,140,6|0,1:1|3:2,0:0:0:0:
509,271,229522,6,0,P|440:261|356:255,1,140,6|0,1:1|1:2,0:0:0:0:
328,348,230022,1,0,3:2:0:0:
328,348,230105,1,0,3:2:0:0:
328,348,230189,2,0,P|270:339|235:351,1,70,2|0,1:1|1:2,0:0:0:0:
196,266,230522,1,2,1:2:0:0:
132,341,230689,2,0,L|126:377,2,35,2|0|2,1:2|1:2|1:2,0:0:0:0:
64,282,231022,1,2,1:2:0:0:
64,282,231105,1,0,1:2:0:0:
64,282,231189,6,0,P|57:228|113:158,2,140,6|0|0,3:1|1:2|3:2,0:0:0:0:
155,245,232022,1,0,0:0:0:0:
253,247,232189,2,0,P|239:202|214:175,1,70,2|0,1:2|0:0,0:0:0:0:
177,57,232522,6,0,P|229:48|328:46,1,140,6|2,3:2|1:2,0:0:0:0:
389,110,233022,2,0,L|442:111,2,35,2|0|0,3:2|1:2|3:2,0:0:0:0:
310,168,233355,1,2,3:0:0:0:
310,168,233439,1,0,3:0:0:0:
310,168,233522,2,0,P|343:205|357:241,1,70,0|2,1:2|0:0,0:0:0:0:
350,321,233855,6,0,P|309:310|278:278,1,70,0|8,3:2|0:3,0:0:0:0:
274,250,234105,1,8,0:3:0:0:
274,250,234189,1,2,1:2:0:0:
197,310,234355,1,0,3:2:0:0:
124,243,234522,2,0,L|123:154,1,70,2|0,3:2|3:2,0:0:0:0:
186,61,234855,6,0,P|239:60|331:71,1,140,6|0,3:1|0:0,0:0:0:0:
382,149,235355,1,0,3:2:0:0:
302,206,235522,1,0,1:2:0:0:
390,259,235689,1,4,3:2:0:0:
316,322,235855,2,0,L|236:320,1,70,2|8,1:2|0:3,0:0:0:0:
161,371,236189,2,0,L|101:366,3,35,0|0|2|0,1:2|1:2|1:2|1:2,0:0:0:0:
85,341,236522,6,0,L|81:267,1,70,6|0,1:1|3:2,0:0:0:0:
0,241,236855,2,0,P|16:210|44:189,1,70,0|2,1:2|3:2,0:0:0:0:
85,100,237188,2,0,P|122:134|131:160,1,70,0|2,1:2|3:2,0:0:0:0:
186,231,237522,1,2,1:2:0:0:
289,221,237688,1,2,3:2:0:0:
289,221,237772,1,0,3:0:0:0:
289,221,237855,6,0,P|306:183|311:139,1,70,2|2,1:1|3:2,0:0:0:0:
253,75,238188,2,0,P|282:62|339:67,1,70,2|2,1:2|3:2,0:0:0:0:
399,119,238522,2,0,P|399:154|420:207,1,70,0|2,1:2|3:2,0:0:0:0:
469,264,238855,1,2,1:2:0:0:
415,348,239022,1,2,3:2:0:0:
415,348,239105,1,0,3:0:0:0:
415,348,239188,6,0,P|368:351|328:338,1,70,2|2,1:1|3:2,0:0:0:0:
280,272,239522,2,0,P|243:269|191:272,1,70,2|2,1:2|3:2,0:0:0:0:
156,352,239855,2,0,P|119:349|67:352,1,70,2|2,1:2|3:2,0:0:0:0:
16,280,240188,1,0,1:2:0:0:
101,227,240355,1,2,3:2:0:0:
101,227,240438,1,0,3:2:0:0:
101,227,240522,6,0,P|120:179|117:135,1,70,2|2,1:1|3:2,0:0:0:0:
26,135,240855,2,0,P|7:87|10:43,1,70,2|2,1:2|3:2,0:0:0:0:
90,23,241188,1,0,1:2:0:0:
174,72,241355,1,2,3:2:0:0:
256,18,241522,2,0,P|307:22|329:33,1,70,0|2,1:2|3:2,0:0:0:0:
457,103,241855,6,0,P|408:148|414:246,1,140,4|0,1:2|3:2,0:0:0:0:
461,295,242355,2,0,P|412:316|370:308,1,70,0|0,3:2|0:0,0:0:0:0:
292,330,242688,1,2,3:2:0:0:
322,229,242855,1,2,1:2:0:0:
219,217,243022,1,2,3:2:0:0:
219,217,243105,1,0,3:2:0:0:
219,217,243188,6,0,P|192:165|158:151,1,70,0|2,1:2|1:2,0:0:0:0:
86,143,243522,1,2,0:0:0:0:
152,71,243688,2,0,P|203:71|231:62,1,70,10|0,0:3|0:0,0:0:0:0:
307,114,244022,1,10,0:3:0:0:
376,45,244188,1,6,0:3:0:0:
448,111,244355,1,6,0:3:0:0:
448,111,244438,1,2,0:0:0:0:
448,111,244522,6,0,P|400:157|400:256,1,140,6|0,1:1|0:0,0:0:0:0:
324,300,245022,2,0,L|328:353,2,35,8|8|8,0:3|0:3|0:3,0:0:0:0:
224,43,245689,1,10,0:3:0:0:
224,43,245772,1,8,0:3:0:0:
224,43,245855,6,0,L|220:172,1,112,6|0,0:3|0:0,0:0:0:0:
275,216,246355,2,0,P|219:237|162:212,1,112,6|0,0:3|0:0,0:0:0:0:
105,168,246855,1,2,0:0:0:0:
105,168,247189,6,0,L|92:75,1,70,6|2,1:2|0:0,0:0:0:0:
154,28,247522,1,2,3:2:0:0:
154,28,247689,2,0,P|193:23|237:30,1,70,2|0,0:0|3:2,0:0:0:0:
296,95,248022,1,2,0:0:0:0:
374,35,248189,1,2,3:2:0:0:
444,102,248355,6,0,P|424:149|424:183,1,70,2|0,0:0|3:2,0:0:0:0:
366,248,248689,2,0,P|378:287|378:321,1,70,2|0,0:0|3:2,0:0:0:0:
477,352,249022,1,2,0:0:0:0:
378,315,249189,2,0,P|342:301|224:306,1,140,0|6,3:2|0:3,0:0:0:0:
158,330,249689,1,2,1:2:0:0:
158,330,249772,1,0,0:0:0:0:
158,330,249855,6,0,P|167:240|209:205,1,140,6|2,1:2|3:2,0:0:0:0:
298,201,250355,1,2,0:0:0:0:
298,201,250522,2,0,P|343:198|386:209,1,70,0|2,3:2|0:0,0:0:0:0:
341,116,250855,2,0,P|296:113|256:124,1,70,2|2,3:2|0:0,0:0:0:0:
190,62,251189,5,2,1:2:0:0:
190,62,251355,2,0,P|139:51|118:37,1,70,2|2,1:2|1:2,0:0:0:0:
83,131,251689,2,0,P|44:156|23:201,1,70,2|0,1:2|1:2,0:0:0:0:
50,271,252022,2,0,P|100:284|133:273,1,70,2|0,1:2|1:2,0:0:0:0:
188,347,252355,1,0,1:2:0:0:
188,347,252439,1,0,1:2:0:0:
188,347,252522,6,0,P|252:335|277:346,1,70,6|2,3:2|0:0,0:0:0:0:
344,303,252855,1,2,3:2:0:0:
430,350,253022,2,0,L|421:197,1,140,2|2,0:0|0:0,0:0:0:0:
368,128,253522,1,2,1:2:0:0:
286,73,253689,1,2,1:2:0:0:
286,73,253772,1,0,1:2:0:0:
286,73,253855,6,0,P|229:74|190:97,1,70,0|2,3:2|0:0,0:0:0:0:
136,22,254189,1,0,3:2:0:0:
127,119,254355,1,2,0:0:0:0:
54,52,254522,1,0,3:2:0:0:
33,148,254689,2,0,L|-8:151,2,35,2|0|2,1:2|1:2|3:2,0:0:0:0:
104,215,255022,1,2,1:2:0:0:
104,215,255105,1,0,1:2:0:0:
104,215,255189,6,0,P|65:245|53:280,1,70,2|2,1:2|1:2,0:0:0:0:
104,348,255522,1,2,1:2:0:0:
181,287,255689,1,2,1:2:0:0:
258,346,255855,2,0,P|305:340|338:351,1,70,2|2,1:2|1:2,0:0:0:0:
420,315,256189,1,2,1:2:0:0:
365,233,256355,1,6,1:2:0:0:
256,192,256522,12,0,261855,0:0:0:0:
