osu file format v14

[General]
AudioFilename: audio.mp3
AudioLeadIn: 0
PreviewTime: 201855
Countdown: 0
SampleSet: Soft
StackLeniency: 0.6
Mode: 0
LetterboxInBreaks: 0
WidescreenStoryboard: 0

[Editor]
Bookmarks: 129855,177855,221355,237855
DistanceSpacing: 1
BeatDivisor: 8
GridSize: 8
TimelineZoom: 2.5

[Metadata]
Title:Haruoto*Veil
TitleUnicode:春音*ベール
Artist:Ceui
ArtistUnicode:Ceui
Creator:GodKei
Version:Bellicose's Insane
Source:春音アリス*グラム
Tags:Haruoto Alice*Gram Galgame Eroge Opening full version Bellicose door weapon xIced 小高光太郎 ラムシーニ visual novel japanese video game ​jpop pop j-pop NanaWind
BeatmapID:2241822
BeatmapSetID:1067923

[Difficulty]
HPDrainRate:6
CircleSize:3.8
OverallDifficulty:8
ApproachRate:9
SliderMultiplier:1.5
SliderTickRate:1

[Events]
//Background and Video events
0,0,"BG.jpg",0,0
//Break Periods
2,96722,106589
2,202055,211922
//Storyboard Layer 0 (Background)
//Storyboard Layer 1 (Fail)
//Storyboard Layer 2 (Pass)
//Storyboard Layer 3 (Foreground)
//Storyboard Layer 4 (Overlay)
//Storyboard Sound Samples

[TimingPoints]
-2144,333.333333333333,4,2,1,100,1,0
355,-100,4,2,1,40,0,0
522,-100,4,2,1,40,0,0
12522,-83.3333333333333,4,2,1,50,0,0
23188,-100,4,2,1,60,0,0
30855,-100,4,2,1,60,0,0
31105,-100,4,2,1,5,0,0
31188,-100,4,2,1,60,0,0
33022,-90.9090909090909,4,2,1,60,0,0
42106,-90.9090909090909,4,2,1,60,0,0
42189,-90.9090909090909,4,2,1,60,0,0
42772,-90.9090909090909,4,2,1,60,0,0
42855,-83.3333333333333,4,2,1,60,0,0
43355,-90.9090909090909,4,2,1,60,0,0
45939,-90.9090909090909,4,2,1,60,0,0
46022,-90.9090909090909,4,2,1,60,0,0
46272,-90.9090909090909,4,2,1,60,0,0
46355,-90.9090909090909,4,2,1,70,0,0
56522,-100,4,2,1,60,0,0
58855,-100,4,2,1,60,0,0
59105,-100,4,2,1,60,0,0
59189,-76.9230769230769,4,2,1,80,0,1
67189,-66.6666666666667,4,2,1,80,0,1
68522,-76.9230769230769,4,2,1,80,0,1
69855,-71.4285714285714,4,2,1,80,0,1
70522,-76.9230769230769,4,2,1,80,0,1
71105,-76.9230769230769,4,2,1,80,0,1
71189,-66.6666666666667,4,2,1,80,0,1
71522,-76.9230769230769,4,2,1,80,0,1
73689,-71.4285714285714,4,2,1,80,0,1
74689,-76.9230769230769,4,2,1,80,0,1
84522,-100,4,2,1,60,0,0
89939,-100,4,2,1,60,0,0
90022,-100,4,2,1,60,0,0
90605,-100,4,2,1,60,0,0
90689,-100,4,2,1,60,0,0
90855,-100,4,2,1,60,0,0
96522,-100,4,2,1,60,0,0
107105,-100,4,2,1,60,0,0
107189,-100,4,2,1,60,0,0
109772,-100,4,2,1,60,0,0
109855,-100,4,2,1,60,0,0
115439,-100,4,2,1,60,0,0
115522,-100,4,2,1,60,0,0
115772,-100,4,2,1,60,0,0
115855,-100,4,2,1,60,0,0
116105,-100,4,2,1,60,0,0
116189,-100,4,2,1,60,0,0
123189,-100,4,2,1,50,0,0
125772,-100,4,2,1,60,0,0
125855,-90.9090909090909,4,2,1,70,0,0
129855,-90.9090909090909,4,2,1,70,0,0
132439,-100,4,2,1,60,0,0
132522,-76.9230769230769,4,2,1,80,0,1
140522,-66.6666666666667,4,2,1,80,0,1
142355,-76.9230769230769,4,2,1,80,0,1
145855,-71.4285714285714,4,2,1,80,0,1
146772,-100,4,2,1,80,0,1
146855,-66.6666666666667,4,2,1,80,0,1
148522,-76.9230769230769,4,2,1,80,0,1
159189,-100,4,2,1,70,0,0
161689,-83.3333333333333,4,2,1,70,0,0
177855,-100,4,2,1,60,0,0
193855,-90.9090909090909,4,2,1,60,0,0
196522,-111.111111111111,4,2,1,60,0,0
197689,-100,4,2,1,60,0,0
216189,-100,4,2,1,70,0,0
220855,-76.9230769230769,4,2,1,60,0,1
221355,-76.9230769230769,4,2,1,60,0,0
223022,-74.0740740740741,4,2,1,80,0,1
228522,-64.5161290322581,4,2,1,80,0,1
231189,-68.9655172413793,4,2,1,80,0,1
231855,-74.0740740740741,4,2,1,80,0,1
232522,-64.5161290322581,4,2,1,80,0,1
232855,-74.0740740740741,4,2,1,80,0,1
234855,-64.5161290322581,4,2,1,80,0,1
235855,-74.0740740740741,4,2,1,80,0,1
237855,-74.0740740740741,4,2,1,80,0,1
245855,-100,4,2,1,70,0,0
259189,-100,4,2,1,30,0,0

[Colours]
Combo1 : 247,157,157
Combo2 : 224,177,252
Combo3 : 131,180,252
Combo4 : 88,196,112

[HitObjects]
128,224,355,5,0,0:0:0:0:
128,224,439,1,0,0:0:0:0:
128,224,522,2,0,P|195:243|224:235,1,75,2|0,0:0|0:0,0:0:0:0:
272,231,855,1,0,0:0:0:0:
262,315,1022,2,0,P|345:270|403:369,1,225,2|2,0:0|0:0,0:0:0:0:
404,362,1855,6,0,L|383:266,1,75,2|0,0:0|0:0,0:0:0:0:
425,222,2189,1,0,0:0:0:0:
350,164,2355,2,0,P|428:167|468:107,1,150,2|0,0:0|0:0,0:0:0:0:
452,40,2855,1,2,0:0:0:0:
378,26,3022,1,2,0:0:0:0:
254,73,3189,6,0,P|304:75|344:114,1,75,2|0,0:0|0:0,0:0:0:0:
332,162,3522,1,0,0:0:0:0:
265,225,3689,2,0,B|147:214|215:106|71:105,1,225,2|2,0:0|0:0,0:0:0:0:
24,144,4355,1,2,0:0:0:0:
75,264,4522,6,0,L|97:176,1,75,2|0,0:0|0:0,0:0:0:0:
161,160,4855,1,0,0:0:0:0:
89,105,5022,2,0,P|137:46|215:73,1,150,2|2,0:0|0:0,0:0:0:0:
270,91,5522,1,2,0:0:0:0:
342,72,5689,1,2,0:0:0:0:
334,199,5855,6,0,P|300:176|242:180,1,75,2|0,0:0|0:0,0:0:0:0:
206,218,6189,1,2,0:0:0:0:
206,218,6355,2,0,L|221:310,2,75,0|0|2,0:0|0:0|0:0,0:0:0:0:
135,295,6855,2,0,L|150:387,1,75,2|2,0:0|0:0,0:0:0:0:
122,207,7189,6,0,P|60:215|22:81,2,225,2|2|2,0:0|0:0|0:0,0:0:0:0:
122,207,8522,6,0,L|219:198,1,75,2|0,0:0|0:0,0:0:0:0:
256,154,8855,1,0,0:0:0:0:
256,154,9022,2,0,L|246:51,1,75,2|2,0:0|0:0,0:0:0:0:
180,47,9355,2,0,L|82:57,1,75,2|2,0:0|0:0,0:0:0:0:
42,96,9689,1,2,0:0:0:0:
99,234,10022,6,0,L|92:316,1,75,2|2,0:0|0:0,0:0:0:0:
152,362,10355,1,2,0:0:0:0:
152,362,10522,2,0,L|259:357,1,75,2|2,0:0|0:0,0:0:0:0:
352,276,11022,1,2,0:0:0:0:
256,192,11105,12,0,12355,0:0:0:0:
149,116,12522,6,0,P|191:117|248:155,1,89.9999972534181,6|2,1:2|0:0,0:0:0:0:
275,218,12855,1,2,0:0:0:0:
275,218,13022,2,0,P|275:149|390:111,1,179.999994506836,2|2,0:0|0:0,0:0:0:0:
437,155,13522,1,2,0:0:0:0:
437,155,13689,2,0,B|483:185|483:185|450:332,2,179.999994506836,2|2|0,0:0|0:0|0:0,0:0:0:0:
361,203,14522,2,0,L|268:194,1,89.9999972534181,2|2,0:0|0:0,0:0:0:0:
151,287,14855,2,0,L|241:279,1,89.9999972534181,2|2,3:2|0:0,0:0:0:0:
301,346,15189,6,0,P|358:303|457:362,1,179.999994506836,6|0,1:2|0:0,0:0:0:0:
490,263,15689,1,2,0:0:0:0:
490,263,15855,2,0,L|474:155,1,89.9999972534181,0|2,0:0|0:0,0:0:0:0:
457,85,16189,2,0,B|413:95|396:134|396:134|370:107|346:104,1,134.999995880127,2|0,0:0|0:0,0:0:0:0:
311,85,16522,6,0,P|198:109|331:184,2,359.999989013672,2|0|6,0:0|0:0|1:2,0:0:0:0:
395,117,18022,1,2,3:2:0:0:
395,117,18189,2,0,L|494:111,1,89.9999972534181,2|2,1:2|0:0,0:0:0:0:
408,293,18522,2,0,L|410:191,1,89.9999972534181,0|2,1:2|3:2,0:0:0:0:
237,307,18855,2,0,L|297:300,3,44.999998626709,0|0|0|0,1:2|1:2|1:2|1:2,0:0:0:0:
325,289,19189,6,0,L|203:271,1,89.9999972534181,2|0,1:2|3:2,0:0:0:0:
150,369,19522,1,0,1:2:0:0:
107,289,19689,1,0,1:2:0:0:
107,289,19772,1,0,1:2:0:0:
107,289,19855,2,0,L|131:165,1,89.9999972534181,0|0,1:2|1:2,0:0:0:0:
129,178,20105,1,0,1:2:0:0:
134,156,20189,1,0,1:2:0:0:
212,204,20355,1,0,1:2:0:0:
297,174,20522,5,2,1:2:0:0:
304,84,20689,1,0,1:2:0:0:
232,26,20855,1,2,1:2:0:0:
150,63,21022,1,0,1:2:0:0:
223,115,21189,1,2,1:2:0:0:
304,84,21355,1,0,1:2:0:0:
386,120,21522,1,2,1:2:0:0:
464,75,21689,6,0,B|484:65|500:40|500:40|479:180,1,179.999994506836,2|8,1:2|0:3,0:0:0:0:
453,253,22189,2,0,P|409:226|360:226,1,89.9999972534181,0|4,0:0|0:3,0:0:0:0:
180,304,22522,2,0,P|208:311|236:304,3,44.999998626709,2|2|10|2,0:0|0:0|0:3|0:0,0:0:0:0:
267,297,22855,1,6,0:3:0:0:
295,261,22939,1,2,0:0:0:0:
291,216,23022,1,2,0:0:0:0:
265,179,23105,1,0,0:0:0:0:
221,166,23189,6,0,L|67:177,2,150,6|2|2,3:1|3:2|3:2,0:0:0:0:
282,116,24022,1,2,0:0:0:0:
282,116,24189,2,0,L|282:23,2,75,2|2|0,3:2|0:0|3:2,0:0:0:0:
298,191,24689,5,2,0:0:0:0:
371,203,24855,1,2,3:2:0:0:
431,158,25022,2,0,P|447:205|427:252,1,75,2|0,0:0|3:2,0:0:0:0:
350,325,25355,5,2,0:0:0:0:
301,267,25522,1,2,3:2:0:0:
298,191,25689,1,2,0:0:0:0:
228,229,25855,6,0,P|174:212|93:277,2,150,0|2|2,3:2|3:2|3:2,0:0:0:0:
180,111,26855,1,2,3:2:0:0:
228,229,27022,2,0,P|260:183|262:140,1,75,2|0,0:0|3:2,0:0:0:0:
258,90,27355,1,2,0:0:0:0:
180,111,27522,1,2,3:2:0:0:
108,88,27689,2,0,P|48:115|12:107,2,75,2|0|0,0:0|3:2|0:0,0:0:0:0:
180,111,28189,2,0,P|174:197|157:206,1,112.5,2|0,3:2|0:0,0:0:0:0:
124,213,28522,5,2,3:2:0:0:
28,316,28689,2,0,P|85:295|121:303,1,75,2|0,0:0|3:2,0:0:0:0:
202,361,29022,2,0,P|188:323|196:275,1,75,2|0,0:0|3:2,0:0:0:0:
325,227,29355,2,0,P|279:233|240:214,1,75,2|0,0:0|3:2,0:0:0:0:
157,61,29689,6,0,P|178:120|148:221,1,150,2|2,0:0|0:0,0:0:0:0:
89,229,30189,1,2,3:2:0:0:
89,229,30355,2,0,L|-1:220,1,75,2|0,0:0|3:2,0:0:0:0:
186,107,30855,2,0,P|228:140|334:114,2,150,2|2|0,3:2|3:2|3:2,0:0:0:0:
204,33,31689,1,2,0:0:0:0:
204,33,31855,2,0,L|112:23,2,75,2|0|0,3:2|0:0|3:2,0:0:0:0:
277,46,32355,1,2,0:0:0:0:
397,175,32522,5,2,3:2:0:0:
316,124,32689,1,2,0:0:0:0:
437,81,32855,1,0,3:2:0:0:
433,258,33022,2,0,P|366:216|265:236,1,165.000005035401,2|0,1:2|1:2,0:0:0:0:
269,240,33439,1,0,1:2:0:0:
257,257,33522,1,0,1:2:0:0:
171,353,33689,1,4,0:3:0:0:
171,353,33772,1,4,0:3:0:0:
171,353,33855,6,0,P|150:291|112:256,1,82.5000025177003,6|0,3:2|0:0,0:0:0:0:
65,240,34189,2,0,P|137:241|199:156,1,165.000005035401,2|2,1:2|3:2,0:0:0:0:
258,287,34689,1,2,1:2:0:0:
331,187,34855,1,2,3:2:0:0:
129,127,35022,6,0,P|209:94|273:150,1,165.000005035401,6|2,1:2|3:2,0:0:0:0:
98,45,35522,1,2,1:2:0:0:
56,172,35689,2,0,P|26:98|5:81,1,82.5000025177003,2|0,0:0|3:2,0:0:0:0:
22,270,36022,1,2,1:2:0:0:
41,262,36105,1,0,1:2:0:0:
61,259,36189,1,10,0:3:0:0:
81,261,36272,1,8,0:3:0:0:
101,265,36355,1,6,0:3:0:0:
204,348,36522,6,0,P|180:256|235:190,2,165.000005035401,6|2|2,3:2|1:2|3:2,0:0:0:0:
381,322,37355,1,2,3:2:0:0:
263,277,37522,1,0,1:2:0:0:
500,246,37689,6,0,B|414:280|431:197|315:253,1,165.000005035401,6|0,3:2|3:2,0:0:0:0:
462,163,38189,2,0,P|461:86|392:21,1,165.000005035401,2|0,1:2|3:2,0:0:0:0:
340,80,38689,1,2,3:2:0:0:
462,163,38855,1,2,1:2:0:0:
196,101,39022,6,0,B|255:115|255:115|275:156|275:156|341:180,1,165.000005035401,2|2,3:2|0:0,0:0:0:0:
195,193,39522,1,2,1:2:0:0:
399,232,39689,2,0,P|350:264|315:263,1,82.5000025177003,2|0,0:0|3:2,0:0:0:0:
186,272,40022,1,2,3:2:0:0:
258,312,40189,1,2,1:2:0:0:
107,348,40355,6,0,P|135:268|86:193,1,165.000005035401,6|2,3:2|3:2,0:0:0:0:
195,193,40855,1,2,1:2:0:0:
45,95,41022,2,0,P|97:113|141:109,1,82.5000025177003,2|0,0:0|3:2,0:0:0:0:
261,29,41355,1,0,1:2:0:0:
261,29,41439,1,0,1:2:0:0:
261,29,41522,2,0,P|192:39|171:32,1,82.5000025177003,2|2,1:2|1:2,0:0:0:0:
377,139,41855,5,6,0:3:0:0:
377,139,42189,1,6,0:3:0:0:
212,119,42355,1,4,1:2:0:0:
322,277,42522,2,0,B|291:257|292:217|292:217|268:232|293:303,1,123.75000377655,6|0,0:3|0:0,0:0:0:0:
370,218,42855,6,0,B|451:194|534:238|513:356|429:347,1,269.999991760254,6|0,3:2|3:2,0:0:0:0:
346,352,43522,1,0,3:2:0:0:
308,145,43855,6,0,P|267:143|209:188,1,82.5000025177003,10|4,0:3|0:3,0:0:0:0:
189,233,44189,1,10,0:3:0:0:
189,233,44272,1,8,0:3:0:0:
189,233,44355,1,6,0:3:0:0:
126,344,44522,6,0,P|100:245|16:235,1,165.000005035401,6|2,3:2|3:2,0:0:0:0:
52,310,45022,1,2,0:0:0:0:
142,158,45189,1,0,1:2:0:0:
27,130,45355,1,2,3:2:0:0:
27,130,45689,6,0,L|143:126,1,82.5000025177003,2|0,3:2|0:0,0:0:0:0:
248,69,46022,2,0,L|166:67,1,82.5000025177003,2|0,3:2|0:0,0:0:0:0:
168,204,46355,2,0,P|248:194|283:291,2,165.000005035401,2|0|0,3:2|3:2|1:2,0:0:0:0:
280,343,47189,6,0,P|336:264|412:278,2,165.000005035401,2|2|2,3:2|3:2|1:2,0:0:0:0:
362,340,48022,1,0,3:2:0:0:
275,182,48189,1,2,0:0:0:0:
427,147,48355,2,0,P|385:143|329:100,1,82.5000025177003,2|2,3:2|0:0,0:0:0:0:
475,230,48689,5,2,1:2:0:0:
411,57,48855,1,10,0:3:0:0:
364,239,49022,1,8,0:3:0:0:
196,161,49189,2,0,B|293:182|260:101|372:128,1,165.000005035401,2|6,3:2|0:3,0:0:0:0:
219,81,49689,1,6,0:3:0:0:
189,253,49855,6,0,P|158:186|70:163,1,165.000005035401,6|2,3:2|3:2,0:0:0:0:
8,210,50355,2,0,P|0:261|20:298,1,82.5000025177003,2|0,0:0|3:2,0:0:0:0:
155,333,50689,1,2,0:0:0:0:
74,347,50855,1,2,3:2:0:0:
189,253,51022,1,2,0:0:0:0:
243,384,51189,6,0,B|255:315|255:315|271:297|271:297|286:206,1,165.000005035401,0|0,1:2|3:2,0:0:0:0:
437,367,51689,1,2,0:0:0:0:
437,367,51855,2,0,L|421:254,1,82.5000025177003,2|2,3:2|0:0,0:0:0:0:
356,138,52189,2,0,P|390:190|470:187,1,123.75000377655,2|0,3:2|0:0,0:0:0:0:
488,193,52522,5,6,1:2:0:0:
282,227,52689,1,0,1:2:0:0:
436,116,52855,2,0,L|428:17,1,82.5000025177003,0|0,1:2|1:2,0:0:0:0:
425,285,53189,5,0,1:2:0:0:
488,193,53355,1,0,1:2:0:0:
282,227,53522,2,0,L|183:224,1,82.5000025177003,0|2,1:2|1:2,0:0:0:0:
334,104,53855,6,0,L|243:77,1,82.5000025177003,2|0,1:2|1:2,0:0:0:0:
340,348,54189,2,0,L|249:375,1,82.5000025177003,0|0,1:2|1:2,0:0:0:0:
45,263,54522,5,0,1:2:0:0:
199,224,54689,1,0,1:2:0:0:
79,145,54855,5,0,1:2:0:0:
282,227,55022,1,0,1:2:0:0:
123,384,55189,6,0,P|109:333|124:287,1,82.5000025177003,6|0,3:2|1:2,0:0:0:0:
121,285,55439,1,0,1:2:0:0:
133,268,55522,1,2,3:2:0:0:
239,134,55689,5,0,1:2:0:0:
218,134,55772,1,0,1:2:0:0:
198,127,55855,1,2,3:2:0:0:
274,294,56022,5,0,1:2:0:0:
295,269,56105,1,0,1:2:0:0:
326,257,56189,1,2,1:2:0:0:
358,258,56272,1,0,1:2:0:0:
388,271,56355,1,0,1:2:0:0:
409,296,56439,1,0,1:2:0:0:
418,327,56522,6,0,P|448:186|458:101,2,225,6|2|2,0:0|0:0|0:0,0:0:0:0:
256,192,57605,12,0,58689,0:0:0:0:
248,99,58855,5,2,0:0:0:0:
248,99,59189,6,0,B|287:127|313:129|313:129|381:117|431:54,1,194.999991073609,14|0,3:1|1:2,0:0:0:0:
472,240,59689,1,0,3:0:0:0:
472,240,59772,1,0,3:0:0:0:
472,240,59855,2,0,P|416:208|347:208,1,97.4999955368044,0|0,3:2|0:0,0:0:0:0:
319,355,60189,2,0,P|331:293|301:237,1,97.4999955368044,2|0,1:2|3:2,0:0:0:0:
156,237,60522,6,0,P|211:161|312:187,1,194.999991073609,2|2,0:0|1:2,0:0:0:0:
110,118,61022,2,0,P|77:120|58:113,2,48.7499977684022,2|0|0,3:2|1:2|3:2,0:0:0:0:
221,81,61355,1,2,3:2:0:0:
90,44,61522,1,0,1:2:0:0:
227,111,61689,1,2,0:0:0:0:
33,218,61855,6,0,B|115:239|115:239|131:271|131:271|212:298,2,194.999991073609,2|2|2,3:1|1:2|3:2,0:0:0:0:
11,313,62689,1,0,3:2:0:0:
195,206,62855,1,2,1:2:0:0:
0,133,63022,6,0,B|88:136|155:82|155:82|133:45,1,194.999991073609,2|0,3:2|3:2,0:0:0:0:
159,291,63522,2,0,P|194:206|237:190,1,97.4999955368044,0|0,1:2|1:2,0:0:0:0:
218,198,63772,1,0,1:2:0:0:
242,197,63855,1,2,3:1:0:0:
339,291,64022,1,2,3:2:0:0:
339,291,64105,1,0,3:0:0:0:
339,291,64189,2,0,P|272:295|231:266,1,97.4999955368044,0|2,1:2|1:2,0:0:0:0:
427,375,64522,6,0,P|486:328|487:214,1,194.999991073609,6|2,3:1|1:2,0:0:0:0:
381,56,65022,2,0,L|401:155,2,97.4999955368044,2|0|0,0:0|3:2|3:2,0:0:0:0:
400,252,65522,2,0,B|332:224|332:224|314:186|314:186|236:157,1,194.999991073609,2|0,1:2|0:0,0:0:0:0:
141,155,66022,1,0,3:2:0:0:
214,341,66189,2,0,L|321:329,1,97.4999955368044,2|0,1:2|3:2,0:0:0:0:
335,333,66439,1,0,1:2:0:0:
359,328,66522,2,0,P|397:298|393:239,1,97.4999955368044,2|0,3:2|3:2,0:0:0:0:
183,243,66855,2,0,P|122:250|42:171,1,146.249993305207,2|0,1:2|1:2,0:0:0:0:
19,158,67189,6,0,B|86:140|86:140|112:185|96:266|57:313,1,225.000008583069,6|0,1:1|3:2,0:0:0:0:
272,54,67689,2,0,P|188:73|70:11,1,225.000008583069,6|0,1:1|3:2,0:0:0:0:
334,249,68189,2,0,P|271:214|207:215,1,112.500004291535,6|8,1:1|0:3,0:0:0:0:
204,217,68439,1,0,2:0:0:0:
180,231,68522,1,0,1:2:0:0:
324,137,68689,5,0,3:2:0:0:
347,143,68772,1,0,3:2:0:0:
371,143,68855,1,2,1:1:0:0:
397,349,69022,5,0,1:2:0:0:
409,328,69105,1,0,1:2:0:0:
428,312,69189,1,2,1:2:0:0:
334,249,69355,5,2,1:2:0:0:
305,268,69439,1,0,1:2:0:0:
272,276,69522,1,2,1:2:0:0:
238,274,69605,1,0,1:2:0:0:
205,261,69689,1,2,1:2:0:0:
179,238,69772,1,0,1:2:0:0:
167,206,69855,6,0,P|189:91|248:6,2,209.999993591309,6|0|0,3:1|1:2|3:2,0:0:0:0:
89,377,70855,2,0,P|46:308|40:209,1,146.249993305207,2|0,1:2|0:0,0:0:0:0:
51,197,71189,6,0,B|141:212|141:212|160:241|160:241|269:260,1,225.000008583069,6|2,3:2|1:2,0:0:0:0:
334,341,71689,2,0,P|261:372|239:421,1,97.4999955368044,2|0,0:0|3:2,0:0:0:0:
452,209,72022,2,0,P|389:201|353:168,1,97.4999955368044,2|0,0:0|1:2,0:0:0:0:
443,317,72355,1,2,0:0:0:0:
257,258,72522,6,0,P|284:172|232:100,1,146.249993305207,0|0,3:2|0:0,0:0:0:0:
228,89,72855,1,2,1:2:0:0:
432,124,73022,1,0,3:2:0:0:
363,181,73189,1,2,3:2:0:0:
512,154,73355,1,0,3:2:0:0:
371,60,73522,1,2,1:2:0:0:
508,273,73689,6,0,B|473:230|421:243|421:243|370:285|311:248,1,209.999993591309,6|0,3:1|3:2,0:0:0:0:
161,106,74189,1,0,1:2:0:0:
161,106,74355,2,0,P|204:164|194:308,1,209.999993591309,4|8,1:2|0:3,0:0:0:0:
142,359,74772,1,8,0:3:0:0:
142,359,74855,2,0,L|76:353,1,48.7499977684022,0|0,1:2|1:2,0:0:0:0:
12,290,75022,2,0,L|78:284,1,48.7499977684022,2|0,1:2|1:2,0:0:0:0:
179,206,75189,6,0,P|123:207|82:180,2,97.4999955368044,6|0|0,1:1|3:2|1:2,0:0:0:0:
277,259,75689,2,0,P|330:225|342:176,1,97.4999955368044,2|0,3:2|1:2,0:0:0:0:
206,49,76022,1,2,3:2:0:0:
259,171,76189,2,0,L|292:51,1,97.4999955368044,2|2,1:2|3:2,0:0:0:0:
418,282,76522,5,2,1:1:0:0:
277,259,76689,1,2,3:2:0:0:
374,182,76855,5,2,1:2:0:0:
414,368,77022,2,0,P|467:356|494:288,1,97.4999955368044,2|0,3:2|1:2,0:0:0:0:
239,356,77355,2,0,P|307:364|328:406,1,97.4999955368044,2|2,3:2|1:2,0:0:0:0:
123,217,77689,6,0,P|192:234|295:154,1,194.999991073609,2|2,3:2|3:2,0:0:0:0:
2,321,78189,2,0,P|57:319|91:371,1,97.4999955368044,2|2,1:2|3:2,0:0:0:0:
123,217,78522,1,2,1:2:0:0:
192,384,78689,2,0,P|206:321|247:290,1,97.4999955368044,2|0,3:2|1:2,0:0:0:0:
359,281,79022,1,2,3:2:0:0:
211,150,79189,6,0,P|255:185|314:181,1,97.4999955368044,2|2,1:1|3:2,0:0:0:0:
123,217,79522,1,2,1:2:0:0:
386,117,79689,2,0,P|346:150|359:281,1,194.999991073609,2|2,3:2|3:2,0:0:0:0:
288,78,80189,1,0,1:2:0:0:
288,78,80272,1,0,0:0:0:0:
288,78,80355,1,2,3:2:0:0:
288,78,80439,1,0,3:2:0:0:
288,78,80522,5,4,1:2:0:0:
211,150,80689,2,0,P|173:111|113:103,1,97.4999955368044,0|0,3:2|3:2,0:0:0:0:
154,321,81022,2,0,P|78:321|44:304,1,97.4999955368044,0|0,3:2|0:0,0:0:0:0:
253,258,81355,5,2,3:2:0:0:
126,215,81522,1,2,1:2:0:0:
253,258,81689,2,0,L|360:295,1,97.4999955368044,2|0,3:2|1:2,0:0:0:0:
211,150,82022,5,2,1:2:0:0:
154,321,82189,1,2,0:0:0:0:
211,150,82355,2,0,L|249:28,1,97.4999955368044,10|0,0:3|0:0,0:0:0:0:
126,215,82689,5,10,0:3:0:0:
345,289,82855,1,6,0:3:0:0:
126,215,83022,2,0,L|28:182,1,97.4999955368044,6|6,0:3|1:1,0:0:0:0:
33,183,83689,2,0,L|54:133,2,48.7499977684022,8|8|4,0:3|0:3|0:3,0:0:0:0:
53,335,84355,1,10,0:3:0:0:
53,335,84439,1,8,0:3:0:0:
53,335,84522,6,0,P|114:319|133:331,1,75,6|8,0:3|0:3,0:0:0:0:
234,223,85022,2,0,P|178:227|154:205,1,75,2|0,0:0|1:2,0:0:0:0:
250,340,85522,2,0,P|315:328|331:338,1,75,6|6,0:3|0:3,0:0:0:0:
399,375,85855,6,0,L|412:267,1,75,6|2,1:2|0:0,0:0:0:0:
500,215,86189,1,2,0:0:0:0:
500,215,86355,2,0,P|429:202|393:116,1,150,2|2,0:0|3:2,0:0:0:0:
477,26,86855,1,2,0:0:0:0:
477,26,87022,2,0,B|437:60|437:60|324:36,2,150,2|2|2,3:2|3:2|0:0,0:0:0:0:
499,119,87855,2,0,L|512:204,1,75,2|0,3:2|0:0,0:0:0:0:
409,139,88189,2,0,L|422:224,1,75,6|6,0:3|0:3,0:0:0:0:
368,355,88522,6,0,P|322:292|164:259,1,225,6|2,1:2|0:0,0:0:0:0:
115,280,89189,1,0,0:0:0:0:
42,370,89355,2,0,L|8:281,1,75,2|2,3:2|0:0,0:0:0:0:
98,120,89689,6,0,P|106:146|4:202,1,150,6|2,3:2|1:2,0:0:0:0:
185,254,90189,1,2,1:2:0:0:
204,144,90355,2,0,L|190:39,1,75,2|0,1:2|1:2,0:0:0:0:
205,239,90689,1,2,1:2:0:0:
319,180,90855,2,0,L|307:239,1,37.5,2|0,1:2|1:2,0:0:0:0:
295,326,91022,1,2,1:2:0:0:
295,326,91105,1,0,1:2:0:0:
295,326,91189,6,0,B|353:347|353:347|439:317,1,150,6|0,3:2|1:2,0:0:0:0:
398,209,91689,2,0,P|482:193|486:119,1,150,0|0,1:2|1:2,0:0:0:0:
334,97,92189,1,0,1:2:0:0:
334,97,92272,1,0,1:2:0:0:
334,97,92355,1,0,1:2:0:0:
334,97,92439,1,0,1:2:0:0:
334,97,92522,6,0,L|413:85,2,75,0|0|0,3:2|1:2|1:2,0:0:0:0:
281,187,93022,2,0,L|326:201,2,37.5,0|0|0,1:2|1:2|1:2,0:0:0:0:
208,107,93355,1,0,1:2:0:0:
194,120,93439,1,0,1:2:0:0:
178,129,93522,1,0,1:2:0:0:
160,134,93605,1,0,1:2:0:0:
141,134,93689,1,0,1:2:0:0:
123,128,93772,1,0,1:2:0:0:
105,117,93855,6,0,P|131:164|125:212,1,75,0|0,3:2|1:2,0:0:0:0:
146,48,94189,1,0,1:2:0:0:
45,178,94355,1,0,1:2:0:0:
220,230,94522,5,0,1:2:0:0:
95,268,94689,1,0,1:2:0:0:
238,333,94855,1,0,1:2:0:0:
4,309,95022,6,0,P|3:226|58:171,1,150,6|2,1:2|0:0,0:0:0:0:
80,167,95439,1,0,0:0:0:0:
80,167,95522,2,0,L|148:185,3,37.5,2|0|2|0,0:0|0:0|0:0|0:0,0:0:0:0:
147,155,95855,2,0,L|215:173,3,37.5,2|2|2|2,0:0|0:0|0:0|0:0,0:0:0:0:
217,147,96189,2,0,L|285:165,3,37.5,2|2|2|2,0:0|0:0|0:0|0:0,0:0:0:0:
286,140,96522,5,6,0:0:0:0:
391,128,107189,6,0,P|332:128|244:53,2,150,6|0|0,3:2|3:2|3:2,0:0:0:0:
461,102,108022,1,2,0:0:0:0:
411,205,108189,2,0,P|398:254|412:300,1,75,2|2,3:2|0:0,0:0:0:0:
344,353,108522,6,0,P|392:309|501:319,2,150,0|0|2,3:2|3:2|3:2,0:0:0:0:
320,202,109355,1,2,0:0:0:0:
320,202,109522,2,0,B|288:229|288:229|204:201,1,112.5,2|0,3:2|0:0,0:0:0:0:
188,187,109855,6,0,P|126:194|137:281,1,150,6|0,1:2|3:2,0:0:0:0:
231,108,110355,2,0,P|267:107|311:105,1,75,2|0,0:0|3:2,0:0:0:0:
147,74,110689,2,0,P|78:92|4:66,1,150,2|0,0:0|0:0,0:0:0:0:
5,67,111189,6,0,B|48:35|48:35|18:80|43:156,1,150,2|2,3:2|3:2,0:0:0:0:
106,216,111689,2,0,P|28:178|55:109,1,150,2|0,0:0|0:0,0:0:0:0:
70,325,112189,2,0,P|22:302|-12:307,1,75,2|2,3:2|0:0,0:0:0:0:
174,362,112522,6,0,B|206:358|235:312|188:208,1,150,6|2,1:2|3:2,0:0:0:0:
305,129,113022,2,0,P|259:151|166:99,1,150,2|0,0:0|0:0,0:0:0:0:
141,45,113522,1,2,3:2:0:0:
3,146,113689,6,0,P|45:136|129:201,1,150,2|2,0:0|0:0,0:0:0:0:
173,113,114189,1,2,3:2:0:0:
143,271,114355,2,0,P|169:223|274:219,1,150,2|0,0:0|0:0,0:0:0:0:
322,246,114855,1,2,3:2:0:0:
251,367,115022,1,2,0:0:0:0:
177,349,115189,6,0,P|97:349|62:262,1,150,6|2,3:2|0:0,0:0:0:0:
63,221,115689,1,0,3:2:0:0:
183,263,115855,2,0,P|212:183|256:169,1,112.5,2|0,1:2|0:0,0:0:0:0:
269,168,116189,6,0,P|198:165|110:35,1,225,6|0,3:2|3:2,0:0:0:0:
49,174,116855,1,0,1:2:0:0:
49,174,117022,1,0,1:2:0:0:
125,269,117189,2,0,L|212:261,1,75,0|0,1:2|1:2,0:0:0:0:
34,359,117522,2,0,L|123:372,1,75,0|0,1:2|1:2,0:0:0:0:
247,185,117855,6,0,P|283:233|255:332,1,150,6|2,3:2|3:2,0:0:0:0:
326,125,118355,1,2,0:0:0:0:
326,125,118689,1,2,3:2:0:0:
326,125,119022,1,6,3:2:0:0:
326,125,119355,5,2,3:2:0:0:
411,100,119522,1,0,1:2:0:0:
281,80,119689,1,2,3:2:0:0:
434,142,119855,1,0,1:2:0:0:
350,231,120022,1,0,1:2:0:0:
512,214,120189,1,0,1:2:0:0:
512,214,120272,1,0,1:2:0:0:
512,214,120355,1,0,1:2:0:0:
387,347,120522,6,0,P|460:291|528:308,2,150,6|2|2,3:2|1:2|0:0,0:0:0:0:
318,315,121355,1,0,1:2:0:0:
438,149,121522,1,2,0:0:0:0:
391,207,121689,6,0,P|321:176|293:94,1,150,2|2,3:2|1:2,0:0:0:0:
326,44,122189,1,2,1:2:0:0:
230,203,122355,2,0,L|140:187,1,75,0|10,3:2|0:3,0:0:0:0:
137,186,122605,1,8,0:3:0:0:
118,183,122689,1,0,3:2:0:0:
228,290,122855,1,2,1:2:0:0:
88,361,123022,1,2,1:2:0:0:
88,361,123105,1,0,1:2:0:0:
88,361,123189,6,0,P|85:316|2:254,1,150,6|2,3:2|0:0,0:0:0:0:
118,183,123689,2,0,P|140:100|196:58,1,150,2|2,0:0|0:0,0:0:0:0:
262,52,124189,1,2,0:0:0:0:
284,212,124355,1,2,3:2:0:0:
284,212,124522,6,0,B|227:192|190:227|190:227|141:296|55:246,1,225,6|2,1:2|0:0,0:0:0:0:
241,358,125189,2,0,P|253:298|246:271,1,75,2|2,0:0|0:0,0:0:0:0:
117,182,125522,2,0,P|109:136|146:64,1,112.5,2|0,0:0|0:0,0:0:0:0:
157,44,125855,5,6,1:2:0:0:
21,77,126022,1,0,1:2:0:0:
196,138,126189,2,0,P|241:153|286:142,1,82.5000025177003,0|0,1:2|1:2,0:0:0:0:
117,182,126522,5,2,1:2:0:0:
244,69,126689,1,0,1:2:0:0:
227,258,126855,2,0,L|219:363,1,82.5000025177003,0|0,1:2|1:2,0:0:0:0:
91,204,127189,6,0,L|63:289,1,82.5000025177003,2|0,1:2|1:2,1:0:0:0:
367,212,127522,2,0,L|385:298,1,82.5000025177003,0|0,1:2|1:2,1:0:0:0:
244,69,127855,5,2,1:2:0:0:
380,119,128022,1,0,1:2:0:0:
235,171,128189,5,0,1:2:0:0:
461,127,128355,1,0,1:2:0:0:
455,348,128522,6,0,P|471:296|457:249,1,82.5000025177003,2|0,1:2|1:2,0:0:0:0:
459,249,128772,1,0,1:2:0:0:
446,232,128855,1,2,1:2:0:0:
327,367,129022,5,0,1:2:0:0:
342,353,129105,1,0,1:2:0:0:
351,334,129189,1,2,1:2:0:0:
244,263,129355,5,0,1:2:0:0:
263,254,129439,1,0,1:2:0:0:
278,240,129522,1,2,1:2:0:0:
287,221,129605,1,0,1:2:0:0:
292,200,129689,1,0,1:2:0:0:
288,179,129772,1,0,1:2:0:0:
279,162,129855,6,0,P|243:139|177:155,1,82.5000025177003,2|0,1:2|1:2,0:0:0:0:
147,192,130105,1,0,1:2:0:0:
147,192,130189,1,0,1:2:0:0:
27,294,130355,6,0,P|64:274|84:209,1,82.5000025177003,2|0,1:2|1:2,0:0:0:0:
70,167,130605,1,0,1:2:0:0:
70,167,130689,1,0,1:2:0:0:
38,9,130855,6,0,P|36:51|82:100,1,82.5000025177003,2|0,1:2|1:2,0:0:0:0:
131,112,131105,1,0,1:2:0:0:
131,112,131189,5,0,1:2:0:0:
304,60,131355,1,0,1:2:0:0:
288,300,131689,5,0,1:2:0:0:
241,167,131855,1,0,1:2:0:0:
30,315,132189,5,2,1:2:0:0:
30,315,132522,6,0,B|75:315|84:287|84:287|91:212|54:149,1,194.999991073609,14|0,3:1|1:2,0:0:0:0:
111,51,133022,1,0,3:0:0:0:
111,51,133105,1,0,3:0:0:0:
111,51,133189,2,0,P|47:33|27:-1,1,97.4999955368044,0|0,3:2|0:0,0:0:0:0:
158,128,133522,2,0,P|211:121|269:151,1,97.4999955368044,2|0,1:2|3:2,0:0:0:0:
174,342,133855,6,0,P|217:325|183:199,1,194.999991073609,2|2,0:0|1:2,0:0:0:0:
370,330,134355,2,0,P|417:339|443:334,2,48.7499977684022,2|0|0,3:2|1:2|3:2,0:0:0:0:
270,261,134689,1,2,3:2:0:0:
411,263,134855,1,0,1:2:0:0:
257,296,135022,1,2,0:0:0:0:
469,181,135189,6,0,B|395:155|395:155|374:119|374:119|284:87,2,194.999991073609,2|2|2,3:1|1:2|3:2,0:0:0:0:
498,87,136022,1,0,3:2:0:0:
318,190,136189,1,2,1:2:0:0:
493,290,136355,6,0,B|508:266|508:266|407:254|342:362,1,194.999991073609,2|0,3:2|3:2,0:0:0:0:
331,105,136855,2,0,P|384:134|403:190,1,97.4999955368044,0|0,1:2|1:2,0:0:0:0:
403,189,137105,1,0,1:2:0:0:
399,213,137189,1,2,3:1:0:0:
240,238,137355,1,0,3:2:0:0:
240,238,137439,1,0,3:2:0:0:
240,238,137522,2,0,P|296:191|337:193,1,97.4999955368044,0|0,1:2|1:2,0:0:0:0:
179,332,137855,6,0,P|148:266|28:245,1,194.999991073609,6|2,3:1|1:2,0:0:0:0:
166,139,138355,2,0,P|159:82|173:34,2,97.4999955368044,2|0|2,0:0|3:2|3:2,0:0:0:0:
269,210,138855,1,0,1:2:0:0:
8,160,139022,6,0,B|125:150|70:234|206:223,1,194.999991073609,2|0,3:2|3:2,0:0:0:0:
46,360,139522,2,0,P|6:309|24:261,1,97.4999955368044,2|0,1:2|3:2,0:0:0:0:
17,257,139772,1,0,1:2:0:0:
33,239,139855,1,2,3:2:0:0:
183,223,140022,1,0,3:2:0:0:
80,58,140189,2,0,P|120:109|102:157,1,97.4999955368044,2|0,1:2|3:2,0:0:0:0:
109,161,140439,1,0,1:2:0:0:
91,177,140522,6,0,P|142:132|287:216,1,225.000008583069,6|2,1:1|3:2,0:0:0:0:
464,40,141022,2,0,P|436:115|437:283,1,225.000008583069,6|2,1:1|3:2,0:0:0:0:
472,363,141522,1,6,1:1:0:0:
271,384,141689,6,0,P|308:315|275:179,1,225.000008583069,10|0,0:3|3:2,0:0:0:0:
253,160,142105,1,0,3:2:0:0:
227,147,142189,1,2,1:1:0:0:
156,331,142355,5,2,1:2:0:0:
173,313,142439,1,0,1:2:0:0:
182,290,142522,2,0,P|182:254|166:221,1,48.7499977684022,2|0,1:2|0:0,0:0:0:0:
73,316,142689,2,0,P|73:352|89:385,1,48.7499977684022,2|0,1:2|1:2,0:0:0:0:
151,202,142855,5,2,1:2:0:0:
116,182,142939,1,0,1:2:0:0:
77,181,143022,1,2,1:2:0:0:
42,198,143105,1,0,1:2:0:0:
20,230,143189,5,6,3:1:0:0:
284,141,143522,1,0,1:2:0:0:
133,72,143689,2,0,L|255:72,1,97.4999955368044,2|0,0:0|3:2,0:0:0:0:
66,123,144022,1,2,0:0:0:0:
230,72,144189,1,2,1:2:0:0:
222,240,144355,6,0,P|197:166|213:130,1,97.4999955368044,2|2,0:0|3:2,0:0:0:0:
258,324,144689,2,0,P|184:349|148:333,1,97.4999955368044,2|0,0:0|1:2,0:0:0:0:
341,287,145022,2,0,P|366:361|350:397,1,97.4999955368044,2|0,0:0|3:2,0:0:0:0:
306,205,145355,2,0,P|380:180|416:196,1,97.4999955368044,2|0,0:0|1:2,0:0:0:0:
470,247,145689,1,2,0:0:0:0:
344,23,145855,6,0,P|419:45|488:170,1,209.999993591309,6|2,3:2|1:2,0:0:0:0:
228,107,146355,1,0,3:2:0:0:
228,107,146439,1,0,3:2:0:0:
228,107,146522,2,0,L|116:98,1,104.999996795654,0|0,3:2|3:2,0:0:0:0:
349,299,146855,6,0,B|438:193|409:67|268:42|261:184|342:217,1,337.500012874604,6|0,1:1|3:2,0:0:0:0:
310,191,147522,1,0,1:2:0:0:
469,276,147689,1,0,1:2:0:0:
295,358,147855,1,0,1:2:0:0:
278,335,147938,1,0,1:2:0:0:
258,315,148021,1,0,1:2:0:0:
235,299,148105,1,0,1:2:0:0:
209,288,148188,1,2,1:2:0:0:
182,282,148271,1,0,1:2:0:0:
154,280,148355,1,2,1:2:0:0:
126,284,148438,1,0,1:2:0:0:
98,293,148522,6,0,P|93:362|162:378,1,146.249993305207,6|0,1:1|0:0,0:0:0:0:
197,353,148855,2,0,P|214:291|134:179,1,194.999991073609,0|0,1:2|1:2,0:0:0:0:
48,202,149355,1,2,3:2:0:0:
209,85,149522,2,0,P|161:84|120:60,1,97.4999955368044,2|2,1:2|3:2,0:0:0:0:
285,217,149855,5,2,1:1:0:0:
362,85,150022,1,2,3:2:0:0:
424,196,150189,5,2,1:2:0:0:
286,46,150355,2,0,P|317:9|364:0,1,97.4999955368044,2|0,3:2|1:2,0:0:0:0:
120,60,150689,2,0,P|170:70|204:120,1,97.4999955368044,2|2,3:2|1:2,0:0:0:0:
35,282,151022,6,0,P|90:266|115:133,1,194.999991073609,2|2,3:2|3:2,0:0:0:0:
31,182,151522,1,2,1:2:0:0:
208,344,151689,2,0,P|153:297|30:283,1,194.999991073609,2|2,3:2|3:2,0:0:0:0:
222,229,152189,1,0,1:2:0:0:
122,144,152355,6,0,P|138:100|155:83,2,48.7499977684022,2|0|2,3:2|3:2|1:1,0:0:0:0:
218,60,152689,1,2,3:2:0:0:
113,20,152855,1,2,1:2:0:0:
294,108,153022,2,0,P|233:148|175:138,1,97.4999955368044,2|0,3:2|1:2,0:0:0:0:
387,14,153355,1,2,3:2:0:0:
387,14,153439,1,0,3:2:0:0:
387,14,153522,2,0,P|399:64|428:76,3,48.7499977684022,0|0|2|0,1:2|0:0|3:2|3:2,0:0:0:0:
432,90,153855,5,6,1:2:0:0:
335,182,154022,2,0,P|378:191|437:246,1,97.4999955368044,0|0,3:2|3:2,0:0:0:0:
254,330,154355,2,0,P|287:365|331:384,1,97.4999955368044,0|0,3:2|0:0,0:0:0:0:
210,212,154689,5,2,3:2:0:0:
342,283,154855,1,2,1:2:0:0:
210,212,155022,2,0,L|105:153,1,97.4999955368044,2|0,3:2|1:2,0:0:0:0:
335,182,155355,5,2,1:2:0:0:
251,335,155522,1,2,0:0:0:0:
335,182,155689,2,0,L|387:84,1,97.4999955368044,10|0,0:3|0:0,0:0:0:0:
342,283,156022,5,10,0:3:0:0:
124,164,156189,1,6,0:3:0:0:
342,283,156355,2,0,L|443:337,1,97.4999955368044,6|6,0:3|1:1,0:0:0:0:
335,182,156689,5,0,3:2:0:0:
335,182,156772,1,0,3:2:0:0:
335,182,156855,2,0,L|436:235,1,97.4999955368044,0|0,1:2|0:0,0:0:0:0:
241,268,157189,2,0,P|241:208|185:176,1,97.4999955368044,0|0,3:2|3:2,0:0:0:0:
342,283,157522,1,0,1:2:0:0:
110,367,157689,6,0,P|122:312|252:272,1,194.999991073609,6|0,3:2|3:2,0:0:0:0:
28,132,158189,2,0,P|107:174|134:280,1,194.999991073609,2|2,1:2|1:2,0:0:0:0:
110,293,158605,1,0,1:2:0:0:
76,301,158689,1,0,1:2:0:0:
42,293,158772,1,0,1:2:0:0:
18,268,158855,1,2,1:2:0:0:
16,233,158939,1,0,1:2:0:0:
29,201,159022,1,2,1:2:0:0:
58,183,159105,1,0,1:2:0:0:
98,184,159189,5,6,1:2:0:0:
252,236,159355,1,2,1:2:0:0:
241,10,159689,5,2,1:2:0:0:
189,164,159855,1,2,1:2:0:0:
421,156,160189,5,2,1:2:0:0:
267,104,160355,1,2,1:2:0:0:
274,332,160689,5,2,1:2:0:0:
326,178,160855,1,2,1:2:0:0:
189,164,161189,5,2,1:2:0:0:
326,178,161522,5,2,1:2:0:0:
285,258,161689,6,0,B|391:300|370:197|484:244,1,179.999994506836,6|0,3:2|3:2,0:0:0:0:
342,37,162189,2,0,P|295:76|367:188,1,179.999994506836,2|0,1:2|3:2,0:0:0:0:
451,109,162689,1,0,3:0:0:0:
451,109,162772,1,0,3:0:0:0:
451,109,162855,2,0,P|395:122|355:103,1,89.9999972534181,0|2,1:2|0:0,0:0:0:0:
144,110,163189,6,0,P|220:114|248:152,1,89.9999972534181,2|2,0:0|3:2,0:0:0:0:
313,44,163522,2,0,P|358:83|366:123,1,89.9999972534181,2|0,1:2|3:2,0:0:0:0:
364,133,163772,1,0,1:2:0:0:
356,154,163855,1,2,3:2:0:0:
228,121,164022,1,0,3:2:0:0:
272,330,164189,2,0,P|300:286|267:196,1,134.999995880127,2|0,1:2|0:0,0:0:0:0:
237,200,164522,6,0,B|163:212|163:212|143:242|143:242|65:255,1,179.999994506836,2|0,3:2|1:2,0:0:0:0:
20,325,165022,1,2,0:0:0:0:
100,162,165189,1,0,3:2:0:0:
100,162,165355,1,2,3:2:0:0:
218,287,165522,1,2,1:2:0:0:
20,189,165689,6,0,P|73:243|171:206,1,179.999994506836,0|2,3:2|3:2,0:0:0:0:
241,91,166189,2,0,P|259:151|310:174,1,89.9999972534181,2|2,1:2|3:2,0:0:0:0:
300,173,166439,1,0,1:2:0:0:
322,173,166522,1,2,3:2:0:0:
144,121,166689,1,2,3:2:0:0:
327,93,166855,1,2,1:2:0:0:
263,284,167022,1,2,1:2:0:0:
263,284,167105,1,0,1:2:0:0:
263,284,167189,6,0,B|301:276|316:252|316:252|371:258|424:298,2,179.999994506836,6|2|0,3:2|1:2|3:2,0:0:0:0:
207,355,168022,1,2,3:2:0:0:
244,195,168189,1,0,1:2:0:0:
26,189,168355,6,0,B|121:186|80:265|188:263,1,179.999994506836,2|0,3:2|3:2,0:0:0:0:
3,371,168855,2,0,P|50:349|93:352,1,89.9999972534181,0|0,1:2|3:2,0:0:0:0:
108,357,169105,1,0,1:2:0:0:
128,367,169189,1,2,3:2:0:0:
30,268,169355,1,2,3:2:0:0:
206,235,169522,2,0,P|159:203|140:160,1,89.9999972534181,0|2,1:2|0:0,0:0:0:0:
113,16,169855,6,0,P|48:42|34:166,1,179.999994506836,0|0,3:2|1:2,0:0:0:0:
66,220,170355,1,2,0:0:0:0:
235,110,170522,1,0,3:2:0:0:
235,110,170689,1,2,3:2:0:0:
106,108,170855,1,2,1:2:0:0:
229,238,171022,6,0,B|302:224|302:224|322:191|322:191|393:178,1,179.999994506836,6|0,3:2|1:2,0:0:0:0:
243,138,171522,1,0,1:2:0:0:
303,318,171689,1,0,1:2:0:0:
142,263,171855,2,0,P|146:207|172:171,1,89.9999972534181,2|0,1:2|1:2,0:0:0:0:
210,324,172189,1,0,1:2:0:0:
184,342,172272,1,0,1:2:0:0:
154,353,172355,1,0,1:2:0:0:
122,352,172439,1,0,1:2:0:0:
93,339,172522,6,0,L|293:366,2,179.999994506836,6|0|2,1:2|1:2|1:2,0:0:0:0:
5,361,173355,1,0,3:2:0:0:
115,213,173522,2,0,L|95:104,1,89.9999972534181,0|0,1:2|3:2,0:0:0:0:
94,102,173772,1,0,3:0:0:0:
89,80,173855,5,2,1:2:0:0:
278,276,174189,2,0,P|360:194|440:209,1,179.999994506836,0|2,1:2|1:2,0:0:0:0:
437,206,174605,1,0,1:2:0:0:
454,219,174689,1,0,3:2:0:0:
319,113,174855,1,0,1:2:0:0:
477,39,175022,1,0,1:2:0:0:
484,60,175105,1,0,1:2:0:0:
492,80,175189,5,6,1:2:0:0:
348,19,175355,1,6,1:2:0:0:
236,307,176022,2,0,P|182:264|86:258,1,134.999995880127,6|0,3:2|0:0,0:0:0:0:
79,274,176355,6,0,P|130:205|83:113,1,179.999994506836,6|0,3:2|3:2,0:0:0:0:
218,184,176855,1,0,1:2:0:0:
45,191,177022,1,0,1:2:0:0:
236,307,177189,6,0,L|351:301,1,89.9999972534181,0|0,1:2|1:2,0:0:0:0:
148,282,177522,1,0,1:2:0:0:
147,319,177606,1,0,1:2:0:0:
146,355,177689,1,0,1:2:0:0:
22,234,177855,6,0,P|83:194|98:123,1,150,6|2,3:2|3:2,0:0:0:0:
52,62,178355,1,0,0:0:0:0:
52,62,178522,2,0,P|97:82|200:59,1,150,2|2,3:2|3:2,0:0:0:0:
316,135,179022,6,0,B|224:133|277:70|176:61,1,150,2|0,0:0|0:0,0:0:0:0:
184,140,179522,1,0,3:2:0:0:
117,278,179689,2,0,P|150:235|256:232,1,150,2|2,0:0|0:0,0:0:0:0:
250,357,180189,2,0,P|215:332|205:292,1,75,2|2,3:2|0:0,0:0:0:0:
325,250,180522,6,0,P|279:304|193:295,1,150,2|2,3:2|3:2,0:0:0:0:
159,242,181022,1,0,0:0:0:0:
159,242,181189,2,0,P|171:147|154:76,1,150,2|2,3:2|3:2,0:0:0:0:
296,20,181689,6,0,P|283:93|294:167,1,150,2|0,0:0|0:0,0:0:0:0:
354,211,182189,2,0,L|185:197,2,150,0|2|0,3:2|3:2|3:2,0:0:0:0:
485,362,183189,6,0,P|502:324|502:279,1,75,2|2,3:2|0:0,0:0:0:0:
459,230,183522,2,0,P|456:168|447:152,1,75,2|2,3:2|0:0,0:0:0:0:
381,128,183855,1,2,3:2:0:0:
176,162,184189,6,0,P|214:179|259:179,1,75,2|2,3:2|0:0,0:0:0:0:
308,136,184522,2,0,P|370:133|386:124,1,75,2|2,1:2|0:0,0:0:0:0:
410,58,184855,1,0,0:0:0:0:
367,230,185022,1,0,1:2:0:0:
367,230,185105,1,0,1:2:0:0:
367,230,185189,2,0,P|397:257|370:365,1,150,2|2,3:2|3:2,0:0:0:0:
382,356,185855,6,0,B|316:348|316:348|293:326|293:326|215:317,1,150,6|2,3:2|3:2,0:0:0:0:
42,340,186355,2,0,P|82:263|47:184,1,150,2|0,1:2|0:0,0:0:0:0:
294,113,186855,2,0,P|245:137|127:102,1,150,2|2,3:2|3:2,0:0:0:0:
87,87,187355,1,0,1:2:0:0:
87,87,187439,1,0,1:2:0:0:
87,87,187522,1,2,3:2:0:0:
187,231,187689,2,0,P|136:221|125:222,2,37.5,0|0|2,1:2|1:2|3:2,0:0:0:0:
248,339,188022,5,0,1:2:0:0:
268,317,188105,1,0,1:2:0:0:
295,304,188189,1,0,1:2:0:0:
324,302,188272,1,0,1:2:0:0:
352,310,188355,1,0,1:2:0:0:
376,327,188439,1,0,1:2:0:0:
393,351,188522,5,6,3:2:0:0:
503,138,188855,2,0,P|442:161|371:153,1,112.5,2|0,3:2|0:0,0:0:0:0:
372,139,189189,2,0,B|308:121|308:121|297:99|297:99|227:81,1,150,2|10,3:2|0:3,0:0:0:0:
163,114,189689,1,2,0:0:0:0:
217,304,189855,5,4,3:2:0:0:
230,320,190189,2,0,B|321:322|290:261|391:266,2,150,2|2|2,3:2|3:2|3:2,0:0:0:0:
45,139,191189,6,0,P|84:180|102:282,1,150,2|2,3:2|1:2,0:0:0:0:
63,338,191689,1,0,1:2:0:0:
63,338,191772,1,0,1:2:0:0:
63,338,191855,1,2,3:2:0:0:
176,301,192022,1,8,0:3:0:0:
25,237,192189,1,0,3:2:0:0:
246,225,192355,6,0,B|233:156|233:156|238:140|238:140|220:48,1,150,6|0,3:2|3:2,0:0:0:0:
107,187,192855,2,0,L|118:100,2,75,0|0|0,1:2|3:2|1:2,0:0:0:0:
346,143,193355,2,0,L|336:64,1,75,2|2,3:2|1:2,0:0:0:0:
352,241,193689,1,2,1:2:0:0:
352,241,193772,1,0,1:2:0:0:
352,241,193855,6,0,B|404:254|404:254|456:224,1,82.5000025177003,6|2,1:2|1:2,0:0:0:0:
501,198,194189,1,2,1:2:0:0:
348,359,194355,2,0,P|316:328|249:309,1,82.5000025177003,2|0,1:2|1:2,0:0:0:0:
445,333,194689,5,2,1:2:0:0:
281,312,194855,1,2,1:2:0:0:
429,239,195022,2,0,L|412:143,1,82.5000025177003,2|0,1:2|1:2,0:0:0:0:
402,76,195355,1,0,1:2:0:0:
212,223,195522,2,0,L|307:206,1,82.5000025177003,0|0,1:2|1:2,0:0:0:0:
158,149,195855,5,2,1:2:0:0:
158,149,195939,1,0,1:2:0:0:
158,149,196022,1,0,1:2:0:0:
214,323,196189,1,2,1:2:0:0:
181,298,196272,1,0,1:2:0:0:
140,293,196355,1,0,1:2:0:0:
100,305,196439,1,0,1:2:0:0:
72,330,196522,6,0,B|-32:292|-19:79|170:77|55:201,1,337.499989700318,2|2,0:0|0:0,0:0:0:0:
62,192,197522,1,2,0:0:0:0:
228,266,197689,6,0,B|138:270|134:146|208:114|316:132|311:192|306:299|434:205|471:158|493:69|427:25|285:12|343:265,1,674.999979400635,2|2,0:0|0:0,0:0:0:0:
256,192,201855,5,2,0:0:0:0:
400,204,212522,6,0,P|350:200|284:114,1,150,6|0,1:2|0:0,0:0:0:0:
316,60,213022,1,8,0:3:0:0:
316,60,213105,1,8,0:3:0:0:
316,60,213189,2,0,L|402:32,1,75,4|4,0:3|0:3,0:0:0:0:
169,44,213522,2,0,P|209:53|245:103,1,75,2|4,0:0|0:3,0:0:0:0:
192,260,213855,6,0,P|156:195|181:106,1,150,6|2,1:2|0:0,0:0:0:0:
233,75,214355,2,0,P|183:83|89:31,1,150,10|10,0:3|0:3,0:0:0:0:
36,85,214855,1,8,0:3:0:0:
151,170,215022,1,6,0:3:0:0:
21,302,215189,6,0,B|87:280|87:280|99:262|99:262|165:243,1,150,6|2,1:2|0:0,0:0:0:0:
229,257,215689,1,4,0:3:0:0:
317,370,215855,2,0,P|306:321|365:254,1,112.5,2|0,0:0|0:3,0:0:0:0:
367,250,216189,1,10,0:3:0:0:
314,100,216355,6,0,P|279:131|168:132,1,150,6|0,1:2|3:2,0:0:0:0:
379,160,216855,2,0,P|416:173|453:221,1,75,0|0,1:2|3:2,0:0:0:0:
334,268,217189,5,2,1:2:0:0:
500,276,217355,1,0,3:2:0:0:
441,197,217522,5,0,1:2:0:0:
431,349,217689,1,2,3:2:0:0:
238,300,217855,6,0,P|238:234|320:169,2,150,6|2|2,3:2|1:2|3:2,0:0:0:0:
289,355,218689,1,2,3:2:0:0:
366,212,218855,1,2,1:2:0:0:
146,241,219022,6,0,P|100:248|52:236,1,75,6|2,3:2|1:2,0:0:0:0:
45,228,219272,1,0,1:2:0:0:
28,202,219355,1,0,1:2:0:0:
116,107,219522,5,2,1:2:0:0:
102,80,219605,1,0,1:2:0:0:
101,49,219689,1,0,1:2:0:0:
253,145,219855,5,2,1:2:0:0:
345,26,220022,1,2,1:2:0:0:
441,141,220189,1,2,1:2:0:0:
185,56,220355,1,2,1:2:0:0:
185,56,220855,6,0,B|260:106|316:54|316:54|334:59|334:59|407:17|490:86,1,292.499986610413,14|8,3:1|0:3,0:0:0:0:
392,226,221522,2,0,P|384:154|405:115,1,97.4999955368044,2|4,1:2|0:3,0:0:0:0:
193,322,221855,6,0,P|160:310|138:313,1,48.7499977684022,2|0,3:2|0:0,0:0:0:0:
155,164,222189,6,0,P|120:170|102:183,1,48.7499977684022,2|0,1:2|0:0,0:0:0:0:
69,110,222355,2,0,P|42:132|33:153,1,48.7499977684022,2|0,1:2|0:0,0:0:0:0:
356,260,222689,6,0,P|386:231|377:110,1,146.249993305207,2|0,1:2|0:0,0:0:0:0:
346,107,223022,6,0,B|265:89|265:89|245:62|245:62|159:46,1,202.500000772476,14|0,3:1|0:0,0:0:0:0:
171,320,223522,2,0,B|293:332|251:243|367:261,1,202.500000772476,2|2,1:2|3:2,0:0:0:0:
351,360,224022,1,0,3:2:0:0:
199,227,224189,1,2,1:2:0:0:
391,131,224355,6,0,B|297:147|235:86|235:86|273:65,1,202.500000772476,2|0,3:2|3:2,0:0:0:0:
276,276,224855,2,0,P|241:233|182:232,2,101.250000386238,0|0|2,1:2|1:2|3:1,0:0:0:0:
138,291,225355,1,0,3:2:0:0:
138,291,225439,1,0,3:0:0:0:
138,291,225522,2,0,L|8:275,1,101.250000386238,0|0,1:2|1:2,0:0:0:0:
297,368,225855,6,0,P|307:296|441:280,1,202.500000772476,6|2,3:1|1:2,0:0:0:0:
237,173,226355,2,0,L|370:157,2,101.250000386238,2|0|0,0:0|3:2|3:2,0:0:0:0:
498,140,226855,2,0,B|422:116|422:116|401:86|401:86|313:60,1,202.500000772476,2|0,1:2|0:0,0:0:0:0:
217,70,227355,1,0,3:2:0:0:
353,244,227522,2,0,L|235:267,1,101.250000386238,2|0,1:2|3:2,0:0:0:0:
228,269,227772,1,0,1:2:0:0:
203,275,227855,2,0,P|203:340|241:367,1,101.250000386238,2|0,3:2|3:2,0:0:0:0:
162,151,228189,2,0,P|97:153|32:214,1,151.875000579357,2|0,1:2|1:2,0:0:0:0:
38,267,228522,6,0,B|75:234|75:234|95:153|74:100|2:47,1,232.500001773834,6|0,1:1|3:2,0:0:0:0:
327,286,229022,2,0,P|268:264|140:372,1,232.500001773834,6|0,1:1|3:2,0:0:0:0:
451,113,229522,2,0,P|350:121|237:6,1,232.500001773834,6|0,1:1|1:2,0:0:0:0:
397,219,230022,5,0,3:2:0:0:
416,240,230105,1,0,3:2:0:0:
428,266,230189,1,2,1:1:0:0:
337,103,230355,5,0,1:2:0:0:
345,76,230438,1,0,1:2:0:0:
362,52,230522,1,2,1:2:0:0:
261,207,230689,5,2,1:2:0:0:
233,213,230772,1,0,1:2:0:0:
204,210,230856,1,2,1:2:0:0:
178,195,230939,1,0,1:2:0:0:
161,170,231022,1,2,1:2:0:0:
156,141,231105,1,0,1:2:0:0:
166,113,231189,6,0,P|240:121|405:98,2,217.500006637573,6|0|0,3:1|1:2|3:2,0:0:0:0:
476,346,232189,2,0,P|396:313|313:307,1,151.875000579357,2|0,1:2|0:0,0:0:0:0:
303,357,232522,6,0,P|264:282|124:246,1,232.500001773834,6|0,3:2|1:2,0:0:0:0:
215,158,233022,1,2,3:2:0:0:
215,158,233105,1,0,1:2:0:0:
215,158,233189,2,0,P|236:87|220:44,1,101.250000386238,0|2,3:2|0:0,0:0:0:0:
128,244,233522,2,0,P|89:214|36:217,1,101.250000386238,0|2,1:2|0:0,0:0:0:0:
228,262,233855,5,0,3:2:0:0:
118,131,234022,1,8,0:3:0:0:
163,334,234189,1,2,1:2:0:0:
283,191,234355,1,0,3:2:0:0:
105,254,234522,1,2,3:2:0:0:
350,269,234689,1,0,3:2:0:0:
118,131,234855,6,0,B|265:143|181:33|370:45,1,232.500001773834,6|0,3:1|0:0,0:0:0:0:
495,229,235355,1,0,3:2:0:0:
495,229,235522,2,0,P|430:155|282:138,1,232.500001773834,0|2,1:2|1:2,0:0:0:0:
431,61,236022,1,8,0:3:0:0:
297,226,236189,1,0,1:2:0:0:
319,259,236272,1,0,1:2:0:0:
351,284,236355,1,2,1:2:0:0:
389,293,236439,1,0,1:2:0:0:
429,288,236522,6,0,P|368:334|356:363,2,101.250000386238,6|0|0,1:1|3:2|1:2,0:0:0:0:
297,226,237022,2,0,P|287:157|336:100,1,101.250000386238,2|0,3:2|1:2,0:0:0:0:
450,113,237355,1,2,3:2:0:0:
366,176,237522,2,0,L|473:204,1,101.250000386238,2|2,1:2|3:2,0:0:0:0:
199,118,237855,5,2,1:1:0:0:
369,76,238022,1,2,3:2:0:0:
253,2,238189,5,2,1:2:0:0:
215,209,238355,2,0,P|165:202|126:171,1,101.250000386238,2|0,3:2|1:2,0:0:0:0:
366,176,238689,1,2,3:2:0:0:
366,176,238855,1,2,1:2:0:0:
248,350,239022,6,0,P|272:297|413:265,1,202.500000772476,2|2,3:2|3:2,0:0:0:0:
69,301,239522,2,0,P|137:299|181:327,1,101.250000386238,2|2,1:2|3:2,0:0:0:0:
214,207,239855,1,2,1:2:0:0:
58,139,240022,2,0,P|117:125|160:80,1,101.250000386238,2|0,3:2|1:2,0:0:0:0:
191,0,240355,1,2,3:2:0:0:
137,197,240522,6,0,P|90:151|33:135,1,101.250000386238,2|2,1:1|3:2,0:0:0:0:
234,126,240855,1,2,1:2:0:0:
14,246,241022,2,0,P|80:237|193:320,1,202.500000772476,2|2,3:2|3:2,0:0:0:0:
147,99,241522,2,0,P|145:41|177:-1,1,101.250000386238,0|2,1:2|3:2,0:0:0:0:
251,252,241855,5,4,1:2:0:0:
343,209,242022,2,0,P|397:231|464:229,1,101.250000386238,0|0,3:2|3:2,0:0:0:0:
354,35,242355,2,0,P|408:13|475:15,1,101.250000386238,0|0,3:2|0:0,0:0:0:0:
275,118,242689,5,2,3:2:0:0:
417,126,242855,1,2,1:2:0:0:
275,118,243022,2,0,L|163:109,1,101.250000386238,2|0,3:2|1:2,0:0:0:0:
343,209,243355,5,2,1:2:0:0:
354,35,243522,1,2,0:0:0:0:
343,209,243689,2,0,L|335:335,1,101.250000386238,10|0,0:3|0:0,0:0:0:0:
174,109,244022,5,10,0:3:0:0:
417,126,244189,1,6,0:3:0:0:
174,109,244355,2,0,L|46:99,1,101.250000386238,6|6,0:3|1:1,0:0:0:0:
73,101,245022,2,0,L|83:153,2,50.6250001931191,8|8|8,0:3|0:3|0:3,0:0:0:0:
156,265,245689,1,10,0:3:0:0:
156,265,245772,1,8,0:3:0:0:
156,265,245855,6,0,P|107:287|78:278,1,75,6|4,0:3|0:3,0:0:0:0:
203,186,246355,2,0,P|181:137|190:108,1,75,6|0,0:3|1:2,0:0:0:0:
279,234,246855,2,0,P|328:212|357:221,1,75,2|2,0:0|0:0,0:0:0:0:
428,282,247189,6,0,L|417:385,1,75,6|2,1:2|0:0,0:0:0:0:
505,172,247522,1,2,3:2:0:0:
505,172,247689,2,0,B|450:188|450:188|367:142,1,150,2|2,0:0|0:0,0:0:0:0:
253,41,248189,1,2,3:2:0:0:
253,41,248355,2,0,P|315:43|411:-27,2,150,2|2|2,0:0|0:0|0:0,0:0:0:0:
368,143,249189,2,0,L|460:154,1,75,0|0,3:2|0:0,0:0:0:0:
333,216,249522,2,0,L|407:224,1,75,6|2,0:3|1:2,0:0:0:0:
222,125,249855,6,0,P|243:182|211:287,1,150,6|2,1:2|3:2,0:0:0:0:
179,327,250355,1,2,0:0:0:0:
179,327,250522,2,0,L|77:315,1,75,0|2,3:2|0:0,0:0:0:0:
256,173,250855,2,0,P|218:214|237:281,1,112.5,2|0,3:2|0:0,0:0:0:0:
261,278,251189,6,0,L|342:282,1,75,2|2,1:2|1:2,0:0:0:0:
154,159,251522,2,0,L|73:163,1,75,2|2,1:2|1:2,0:0:0:0:
214,97,251855,1,0,1:2:0:0:
147,240,252022,1,2,1:2:0:0:
78,44,252189,1,0,1:2:0:0:
78,44,252272,1,0,1:2:0:0:
78,44,252355,1,0,1:2:0:0:
78,44,252439,1,0,1:2:0:0:
78,44,252522,6,0,P|158:59|226:6,1,150,6|2,3:2|3:2,0:0:0:0:
329,155,253022,2,0,P|245:137|165:177,1,150,2|2,0:0|0:0,0:0:0:0:
314,273,253522,1,2,1:2:0:0:
314,273,253605,1,0,1:2:0:0:
314,273,253689,1,2,1:2:0:0:
314,273,253772,1,0,1:2:0:0:
314,273,253855,6,0,L|206:254,2,75,0|2|0,3:2|0:0|3:2,0:0:0:0:
403,337,254355,2,0,L|396:387,2,37.5,2|0|0,0:0|0:0|3:2,0:0:0:0:
449,218,254689,5,2,1:2:0:0:
447,191,254772,1,0,1:2:0:0:
457,167,254855,1,2,3:2:0:0:
354,74,255022,5,2,1:2:0:0:
371,53,255105,1,0,1:2:0:0:
395,43,255188,5,2,1:2:0:0:
441,137,255355,1,2,1:2:0:0:
359,202,255522,1,2,1:2:0:0:
271,144,255689,1,2,1:2:0:0:
189,208,255855,1,2,1:2:0:0:
224,306,256022,1,2,1:2:0:0:
328,304,256189,1,2,1:2:0:0:
274,229,256355,6,0,L|274:209,3,18.75,6|0|0|0,1:2|0:0|0:0|0:0,0:0:0:0:
256,192,256522,12,2,259272,0:0:0:0:
