osu file format v14

[General]
AudioFilename: audio.mp3
AudioLeadIn: 0
PreviewTime: 59656
Countdown: 0
SampleSet: Soft
StackLeniency: 0.7
Mode: 0
LetterboxInBreaks: 0
WidescreenStoryboard: 1

[Editor]
DistanceSpacing: 1
BeatDivisor: 4
GridSize: 16
TimelineZoom: 2.999999

[Metadata]
Title:Haruoto*Veil
TitleUnicode:春音*ベール
Artist:Ceui
ArtistUnicode:Ceui
Creator:Dored
Version:Normal
Source:春音アリス*グラム
Tags:Haruoto Alice*Gram Galgame Eroge Opening Short Version NanaWind Oiso Imouto koko Imouto OuO Ametrin
BeatmapID:1486443
BeatmapSetID:677875

[Difficulty]
HPDrainRate:4
CircleSize:3.2
OverallDifficulty:4
ApproachRate:5.5
SliderMultiplier:1
SliderTickRate:1

[Events]
//Background and Video events
0,0,"Normal.jpg",0,0
//Break Periods
//Storyboard Layer 0 (Background)
//Storyboard Layer 1 (Fail)
//Storyboard Layer 2 (Pass)
//Storyboard Layer 3 (Foreground)
//Storyboard Sound Samples

[TimingPoints]
-10,333.333333333333,4,2,1,60,1,0
1156,-100,4,2,2,40,0,0
13323,-100,4,2,2,60,0,0
23989,-100,4,2,1,55,0,0
44656,-100,4,2,2,55,0,0
45323,-100,4,2,1,55,0,0
49989,-100,4,2,2,55,0,0
50656,-100,4,2,1,55,0,0
53323,-100,4,2,1,56,0,0
53656,-100,4,2,1,57,0,0
53989,-100,4,2,1,58,0,0
54323,-100,4,2,1,59,0,0
54656,-100,4,2,1,60,0,0
54989,-100,4,2,1,61,0,0
55323,-100,4,2,1,62,0,0
55656,-100,4,2,1,63,0,0
55989,-100,4,2,1,64,0,0
56323,-100,4,2,2,65,0,0
57823,-100,4,2,2,55,0,0
58323,-100,4,2,2,45,0,0
59656,-100,4,2,2,65,0,0
59989,-100,4,2,1,70,0,1
67989,-100,4,2,1,80,0,1
69323,-100,4,2,1,70,0,0
69989,-100,4,2,2,70,0,0
70656,-100,4,2,1,70,0,1
82156,-100,4,2,2,70,0,1
83989,-100,4,2,1,60,0,0
86656,-100,4,2,2,65,0,0
91989,-100,4,2,2,60,0,0
95989,-100,4,2,1,40,0,0
96156,-100,4,2,1,38,0,0
96323,-100,4,2,1,36,0,0
96489,-100,4,2,1,34,0,0
96656,-100,4,2,1,32,0,0
96823,-100,4,2,1,30,0,0
96989,-100,4,2,1,28,0,0
97156,-100,4,2,1,26,0,0
97323,-100,4,2,1,24,0,0
97489,-100,4,2,1,22,0,0
97656,-100,4,2,1,20,0,0
97823,-100,4,2,1,18,0,0
97989,-100,4,2,1,16,0,0
98156,-100,4,2,1,14,0,0
98323,-100,4,2,1,12,0,0
98489,-100,4,2,1,10,0,0
98656,-100,4,2,1,5,0,0

[Colours]
Combo1 : 0,255,255
Combo2 : 128,255,0
Combo3 : 255,128,192
Combo4 : 255,255,0

[HitObjects]
432,352,1156,5,0,0:0:0:0:
432,352,1323,2,0,P|428:277|417:203,1,150,2|0,0:0|0:0,0:0:0:0:
320,88,2323,1,0,0:0:0:0:
235,34,2656,2,0,P|221:105|258:168,1,150,2|0,0:0|0:0,0:0:0:0:
320,249,3489,1,0,0:0:0:0:
296,348,3823,1,0,0:0:0:0:
296,348,3989,6,0,P|220:342|145:345,1,150,2|0,0:0|0:0,0:0:0:0:
40,240,4989,2,0,L|89:235,1,50
132,208,5323,2,0,P|194:170|266:183,1,150,2|0,0:0|0:0,0:0:0:0:
352,235,6156,2,0,P|354:185|362:135,1,100
352,87,6656,6,0,P|302:84|252:76,1,100,2|0,0:0|0:0,0:0:0:0:
177,10,7323,2,0,P|127:12|77:20,1,100
53,63,7823,1,0,0:0:0:0:
53,63,7989,2,0,P|57:137|68:211,2,150,2|0|0,0:0|0:0|0:0,0:0:0:0:
148,93,9323,6,0,P|151:143|159:193,1,100,2|0,0:0|0:0,0:0:0:0:
189,235,9823,1,0,0:0:0:0:
189,235,9989,2,0,P|186:285|178:335,1,100
213,369,10489,1,0,0:0:0:0:
291,304,10823,2,0,P|341:301|391:293,1,100
416,250,11323,2,0,L|411:200,1,50
32,304,13323,6,0,P|106:294|179:277,1,150,4|0,0:0|0:0,0:0:0:0:
230,192,14156,2,0,P|180:185|131:174,1,100
62,102,14823,1,0,0:0:0:0:
196,36,15323,2,0,P|244:25|294:18,1,100
389,48,15989,6,0,P|456:116|433:209,1,200
388,298,16989,1,0,0:0:0:0:
300,252,17323,2,0,P|251:241|201:234,1,100,2|0,0:0|0:0,0:0:0:0:
158,144,17989,2,0,P|207:137|256:126,1,100,2|0,0:0|0:0,0:0:0:0:
332,60,18656,6,0,P|406:70|479:87,2,150,4|0|0,0:0|0:0|0:0,0:0:0:0:
358,156,19989,1,0,0:0:0:0:
414,238,20323,2,0,P|463:231|512:220,2,100
358,320,21323,6,0,P|308:313|259:302,1,100,8|8,0:0|0:0,0:0:0:0:
226,266,21823,2,0,P|176:272|127:283,1,100,8|8,0:0|0:0,0:0:0:0:
84,258,22323,2,0,L|79:208,1,50,8|8,0:0|0:0,0:0:0:0:
32,32,23989,6,0,P|81:25|131:22,1,100,4|8,0:0|0:0,0:0:0:0:
176,112,24656,2,0,P|225:118|275:121,1,100,0|8,0:0|0:0,0:0:0:0:
320,210,25323,2,0,P|369:207|419:200,2,100,0|8|0,0:0|0:0|0:0,0:0:0:0:
257,288,26323,1,8,0:0:0:0:
158,272,26656,6,0,P|139:225|139:176,1,100,0|8,0:0|0:0,0:0:0:0:
236,150,27323,1,0,0:0:0:0:
163,82,27656,1,8,0:0:0:0:
66,108,27989,2,0,L|66:8,2,100,0|8|0,0:0|0:0|0:0,0:0:0:0:
41,205,28989,1,8,0:0:0:0:
122,262,29323,6,0,P|132:310|140:360,1,100,4|8,0:0|0:0,0:0:0:0:
238,343,29989,2,0,P|230:293|219:244,1,100,0|8,0:0|0:0,0:0:0:0:
318,228,30656,2,0,P|328:276|336:326,2,100,0|8|0,0:0|0:0|0:0,0:0:0:0:
253,152,31656,1,8,0:0:0:0:
351,135,31989,6,0,P|400:132|450:127,1,100,0|8,0:0|0:0,0:0:0:0:
440,27,32656,2,0,P|390:29|340:34,1,100,0|8,0:0|0:0,0:0:0:0:
242,17,33323,2,0,P|180:59|168:129,1,150,0|2,0:0|0:0,0:0:0:0:
213,219,34156,2,0,L|208:269,1,50,8|8,0:0|0:0,0:0:0:0:
302,301,34656,6,0,P|304:250|311:200,1,100,4|8,0:0|0:0,0:0:0:0:
368,119,35323,2,0,P|417:114|465:129,1,100,0|8,0:0|0:0,0:0:0:0:
480,177,35823,2,0,P|473:226|470:276,1,100
471,326,36323,1,8,0:0:0:0:
380,368,36656,2,0,P|330:363|286:340,1,100,0|8,0:0|0:0,0:0:0:0:
240,252,37323,6,0,P|191:249|141:244,1,100,0|8,0:0|0:0,0:0:0:0:
128,144,37989,2,0,P|170:117|218:108,1,100,0|8,0:0|0:0,0:0:0:0:
256,141,38489,2,0,P|304:133|353:124,1,100
402,109,38989,1,8,0:0:0:0:
416,208,39323,2,0,P|368:216|319:225,1,100,0|8,0:0|0:0,0:0:0:0:
321,275,39823,6,0,P|296:345|231:375,1,150,4|8,0:0|0:0,0:0:0:0:
137,340,40656,2,0,P|132:290|128:240,1,100,0|8,0:0|0:0,0:0:0:0:
90,208,41156,2,0,P|78:128|123:68,1,150,0|8,0:0|0:0,0:0:0:0:
174,154,41989,2,0,P|223:149|273:145,1,100,0|8,0:0|0:0,0:0:0:0:
340,219,42656,5,2,0:0:0:0:
431,179,42989,1,4,0:0:0:0:
421,79,43323,1,4,0:0:0:0:
323,58,43656,2,0,P|248:54|174:43,1,150,4|0,0:0|0:0,0:0:0:0:
27,79,44656,1,2,0:0:0:0:
37,179,44989,1,2,0:0:0:0:
96,260,45323,6,0,P|145:256|195:250,1,100,4|0,0:0|0:0,0:0:0:0:
240,161,45989,1,8,0:0:0:0:
240,161,46156,2,0,P|289:166|339:170,1,100
398,251,46823,1,0,0:0:0:0:
340,332,47156,1,0,0:0:0:0:
340,332,47323,2,0,P|290:335|240:341,1,100,8|0,0:0|0:0,0:0:0:0:
144,368,47989,6,0,P|124:321|124:272,1,100
220,240,48656,2,0,P|239:193|239:144,1,100,8|0,0:0|0:0,0:0:0:0:
224,97,49156,2,0,P|273:91|323:88,1,100,0|2,0:0|0:0,0:0:0:0:
368,110,49656,2,0,P|417:115|467:118,2,100,2|2|2,0:0|0:0|0:0,0:0:0:0:
364,210,50656,6,0,P|413:212|463:218,1,100,4|0,0:0|0:0,0:0:0:0:
463,318,51323,2,0,P|413:324|363:326,1,100,8|0,0:0|0:0,0:0:0:0:
264,326,51989,2,0,P|214:323|164:317,1,100
164,218,52656,2,0,P|213:211|263:209,1,100,8|0,0:0|0:0,0:0:0:0:
264,110,53323,6,0,P|214:113|164:119,2,100,8|8|8,0:0|0:0|0:0,0:0:0:0:
334,180,54323,1,8,0:0:0:0:
404,250,54656,2,0,P|454:253|504:259,2,100,8|8|8,0:0|0:0|0:0,0:0:0:0:
334,320,55656,2,0,P|284:325|234:328,1,100,8|8,0:0|0:0,0:0:0:0:
134,329,56323,5,2,0:0:0:0:
53,271,56656,1,2,0:0:0:0:
23,176,56989,1,2,0:0:0:0:
53,80,57323,2,0,P|127:76|202:64,2,150,4|4|4,0:0|0:0|0:0,0:0:0:0:
30,360,59656,1,2,0:0:0:0:
129,368,59989,6,0,P|178:378|226:361,2,100,4|8|2,0:0|0:0|0:0,0:0:0:0:
172,277,60989,1,8,0:0:0:0:
72,268,61323,2,0,P|69:218|62:168,1,100,2|8,0:0|0:0,0:0:0:0:
24,138,61823,2,0,P|26:88|33:38,1,100,2|0,0:0|0:0,0:0:0:0:
72,8,62323,1,8,0:0:0:0:
154,64,62656,6,0,P|203:61|253:54,1,100,2|8,0:0|0:0,0:0:0:0:
342,8,63323,2,0,P|391:10|441:17,1,100,2|8,0:0|0:0,0:0:0:0:
412,112,63989,2,0,P|461:109|511:102,2,100,2|8|2,0:0|0:0|0:0,0:0:0:0:
342,183,64989,1,8,0:0:0:0:
265,248,65323,6,0,P|242:203|246:152,2,100,4|8|2,0:0|0:0|0:0,0:0:0:0:
359,278,66323,2,0,P|291:345|198:322,1,200,8|8,0:0|0:0,0:0:0:0:
98,313,67323,1,2,0:0:0:0:
156,231,67656,1,8,0:0:0:0:
56,221,67989,6,0,P|49:171|46:121,1,100,4|2,0:0|0:0,0:0:0:0:
76,81,68489,2,0,P|115:111|152:144,1,100,4|2,0:0|0:0,0:0:0:0:
172,99,68989,2,0,P|165:49|162:0,1,100,4|2,0:0|0:0,0:0:0:0:
256,32,69656,1,2,0:0:0:0:
304,120,69989,2,0,P|353:117|403:110,1,100,2|2,0:0|0:0,0:0:0:0:
494,152,70656,6,0,P|504:103|487:55,2,100,4|8|2,0:0|0:0|0:0,0:0:0:0:
410,207,71656,1,8,0:0:0:0:
311,220,71989,2,0,P|261:213|211:209,1,100,2|8,0:0|0:0,0:0:0:0:
161,208,72489,2,0,P|167:258|171:308,1,100,2|0,0:0|0:0,0:0:0:0:
160,356,72989,1,8,0:0:0:0:
62,377,73323,5,2,0:0:0:0:
25,285,73656,1,4,0:0:0:0:
25,185,73989,1,4,0:0:0:0:
62,93,74323,1,4,0:0:0:0:
62,93,74489,2,0,P|136:89|211:77,1,150,0|2,0:0|0:0,0:0:0:0:
295,22,75323,2,0,P|309:93|272:156,1,150,2|2,0:0|0:0,0:0:0:0:
230,185,75989,6,0,P|180:192|130:198,2,100,8|8|8,0:0|0:0|0:0,0:0:0:0:
300,255,76989,1,8,0:0:0:0:
370,325,77323,2,0,P|420:318|470:312,2,100,8|8|8,0:0|0:0|0:0,0:0:0:0:
300,255,78323,1,8,0:0:0:0:
370,185,78656,6,0,P|420:192|470:198,2,100,8|8|8,0:0|0:0|0:0,0:0:0:0:
300,255,79656,1,8,0:0:0:0:
230,325,79989,2,0,P|180:318|130:312,2,100,8|8|8,0:0|0:0|0:0,0:0:0:0:
300,255,80989,1,8,0:0:0:0:
230,185,81323,6,0,P|167:147|95:160,1,150,4|2,0:0|0:0,0:0:0:0:
49,249,82156,2,0,L|-1:249,2,50,2|2|2,0:0|0:0|0:0,0:0:0:0:
119,319,82823,2,0,L|119:369,2,50,2|2|2,0:0|0:0|0:0,0:0:0:0:
189,249,83489,2,0,L|239:249,2,50,2|2|2,0:0|0:0|0:0,0:0:0:0:
142,229,83989,6,0,P|119:137|186:68,1,200,2|2,0:0|0:0,0:0:0:0:
214,162,84989,1,0,0:0:0:0:
302,208,85323,2,0,P|376:204|451:192,1,150,2|2,0:0|0:0,0:0:0:0:
451,242,85989,2,0,P|444:291|441:341,1,100,2|2,0:0|0:0,0:0:0:0:
398,367,86489,1,2,0:0:0:0:
398,367,86656,6,0,P|323:355|249:351,1,150,4|0,0:0|0:0,0:0:0:0:
169,291,87489,2,0,P|150:244|150:195,1,100
153,95,88156,1,0,0:0:0:0:
288,28,88656,2,0,P|281:77|278:127,1,100,2|2,0:0|0:0,0:0:0:0:
286,177,89156,1,2,0:0:0:0:
286,177,89323,6,0,P|378:154|447:221,1,200,8|0,0:0|0:0,0:0:0:0:
354,257,90323,1,0,0:0:0:0:
254,257,90656,2,0,P|261:306|264:356,1,100
311,372,91156,1,0,0:0:0:0:
410,372,91489,2,0,P|458:360|506:344,1,100
512,295,91989,6,0,P|506:220|452:174,1,150,4|0,0:0|0:0,0:0:0:0:
353,157,92823,2,0,L|253:149,2,100
328,254,93823,2,0,L|428:262,2,100
296,292,94656,6,0,P|248:303|198:310,1,100,8|8,0:0|0:0,0:0:0:0:
165,273,95156,2,0,P|117:261|67:254,1,100,8|8,0:0|0:0,0:0:0:0:
24,280,95656,2,0,L|19:330,1,50,8|4,0:0|0:0,0:0:0:0:
256,192,95989,12,0,98656,0:0:0:0:
