osu file format v14

[General]
AudioFilename: audio.mp3
AudioLeadIn: 0
PreviewTime: 132178
Countdown: 1
SampleSet: Soft
StackLeniency: 0.7
Mode: 0
LetterboxInBreaks: 0
WidescreenStoryboard: 1

[Editor]
DistanceSpacing: 1.3
BeatDivisor: 4
GridSize: 16
TimelineZoom: 2.4

[Metadata]
Title:Haruoto*Veil
TitleUnicode:春音*ベール
Artist:Ceui
ArtistUnicode:Ceui
Creator:Alexsander
Version:Hard
Source:春音アリス*グラム
Tags:Haruoto Alice*Gram Eroge Opening full ver visual novel version video game japanese pop j-pop jpop spring is just around the corner
BeatmapID:2187180
BeatmapSetID:1045823

[Difficulty]
HPDrainRate:5
CircleSize:3.6
OverallDifficulty:6.5
ApproachRate:7.7
SliderMultiplier:1.4
SliderTickRate:1

[Events]
//Background and Video events
0,0,"hard.jpg",0,0
//Break Periods
2,96720,106391
2,202053,211725
//Storyboard Layer 0 (Background)
//Storyboard Layer 1 (Fail)
//Storyboard Layer 2 (Pass)
//Storyboard Layer 3 (Foreground)
//Storyboard Layer 4 (Overlay)
//Storyboard Sound Samples

[TimingPoints]
-813,333.333333333333,4,2,1,40,1,0
-813,-142.857142857143,4,2,1,40,0,0
11020,-250,4,2,1,40,0,0
12436,-250,4,2,1,5,0,0
12520,-100,4,2,1,60,0,0
12853,-100,4,2,1,50,0,0
17853,-100,4,2,1,60,0,0
20520,-100,4,2,1,70,0,0
21853,-125,4,2,1,40,0,0
23186,-111.111111111111,4,2,1,50,0,0
33853,-100,4,2,1,60,0,0
43353,-125,4,2,1,60,0,0
44520,-142.857142857143,4,2,1,50,0,0
49853,-125,4,2,1,60,0,0
51186,-111.111111111111,4,2,1,60,0,0
52520,-100,4,2,1,70,0,0
56520,-142.857142857143,4,2,1,40,0,0
57020,-166.666666666667,4,2,1,40,0,0
57520,-200,4,2,1,40,0,0
58853,-100,4,2,1,50,0,0
59019,-100,4,2,1,40,0,0
59186,-100,4,2,1,80,0,1
67186,-90.9090909090909,4,2,1,80,0,1
68520,-100,4,2,1,80,0,1
82353,-100,4,2,1,70,0,1
83186,-111.111111111111,4,2,1,60,0,0
83603,-111.111111111111,4,2,1,5,0,0
83686,-111.111111111111,4,2,1,50,0,0
107186,-111.111111111111,4,2,1,50,0,0
115853,-100,4,2,1,50,0,0
117853,-100,4,2,1,60,0,0
123686,-125,4,2,1,60,0,0
125853,-100,4,2,1,60,0,0
128686,-100,4,2,1,80,0,0
132186,-100,4,2,1,50,0,0
132520,-100,4,2,1,80,0,1
140520,-90.9090909090909,4,2,1,80,0,1
141853,-100,4,2,1,80,0,1
155686,-100,4,2,1,80,0,1
156520,-111.111111111111,4,2,1,50,0,0
161686,-100,4,2,1,60,0,0
172520,-100,4,2,1,70,0,0
177853,-111.111111111111,4,2,1,50,0,0
185853,-111.111111111111,4,2,1,60,0,0
188520,-100,4,2,1,60,0,0
189853,-100,4,2,1,70,0,0
192686,-100,4,2,1,60,0,0
193853,-100,4,2,1,70,0,0
196520,-166.666666666667,4,2,1,70,0,0
196603,-166.666666666667,4,2,1,40,0,0
200520,-166.666666666667,4,2,1,30,0,0
212520,-142.857142857143,4,2,1,50,0,0
216353,-100,4,2,1,60,0,0
219853,-100,4,2,1,70,0,0
220853,-90.9090909090909,4,2,1,80,0,1
222686,-90.9090909090909,4,2,1,80,0,1
223020,-90.9090909090909,4,2,1,80,0,1
223520,-100,4,2,1,80,0,1
228520,-90.9090909090909,4,2,1,80,0,1
229853,-100,4,2,1,80,0,1
243686,-100,4,2,1,60,0,1
244520,-111.111111111111,4,2,1,60,0,0
247186,-111.111111111111,4,2,1,60,0,0
252520,-100,4,2,1,60,0,0
256519,-100,4,2,1,30,0,0
256520,-250,4,2,1,30,0,0
259186,-250,4,2,1,5,0,0

[Colours]
Combo1 : 168,45,251
Combo2 : 44,164,252
Combo3 : 216,56,129
Combo4 : 232,192,34

[HitObjects]
65,138,353,5,0,0:0:0:0:
65,138,436,1,0,0:0:0:0:
65,138,520,2,0,L|82:200,1,48.9999985046387,2|0,0:0|0:0,0:0:0:0:
151,213,853,2,0,L|134:275,1,48.9999985046387,0|2,0:0|0:0,0:0:0:0:
142,278,1520,1,2,0:0:0:0:
242,160,1853,6,0,P|279:144|307:141,1,48.9999985046387
365,144,2186,1,0,0:0:0:0:
423,196,2353,1,2,0:0:0:0:
425,209,2686,6,0,L|411:266,2,48.9999985046387,2|0|0,0:0|0:0|0:0,0:0:0:0:
478,151,3186,2,0,L|467:82,1,48.9999985046387,2|0,0:0|0:0,0:0:0:0:
416,44,3520,2,0,L|347:55,1,48.9999985046387,0|2,0:0|0:0,0:0:0:0:
348,47,4186,5,0,0:0:0:0:
272,26,4353,1,0,0:0:0:0:
207,71,4520,2,0,P|164:69|139:57,1,48.9999985046387,2|0,0:0|0:0,0:0:0:0:
87,35,4853,1,0,0:0:0:0:
80,117,5020,1,2,0:0:0:0:
82,138,5353,6,0,P|56:151|26:155,2,48.9999985046387,2|0|0,0:0|0:0|0:0,0:0:0:0:
159,155,5853,2,0,L|211:176,1,48.9999985046387,2|0,0:0|0:0,0:0:0:0:
277,206,6186,2,0,L|379:182,1,97.9999970092774
377,161,6853,1,2,0:0:0:0:
460,169,7020,1,0,0:0:0:0:
468,255,7186,6,0,B|397:265|419:308|332:304,2,146.999995513916,2|2|2,0:0|0:0|0:0,0:0:0:0:
475,236,8520,6,0,P|411:226|371:195,1,97.9999970092774,2|0,0:0|0:0,0:0:0:0:
325,163,9020,1,2,0:0:0:0:
365,95,9186,2,0,P|389:116|400:142,2,48.9999985046387
289,69,9686,1,2,0:0:0:0:
271,57,10020,5,2,0:0:0:0:
210,106,10186,1,0,0:0:0:0:
134,126,10353,1,0,0:0:0:0:
62,93,10520,2,0,L|45:48,2,48.9999985046387
23,161,11020,6,0,B|0:232|0:232|21:312|110:325,1,224,2|0,0:0|0:0,0:0:0:0:
195,269,12520,6,0,P|238:256|283:270,1,70,6|0,0:0|0:0,0:0:0:0:
326,323,12853,1,2,0:0:0:0:
326,323,13020,2,0,L|353:184,1,140,2|2,0:0|0:0,0:0:0:0:
415,119,13520,1,0,0:0:0:0:
328,60,13686,5,2,0:0:0:0:
318,72,14020,2,0,P|254:79|163:61,1,140,2|0,0:0|0:0,0:0:0:0:
93,97,14520,2,0,P|107:131|113:169,1,70,2|0,0:0|0:0,0:0:0:0:
68,243,14853,1,2,3:2:0:0:
68,243,15020,1,8,0:3:0:0:
169,271,15186,6,0,L|324:242,1,140,4|0,0:0|0:0,0:0:0:0:
369,311,15686,1,2,0:0:0:0:
369,311,15853,2,0,L|231:336,1,140,2|2,0:0|0:0,0:0:0:0:
148,374,16353,1,0,0:0:0:0:
54,326,16520,6,0,P|15:273|42:198,1,140,2|2,0:0|0:0,0:0:0:0:
96,140,17020,1,0,0:0:0:0:
179,175,17186,2,0,P|218:178|255:164,1,70,2|0,0:0|0:0,0:0:0:0:
312,104,17520,2,0,L|303:49,2,46.6666666666667,8|8|8,0:3|0:3|0:3,0:0:0:0:
377,148,17853,6,0,L|462:147,1,70,12|0,0:0|0:0,0:0:0:0:
432,238,18186,2,0,L|287:237,1,140,0|0,3:0|3:0,0:0:0:0:
206,206,18686,1,0,0:0:0:0:
141,269,18853,2,0,P|131:312|149:352,1,70,8|0,0:0|0:0,0:0:0:0:
241,360,19186,6,0,B|316:332|313:391|399:344,1,140,8|0,0:0|3:0,0:0:0:0:
340,271,19686,1,2,0:0:0:0:
340,271,19853,2,0,L|337:187,1,70,0|8,3:0|0:0,0:0:0:0:
420,162,20186,2,0,L|422:231,1,70,8|0,0:3|0:0,0:0:0:0:
344,114,20520,6,0,P|295:91|216:135,1,140,8|8,0:0|0:0,0:0:0:0:
159,191,21020,1,8,0:0:0:0:
95,127,21186,2,0,L|94:40,1,70,8|8,0:0|0:0,0:0:0:0:
30,191,21520,1,4,0:3:0:0:
95,256,21686,1,10,0:0:0:0:
200,155,22020,6,0,P|231:145|270:147,2,56,8|2|8,0:3|0:0|0:3,0:0:0:0:
149,245,22520,2,0,P|118:255|79:253,2,56,2|8|8,0:0|0:3|0:3,0:0:0:0:
310,217,23186,6,0,L|331:364,1,125.999996154785,6|0,0:0|3:0,0:0:0:0:
401,194,23853,2,0,L|390:122,1,62.9999980773926,0|2,3:0|0:0,0:0:0:0:
353,58,24186,1,0,3:0:0:0:
283,122,24353,6,0,P|234:141|165:114,1,125.999996154785,2|2,0:0|0:0,0:0:0:0:
108,60,24853,1,0,3:0:0:0:
68,131,25020,2,0,L|84:219,1,62.9999980773926,2|0,0:0|3:0,0:0:0:0:
133,254,25353,1,2,0:0:0:0:
94,341,25520,1,0,3:0:0:0:
94,341,25686,6,0,L|246:319,1,125.999996154785,2|0,0:0|0:0,0:0:0:0:
295,295,26186,2,0,L|249:240,1,62.9999980773926,2|0,3:2|0:0,0:0:0:0:
245,164,26520,2,0,P|254:127|269:106,1,62.9999980773926,2|0,3:2|0:0,0:0:0:0:
343,72,26853,1,0,3:0:0:0:
431,109,27020,6,0,B|461:140|461:140|467:237,1,125.999996154785,2|2,0:0|0:0,0:0:0:0:
450,303,27520,1,0,3:0:0:0:
450,303,27686,2,0,B|392:290|396:343|312:315,1,125.999996154785,2|0,0:0|0:0,0:0:0:0:
256,281,28186,2,0,L|256:210,1,62.9999980773926,0|0,3:0|0:0,0:0:0:0:
196,143,28520,5,2,3:2:0:0:
196,143,28686,2,0,P|151:132|112:142,1,62.9999980773926,2|0,0:0|3:0,0:0:0:0:
64,176,29020,2,0,L|106:307,1,125.999996154785,2|2,0:0|0:0,0:0:0:0:
155,358,29520,1,0,3:0:0:0:
209,281,29686,6,0,P|272:256|335:301,1,125.999996154785,2|2,0:0|0:0,0:0:0:0:
384,332,30186,1,0,3:0:0:0:
429,263,30353,2,0,L|440:127,1,125.999996154785,2|0,0:0|0:0,0:0:0:0:
405,62,30853,1,2,3:2:0:0:
405,62,31020,1,0,0:0:0:0:
331,121,31186,6,0,P|287:126|220:73,1,125.999996154785,2|0,3:2|3:2,0:0:0:0:
172,16,31686,1,0,0:0:0:0:
98,52,31853,2,0,P|64:107|79:170,1,125.999996154785,2|0,3:2|3:0,0:0:0:0:
126,228,32353,1,0,0:0:0:0:
205,175,32520,6,0,P|239:171|268:183,1,62.9999980773926,6|2,0:0|0:0,0:0:0:0:
315,248,32853,1,0,3:0:0:0:
244,310,33020,2,0,L|174:308,1,62.9999980773926,8|0,0:3|0:0,0:0:0:0:
98,307,33353,2,0,L|87:344,2,31.4999990386963,8|8|8,0:0|0:0|0:0,0:0:0:0:
68,230,33686,1,0,3:0:0:0:
68,230,33770,1,0,3:0:0:0:
68,230,33853,6,0,L|85:80,1,140,6|8,3:2|0:0,0:0:0:0:
142,21,34353,1,0,0:0:0:0:
216,73,34520,2,0,P|254:79|294:65,1,70,2|8,3:2|0:0,0:0:0:0:
356,15,34853,1,0,3:0:0:0:
440,77,35020,6,0,B|450:119|450:119|409:224,1,140,6|0,3:2|3:0,0:0:0:0:
352,275,35520,1,8,0:0:0:0:
279,220,35686,2,0,P|297:189|343:173,1,70,2|0,0:0|3:0,0:0:0:0:
414,209,36020,1,8,0:0:0:0:
438,296,36186,2,0,L|427:335,2,35,8|8|8,0:0|0:3|0:3,0:0:0:0:
498,382,36520,6,0,L|335:373,1,140,6|10,0:0|0:0,0:0:0:0:
207,272,37186,1,2,3:2:0:0:
267,204,37353,2,0,P|271:159|263:133,1,70,0|8,3:0|0:0,0:0:0:0:
189,62,37686,6,0,P|137:87|45:87,1,140,6|0,3:2|0:0,0:0:0:0:
14,171,38186,2,0,L|49:307,1,140,8|2,0:0|3:2,0:0:0:0:
119,364,38686,1,0,3:0:0:0:
183,299,38853,2,0,L|181:224,1,70,10|0,0:0|3:0,0:0:0:0:
266,166,39186,6,0,L|270:331,1,140,6|8,3:2|0:0,0:0:0:0:
348,259,39686,2,0,P|384:226|467:241,1,140,2|0,0:0|3:0,0:0:0:0:
509,323,40186,1,8,0:0:0:0:
411,361,40353,6,0,B|260:382,1,140,2|0,3:2|3:0,0:0:0:0:
189,342,40853,1,8,0:0:0:0:
189,342,41020,2,0,L|165:260,1,70,2|0,0:0|3:0,0:0:0:0:
99,216,41353,2,0,L|66:242,2,35,8|8|8,0:0|0:0|0:0,0:0:0:0:
142,135,41686,1,0,0:0:0:0:
142,135,41770,1,8,0:0:0:0:
142,135,41853,6,0,B|206:111|203:159|287:124,1,140,4|8,0:3|0:3,0:0:0:0:
359,84,42353,2,0,P|317:114|336:216,1,140,4|0,0:1|0:0,0:0:0:0:
388,252,42853,2,0,L|228:228,1,140,10|0,0:0|0:0,0:0:0:0:
172,267,43353,5,0,3:0:0:0:
157,261,43853,2,0,L|133:193,1,56,8|0,0:3|0:0,0:0:0:0:
82,160,44186,2,0,L|106:92,1,56,8|8,0:3|0:3,0:0:0:0:
161,39,44520,6,0,P|217:27|266:56,1,97.9999970092774,6|2,0:0|3:2,0:0:0:0:
296,107,45020,1,2,0:0:0:0:
434,33,45353,2,0,P|456:61|469:90,1,48.9999985046387,2|0,3:2|0:0,0:0:0:0:
475,150,45686,2,0,L|424:174,1,48.9999985046387,2|0,3:2|0:0,0:0:0:0:
356,198,46020,2,0,P|310:199|289:193,1,48.9999985046387,2|0,3:2|0:0,0:0:0:0:
229,186,46353,2,0,L|171:154,2,48.9999985046387,2|8|0,3:2|0:0|3:0,0:0:0:0:
324,310,47020,5,0,3:0:0:0:
324,310,47186,2,0,P|359:327|426:314,1,97.9999970092774,2|0,3:2|3:0,0:0:0:0:
476,174,47853,2,0,L|460:111,1,48.9999985046387,8|0,0:0|3:0,0:0:0:0:
427,56,48186,1,2,0:0:0:0:
344,26,48353,6,0,L|236:30,1,97.9999970092774,2|8,3:2|0:0,0:0:0:0:
175,63,48853,1,8,0:3:0:0:
175,63,49020,1,0,3:0:0:0:
147,136,49186,2,0,L|162:201,1,48.9999985046387,8|0,0:3|0:3,0:0:0:0:
212,240,49520,2,0,L|197:305,1,48.9999985046387,8|8,0:3|0:0,0:0:0:0:
164,369,49853,6,0,P|117:335|54:339,1,112,6|0,0:0|3:0,0:0:0:0:
20,270,50353,2,0,L|46:145,1,112,2|2,0:0|0:0,0:0:0:0:
81,92,50853,1,0,3:0:0:0:
130,153,51020,1,2,0:0:0:0:
181,71,51186,6,0,P|217:51|303:69,1,125.999996154785,10|0,0:0|3:0,0:0:0:0:
341,134,51686,1,2,0:0:0:0:
404,82,51853,2,0,L|407:17,1,62.9999980773926,0|0,3:0|0:0,0:0:0:0:
486,86,52186,2,0,L|483:148,1,62.9999980773926,2|0,3:2|0:0,0:0:0:0:
426,226,52520,6,0,B|380:219|380:219|341:228|341:228|267:220,1,140,14|8,0:0|0:3,0:0:0:0:
214,168,53020,1,8,0:3:0:0:
278,105,53186,2,0,P|284:61|272:28,1,70,8|8,0:3|0:0,0:0:0:0:
193,1,53520,2,0,P|186:44|198:77,1,70,8|8,0:0|0:0,0:0:0:0:
214,168,53853,6,0,B|167:154|167:154|71:184,1,140,10|8,0:0|0:0,0:0:0:0:
21,250,54353,1,8,0:0:0:0:
66,329,54520,1,10,3:2:0:0:
66,329,54686,1,8,0:0:0:0:
150,294,54853,2,0,P|187:284|225:290,1,70,10|8,0:0|0:0,0:0:0:0:
291,364,55186,5,14,3:2:0:0:
365,308,55353,2,0,L|383:268,2,35,8|8|10,0:0|0:0|0:0,0:0:0:0:
300,243,55686,2,0,L|282:203,2,35,8|8|10,0:0|0:0|0:0,0:0:0:0:
357,171,56020,1,8,0:0:0:0:
357,171,56103,1,8,0:0:0:0:
357,171,56186,2,0,L|375:131,3,35,8|8|8|8,0:0|0:0|0:0|0:0,0:0:0:0:
368,107,56520,6,0,B|335:90|335:90|283:127|226:99,2,146.999995513916,6|2|2,0:0|0:0|0:0,0:0:0:0:
368,107,58853,6,0,L|338:23,1,70,8|0,0:1|0:0,0:0:0:0:
260,105,59186,6,0,B|187:89|196:150|112:127,2,140,6|8|0,0:0|0:0|3:0,0:0:0:0:
312,179,60020,1,0,0:0:0:0:
241,236,60186,2,0,P|228:279|242:321,1,70,10|0,0:0|3:0,0:0:0:0:
324,355,60520,6,0,L|475:342,1,140,2|8,0:0|0:0,0:0:0:0:
444,253,61020,2,0,L|395:258,2,35,0|8|0,3:0|0:0|3:0,0:0:0:0:
495,177,61353,2,0,P|497:133|480:99,1,70,2|8,3:2|0:0,0:0:0:0:
417,50,61686,1,0,0:0:0:0:
346,129,61853,6,0,P|309:133|263:121,1,70,4|0,3:2|0:0,0:0:0:0:
200,76,62186,2,0,L|163:149,1,70,10|0,0:0|0:0,0:0:0:0:
229,207,62520,2,0,L|266:280,1,70,2|0,3:2|0:0,0:0:0:0:
212,347,62853,1,8,0:0:0:0:
144,267,63020,6,0,P|81:238|3:279,1,140,2|0,0:0|3:0,0:0:0:0:
5,170,63520,1,8,0:0:0:0:
83,124,63686,2,0,P|110:133|127:148,2,35,0|8|0,3:0|0:0|3:0,0:0:0:0:
39,43,64020,2,0,P|73:30|111:35,1,70,0|8,0:0|0:0,0:0:0:0:
184,79,64353,1,0,3:0:0:0:
276,29,64520,6,0,P|319:18|401:74,1,140,6|8,0:0|0:0,0:0:0:0:
434,147,65020,2,0,P|397:198|385:281,1,140,2|0,0:0|3:0,0:0:0:0:
312,361,65520,6,0,L|157:335,1,140,8|2,0:0|0:0,0:0:0:0:
85,314,66020,1,0,3:0:0:0:
49,230,66186,2,0,P|40:191|47:153,1,70,8|0,0:0|3:0,0:0:0:0:
130,186,66520,2,0,P|139:225|133:262,1,70,2|0,3:2|0:0,0:0:0:0:
220,288,66853,2,0,L|304:287,1,70,8|8,0:0|0:0,0:0:0:0:
376,207,67186,6,0,B|327:185|327:185|286:189|286:189|221:160,1,154.000004699707,6|0,0:0|3:0,0:0:0:0:
129,140,67686,2,0,B|182:115|182:115|223:119|223:119|272:97,1,154.000004699707,12|0,0:0|3:0,0:0:0:0:
267,0,68186,1,6,0:0:0:0:
267,0,68353,1,8,0:3:0:0:
185,41,68520,1,8,0:3:0:0:
95,57,68686,6,0,P|68:43|54:34,2,35,8|8|8,0:3|0:3|0:0,0:0:0:0:
129,140,69020,2,0,P|98:141|82:141,2,35,8|8|8,0:0|0:0|0:0,0:0:0:0:
161,225,69353,1,8,0:0:0:0:
161,225,69436,1,8,0:0:0:0:
161,225,69520,2,0,L|178:274,3,35,8|8|8|8,0:0|0:0|0:0|0:0,0:0:0:0:
181,303,69853,6,0,B|234:318|234:318|321:276,2,140,6|8|0,0:0|0:0|3:0,0:0:0:0:
90,294,70686,1,0,3:0:0:0:
50,211,70853,2,0,L|63:126,1,70,8|0,0:0|0:0,0:0:0:0:
120,51,71186,6,0,P|161:85|260:107,1,140,6|8,0:0|0:0,0:0:0:0:
331,85,71686,2,0,L|319:44,2,35,0|0|0,0:0|0:0|3:0,0:0:0:0:
375,165,72020,2,0,L|347:257,1,70,2|8,0:0|0:0,0:0:0:0:
401,310,72353,1,2,0:0:0:0:
472,232,72520,6,0,P|480:192|463:142,1,70,0|0,3:0|0:0,0:0:0:0:
435,65,72853,2,0,L|361:84,1,70,10|0,0:0|0:0,0:0:0:0:
299,143,73186,2,0,P|280:106|280:72,1,70,2|0,3:2|3:0,0:0:0:0:
323,0,73520,1,8,0:0:0:0:
217,4,73686,6,0,P|168:50|183:132,1,140,14|0,0:0|3:0,0:0:0:0:
225,192,74186,1,8,0:0:0:0:
225,192,74353,2,0,L|158:221,1,70,8|2,0:0|0:0,0:0:0:0:
116,299,74686,1,0,3:0:0:0:
54,231,74853,2,0,L|38:188,3,35,8|8|8|8,0:0|0:0|0:0|0:0,0:0:0:0:
24,155,75186,6,0,L|71:11,1,140,6|8,0:0|0:0,0:0:0:0:
146,66,75686,1,0,3:0:0:0:
226,23,75853,2,0,P|268:12|302:19,1,70,10|0,0:0|3:0,0:0:0:0:
329,107,76186,1,8,0:0:0:0:
329,107,76353,1,0,3:0:0:0:
404,52,76520,6,0,L|423:127,1,70,10|0,0:0|3:0,0:0:0:0:
480,188,76853,1,10,0:0:0:0:
401,233,77020,2,0,L|328:218,1,70,0|8,3:0|0:0,0:0:0:0:
255,170,77353,1,0,3:0:0:0:
205,246,77520,1,10,0:0:0:0:
205,246,77686,1,0,3:0:0:0:
115,193,77853,6,0,P|91:220|85:257,1,70,10|0,0:0|0:0,0:0:0:0:
121,336,78186,2,0,L|194:345,1,70,8|0,0:0|3:0,0:0:0:0:
275,310,78520,1,10,0:0:0:0:
353,355,78686,2,0,P|372:317|371:276,1,70,0|8,0:0|0:0,0:0:0:0:
332,207,79020,1,0,3:0:0:0:
414,168,79186,6,0,L|491:174,1,70,10|0,0:0|3:0,0:0:0:0:
448,88,79520,2,0,L|378:82,1,70,8|0,0:0|3:0,0:0:0:0:
299,128,79853,1,8,0:0:0:0:
299,128,80020,1,2,3:2:0:0:
240,58,80186,2,0,P|193:51|168:61,1,70,8|0,0:0|3:0,0:0:0:0:
97,133,80520,6,0,L|127:288,1,140,10|0,0:0|0:0,0:0:0:0:
185,337,81020,2,0,P|228:300|315:322,1,140,8|0,0:0|3:0,0:0:0:0:
376,370,81520,1,8,0:0:0:0:
428,296,81686,6,0,L|444:145,1,140,2|8,3:2|0:0,0:0:0:0:
408,72,82186,1,0,3:0:0:0:
408,72,82353,2,0,P|369:94|317:96,1,70,4|0,0:3|0:0,0:0:0:0:
259,65,82686,1,8,0:3:0:0:
259,65,82853,1,8,0:3:0:0:
188,122,83020,1,8,0:3:0:0:
189,19,83186,6,0,L|331:11,1,125.999996154785,6|0,0:0|0:0,0:0:0:0:
393,52,83686,2,0,L|431:55,2,31.4999990386963,8|8|8,0:3|0:3|0:3,0:0:0:0:
493,197,84186,1,2,0:0:0:0:
433,262,84353,1,8,0:3:0:0:
433,262,84436,1,8,0:3:0:0:
433,262,84520,6,0,L|307:249,1,125.999996154785,4|0,0:3|0:0,0:0:0:0:
253,319,85020,1,0,0:0:0:0:
207,244,85186,1,8,0:0:0:0:
115,340,85520,1,8,0:3:0:0:
115,340,85686,1,8,0:3:0:0:
62,268,85853,6,0,L|103:139,1,125.999996154785,6|0,0:0|0:0,0:0:0:0:
87,60,86353,2,0,P|129:59|188:138,1,125.999996154785,2|8,0:0|0:3,0:0:0:0:
227,193,86853,1,0,0:0:0:0:
227,193,87020,6,0,L|301:174,1,62.9999980773926,2|0,3:2|0:0,0:0:0:0:
372,152,87353,2,0,P|347:111|269:98,1,125.999996154785,2|0,3:2|0:0,0:0:0:0:
239,14,87853,2,0,L|307:5,1,62.9999980773926,2|0,3:2|0:0,0:0:0:0:
385,33,88186,1,8,0:3:0:0:
385,33,88353,1,2,0:0:0:0:
446,106,88520,6,0,L|411:235,1,125.999996154785,12|0,0:0|0:0,0:0:0:0:
344,282,89020,1,2,0:0:0:0:
344,282,89186,1,2,0:0:0:0:
290,211,89353,2,0,P|275:177|276:143,1,62.9999980773926,8|0,0:3|0:0,0:0:0:0:
331,90,89686,6,0,L|186:118,1,125.999996154785,2|8,3:2|0:3,0:0:0:0:
150,181,90186,1,0,0:0:0:0:
228,222,90353,2,0,L|289:210,1,62.9999980773926,2|8,0:2|0:3,0:0:0:0:
369,242,90686,1,2,0:0:0:0:
331,321,90853,1,8,0:0:0:0:
241,346,91020,1,8,0:0:0:0:
241,346,91103,1,8,0:0:0:0:
241,346,91186,6,0,B|183:316|180:365|113:325,1,125.999996154785,4|0,0:1|3:2,0:0:0:0:
60,263,91686,2,0,P|87:218|74:136,1,125.999996154785,2|2,0:0|0:0,0:0:0:0:
23,79,92186,1,8,0:3:0:0:
98,33,92353,1,0,1:0:0:0:
98,33,92436,1,0,1:0:0:0:
98,33,92520,6,0,P|148:50|243:51,1,125.999996154785,6|8,0:3|0:3,0:0:0:0:
306,32,93020,1,8,0:3:0:0:
337,113,93186,1,8,0:3:0:0:
420,83,93353,1,8,0:0:0:0:
420,83,93436,1,8,0:0:0:0:
420,83,93520,2,0,L|447:58,3,31.4999990386963,8|8|8|8,0:0|0:0|0:0|0:0,0:0:0:0:
485,73,93853,6,0,L|507:144,2,62.9999980773926,6|0|0,0:3|0:3|0:3,0:0:0:0:
432,171,94353,2,0,L|454:242,2,62.9999980773926,10|8|10,0:0|0:3|0:0,0:0:0:0:
348,142,94853,1,4,0:3:0:0:
301,234,95020,1,4,0:1:0:0:
180,105,95353,5,2,0:0:0:0:
180,105,95520,2,0,L|168:178,1,62.9999980773926,0|2,0:0|0:0,0:0:0:0:
103,209,95853,1,0,0:0:0:0:
169,264,96020,1,0,0:0:0:0:
128,338,96187,2,0,L|60:334,1,62.9999980773926
1,264,96520,1,6,0:0:0:0:
82,339,107186,6,0,L|42:212,1,125.999996154785,6|0,3:2|3:0,0:0:0:0:
96,65,107853,1,0,0:0:0:0:
115,146,108020,2,0,L|189:142,1,62.9999980773926,2|0,0:0|3:0,0:0:0:0:
245,189,108353,1,2,0:0:0:0:
280,93,108520,6,0,B|320:83|320:83|414:104,2,125.999996154785,0|0|0,3:2|3:0|3:0,0:0:0:0:
319,164,109353,1,0,0:0:0:0:
396,191,109520,2,0,L|461:203,1,62.9999980773926,2|0,3:2|0:0,0:0:0:0:
383,278,109853,6,0,L|249:252,1,125.999996154785,6|0,3:2|3:0,0:0:0:0:
201,196,110353,2,0,P|196:155|204:132,1,62.9999980773926,2|0,0:0|3:0,0:0:0:0:
260,77,110686,2,0,P|209:56|135:82,1,125.999996154785,2|0,0:0|0:0,0:0:0:0:
76,142,111186,6,0,L|96:216,1,62.9999980773926,2|0,3:2|0:0,0:0:0:0:
64,280,111520,1,0,3:0:0:0:
64,280,111686,2,0,P|103:242|185:252,1,125.999996154785,2|0,0:0|0:0,0:0:0:0:
227,302,112186,1,0,3:0:0:0:
302,269,112353,1,0,0:0:0:0:
377,328,112520,6,0,L|445:209,1,125.999996154785,6|0,3:2|3:0,0:0:0:0:
436,136,113020,2,0,B|398:117|398:117|311:132,1,125.999996154785,2|0,0:0|0:0,0:0:0:0:
237,157,113520,1,0,3:0:0:0:
199,229,113686,6,0,L|235:350,1,125.999996154785,2|0,0:0|0:0,0:0:0:0:
152,345,114186,1,0,3:0:0:0:
152,345,114353,2,0,L|23:331,1,125.999996154785,2|0,0:0|0:0,0:0:0:0:
67,260,114853,1,0,3:0:0:0:
1,210,115020,1,0,0:0:0:0:
80,159,115186,6,0,L|160:171,1,62.9999980773926,6|0,3:2|0:0,0:0:0:0:
210,215,115520,2,0,L|290:203,1,62.9999980773926,2|8,3:2|0:3,0:0:0:0:
257,115,115853,2,0,P|297:116|346:127,1,70,6|0,3:2|0:0,0:0:0:0:
401,189,116186,2,0,P|457:149|478:80,1,140,6|2,3:2|0:0,0:0:0:0:
381,18,116686,5,8,3:2:0:0:
299,59,116853,1,8,0:0:0:0:
208,46,117020,1,8,0:0:0:0:
144,111,117186,2,0,L|119:184,1,70,8|8,0:0|0:0,0:0:0:0:
148,264,117520,1,8,0:0:0:0:
233,234,117686,1,8,0:0:0:0:
233,234,117770,1,8,0:0:0:0:
233,234,117853,6,0,P|281:220|358:260,1,140,6|8,0:0|0:0,0:0:0:0:
101,353,118686,2,0,L|38:224,1,140,8|8,0:0|0:0,0:0:0:0:
12,46,119353,5,0,3:0:0:0:
77,109,119520,2,0,P|110:112|152:99,1,70,8|0,0:0|3:0,0:0:0:0:
224,56,119853,2,0,P|257:53|299:66,1,70,0|8,3:0|0:0,0:0:0:0:
324,148,120186,2,0,L|304:196,2,35,8|8|8,0:0|0:0|0:0,0:0:0:0:
376,240,120520,6,0,B|322:203|302:257|227:207,1,140,8|8,0:0|0:0,0:0:0:0:
40,31,121353,2,0,L|14:180,1,140,8|8,0:0|0:0,0:0:0:0:
153,48,122020,5,8,0:0:0:0:
213,115,122186,2,0,P|258:130|289:131,1,70,8|8,0:0|0:3,0:0:0:0:
356,80,122520,2,0,L|348:43,2,35,8|8|8,0:3|0:3|0:3,0:0:0:0:
428,135,122853,1,8,0:3:0:0:
366,202,123020,1,8,0:0:0:0:
366,202,123103,1,8,0:0:0:0:
366,202,123186,6,0,P|338:257|392:322,1,140,6|0,0:0|0:0,0:0:0:0:
452,334,123686,1,2,0:0:0:0:
309,363,124020,2,0,L|236:347,2,56,0|0|0,0:0|0:0|3:0,0:0:0:0:
377,317,124520,5,8,0:0:0:0:
178,226,125020,2,0,B|153:189|152:189|149:161,2,56,2|0|0,0:0|0:0|0:0,0:0:0:0:
130,290,125520,2,0,L|62:276,1,56,2|0,0:0|0:0,0:0:0:0:
24,202,125853,6,0,P|3:138|49:73,1,140,6|0,3:2|3:0,0:0:0:0:
120,40,126353,1,0,0:0:0:0:
196,90,126520,2,0,P|232:95|278:85,1,70,0|0,3:0|0:0,0:0:0:0:
344,45,126853,1,0,3:0:0:0:
344,45,127020,1,0,0:0:0:0:
382,142,127186,6,0,L|353:294,1,140,6|2,3:2|3:2,0:0:0:0:
429,333,127686,1,0,3:0:0:0:
429,333,127853,2,0,L|446:258,1,70,2|0,3:2|3:0,0:0:0:0:
491,186,128186,2,0,L|486:113,1,70,2|0,3:2|0:0,0:0:0:0:
425,29,128520,5,6,0:0:0:0:
353,84,128686,1,0,3:0:0:0:
353,84,128770,1,0,3:0:0:0:
353,84,128853,2,0,P|302:85|274:70,1,70,10|8,0:0|0:0,0:0:0:0:
195,90,129186,2,0,L|230:166,1,70,10|0,0:0|3:0,0:0:0:0:
199,241,129520,2,0,P|148:242|120:227,1,70,10|0,0:0|3:0,0:0:0:0:
50,193,129853,6,0,L|33:234,3,35,10|8|8|8,0:0|0:0|0:0|0:0,0:0:0:0:
29,270,130186,2,0,L|45:312,3,35,8|8|8|8,0:0|0:0|0:0|0:0,0:0:0:0:
65,341,130520,2,0,L|107:325,3,35,8|8|8|8,0:0|0:0|0:0|0:0,0:0:0:0:
142,338,130853,2,0,L|184:354,3,35,8|8|8|8,0:0|0:0|0:0|0:0,0:0:0:0:
217,334,131186,5,10,0:0:0:0:
217,334,131353,1,10,0:0:0:0:
109,187,131686,5,10,0:0:0:0:
109,187,131853,1,10,0:0:0:0:
251,74,132186,6,0,P|289:66|322:74,1,70,8|0,0:1|0:0,0:0:0:0:
393,149,132520,6,0,B|416:304,2,140,6|8|0,0:0|0:0|3:0,0:0:0:0:
321,206,133353,1,0,0:0:0:0:
242,161,133520,2,0,P|206:152|166:162,1,70,10|0,0:0|0:0,0:0:0:0:
74,193,133853,6,0,B|47:266|110:266|86:339,1,140,2|8,3:2|0:0,0:0:0:0:
178,310,134353,2,0,L|217:266,2,35,0|8|0,3:0|0:0|3:0,0:0:0:0:
262,343,134686,2,0,L|328:270,1,70,2|8,0:0|0:0,0:0:0:0:
286,202,135020,1,2,0:0:0:0:
348,115,135186,6,0,P|385:111|431:123,1,70,2|0,3:2|0:0,0:0:0:0:
447,205,135520,2,0,P|412:209|378:202,1,70,8|0,0:0|0:0,0:0:0:0:
286,202,135853,2,0,L|199:210,1,70,2|0,3:2|0:0,0:0:0:0:
155,276,136186,1,8,0:0:0:0:
105,183,136353,6,0,L|137:43,1,140,2|0,0:0|3:0,0:0:0:0:
207,103,136853,1,8,0:0:0:0:
294,77,137020,2,0,P|321:86|338:101,2,35,0|8|0,3:0|0:0|3:0,0:0:0:0:
266,163,137353,1,0,3:0:0:0:
316,238,137520,1,10,0:0:0:0:
272,317,137686,1,2,3:2:0:0:
367,361,137853,6,0,L|509:305,1,140,6|8,0:0|0:0,0:0:0:0:
471,222,138353,2,0,P|458:182|464:151,1,70,2|0,0:0|3:0,0:0:0:0:
492,69,138686,2,0,L|417:75,1,70,2|8,3:2|0:0,0:0:0:0:
337,136,139020,6,0,B|288:143|288:143|182:110,1,140,2|0,0:0|0:0,0:0:0:0:
116,148,139520,2,0,L|132:226,1,70,8|8,0:0|0:0,0:0:0:0:
194,281,139853,2,0,L|210:203,1,70,2|0,3:2|0:0,0:0:0:0:
280,267,140186,2,0,L|296:345,1,70,8|8,0:0|0:0,0:0:0:0:
202,377,140520,6,0,B|108:338|108:338|88:355|40:358,1,154.000004699707,14|2,0:0|0:0,0:0:0:0:
52,255,141020,2,0,B|146:216|146:216|166:233|214:236,1,154.000004699707,14|8,0:0|0:0,0:0:0:0:
203,134,141520,1,8,0:0:0:0:
203,134,141686,1,8,0:3:0:0:
287,167,141853,1,8,0:3:0:0:
373,141,142020,6,0,L|414:118,2,35,8|8|8,0:3|0:3|0:0,0:0:0:0:
336,56,142353,2,0,L|293:45,2,35,8|8|8,0:0|0:0|0:0,0:0:0:0:
426,42,142686,1,8,0:0:0:0:
426,42,142770,1,8,0:0:0:0:
426,42,142853,2,0,L|475:67,3,35,8|8|8|8,0:0|0:0|0:0|0:0,0:0:0:0:
490,88,143186,6,0,B|494:166,1,70,6|0,0:0|0:0,0:0:0:0:
487,248,143520,1,8,0:0:0:0:
399,226,143686,2,0,P|359:218|327:224,1,70,2|0,0:0|3:0,0:0:0:0:
261,283,144020,1,2,0:0:0:0:
207,210,144186,1,8,0:0:0:0:
134,285,144353,6,0,L|147:370,1,70,6|0,0:0|3:0,0:0:0:0:
57,327,144686,2,0,L|46:257,1,70,2|8,0:0|0:0,0:0:0:0:
51,166,145020,2,0,L|35:83,1,70,2|0,0:0|3:0,0:0:0:0:
114,46,145353,2,0,P|155:48|211:29,1,70,2|8,0:0|0:0,0:0:0:0:
271,20,145686,1,0,0:0:0:0:
357,81,145853,6,0,L|309:155,1,70,6|0,0:0|0:0,0:0:0:0:
265,213,146186,2,0,P|303:216|339:232,1,70,8|0,0:0|0:0,0:0:0:0:
355,266,146436,1,8,0:0:0:0:
355,266,146520,2,0,L|430:256,1,70,8|0,0:3|0:0,0:0:0:0:
489,192,146853,1,12,0:0:0:0:
493,87,147020,6,0,B|429:62|425:111|357:81,1,140,2|0,3:2|3:0,0:0:0:0:
267,68,147520,1,8,0:0:0:0:
267,68,147686,2,0,P|230:75|200:97,1,70,8|8,0:0|0:0,0:0:0:0:
180,181,148020,1,8,0:0:0:0:
183,272,148186,2,0,L|203:306,3,35,8|8|8|8,0:0|0:0|0:0|0:0,0:0:0:0:
190,346,148520,6,0,L|339:322,1,140,14|8,0:2|0:0,0:0:0:0:
396,263,149020,1,0,3:0:0:0:
339,191,149186,2,0,P|328:149|335:115,1,70,10|0,0:0|3:0,0:0:0:0:
417,91,149520,1,8,0:0:0:0:
504,115,149686,1,0,3:0:0:0:
472,29,149853,6,0,P|433:16|388:15,1,70,10|0,0:0|3:0,0:0:0:0:
319,46,150186,1,8,0:0:0:0:
232,74,150353,2,0,L|159:59,1,70,0|10,3:0|0:0,0:0:0:0:
79,95,150686,2,0,P|97:133|100:172,1,70,0|8,3:0|0:0,0:0:0:0:
46,234,151020,1,0,3:0:0:0:
118,309,151186,6,0,P|168:328|241:278,1,140,10|8,0:0|0:0,0:0:0:0:
254,196,151686,1,2,0:0:0:0:
174,150,151853,2,0,L|176:67,1,70,8|0,0:0|3:0,0:0:0:0:
104,23,152186,1,8,0:0:0:0:
55,101,152353,1,0,3:0:0:0:
55,101,152436,1,0,3:0:0:0:
55,101,152520,6,0,L|53:187,1,70,10|2,0:0|3:2,0:0:0:0:
19,255,152853,1,8,0:0:0:0:
73,328,153020,2,0,P|117:334|165:317,1,70,2|8,3:2|0:0,0:0:0:0:
225,293,153353,2,0,P|260:289|297:296,1,70,0|8,3:0|0:0,0:0:0:0:
361,356,153686,1,0,3:0:0:0:
413,263,153853,6,0,L|405:110,1,140,6|0,0:0|3:0,0:0:0:0:
339,60,154353,2,0,B|300:92|300:92|193:94,1,140,8|2,0:0|3:2,0:0:0:0:
118,98,154853,1,8,0:0:0:0:
144,184,155020,6,0,L|283:184,1,140,2|8,3:2|0:0,0:0:0:0:
371,158,155520,1,8,0:3:0:0:
371,158,155686,2,0,L|392:252,1,70,8|0,0:3|0:0,0:0:0:0:
365,315,156020,1,8,0:3:0:0:
281,351,156186,1,8,0:3:0:0:
196,316,156353,1,8,0:3:0:0:
132,246,156520,6,0,P|118:186|166:127,1,125.999996154785,14|8,0:0|0:0,0:0:0:0:
239,125,157020,1,0,0:0:0:0:
313,78,157186,2,0,P|335:44|340:12,2,62.9999980773926,0|0|8,3:0|3:0|0:0,0:0:0:0:
318,172,157686,6,0,L|356:308,1,125.999996154785,6|0,3:2|3:0,0:0:0:0:
431,255,158186,2,0,L|410:184,1,62.9999980773926,8|0,0:0|0:0,0:0:0:0:
427,106,158520,2,0,L|441:59,3,31.4999990386963,8|8|8|8,0:0|0:0|0:0|0:0,0:0:0:0:
418,35,158853,2,0,L|371:21,3,31.4999990386963,8|8|8|8,0:0|0:0|0:0|0:0,0:0:0:0:
345,40,159186,5,12,0:0:0:0:
345,40,159353,1,8,0:0:0:0:
188,120,159686,5,10,0:0:0:0:
188,120,159853,1,10,0:0:0:0:
301,254,160186,5,8,0:0:0:0:
301,254,160353,1,8,0:0:0:0:
157,356,160686,5,8,0:0:0:0:
157,356,160853,1,8,0:0:0:0:
16,249,161186,5,10,0:0:0:0:
79,84,161520,5,8,0:0:0:0:
145,141,161686,6,0,P|199:156|272:108,1,140,6|0,0:0|0:0,0:0:0:0:
346,69,162186,2,0,L|378:146,1,70,8|0,0:0|0:0,0:0:0:0:
464,140,162520,2,0,L|433:221,1,70,0|0,3:0|0:0,0:0:0:0:
391,283,162853,1,8,0:0:0:0:
315,223,163020,1,2,3:2:0:0:
315,223,163103,1,2,3:2:0:0:
315,223,163186,6,0,P|253:210|200:265,1,140,2|8,3:2|0:0,0:0:0:0:
121,302,163686,1,8,0:0:0:0:
121,302,163770,1,8,0:0:0:0:
121,302,163853,2,0,L|78:158,1,140,2|8,3:2|0:0,0:0:0:0:
235,71,164520,6,0,B|181:54|181:54|88:79,1,140,2|8,3:2|0:0,0:0:0:0:
80,167,165020,2,0,B|134:184|134:184|214:162,1,140,2|0,0:0|3:0,0:0:0:0:
303,184,165520,2,0,L|288:265,1,70,10|0,0:0|0:0,0:0:0:0:
235,325,165853,6,0,B|169:299|164:356|78:318,1,140,2|8,0:0|0:0,0:0:0:0:
44,251,166353,2,0,L|16:213,2,35,0|8|2,3:0|0:0|3:2,0:0:0:0:
134,237,166686,1,0,3:0:0:0:
134,237,166853,2,0,L|150:164,1,70,8|8,0:0|0:0,0:0:0:0:
101,75,167186,6,0,P|142:57|228:100,1,140,6|8,3:2|0:0,0:0:0:0:
332,239,167853,2,0,L|387:187,1,70,0|0,3:0|0:0,0:0:0:0:
472,175,168186,2,0,L|430:117,1,70,8|0,0:0|3:0,0:0:0:0:
367,52,168520,6,0,P|320:67|220:59,1,140,2|8,0:0|0:0,0:0:0:0:
143,36,169020,1,0,3:0:0:0:
143,36,169103,1,8,0:0:0:0:
143,36,169186,1,2,3:2:0:0:
107,120,169353,2,0,L|129:201,1,70,2|8,3:2|0:0,0:0:0:0:
120,278,169686,1,2,0:0:0:0:
214,228,169853,6,0,P|261:215|349:275,1,140,0|8,3:0|0:0,0:0:0:0:
351,345,170353,1,2,0:0:0:0:
351,345,170520,2,0,L|210:338,1,140,0|8,3:0|0:0,0:0:0:0:
112,372,171020,1,6,0:0:0:0:
33,207,171353,5,8,0:0:0:0:
29,115,171520,2,0,P|51:80|79:65,1,70,8|8,0:0|0:0,0:0:0:0:
142,127,171853,1,8,0:0:0:0:
210,66,172020,1,8,0:0:0:0:
286,114,172186,2,0,L|301:166,3,35,8|8|8|8,0:0|0:0|0:0|0:0,0:0:0:0:
307,192,172520,6,0,P|266:204|224:196,1,70,14|0,3:2|0:0,0:0:0:0:
159,156,172853,2,0,P|118:144|76:152,1,70,8|0,0:0|0:0,0:0:0:0:
41,222,173186,1,8,0:0:0:0:
41,222,173353,1,0,3:0:0:0:
87,300,173520,2,0,L|165:299,1,70,8|0,0:0|3:0,0:0:0:0:
249,351,173853,6,0,B|298:331|298:331|338:334|338:334|405:313,1,140,10|8,0:0|0:0,0:0:0:0:
442,250,174353,1,0,0:0:0:0:
354,223,174520,2,0,P|330:197|320:181,2,35,8|8|8,0:0|0:0|0:0,0:0:0:0:
403,146,174853,1,8,0:0:0:0:
324,100,175020,1,8,0:0:0:0:
324,100,175103,1,8,0:0:0:0:
324,100,175186,5,12,0:0:0:0:
396,44,175353,1,4,0:0:0:0:
406,36,176020,6,0,P|436:77|445:111,1,70,8|0,0:3|0:0,0:0:0:0:
411,180,176353,2,0,P|381:221|372:255,1,70,10|0,0:0|0:0,0:0:0:0:
402,325,176686,1,8,0:0:0:0:
316,357,176853,2,0,L|243:344,1,70,8|8,0:0|0:0,0:0:0:0:
173,290,177186,1,10,0:0:0:0:
254,249,177353,1,8,0:0:0:0:
180,194,177520,2,0,P|168:153|174:115,1,70,10|8,0:0|0:0,0:0:0:0:
226,49,177853,6,0,P|274:77|359:77,1,125.999996154785,6|0,3:2|3:0,0:0:0:0:
488,157,178520,2,0,P|448:150|422:159,1,62.9999980773926,2|0,3:2|0:0,0:0:0:0:
362,207,178853,1,0,3:0:0:0:
319,130,179020,6,0,L|293:271,1,125.999996154785,2|0,0:0|0:0,0:0:0:0:
258,327,179520,1,0,3:0:0:0:
212,259,179686,2,0,P|157:227|83:263,1,125.999996154785,2|2,0:0|0:0,0:0:0:0:
42,301,180186,1,0,3:0:0:0:
87,369,180353,1,0,0:0:0:0:
181,365,180520,6,0,L|327:344,1,125.999996154785,2|0,3:2|3:0,0:0:0:0:
366,292,181020,1,0,0:0:0:0:
323,222,181186,2,0,P|315:178|323:154,1,62.9999980773926,2|0,3:2|0:0,0:0:0:0:
365,92,181520,1,0,3:0:0:0:
449,136,181686,6,0,B|461:182|461:182|441:284,1,125.999996154785,2|0,0:0|0:0,0:0:0:0:
366,292,182186,2,0,P|431:292|476:343,2,125.999996154785,0|0|0,3:0|3:0|3:0,0:0:0:0:
206,329,183186,6,0,P|162:321|141:309,1,62.9999980773926,2|2,3:2|0:0,0:0:0:0:
91,250,183520,2,0,P|127:236|152:213,1,62.9999980773926,0|2,3:2|0:0,0:0:0:0:
84,165,183853,1,2,3:2:0:0:
194,44,184186,6,0,L|268:65,1,62.9999980773926,2|2,3:2|0:0,0:0:0:0:
323,107,184520,2,0,L|250:152,1,62.9999980773926,0|2,3:0|3:2,0:0:0:0:
248,219,184853,1,2,3:2:0:0:
175,180,185020,1,8,0:0:0:0:
175,180,185103,1,8,0:0:0:0:
175,180,185186,2,0,P|137:168|100:167,1,62.9999980773926,2|0,3:2|0:0,0:0:0:0:
60,228,185520,2,0,P|28:224|0:214,1,62.9999980773926,0|0,3:0|0:0,0:0:0:0:
15,311,185853,6,0,B|61:304|61:304|98:317|98:317|162:301,1,125.999996154785,6|0,3:2|3:0,0:0:0:0:
184,240,186353,2,0,P|214:279|205:370,1,125.999996154785,8|0,0:0|3:0,0:0:0:0:
294,367,186853,2,0,L|429:339,1,125.999996154785,10|0,0:0|0:0,0:0:0:0:
484,191,187520,1,0,3:0:0:0:
404,210,187686,2,0,L|375:174,2,31.4999990386963,0|0|0,3:0|3:0|3:0,0:0:0:0:
319,241,188020,1,8,0:0:0:0:
319,241,188103,1,8,0:0:0:0:
319,241,188186,2,0,L|265:241,3,31.4999990386963,8|8|8|8,0:0|0:0|0:0|0:0,0:0:0:0:
246,220,188520,6,0,B|222:179|222:179|253:70,1,140,6|0,0:0|3:0,0:0:0:0:
309,23,189020,1,0,0:0:0:0:
218,18,189186,2,0,L|143:33,1,70,2|0,3:2|0:0,0:0:0:0:
77,88,189520,1,8,3:0:0:0:
56,176,189686,1,0,0:0:0:0:
56,176,189770,1,0,0:0:0:0:
56,176,189853,6,0,L|91:291,1,105,6|0,0:0|0:0,0:0:0:0:
123,303,190186,2,0,P|161:280|195:278,1,70,10|0,0:0|0:0,0:0:0:0:
280,228,190520,2,0,L|215:185,1,70,10|0,0:0|0:0,0:0:0:0:
312,135,190853,2,0,P|350:112|384:110,1,70,10|0,0:0|0:0,0:0:0:0:
452,180,191186,6,0,L|428:337,1,140,6|8,3:2|0:0,0:0:0:0:
343,292,191686,2,0,L|324:250,2,35,8|8|8,0:0|0:0|0:0,0:0:0:0:
290,366,192020,1,8,0:3:0:0:
206,330,192186,1,8,0:3:0:0:
107,366,192353,6,0,P|53:308|55:228,1,140,14|0,0:2|0:0,0:0:0:0:
99,174,192853,2,0,P|140:189|179:195,1,70,8|0,0:0|3:0,0:0:0:0:
250,160,193186,1,8,0:0:0:0:
312,225,193353,1,2,3:2:0:0:
378,162,193520,1,10,0:0:0:0:
455,240,193686,1,8,0:0:0:0:
455,240,193770,1,8,0:0:0:0:
455,240,193853,6,0,L|476:89,1,140,10|2,0:0|3:2,0:0:0:0:
420,27,194353,1,2,3:2:0:0:
348,83,194520,2,0,L|374:159,1,70,8|10,0:0|0:0,0:0:0:0:
330,231,194853,1,8,0:0:0:0:
330,231,195020,1,10,0:0:0:0:
249,188,195186,6,0,P|205:176|172:181,1,70,8|10,0:0|0:0,0:0:0:0:
102,225,195520,2,0,L|74:151,1,70,8|8,0:0|0:0,0:0:0:0:
87,68,195853,1,8,0:0:0:0:
87,68,196020,1,0,0:0:0:0:
177,71,196186,2,0,L|256:65,1,70,8|0,3:2|0:0,0:0:0:0:
325,99,196520,6,0,B|360:140|360:140|394:232|341:298,1,209.999993591309,6|0,0:0|0:0,0:0:0:0:
283,328,197520,1,0,0:0:0:0:
231,270,197686,2,0,B|154:265|116:325|116:325|128:236|48:172,1,293.999991027832,2|0,0:0|0:0,0:0:0:0:
47,34,199186,6,0,P|88:59|135:62,1,83.9999974365235,2|0,0:0|0:0,0:0:0:0:
200,41,199686,1,0,0:0:0:0:
210,54,200020,2,0,L|206:104,2,41.9999987182618
285,20,200520,6,0,B|299:99|382:106|382:106|409:173|371:224,1,251.999992309571,2|0,0:0|0:0,0:0:0:0:
371,225,201853,5,2,0:3:0:0:
444,347,212520,5,14,0:0:0:0:
257,94,213853,5,6,3:2:0:0:
65,342,215186,5,6,0:0:0:0:
417,169,216353,6,0,B|349:150|358:213|256:187,1,140,6|0,0:0|3:0,0:0:0:0:
195,167,216853,2,0,P|176:135|172:100,1,70,8|0,0:0|3:0,0:0:0:0:
237,41,217186,2,0,P|256:73|260:108,1,70,8|0,0:0|3:0,0:0:0:0:
195,167,217520,2,0,L|117:156,1,70,8|0,0:0|3:0,0:0:0:0:
39,217,217853,6,0,L|85:360,1,140,6|8,0:0|0:0,0:0:0:0:
171,366,218353,1,0,0:0:0:0:
261,372,218520,1,0,3:0:0:0:
261,372,218686,1,0,3:0:0:0:
310,295,218853,1,8,0:0:0:0:
270,212,219020,1,6,0:0:0:0:
181,192,219186,6,0,L|160:228,2,35,8|8|8,0:0|0:0|0:0,0:0:0:0:
170,100,219520,2,0,L|187:69,2,35,8|8|8,0:0|0:0|0:0,0:0:0:0:
260,111,219853,2,0,P|298:108|335:124,1,70,10|8,0:0|0:0,0:0:0:0:
384,189,220186,1,8,0:0:0:0:
445,103,220353,1,14,0:0:0:0:
454,98,220853,6,0,L|493:253,1,154.000004699707,6|0,0:0|0:0,0:0:0:0:
461,343,221353,1,8,0:3:0:0:
384,278,221520,1,8,0:0:0:0:
305,339,221686,1,8,0:3:0:0:
305,339,221770,1,8,0:3:0:0:
305,339,221853,6,0,B|252:318|252:318|217:322|217:322|145:293,1,154.000004699707,10|10,0:0|0:0,0:0:0:0:
93,223,222353,2,0,L|126:92,1,115.50000352478,10|0,0:0|0:0,0:0:0:0:
136,67,222686,2,0,P|180:95|256:91,1,115.50000352478,10|0,0:0|0:0,0:0:0:0:
286,72,223020,6,0,B|363:64|343:117|447:110,1,154.000004699707,14|0,0:0|0:0,0:0:0:0:
472,191,223520,2,0,P|454:235|449:273,1,70,8|0,0:0|0:0,0:0:0:0:
406,336,223853,2,0,L|324:305,1,70,2|0,3:2|0:0,0:0:0:0:
256,347,224186,1,8,0:0:0:0:
171,284,224353,6,0,P|151:220|197:157,1,140,2|0,0:0|0:0,0:0:0:0:
243,90,224853,2,0,L|231:33,2,35,8|8|0,0:0|0:0|3:0,0:0:0:0:
297,163,225186,2,0,L|384:139,1,70,2|0,0:0|3:0,0:0:0:0:
417,69,225520,1,8,0:0:0:0:
479,134,225686,1,0,3:0:0:0:
485,28,225853,6,0,L|331:54,1,140,2|8,3:2|0:0,0:0:0:0:
268,97,226353,2,0,P|207:70|129:109,1,140,2|0,0:0|3:0,0:0:0:0:
133,205,226853,6,0,L|291:205,1,140,10|0,0:0|3:0,0:0:0:0:
331,134,227353,1,0,3:0:0:0:
395,198,227519,2,0,P|398:232|389:266,1,70,8|0,0:0|3:0,0:0:0:0:
327,333,227853,2,0,L|247:337,1,70,2|0,3:2|3:0,0:0:0:0:
169,362,228186,2,0,L|98:348,1,70,8|0,0:0|3:0,0:0:0:0:
33,267,228520,6,0,B|22:214|22:214|65:112,1,154.000004699707,14|0,0:0|3:0,0:0:0:0:
132,44,229020,2,0,B|211:32|195:91|295:71,1,154.000004699707,14|0,0:0|3:0,0:0:0:0:
382,36,229519,1,8,0:3:0:0:
382,36,229686,1,8,0:3:0:0:
432,121,229853,1,8,0:3:0:0:
382,207,230020,6,0,L|335:207,2,35,8|8|8,0:3|0:3|0:0,0:0:0:0:
345,301,230353,2,0,L|300:303,2,35,8|8|8,0:0|0:0|0:0,0:0:0:0:
266,215,230686,1,8,0:0:0:0:
266,215,230770,1,8,0:0:0:0:
266,215,230853,2,0,L|206:213,3,35,8|8|8|8,0:0|0:0|0:0|0:0,0:0:0:0:
180,232,231186,6,0,B|117:92,2,140,6|8|0,0:0|0:0|3:0,0:0:0:0:
176,323,232020,1,0,0:0:0:0:
260,287,232186,2,0,P|297:271|341:276,1,70,8|0,0:0|0:0,0:0:0:0:
422,310,232520,6,0,P|448:252|411:188,1,140,6|8,3:2|0:0,0:0:0:0:
350,124,233019,2,0,L|338:83,2,35,0|8|0,3:0|0:0|3:0,0:0:0:0:
283,187,233353,2,0,L|189:176,1,70,2|8,0:0|0:0,0:0:0:0:
157,250,233686,1,0,0:0:0:0:
87,191,233853,6,0,L|78:101,1,70,2|8,3:2|0:3,0:0:0:0:
117,23,234186,2,0,L|191:42,1,70,10|8,0:0|0:3,0:0:0:0:
225,60,234436,1,8,0:3:0:0:
225,60,234520,2,0,L|317:48,1,70,8|8,0:0|0:3,0:0:0:0:
393,14,234853,6,0,L|447:159,1,140,14|0,0:0|0:0,0:0:0:0:
420,233,235353,1,0,3:0:0:0:
350,292,235520,2,0,P|314:286|271:264,1,70,8|0,0:0|3:0,0:0:0:0:
221,205,235853,1,8,0:0:0:0:
172,282,236020,1,8,0:0:0:0:
91,239,236186,2,0,L|75:196,3,35,8|8|8|8,0:0|0:0|0:0|0:0,0:0:0:0:
43,177,236519,6,0,P|45:96|93:51,1,140,14|8,3:2|0:0,0:0:0:0:
152,115,237019,1,0,3:0:0:0:
216,50,237186,2,0,P|258:39|292:46,1,70,10|0,0:0|3:0,0:0:0:0:
334,118,237519,1,8,0:0:0:0:
334,118,237686,1,0,3:0:0:0:
415,51,237853,6,0,L|434:126,1,70,10|0,0:0|3:0,0:0:0:0:
485,192,238186,1,8,0:0:0:0:
403,233,238353,2,0,L|330:218,1,70,0|10,3:0|0:0,0:0:0:0:
267,280,238686,1,0,3:0:0:0:
216,203,238853,1,8,0:0:0:0:
216,203,239019,1,0,3:0:0:0:
149,282,239186,6,0,P|147:324|164:360,1,70,10|0,0:0|3:0,0:0:0:0:
245,372,239519,2,0,L|322:358,1,70,8|2,0:0|3:2,0:0:0:0:
404,371,239853,1,8,0:0:0:0:
447,291,240019,2,0,L|444:212,1,70,0|8,3:0|0:0,0:0:0:0:
407,136,240353,1,0,3:0:0:0:
313,185,240520,6,0,P|272:187|236:174,1,70,10|0,0:0|3:0,0:0:0:0:
171,123,240853,1,8,0:0:0:0:
143,209,241020,2,0,L|149:280,1,70,2|8,3:2|0:0,0:0:0:0:
67,237,241353,2,0,L|61:167,1,70,2|8,3:2|0:0,0:0:0:0:
19,86,241686,1,2,3:2:0:0:
111,36,241853,6,0,B|195:22|169:77|250:56,1,140,8|0,0:0|0:0,0:0:0:0:
328,93,242353,2,0,L|299:232,1,140,8|0,0:0|3:0,0:0:0:0:
323,318,242853,1,8,0:0:0:0:
323,318,243019,6,0,P|272:272|188:285,1,140,2|8,3:2|0:0,0:0:0:0:
128,325,243519,1,0,3:0:0:0:
128,325,243686,2,0,L|85:232,1,70,8|0,0:3|0:0,0:0:0:0:
36,194,244019,1,8,0:3:0:0:
36,194,244186,1,8,0:3:0:0:
63,106,244353,1,8,0:3:0:0:
155,61,244520,6,0,P|196:91|273:106,1,125.999996154785,6|0,3:2|0:0,0:0:0:0:
352,78,245020,2,0,P|378:57|390:40,2,31.4999990386963,8|8|8,0:3|0:3|0:3,0:0:0:0:
296,245,245520,1,2,0:0:0:0:
370,306,245686,1,8,0:3:0:0:
370,306,245770,1,8,0:3:0:0:
370,306,245853,6,0,P|411:278|432:189,1,125.999996154785,8|0,0:3|0:0,0:0:0:0:
391,131,246353,1,2,0:0:0:0:
311,169,246520,1,0,3:0:0:0:
210,24,246853,1,2,0:0:0:0:
210,24,247020,1,0,0:0:0:0:
162,97,247186,6,0,P|129:125|43:128,1,125.999996154785,6|0,0:0|0:0,0:0:0:0:
13,211,247686,2,0,L|71:340,1,125.999996154785,2|0,3:2|0:0,0:0:0:0:
133,270,248186,1,0,3:0:0:0:
133,270,248353,6,0,P|165:259|205:265,1,62.9999980773926,2|0,0:0|3:0,0:0:0:0:
269,306,248686,2,0,L|297:164,1,125.999996154785,2|0,0:0|0:0,0:0:0:0:
259,100,249186,2,0,P|298:93|325:100,1,62.9999980773926,0|0,3:0|0:0,0:0:0:0:
387,156,249520,1,8,0:3:0:0:
470,129,249686,1,0,0:0:0:0:
444,221,249853,6,0,B|401:243|401:243|311:229,1,125.999996154785,6|0,0:0|3:0,0:0:0:0:
238,207,250353,1,0,0:0:0:0:
238,207,250520,2,0,L|224:297,1,62.9999980773926,2|0,3:2|0:0,0:0:0:0:
188,347,250853,2,0,P|220:358|268:346,1,62.9999980773926,0|0,3:0|0:0,0:0:0:0:
329,305,251186,6,0,P|376:280|453:322,1,125.999996154785,2|0,3:2|3:0,0:0:0:0:
493,233,251686,2,0,L|458:173,1,62.9999980773926,2|8,0:0|0:3,0:0:0:0:
380,140,252020,2,0,L|408:72,1,62.9999980773926,8|8,0:3|0:0,0:0:0:0:
339,21,252353,1,8,0:0:0:0:
339,21,252436,1,8,0:0:0:0:
339,21,252520,6,0,P|288:48|187:44,1,140,10|2,0:0|3:2,0:0:0:0:
121,2,253020,1,0,0:0:0:0:
53,72,253186,2,0,L|24:146,1,70,0|2,3:0|0:0,0:0:0:0:
74,224,253520,1,0,3:0:0:0:
160,179,253686,1,8,0:0:0:0:
160,179,253770,1,8,0:0:0:0:
160,179,253853,6,0,P|220:176|270:250,1,140,8|8,0:0|3:0,0:0:0:0:
245,328,254353,2,0,L|158:342,1,70,8|8,3:0|3:0,0:0:0:0:
77,345,254686,2,0,L|52:380,2,35,8|8|8,0:0|0:0|0:0,0:0:0:0:
102,249,255020,1,8,0:0:0:0:
102,249,255103,1,8,0:0:0:0:
102,249,255186,6,0,L|79:158,1,70,10|8,0:0|0:0,0:0:0:0:
118,88,255520,1,10,0:0:0:0:
170,161,255686,1,8,0:0:0:0:
229,98,255853,2,0,P|267:90|300:92,1,70,10|8,0:0|0:0,0:0:0:0:
369,159,256186,1,10,0:0:0:0:
275,209,256353,6,0,L|257:244,2,35,10|2|6,0:0|0:0|0:0,0:0:0:0:
256,192,256603,12,0,259186,0:0:0:0:
