osu file format v14

[General]
AudioFilename: audio.mp3
AudioLeadIn: 0
PreviewTime: 132178
Countdown: 1
SampleSet: Soft
StackLeniency: 0.4
Mode: 0
LetterboxInBreaks: 0
WidescreenStoryboard: 0

[Editor]
DistanceSpacing: 0.7
BeatDivisor: 4
GridSize: 32
TimelineZoom: 3.199999

[Metadata]
Title:Haruoto*Veil
TitleUnicode:春音*ベール
Artist:Ceui
ArtistUnicode:Ceui
Creator:Alexsander
Version:Extra
Source:春音アリス*グラム
Tags:Haruoto Alice*Gram Eroge Opening full ver visual novel version video game japanese pop j-pop jpop spring is just around the corner
BeatmapID:2186281
BeatmapSetID:1045823

[Difficulty]
HPDrainRate:7
CircleSize:4.3
OverallDifficulty:9
ApproachRate:9.3
SliderMultiplier:1.8
SliderTickRate:1

[Events]
//Background and Video events
0,0,"topdiff.jpg",0,0
//Break Periods
2,96720,106632
2,202053,211966
//Storyboard Layer 0 (Background)
//Storyboard Layer 1 (Fail)
//Storyboard Layer 2 (Pass)
//Storyboard Layer 3 (Foreground)
//Storyboard Layer 4 (Overlay)
//Storyboard Sound Samples

[TimingPoints]
-813,333.333333333333,4,2,1,40,1,0
-813,-166.666666666667,4,2,1,40,0,0
11020,-250,4,2,1,40,0,0
12436,-250,4,2,1,5,0,0
12520,-100,4,2,1,60,0,0
12853,-125,4,2,1,50,0,0
17853,-100,4,2,1,60,0,0
20520,-100,4,2,1,70,0,0
21853,-125,4,2,1,40,0,0
23186,-125,4,2,1,50,0,0
33853,-100,4,2,1,60,0,0
43353,-125,4,2,1,60,0,0
44520,-142.857142857143,4,2,1,50,0,0
49853,-125,4,2,1,60,0,0
51186,-111.111111111111,4,2,1,60,0,0
52520,-100,4,2,1,70,0,0
56520,-142.857142857143,4,2,1,40,0,0
57020,-166.666666666667,4,2,1,30,0,0
57520,-200,4,2,1,30,0,0
58853,-200,4,2,1,50,0,0
59186,-83.3333333333333,4,2,1,80,0,1
67186,-71.4285714285714,4,2,1,80,0,1
68520,-83.3333333333333,4,2,1,80,0,1
82353,-100,4,2,1,70,0,1
83186,-125,4,2,1,60,0,0
83686,-125,4,2,1,50,0,0
85853,-111.111111111111,4,2,1,50,0,0
107186,-125,4,2,1,50,0,0
115853,-111.111111111111,4,2,1,50,0,0
117853,-100,4,2,1,60,0,0
123686,-125,4,2,1,60,0,0
125853,-100,4,2,1,60,0,0
128686,-100,4,2,1,80,0,0
132186,-100,4,2,1,50,0,0
132520,-83.3333333333333,4,2,1,80,0,1
140520,-71.4285714285714,4,2,1,80,0,1
141853,-83.3333333333333,4,2,1,80,0,1
155686,-100,4,2,1,80,0,1
156520,-125,4,2,1,50,0,0
161686,-111.111111111111,4,2,1,60,0,0
172520,-100,4,2,1,70,0,0
177853,-125,4,2,1,50,0,0
185853,-111.111111111111,4,2,1,60,0,0
188520,-100,4,2,1,60,0,0
189853,-100,4,2,1,70,0,0
192853,-100,4,2,1,60,0,0
193853,-100,4,2,1,70,0,0
196520,-166.666666666667,4,2,1,70,0,0
196603,-166.666666666667,4,2,1,40,0,0
200520,-200,4,2,1,30,0,0
212520,-142.857142857143,4,2,1,50,0,0
216353,-111.111111111111,4,2,1,60,0,0
219853,-111.111111111111,4,2,1,70,0,0
220853,-83.3333333333333,4,2,1,80,0,1
221853,-125,4,2,1,80,0,1
222186,-76.9230769230769,4,2,1,80,0,1
222353,-111.111111111111,4,2,1,80,0,1
222686,-66.6666666666667,4,2,1,80,0,1
223020,-50,4,2,1,80,0,1
223520,-83.3333333333333,4,2,1,80,0,1
228520,-71.4285714285714,4,2,1,80,0,1
229853,-83.3333333333333,4,2,1,80,0,1
243686,-100,4,2,1,60,0,1
244520,-125,4,2,1,60,0,0
247186,-111.111111111111,4,2,1,60,0,0
252520,-100,4,2,1,60,0,0
256520,-250,4,2,1,30,0,0
259186,-250,4,2,1,5,0,0

[Colours]
Combo1 : 170,3,241
Combo2 : 10,102,177
Combo3 : 173,29,61
Combo4 : 13,147,47

[HitObjects]
36,99,353,5,0,0:0:0:0:
36,99,436,1,0,0:0:0:0:
36,99,520,1,2,0:0:0:0:
104,61,686,1,0,0:0:0:0:
178,86,853,1,0,0:0:0:0:
191,163,1020,2,0,L|165:281,1,107.999996704102,2|0,0:0|0:0,0:0:0:0:
289,326,1520,6,0,L|223:326,1,53.9999983520508,2|0,0:0|0:0,0:0:0:0:
317,255,1853,1,0,0:0:0:0:
366,309,2020,1,0,0:0:0:0:
438,316,2186,1,0,0:0:0:0:
490,239,2353,1,2,0:0:0:0:
491,219,2686,6,0,L|502:158,2,53.9999983520508,2|0|0,0:0|0:0|0:0,0:0:0:0:
412,219,3186,1,2,0:0:0:0:
356,163,3353,1,0,0:0:0:0:
300,107,3520,1,0,0:0:0:0:
286,214,3686,2,0,P|231:226|157:209,1,107.999996704102,2|0,0:0|0:0,0:0:0:0:
114,159,4186,5,0,0:0:0:0:
51,200,4353,1,0,0:0:0:0:
89,82,4520,5,2,0:0:0:0:
161,61,4686,1,0,0:0:0:0:
230,90,4853,1,0,0:0:0:0:
253,162,5020,1,2,0:0:0:0:
245,175,5353,5,2,0:0:0:0:
245,250,5520,1,0,0:0:0:0:
245,325,5686,1,0,0:0:0:0:
324,254,5853,6,0,B|382:247|377:278|440:264,1,107.999996704102,2|0,0:0|0:0,0:0:0:0:
487,218,6353,5,0,0:0:0:0:
435,162,6520,1,0,0:0:0:0:
437,86,6686,1,0,0:0:0:0:
355,162,6853,5,2,0:0:0:0:
263,149,7020,1,0,0:0:0:0:
229,63,7186,6,0,B|181:94|181:94|120:99|74:56,2,161.999995056153,2|2|2,0:0|0:0|0:0,0:0:0:0:
15,133,8520,6,0,L|25:206,1,53.9999983520508,2|0,0:0|0:0,0:0:0:0:
40,264,8853,1,0,0:0:0:0:
128,218,9020,5,2,0:0:0:0:
205,221,9186,1,0,0:0:0:0:
258,274,9353,1,0,0:0:0:0:
331,290,9520,1,0,0:0:0:0:
398,256,9686,1,2,0:0:0:0:
414,238,10020,5,2,0:0:0:0:
344,309,10186,1,0,0:0:0:0:
269,293,10353,1,0,0:0:0:0:
205,264,10520,5,0,0:0:0:0:
147,274,10686,5,0,0:0:0:0:
120,302,10853,5,0,0:0:0:0:
118,317,11020,6,0,B|56:294|24:243|66:158|66:158|105:212|165:197,1,306,2|0,0:0|0:0,0:0:0:0:
229,167,12520,6,0,L|266:57,1,90,6|0,0:0|0:0,0:0:0:0:
309,25,12853,1,2,0:0:0:0:
389,153,13020,2,0,P|350:156|313:143,1,72,2|0,0:0|0:0,0:0:0:0:
440,87,13353,1,2,0:0:0:0:
464,194,13520,1,0,0:0:0:0:
341,235,13686,6,0,L|263:218,1,72,2|0,0:0|0:0,0:0:0:0:
98,282,14020,2,0,P|162:258|230:313,1,144,2|0,0:0|0:0,0:0:0:0:
78,363,14520,1,2,0:0:0:0:
14,292,14686,1,0,0:0:0:0:
66,167,14853,1,2,3:2:0:0:
98,282,15020,1,8,0:3:0:0:
154,91,15186,6,0,L|198:233,1,144,4|0,0:0|0:0,0:0:0:0:
265,296,15686,1,2,0:0:0:0:
346,229,15853,2,0,P|384:211|431:214,1,72,2|0,0:0|0:0,0:0:0:0:
488,222,16186,1,2,0:0:0:0:
434,138,16353,1,0,0:0:0:0:
510,30,16520,6,0,P|465:52|363:59,1,144,2|2,0:0|0:0,0:0:0:0:
299,30,17020,1,0,0:0:0:0:
286,177,17186,2,0,L|310:105,1,72,2|0,0:0|0:0,0:0:0:0:
189,199,17520,5,8,0:3:0:0:
217,127,17631,1,8,0:3:0:0:
181,55,17742,1,8,0:3:0:0:
102,37,17853,6,0,P|49:33|13:58,1,90,12|0,0:0|0:0,0:0:0:0:
24,205,18186,1,0,3:0:0:0:
83,128,18353,1,2,0:0:0:0:
150,264,18520,2,0,L|129:354,1,90,0|0,3:0|0:0,0:0:0:0:
102,204,18853,1,8,0:0:0:0:
211,326,19020,1,0,0:0:0:0:
221,334,19103,1,0,0:0:0:0:
232,341,19186,6,0,L|253:251,1,90,8|0,0:0|3:0,0:0:0:0:
181,72,19520,1,0,3:0:0:0:
178,196,19686,1,2,0:0:0:0:
315,48,19853,1,0,3:0:0:0:
346,208,20020,1,8,0:0:0:0:
335,213,20103,1,8,0:0:0:0:
323,218,20186,1,8,0:3:0:0:
192,89,20353,1,0,0:0:0:0:
143,307,20520,5,8,0:0:0:0:
251,174,20686,1,8,0:0:0:0:
63,340,20853,5,8,0:0:0:0:
232,257,21019,1,8,0:0:0:0:
5,266,21186,5,8,0:0:0:0:
211,356,21352,1,8,0:0:0:0:
0,125,21520,5,4,0:3:0:0:
63,340,21686,1,10,0:0:0:0:
113,283,21853,6,0,L|152:255,3,36,2|0|8|0,0:0|0:0|0:3|0:0,0:0:0:0:
204,215,22186,2,0,L|165:187,3,36,2|0|8|0,0:0|0:0|0:3|0:0,0:0:0:0:
137,109,22520,5,2,0:0:0:0:
149,83,22603,1,0,0:0:0:0:
169,62,22686,1,8,0:3:0:0:
195,50,22769,1,0,0:0:0:0:
224,46,22853,5,8,0:3:0:0:
245,78,22936,1,0,0:0:0:0:
278,101,23020,1,0,0:0:0:0:
316,109,23103,1,0,0:0:0:0:
355,103,23186,6,0,B|383:146|383:146|393:193|348:245,1,144,6|0,0:0|3:0,0:0:0:0:
157,348,23853,1,0,3:0:0:0:
175,248,24020,1,2,0:0:0:0:
255,310,24186,1,0,3:0:0:0:
237,163,24353,6,0,L|165:163,1,72,2|0,0:0|3:0,0:0:0:0:
103,115,24686,1,2,0:0:0:0:
57,178,24853,1,0,3:0:0:0:
197,83,25020,2,0,L|268:82,1,72,2|0,0:0|3:0,0:0:0:0:
336,41,25353,1,2,0:0:0:0:
402,84,25520,1,0,3:0:0:0:
308,162,25687,6,0,L|161:164,1,144,2|0,0:0|0:0,0:0:0:0:
72,190,26186,2,0,P|58:231|69:268,1,72,2|0,3:2|0:0,0:0:0:0:
155,232,26520,2,0,P|169:191|158:154,1,72,2|0,3:2|0:0,0:0:0:0:
63,258,26853,1,0,3:0:0:0:
181,319,27020,6,0,B|230:333|230:333|337:301,1,144,2|2,0:0|0:0,0:0:0:0:
412,215,27520,1,0,3:0:0:0:
306,168,27686,2,0,B|292:217|292:217|324:324,1,144,2|0,0:0|0:0,0:0:0:0:
390,355,28186,2,0,L|472:352,1,72,0|0,3:0|0:0,0:0:0:0:
509,220,28520,5,2,3:2:0:0:
447,156,28686,2,0,P|431:117|435:83,1,72,2|0,0:0|3:0,0:0:0:0:
353,141,29020,2,0,L|269:139,1,72,2|0,0:0|3:0,0:0:0:0:
211,220,29353,2,0,L|282:221,1,72,2|0,0:0|3:0,0:0:0:0:
159,154,29686,6,0,P|130:186|128:229,1,72,2|0,0:0|3:0,0:0:0:0:
166,305,30020,1,2,0:0:0:0:
211,220,30186,1,0,3:0:0:0:
70,303,30353,2,0,L|35:152,1,144,2|0,0:0|0:0,0:0:0:0:
82,33,30853,1,2,3:2:0:0:
12,76,31020,1,0,0:0:0:0:
148,138,31186,6,0,P|227:151|283:105,1,144,2|0,3:2|3:2,0:0:0:0:
441,169,31686,1,0,0:0:0:0:
441,169,31853,2,0,P|372:154|313:191,1,144,2|0,3:2|3:0,0:0:0:0:
360,341,32353,5,0,0:0:0:0:
312,191,32520,1,6,0:0:0:0:
283,294,32686,1,2,0:0:0:0:
224,183,32853,1,0,3:0:0:0:
184,275,33020,2,0,P|141:277|93:259,1,72,8|0,0:3|0:0,0:0:0:0:
10,113,33353,5,8,0:0:0:0:
38,114,33436,1,8,0:0:0:0:
61,132,33520,2,0,L|66:185,1,36,8|0,0:0|0:0,0:0:0:0:
126,62,33686,1,0,3:0:0:0:
150,47,33769,1,0,3:0:0:0:
179,45,33853,6,0,P|216:60|270:55,1,90,6|0,3:2|0:0,0:0:0:0:
398,116,34186,2,0,P|343:107|295:130,1,90,8|0,0:0|0:0,0:0:0:0:
283,257,34520,1,2,3:2:0:0:
354,183,34686,1,8,0:0:0:0:
362,322,34853,1,0,3:0:0:0:
239,168,35020,6,0,B|188:142|188:142|150:203|72:195,1,180,6|0,3:2|3:0,0:0:0:0:
5,63,35520,1,8,0:0:0:0:
126,56,35686,2,0,P|102:95|62:116,1,90,2|0,0:0|3:0,0:0:0:0:
198,2,36020,5,8,0:0:0:0:
242,5,36103,1,8,0:0:0:0:
280,27,36186,1,8,0:0:0:0:
294,70,36270,1,8,0:3:0:0:
321,92,36353,1,8,0:3:0:0:
356,92,36436,1,8,0:3:0:0:
388,76,36520,6,0,L|404:232,1,135,6|0,0:0|0:0,0:0:0:0:
390,244,36853,2,0,P|340:257|296:248,1,90,10|0,0:0|0:0,0:0:0:0:
171,183,37186,1,2,3:2:0:0:
282,124,37353,1,0,3:0:0:0:
202,283,37520,1,8,0:0:0:0:
279,96,37686,6,0,B|238:61|238:61|101:76,1,180,6|0,3:2|0:0,0:0:0:0:
11,192,38186,2,0,B|136:205|136:205|177:170,1,180,8|2,0:0|3:2,0:0:0:0:
211,269,38686,1,0,3:0:0:0:
278,137,38853,1,10,0:0:0:0:
177,170,39020,1,0,3:0:0:0:
381,241,39186,6,0,B|282:212|310:301|190:263,1,180,6|8,3:2|0:0,0:0:0:0:
237,110,39686,2,0,P|254:158|238:204,1,90,2|0,0:0|3:0,0:0:0:0:
185,36,40020,1,0,3:0:0:0:
313,65,40186,1,8,0:0:0:0:
109,134,40353,6,0,P|167:117|244:207,1,180,2|0,3:2|3:0,0:0:0:0:
136,312,40853,1,8,0:0:0:0:
162,201,41020,2,0,L|140:301,1,90,2|0,0:0|3:0,0:0:0:0:
48,179,41353,1,8,0:0:0:0:
48,179,41436,1,8,0:0:0:0:
48,179,41520,2,0,L|28:75,1,90,8|0,0:0|0:0,0:0:0:0:
57,18,41770,1,8,0:0:0:0:
57,18,41853,6,0,P|110:49|187:41,1,135,4|0,0:3|0:0,0:0:0:0:
208,28,42186,2,0,P|241:29|260:36,1,45,8|0,0:3|0:0,0:0:0:0:
367,114,42353,2,0,P|320:101|266:128,1,90,4|2,0:1|0:0,0:0:0:0:
207,179,42686,1,0,0:0:0:0:
413,184,42853,2,0,P|445:122|378:38,1,180,10|0,0:0|0:0,0:0:0:0:
272,43,43353,6,0,L|192:43,2,72,0|0|0,3:0|0:0|0:0,0:0:0:0:
158,118,43853,1,8,0:3:0:0:
137,104,43936,1,0,0:0:0:0:
121,84,44019,1,0,0:0:0:0:
0,53,44186,2,0,L|0:105,1,36,8|0,0:3|0:0,0:0:0:0:
57,166,44353,2,0,L|65:221,1,36,8|0,0:3|0:0,0:0:0:0:
36,296,44520,5,6,0:0:0:0:
164,169,44853,1,2,3:2:0:0:
216,233,45020,2,0,L|198:309,1,62.9999980773926,2|8,0:0|0:0,0:0:0:0:
286,282,45353,2,0,L|362:264,1,62.9999980773926,2|0,3:2|0:0,0:0:0:0:
396,197,45686,2,0,L|320:179,1,62.9999980773926,2|0,3:2|0:0,0:0:0:0:
274,124,46019,2,0,L|292:48,1,62.9999980773926,2|0,3:2|0:0,0:0:0:0:
144,85,46353,2,0,P|175:75|226:87,2,62.9999980773926,2|8|0,3:2|0:0|3:0,0:0:0:0:
66,299,47020,5,0,3:0:0:0:
40,215,47186,2,0,B|49:150|9:158|25:83,1,125.999996154785,2|0,3:2|3:0,0:0:0:0:
79,29,47686,1,0,0:0:0:0:
158,112,47853,2,0,L|72:117,1,62.9999980773926,8|0,0:0|3:0,0:0:0:0:
214,169,48186,2,0,L|237:136,1,31.4999990386963,2|0,0:0|0:0,0:0:0:0:
293,78,48353,6,0,L|330:209,1,125.999996154785,2|8,3:2|0:0,0:0:0:0:
379,99,48853,1,8,0:3:0:0:
419,173,49020,1,0,3:0:0:0:
293,78,49186,1,8,0:3:0:0:
253,152,49353,1,0,0:3:0:0:
363,25,49520,1,8,0:3:0:0:
209,51,49686,1,8,0:0:0:0:
419,173,49853,6,0,P|363:168|305:252,1,144,6|0,0:0|3:0,0:0:0:0:
225,301,50353,2,0,P|185:303|151:292,1,72,2|0,0:0|3:0,0:0:0:0:
87,233,50686,1,2,0:0:0:0:
176,176,50853,1,0,3:0:0:0:
46,128,51020,1,2,0:0:0:0:
229,25,51186,6,0,P|196:87|175:179,1,161.999995056153,10|0,0:0|3:0,0:0:0:0:
294,283,51686,1,2,0:0:0:0:
256,153,51853,1,0,3:0:0:0:
146,249,52020,1,0,0:0:0:0:
341,195,52186,2,0,P|377:157|390:117,1,80.9999975280763,2|0,3:2|0:0,0:0:0:0:
156,51,52520,5,14,0:0:0:0:
321,88,52686,1,8,3:0:0:0:
69,113,52853,5,8,0:3:0:0:
246,57,53019,1,8,0:3:0:0:
47,269,53186,5,8,0:3:0:0:
184,118,53352,1,8,0:0:0:0:
58,358,53520,5,8,0:0:0:0:
105,138,53686,1,8,0:0:0:0:
328,257,53853,5,10,0:0:0:0:
108,210,54019,1,8,0:0:0:0:
387,214,54186,5,8,0:0:0:0:
166,262,54352,1,8,0:0:0:0:
459,204,54520,5,10,3:2:0:0:
239,157,54686,1,8,0:0:0:0:
458,292,54853,5,10,0:0:0:0:
237,340,55019,1,8,0:0:0:0:
411,150,55186,5,14,3:2:0:0:
244,40,55353,5,8,0:0:0:0:
214,60,55436,1,8,0:0:0:0:
193,89,55520,2,0,L|174:144,1,45,10|0,0:0|0:0,0:0:0:0:
339,129,55686,5,8,0:0:0:0:
369,149,55769,1,8,0:0:0:0:
390,178,55853,2,0,L|409:233,1,45,10|0,0:0|0:0,0:0:0:0:
290,328,56020,5,8,0:0:0:0:
240,348,56103,1,8,0:0:0:0:
190,328,56186,1,8,0:0:0:0:
169,278,56270,1,8,0:0:0:0:
190,228,56353,1,8,0:0:0:0:
240,207,56436,1,8,0:0:0:0:
290,228,56520,6,0,P|338:246|412:214,1,125.999996154785,6|0,0:0|0:0,0:0:0:0:
392,119,57020,6,0,P|349:101|289:129,1,107.999996704102,2|0,0:0|0:0,0:0:0:0:
231,174,57520,6,0,B|151:206|101:124|101:124|-14:187|38:314,1,360,2|8,0:0|0:1,0:0:0:0:
277,96,59186,6,0,P|323:150|291:243,1,161.999995056153,6|0,0:0|0:0,0:0:0:0:
275,304,59520,2,0,L|383:296,1,107.999996704102,8|0,0:0|0:0,0:0:0:0:
231,174,59853,1,0,3:0:0:0:
428,234,60020,1,0,0:0:0:0:
448,252,60103,1,0,0:0:0:0:
466,273,60186,2,0,L|431:374,1,107.999996704102,10|0,0:0|3:0,0:0:0:0:
176,302,60520,6,0,P|233:284|281:311,1,107.999996704102,2|0,0:0|3:0,0:0:0:0:
57,370,60853,1,8,0:0:0:0:
139,212,61020,1,0,3:0:0:0:
160,194,61103,1,8,0:0:0:0:
187,196,61186,1,0,3:0:0:0:
0,127,61353,2,0,L|35:257,1,107.999996704102,2|8,3:2|0:0,0:0:0:0:
123,16,61686,2,0,P|162:16|191:31,1,53.9999983520508
230,87,61853,6,0,B|280:112|280:112|409:86,1,161.999995056153,4|0,3:2|0:0,0:0:0:0:
454,53,62186,2,0,P|426:101|437:159,1,107.999996704102,10|0,0:0|0:0,0:0:0:0:
341,338,62520,2,0,P|293:310|235:321,1,107.999996704102,2|0,3:2|0:0,0:0:0:0:
423,267,62853,1,8,0:0:0:0:
234,144,63020,6,0,B|191:116|191:116|102:146|128:247,1,215.999993408203,2|0,0:0|3:0,0:0:0:0:
70,109,63520,2,0,P|43:156|45:236,1,107.999996704102,8|0,0:0|3:0,0:0:0:0:
26,284,63770,1,8,0:0:0:0:
26,284,63853,2,0,L|130:246,1,107.999996704102,0|0,3:0|0:0,0:0:0:0:
350,251,64186,1,8,0:0:0:0:
133,160,64353,1,0,3:0:0:0:
409,28,64520,6,0,B|454:75|454:75|431:224,1,215.999993408203,6|8,0:0|0:0,0:0:0:0:
430,224,64936,1,0,0:0:0:0:
430,224,65019,1,2,0:0:0:0:
331,49,65186,1,0,3:0:0:0:
512,163,65353,1,0,3:0:0:0:
254,158,65520,2,0,L|369:132,1,107.999996704102,10|2,0:0|3:2,0:0:0:0:
208,321,65853,5,2,0:0:0:0:
136,111,66020,1,0,3:0:0:0:
36,248,66186,1,8,0:0:0:0:
259,238,66353,1,0,3:0:0:0:
284,229,66436,1,8,0:0:0:0:
308,222,66520,2,0,P|344:190|358:124,1,107.999996704102,2|0,3:2|0:0,0:0:0:0:
453,252,66853,1,8,0:0:0:0:
265,61,67020,1,8,0:0:0:0:
265,61,67103,1,8,0:0:0:0:
265,61,67186,6,0,B|215:80|179:61|179:61|128:110|128:110|91:76|20:107,1,251.999992309571,6|0,0:0|3:0,0:0:0:0:
10,345,67686,2,0,B|72:352|97:281|97:281|167:330|245:281,1,251.999992309571,12|0,0:0|3:0,0:0:0:0:
378,112,68186,5,6,0:0:0:0:
333,305,68353,1,8,0:3:0:0:
117,169,68520,1,8,0:3:0:0:
351,306,68686,5,8,0:3:0:0:
375,264,68769,1,8,0:3:0:0:
357,218,68852,1,8,0:0:0:0:
219,78,69020,5,8,0:0:0:0:
195,120,69103,1,8,0:0:0:0:
213,166,69186,1,8,0:0:0:0:
451,199,69353,5,8,0:0:0:0:
417,157,69436,1,8,0:0:0:0:
367,139,69520,1,8,0:0:0:0:
315,152,69603,1,8,0:0:0:0:
278,190,69686,1,8,0:0:0:0:
267,242,69770,1,8,0:0:0:0:
282,293,69853,6,0,B|244:297|214:268|214:268|163:340|80:302,2,215.999993408203,6|8|0,0:0|0:0|3:0,0:0:0:0:
138,235,70686,1,0,3:0:0:0:
272,109,70853,2,0,L|272:239,1,107.999996704102,8|0,0:0|0:0,0:0:0:0:
479,166,71186,6,0,P|418:150|367:175,1,107.999996704102,6|0,0:0|0:0,0:0:0:0:
341,357,71520,1,8,0:0:0:0:
428,225,71686,1,0,0:0:0:0:
423,251,71770,1,0,0:0:0:0:
420,279,71853,1,0,3:0:0:0:
252,190,72020,2,0,L|137:186,1,107.999996704102,2|8,0:0|0:0,0:0:0:0:
316,130,72353,1,2,0:0:0:0:
124,270,72520,6,0,L|86:67,1,161.999995056153,0|0,3:0|0:0,0:0:0:0:
114,42,72853,2,0,P|166:11|229:13,1,107.999996704102,10|0,0:0|0:0,0:0:0:0:
414,163,73186,2,0,P|362:132|299:134,1,107.999996704102,2|0,3:2|3:0,0:0:0:0:
475,101,73520,1,8,0:0:0:0:
230,158,73686,6,0,B|190:209|190:209|241:359,1,215.999993408203,14|0,0:0|3:0,0:0:0:0:
344,202,74186,1,8,0:0:0:0:
489,377,74353,2,0,L|370:376,1,107.999996704102,8|2,0:0|0:0,0:0:0:0:
147,356,74686,5,0,3:0:0:0:
147,356,74770,1,0,3:0:0:0:
147,356,74853,1,8,0:0:0:0:
134,303,74936,1,8,0:0:0:0:
120,251,75020,1,8,0:0:0:0:
106,199,75103,1,8,0:0:0:0:
92,147,75186,5,6,0:0:0:0:
236,292,75353,1,0,3:0:0:0:
180,53,75520,5,8,0:0:0:0:
281,230,75687,1,0,3:0:0:0:
419,106,75853,5,10,0:0:0:0:
449,116,75936,1,0,0:0:0:0:
475,135,76020,1,0,3:0:0:0:
494,161,76103,1,0,0:0:0:0:
503,192,76186,1,8,0:0:0:0:
503,224,76270,1,0,0:0:0:0:
492,255,76353,1,0,3:0:0:0:
262,151,76520,5,10,0:0:0:0:
383,318,76686,1,0,3:0:0:0:
296,83,76853,5,10,0:0:0:0:
236,292,77019,1,0,3:0:0:0:
215,26,77186,5,8,0:0:0:0:
319,189,77352,1,0,3:0:0:0:
105,319,77520,5,10,0:0:0:0:
242,157,77686,1,0,3:0:0:0:
467,268,77853,6,0,L|470:144,1,107.999996704102,10|0,0:0|0:0,0:0:0:0:
469,160,78103,1,0,0:0:0:0:
469,160,78186,1,8,0:0:0:0:
382,312,78353,1,0,3:0:0:0:
184,155,78520,5,10,0:0:0:0:
273,297,78686,1,0,0:0:0:0:
211,72,78853,5,8,0:0:0:0:
179,67,78936,1,0,0:0:0:0:
148,77,79020,1,0,0:0:0:0:
129,102,79103,1,0,0:0:0:0:
128,134,79186,5,10,0:0:0:0:
294,176,79353,1,0,3:0:0:0:
106,298,79520,5,8,0:0:0:0:
296,373,79686,1,0,3:0:0:0:
296,373,79770,1,0,0:0:0:0:
296,373,79853,1,8,0:0:0:0:
193,192,80020,6,0,L|213:303,1,107.999996704102,2|8,3:2|0:0,0:0:0:0:
248,102,80353,1,0,3:0:0:0:
380,254,80520,5,10,0:0:0:0:
449,190,80686,2,0,L|457:128,2,53.9999983520508,2|0|0,3:2|0:0|0:0,0:0:0:0:
389,336,81020,1,8,0:0:0:0:
285,205,81186,5,0,0:0:0:0:
274,180,81270,1,0,0:0:0:0:
272,153,81353,1,0,3:0:0:0:
278,127,81436,1,0,0:0:0:0:
293,104,81520,1,8,0:0:0:0:
313,87,81603,1,0,0:0:0:0:
338,78,81686,2,0,L|226:73,1,107.999996704102,2|0,3:2|0:0,0:0:0:0:
87,131,82020,5,8,0:0:0:0:
130,61,82186,1,0,3:0:0:0:
169,135,82353,2,0,L|171:235,1,90,4|0,0:3|0:0,0:0:0:0:
242,373,82686,5,8,0:3:0:0:
264,235,82853,1,8,0:3:0:0:
330,346,83020,1,8,0:3:0:0:
142,349,83186,6,0,P|82:258|158:192,1,216,6|0,0:0|0:0,0:0:0:0:
170,194,83770,1,8,0:3:0:0:
191,206,83853,1,8,0:3:0:0:
61,14,84186,2,0,P|85:47|126:65,1,72,2|8,0:0|0:3,0:0:0:0:
141,61,84436,1,8,0:3:0:0:
170,58,84520,6,0,L|259:55,1,72,4|8,0:3|0:3,0:0:0:0:
260,79,84770,1,0,0:0:0:0:
254,96,84853,1,0,0:0:0:0:
249,113,84936,1,0,0:0:0:0:
244,130,85020,1,0,0:0:0:0:
239,147,85103,1,0,0:0:0:0:
234,164,85186,1,8,0:0:0:0:
416,19,85520,5,8,0:3:0:0:
446,85,85686,1,8,0:3:0:0:
385,193,85853,6,0,P|313:157|234:164,1,161.999995056153,6|0,0:0|0:0,0:0:0:0:
138,194,86353,2,0,P|117:154|109:111,1,80.9999975280763,2|0,0:0|0:0,0:0:0:0:
226,258,86686,1,8,0:3:0:0:
152,318,86853,1,0,0:0:0:0:
303,244,87020,6,0,L|387:274,1,80.9999975280763,2|0,3:2|0:0,0:0:0:0:
496,165,87353,2,0,P|423:178|363:94,1,161.999995056153,2|0,3:2|0:0,0:0:0:0:
289,5,87853,1,2,3:2:0:0:
235,87,88020,1,0,0:0:0:0:
94,6,88186,1,8,0:3:0:0:
148,87,88353,1,2,0:0:0:0:
11,166,88520,6,0,B|98:139|77:211|178:187,1,161.999995056153,12|0,0:0|0:0,0:0:0:0:
257,168,89020,1,2,0:0:0:0:
327,235,89186,1,2,0:0:0:0:
423,179,89353,2,0,P|476:169|515:186,1,80.9999975280763,8|0,0:3|0:0,0:0:0:0:
406,83,89686,6,0,L|307:85,1,80.9999975280763,2|0,3:2|0:0,0:0:0:0:
245,140,90020,1,8,0:3:0:0:
203,53,90186,1,0,0:0:0:0:
166,185,90353,1,2,0:0:0:0:
245,140,90520,1,8,0:3:0:0:
216,271,90686,1,2,0:0:0:0:
138,110,90853,2,0,L|142:162,1,40.4999987640381,8|0,0:0|3:0,0:0:0:0:
72,287,91020,1,8,0:0:0:0:
72,287,91103,1,8,0:0:0:0:
72,287,91186,5,4,0:1:0:0:
149,321,91353,1,0,3:2:0:0:
216,271,91520,1,0,3:2:0:0:
184,189,91686,2,0,P|176:146|186:108,1,80.9999975280763,2|8,0:0|0:3,0:0:0:0:
263,54,92020,1,2,0:0:0:0:
331,95,92186,1,8,0:3:0:0:
436,16,92353,1,0,1:0:0:0:
436,16,92436,1,0,1:0:0:0:
436,16,92520,6,0,P|385:73|384:183,1,161.999995056153,6|8,0:3|0:3,0:0:0:0:
279,155,93020,1,8,0:3:0:0:
279,155,93103,1,8,3:0:0:0:
279,155,93186,1,8,0:3:0:0:
273,288,93353,1,8,0:0:0:0:
253,302,93436,1,8,0:0:0:0:
230,311,93520,1,8,0:0:0:0:
206,313,93603,1,8,0:0:0:0:
182,310,93686,1,8,0:0:0:0:
160,301,93770,1,8,0:0:0:0:
141,286,93853,5,6,0:3:0:0:
141,164,94020,1,0,0:3:0:0:
246,225,94186,1,0,0:3:0:0:
246,103,94353,5,10,0:0:0:0:
141,42,94520,1,8,0:3:0:0:
141,164,94686,1,10,0:0:0:0:
32,89,94853,5,4,0:3:0:0:
11,274,95020,1,4,0:1:0:0:
290,370,95353,5,2,0:0:0:0:
304,362,95436,1,0,0:0:0:0:
312,348,95520,1,0,0:0:0:0:
217,309,95686,5,2,0:0:0:0:
191,296,95770,1,0,0:0:0:0:
177,271,95853,1,0,0:0:0:0:
306,223,96020,5,0,0:0:0:0:
334,194,96103,1,0,0:0:0:0:
345,155,96186,1,0,0:0:0:0:
340,114,96270,1,0,0:0:0:0:
313,83,96353,5,0,0:0:0:0:
298,97,96436,1,0,0:0:0:0:
289,103,96520,5,6,0:0:0:0:
213,172,107186,6,0,L|178:324,1,144,6|0,3:2|3:0,0:0:0:0:
69,155,107853,2,0,L|50:77,2,72,0|0|0,3:0|0:0|3:0,0:0:0:0:
45,229,108353,1,2,0:0:0:0:
149,131,108520,6,0,P|192:104|294:143,1,144,0|0,3:2|3:0,0:0:0:0:
278,124,108936,1,0,0:0:0:0:
278,124,109020,1,0,0:0:0:0:
405,124,109186,1,0,3:0:0:0:
342,60,109353,1,0,0:0:0:0:
342,188,109520,2,0,L|360:280,1,72,2|0,3:2|0:0,0:0:0:0:
274,344,109853,6,0,B|220:359|220:359|117:330,1,144,6|0,3:2|3:0,0:0:0:0:
51,280,110353,2,0,L|28:351,1,72,2|0,0:0|3:0,0:0:0:0:
107,193,110686,2,0,L|135:335,1,144,2|0,0:0|0:0,0:0:0:0:
201,208,111186,6,0,P|238:180|283:178,1,72,2|0,3:2|0:0,0:0:0:0:
373,154,111520,1,0,3:0:0:0:
373,154,111686,2,0,P|321:159|254:97,1,144,2|0,0:0|0:0,0:0:0:0:
272,17,112186,1,0,3:0:0:0:
337,73,112353,1,0,0:0:0:0:
176,103,112520,6,0,B|127:85|127:85|84:88|84:88|25:68,1,144,6|0,3:2|3:0,0:0:0:0:
116,162,113020,2,0,L|93:319,1,144,2|0,0:0|0:0,0:0:0:0:
185,243,113520,1,0,3:0:0:0:
248,318,113686,6,0,P|285:310|320:288,1,72,2|0,0:0|3:0,0:0:0:0:
353,182,114020,1,0,0:0:0:0:
388,254,114186,1,0,3:0:0:0:
279,153,114353,2,0,P|327:107|409:130,1,144,2|0,0:0|0:0,0:0:0:0:
461,190,114853,1,0,3:0:0:0:
439,282,115020,1,0,0:0:0:0:
300,242,115186,6,0,P|254:231|211:238,1,72,6|0,3:2|0:0,0:0:0:0:
90,264,115520,2,0,P|136:275|179:268,1,72,2|8,3:2|0:3,0:0:0:0:
156,107,115853,2,0,L|136:211,1,80.9999975280763,6|0,3:2|0:0,0:0:0:0:
260,321,116186,2,0,L|233:155,1,161.999995056153,6|2,3:2|0:0,0:0:0:0:
460,31,116686,5,8,3:2:0:0:
404,113,116853,1,8,0:0:0:0:
348,28,117020,1,8,0:0:0:0:
303,160,117186,1,8,0:0:0:0:
145,17,117353,1,8,0:0:0:0:
279,78,117520,1,8,0:0:0:0:
97,133,117686,1,8,0:0:0:0:
97,133,117770,1,8,0:0:0:0:
97,133,117853,6,0,L|7:164,1,90,6|0,0:0|0:0,0:0:0:0:
204,210,118186,1,8,0:0:0:0:
483,23,118686,6,0,P|444:59|435:108,1,90,8|0,0:0|0:0,0:0:0:0:
488,243,119020,1,8,0:0:0:0:
235,378,119353,5,0,3:0:0:0:
265,263,119520,1,8,0:0:0:0:
360,384,119686,1,0,3:0:0:0:
370,165,119853,1,0,3:0:0:0:
321,324,120020,1,8,0:0:0:0:
203,183,120186,1,8,0:0:0:0:
203,183,120270,1,8,0:0:0:0:
203,183,120353,1,8,0:0:0:0:
392,270,120520,5,8,0:0:0:0:
147,368,120853,1,8,0:0:0:0:
370,165,121353,5,8,0:0:0:0:
122,69,121686,1,8,0:0:0:0:
27,335,122020,5,8,0:0:0:0:
184,257,122186,1,8,0:0:0:0:
4,205,122353,1,8,0:3:0:0:
208,267,122520,1,8,0:3:0:0:
208,267,122603,1,8,0:3:0:0:
208,267,122686,1,8,0:3:0:0:
55,262,122853,1,8,0:3:0:0:
232,178,123020,1,8,0:0:0:0:
232,178,123103,1,8,0:0:0:0:
232,178,123186,6,0,B|325:151|316:230|416:194,1,180,6|0,0:0|0:0,0:0:0:0:
455,137,123686,2,0,L|431:297,1,144,2|0,0:0|0:0,0:0:0:0:
378,352,124186,1,0,0:0:0:0:
300,313,124353,1,0,3:0:0:0:
179,368,124520,1,8,0:0:0:0:
46,132,125020,6,0,L|21:57,2,72,2|0|0,0:0|0:0|0:0,0:0:0:0:
127,168,125520,2,0,L|96:255,1,72,2|0,0:0|0:0,0:0:0:0:
115,345,125853,5,6,3:2:0:0:
184,286,126020,1,0,0:0:0:0:
243,353,126186,1,0,3:0:0:0:
320,263,126353,1,0,0:0:0:0:
434,384,126520,1,0,3:0:0:0:
461,198,126686,1,0,0:0:0:0:
392,313,126853,1,0,3:0:0:0:
345,179,127020,1,0,0:0:0:0:
233,365,127186,5,6,3:2:0:0:
110,231,127353,1,0,3:0:0:0:
233,284,127520,5,2,3:2:0:0:
356,150,127687,1,0,3:0:0:0:
233,202,127853,5,2,3:2:0:0:
110,68,128020,1,0,3:0:0:0:
329,21,128186,6,0,L|285:123,1,90,2|0,3:2|0:0,0:0:0:0:
76,0,128520,1,6,0:0:0:0:
183,108,128686,5,0,3:0:0:0:
183,108,128770,1,0,3:0:0:0:
183,108,128853,2,0,L|155:169,1,45,10|0,0:0|0:0,0:0:0:0:
60,169,129020,5,8,0:0:0:0:
60,169,129104,1,8,0:0:0:0:
60,169,129186,2,0,L|88:230,1,45,10|0,0:0|0:0,0:0:0:0:
189,245,129353,5,0,3:0:0:0:
189,245,129437,1,0,3:0:0:0:
189,245,129520,2,0,L|161:306,1,45,10|0,0:0|0:0,0:0:0:0:
351,183,129686,5,0,3:0:0:0:
351,183,129770,1,0,3:0:0:0:
351,183,129853,5,10,0:0:0:0:
365,216,129936,1,8,0:0:0:0:
351,249,130020,1,8,0:0:0:0:
318,263,130103,1,8,0:0:0:0:
284,249,130186,1,8,0:0:0:0:
271,216,130270,1,8,0:0:0:0:
275,180,130353,5,8,0:0:0:0:
241,222,130436,1,8,0:0:0:0:
191,244,130520,1,8,0:0:0:0:
137,238,130603,1,8,0:0:0:0:
97,202,130686,1,8,0:0:0:0:
91,147,130770,1,8,0:0:0:0:
121,103,130853,5,8,0:0:0:0:
120,156,130936,1,8,0:0:0:0:
109,209,131020,1,8,0:0:0:0:
100,262,131103,1,8,0:0:0:0:
92,315,131186,5,10,0:0:0:0:
203,154,131353,1,10,0:0:0:0:
379,357,131686,5,10,0:0:0:0:
268,196,131853,1,10,0:0:0:0:
20,30,132186,6,0,P|60:70|146:64,1,135,8|0,0:1|0:0,0:0:0:0:
202,39,132520,6,0,L|150:154,1,107.999996704102,6|0,0:0|0:0,0:0:0:0:
104,201,132770,1,0,0:0:0:0:
100,228,132853,2,0,P|152:214|213:236,1,107.999996704102,8|0,0:0|0:0,0:0:0:0:
19,167,133186,1,0,3:0:0:0:
151,292,133353,2,0,P|177:339|182:355,1,53.9999983520508
306,211,133520,2,0,L|341:110,1,107.999996704102,10|0,0:0|0:0,0:0:0:0:
112,54,133853,6,0,P|186:34|245:115,1,161.999995056153,2|0,3:2|0:0,0:0:0:0:
167,112,134186,1,8,0:0:0:0:
334,55,134353,1,0,3:0:0:0:
338,82,134437,1,8,0:0:0:0:
341,108,134520,1,0,3:0:0:0:
187,192,134687,2,0,L|65:186,1,107.999996704102,2|8,0:0|0:0,0:0:0:0:
0,384,135020,2,0,L|13:326,1,53.9999983520508,2|0,0:0|0:0,0:0:0:0:
63,281,135186,6,0,B|147:241|142:312|239:271,1,161.999995056153,2|0,3:2|0:0,0:0:0:0:
429,337,135520,2,0,P|381:309|323:320,1,107.999996704102,8|0,0:0|0:0,0:0:0:0:
187,192,135854,2,0,P|232:164|284:170,1,107.999996704102,2|0,3:2|0:0,0:0:0:0:
129,272,136187,1,8,0:0:0:0:
89,15,136353,6,0,L|50:239,1,215.999993408203,2|0,0:0|3:0,0:0:0:0:
1,43,136853,1,8,0:0:0:0:
172,121,137020,1,0,3:0:0:0:
172,121,137104,1,8,0:0:0:0:
172,121,137186,1,0,3:0:0:0:
6,286,137353,1,0,3:0:0:0:
76,93,137519,1,10,0:0:0:0:
159,214,137686,1,2,3:2:0:0:
364,40,137853,6,0,B|288:58|288:58|243:105|243:105|148:127,1,215.999993408203,6|8,0:0|0:0,0:0:0:0:
16,170,138353,2,0,L|36:291,1,107.999996704102,2|0,0:0|3:0,0:0:0:0:
241,192,138686,2,0,P|217:141|155:121,1,107.999996704102,2|8,3:2|0:0,0:0:0:0:
0,345,139020,6,0,B|118:289|118:289|148:321|198:333,1,215.999993408203,2|0,0:0|0:0,0:0:0:0:
383,263,139519,1,8,0:0:0:0:
260,79,139686,1,8,0:0:0:0:
235,86,139769,1,8,0:0:0:0:
216,106,139853,2,0,L|185:213,1,107.999996704102,2|0,3:2|0:0,0:0:0:0:
353,13,140186,2,0,L|383:120,1,107.999996704102,8|8,0:0|0:0,0:0:0:0:
358,202,140436,1,8,0:0:0:0:
358,202,140520,6,0,P|305:151|186:180,1,188.999994232178,14|0,0:0|0:0,0:0:0:0:
169,185,140853,2,0,P|134:160|121:138,1,62.9999980773926,2|0,0:0|0:0,0:0:0:0:
265,234,141020,2,0,P|212:285|93:256,1,188.999994232178,14|0,0:0|0:0,0:0:0:0:
50,221,141353,5,8,0:0:0:0:
190,367,141520,1,8,0:0:0:0:
336,163,141686,1,8,0:3:0:0:
422,259,141853,1,8,0:3:0:0:
176,209,142020,5,8,0:3:0:0:
176,209,142103,1,8,0:3:0:0:
176,209,142186,2,0,L|191:148,1,53.9999983520508,8|0,0:0|0:0,0:0:0:0:
350,101,142353,5,8,0:0:0:0:
350,101,142436,1,8,0:0:0:0:
350,101,142519,2,0,L|337:163,1,53.9999983520508,8|0,0:0|0:0,0:0:0:0:
258,63,142687,5,8,0:0:0:0:
292,21,142770,1,8,0:0:0:0:
342,3,142853,1,8,0:0:0:0:
394,16,142936,1,8,0:0:0:0:
431,54,143020,1,8,0:0:0:0:
442,106,143103,1,8,0:0:0:0:
426,158,143186,6,0,P|416:219|456:269,1,107.999996704102,6|0,0:0|0:0,0:0:0:0:
350,101,143520,1,8,0:0:0:0:
278,298,143686,2,0,P|230:322|179:310,1,107.999996704102,2|0,0:0|3:0,0:0:0:0:
89,84,144020,1,2,0:0:0:0:
223,238,144186,1,8,0:0:0:0:
0,178,144353,6,0,L|117:154,1,107.999996704102,6|0,0:0|3:0,0:0:0:0:
304,100,144686,2,0,L|187:76,1,107.999996704102,2|8,0:0|0:0,0:0:0:0:
211,243,145020,1,2,0:0:0:0:
214,215,145104,1,0,0:0:0:0:
219,189,145187,1,0,3:0:0:0:
15,287,145353,2,0,L|132:263,1,107.999996704102,2|8,0:0|0:0,0:0:0:0:
177,384,145687,1,0,0:0:0:0:
219,189,145853,6,0,B|309:164|296:231|398:209,1,161.999995056153,6|0,0:0|0:0,0:0:0:0:
450,204,146187,2,0,P|481:256|479:319,1,107.999996704102,8|0,0:0|0:0,0:0:0:0:
421,377,146436,1,8,0:0:0:0:
421,377,146520,2,0,L|300:358,1,107.999996704102,8|0,0:3|0:0,0:0:0:0:
128,203,146854,1,12,0:0:0:0:
240,73,147020,6,0,B|199:302,1,215.999993408203,2|0,3:2|3:0,0:0:0:0:
142,100,147520,1,8,0:0:0:0:
297,191,147686,1,8,0:0:0:0:
404,84,147852,5,8,0:0:0:0:
404,84,147935,1,8,0:0:0:0:
404,84,148019,1,8,0:0:0:0:
404,84,148103,1,8,0:0:0:0:
404,84,148186,5,8,0:0:0:0:
444,123,148269,1,8,0:0:0:0:
456,175,148353,1,8,0:0:0:0:
449,228,148436,1,8,0:0:0:0:
412,267,148520,5,14,0:2:0:0:
220,186,148686,2,0,L|204:132,1,53.9999983520508,0|0,3:0|3:0,0:0:0:0:
85,324,148853,5,8,0:0:0:0:
277,243,149020,1,0,3:0:0:0:
107,71,149186,5,10,0:0:0:0:
116,102,149269,1,0,0:0:0:0:
125,133,149352,1,0,3:0:0:0:
134,164,149436,1,0,0:0:0:0:
143,195,149519,1,8,0:0:0:0:
153,226,149602,1,0,0:0:0:0:
162,257,149686,1,0,3:0:0:0:
330,81,149853,5,10,0:0:0:0:
467,217,150020,1,0,3:0:0:0:
467,217,150103,1,0,3:0:0:0:
467,217,150186,5,8,0:0:0:0:
259,139,150353,1,0,3:0:0:0:
150,351,150520,5,10,0:0:0:0:
294,210,150686,1,0,3:0:0:0:
506,373,150853,5,8,0:0:0:0:
356,155,151020,1,0,3:0:0:0:
103,285,151186,6,0,P|45:285|-2:251,1,107.999996704102,10|0,0:0|3:0,0:0:0:0:
6,220,151436,1,0,3:0:0:0:
6,220,151520,1,8,0:0:0:0:
89,382,151686,1,2,0:0:0:0:
218,219,151853,5,8,0:0:0:0:
241,196,151936,1,0,0:0:0:0:
271,185,152020,1,0,3:0:0:0:
303,185,152103,1,0,0:0:0:0:
333,195,152186,1,8,0:0:0:0:
357,216,152270,1,0,0:0:0:0:
372,254,152353,5,0,3:0:0:0:
372,254,152436,1,0,3:0:0:0:
372,254,152520,5,10,0:0:0:0:
397,157,152686,1,2,3:2:0:0:
272,301,152853,5,8,0:0:0:0:
162,164,153020,1,2,3:2:0:0:
35,366,153186,5,8,0:0:0:0:
87,259,153353,1,0,3:0:0:0:
87,259,153436,1,0,3:0:0:0:
87,259,153520,2,0,L|75:202,1,53.9999983520508,8|0,0:0|0:0,0:0:0:0:
0,151,153686,2,0,L|5:98,1,53.9999983520508,0|0,3:0|0:0,0:0:0:0:
162,164,153854,5,6,0:0:0:0:
225,94,154020,2,0,P|217:65|194:37,2,53.9999983520508,0|0|0,3:2|3:0|3:0,0:0:0:0:
237,231,154353,1,8,0:0:0:0:
343,152,154520,5,0,0:0:0:0:
347,178,154603,1,0,0:0:0:0:
352,205,154686,1,2,3:2:0:0:
356,231,154770,1,0,0:0:0:0:
361,258,154853,1,8,0:0:0:0:
366,285,154936,1,0,0:0:0:0:
370,311,155020,2,0,L|252:303,1,107.999996704102,2|8,3:2|0:0,0:0:0:0:
114,219,155354,5,8,0:0:0:0:
158,154,155520,1,8,0:3:0:0:
276,234,155686,2,0,L|176:227,1,90,8|0,0:3|0:0,0:0:0:0:
370,311,156020,5,8,0:3:0:0:
394,218,156186,1,8,0:3:0:0:
480,240,156353,1,8,0:3:0:0:
497,77,156520,5,14,0:0:0:0:
472,71,156603,1,0,0:0:0:0:
446,68,156686,1,0,0:0:0:0:
420,64,156770,1,0,0:0:0:0:
395,60,156853,6,0,L|305:54,1,72,8|0,0:0|0:0,0:0:0:0:
256,81,157103,1,0,0:0:0:0:
242,76,157186,1,0,3:0:0:0:
229,68,157270,1,0,0:0:0:0:
215,63,157353,1,0,3:0:0:0:
114,121,157520,1,8,0:0:0:0:
248,204,157686,6,0,L|405:149,1,144,6|0,3:2|3:0,0:0:0:0:
479,219,158186,2,0,P|432:227|403:257,1,72,8|0,0:0|0:0,0:0:0:0:
337,326,158520,5,8,0:0:0:0:
311,346,158603,1,8,0:0:0:0:
281,356,158686,1,8,0:0:0:0:
248,354,158770,1,8,0:0:0:0:
219,342,158853,1,8,0:0:0:0:
193,321,158936,1,8,0:0:0:0:
163,311,159019,1,8,0:0:0:0:
130,313,159103,1,8,0:0:0:0:
102,328,159186,5,12,0:0:0:0:
230,214,159353,1,8,0:0:0:0:
486,244,159686,5,10,0:0:0:0:
358,130,159853,1,10,0:0:0:0:
102,162,160186,5,8,0:0:0:0:
230,48,160353,1,8,0:0:0:0:
320,262,160686,5,8,0:0:0:0:
448,150,160853,1,8,0:0:0:0:
188,272,161186,5,10,0:0:0:0:
458,352,161520,1,8,0:0:0:0:
410,282,161686,6,0,P|358:259|275:315,1,161.999995056153,6|0,0:0|0:0,0:0:0:0:
93,296,162186,2,0,L|181:276,1,80.9999975280763,8|0,0:0|0:0,0:0:0:0:
164,99,162520,2,0,L|119:6,1,80.9999975280763,0|0,3:0|0:0,0:0:0:0:
136,187,162853,1,8,0:0:0:0:
234,49,163020,1,2,3:2:0:0:
234,49,163103,1,2,3:2:0:0:
234,49,163186,6,0,P|285:43|322:62,1,80.9999975280763,2|0,3:2|3:0,0:0:0:0:
370,241,163520,2,0,L|356:290,1,40.4999987640381,8|0,0:0|0:0,0:0:0:0:
299,210,163686,1,8,0:0:0:0:
299,210,163770,1,8,0:0:0:0:
299,210,163853,2,0,P|337:237|388:239,1,80.9999975280763,2|0,3:2|0:0,0:0:0:0:
191,310,164186,2,0,P|151:317|119:341,1,80.9999975280763,8|0,0:0|0:0,0:0:0:0:
142,159,164520,6,0,L|106:323,1,161.999995056153,2|8,3:2|0:0,0:0:0:0:
230,207,165020,2,0,L|194:43,1,161.999995056153,2|0,0:0|3:0,0:0:0:0:
62,5,165520,2,0,P|20:19|-1:49,1,80.9999975280763,10|0,0:0|0:0,0:0:0:0:
80,177,165853,6,0,L|75:88,1,80.9999975280763,2|0,0:0|3:0,0:0:0:0:
57,284,166186,1,8,0:0:0:0:
166,182,166353,1,0,3:0:0:0:
166,182,166436,1,8,0:0:0:0:
166,182,166520,1,2,3:2:0:0:
221,297,166686,1,0,3:0:0:0:
294,156,166853,1,8,0:0:0:0:
405,318,167020,1,8,0:0:0:0:
405,318,167103,1,8,0:0:0:0:
405,318,167186,6,0,B|397:229|456:253|442:152,1,161.999995056153,6|8,3:2|0:0,0:0:0:0:
249,60,167853,2,0,P|293:51|332:64,1,80.9999975280763,0|0,3:0|0:0,0:0:0:0:
173,185,168186,2,0,P|217:194|256:181,1,80.9999975280763,8|0,0:0|3:0,0:0:0:0:
98,103,168520,6,0,P|49:168|87:243,1,161.999995056153,2|8,0:0|0:0,0:0:0:0:
203,328,169020,1,0,3:0:0:0:
203,328,169103,1,8,0:0:0:0:
203,328,169186,1,2,3:2:0:0:
70,369,169353,1,2,3:2:0:0:
203,299,169520,1,8,0:0:0:0:
77,235,169686,1,2,0:0:0:0:
248,145,169853,6,0,P|217:219|203:299,1,161.999995056153,0|8,3:0|0:0,0:0:0:0:
296,376,170353,1,2,0:0:0:0:
405,243,170520,1,0,3:0:0:0:
383,341,170686,1,2,3:2:0:0:
306,233,170853,1,8,0:0:0:0:
496,339,171020,1,6,0:0:0:0:
471,21,171353,5,8,0:0:0:0:
371,73,171520,1,8,0:0:0:0:
281,118,171686,1,8,0:0:0:0:
381,170,171853,1,8,0:0:0:0:
476,219,172020,1,8,0:0:0:0:
376,271,172186,1,8,0:0:0:0:
336,278,172269,1,8,0:0:0:0:
296,285,172352,1,8,0:0:0:0:
256,292,172436,1,8,0:0:0:0:
211,297,172520,6,0,P|178:259|166:201,1,90,14|0,3:2|0:0,0:0:0:0:
175,42,172853,2,0,P|208:80|220:138,1,90,8|0,0:0|0:0,0:0:0:0:
82,224,173186,1,8,0:0:0:0:
246,222,173353,1,0,3:0:0:0:
109,76,173520,1,8,0:0:0:0:
166,221,173686,1,0,3:0:0:0:
286,68,173853,6,0,B|344:44|344:44|472:89,1,180,10|8,0:0|0:0,0:0:0:0:
345,133,174353,1,0,0:0:0:0:
450,252,174520,1,8,0:0:0:0:
451,229,174603,1,8,0:0:0:0:
452,206,174686,1,8,0:0:0:0:
382,341,174853,1,8,0:0:0:0:
343,179,175020,1,8,0:0:0:0:
344,156,175103,1,8,0:0:0:0:
345,133,175186,5,12,0:0:0:0:
123,70,175353,1,4,0:0:0:0:
123,70,176020,6,0,L|74:218,1,135,8|0,0:3|0:0,0:0:0:0:
55,191,176353,2,0,L|73:291,1,90,10|0,0:0|0:0,0:0:0:0:
239,373,176686,5,8,0:0:0:0:
92,301,176853,1,8,0:0:0:0:
258,234,177020,1,8,0:0:0:0:
55,191,177186,1,10,0:0:0:0:
213,124,177353,1,8,0:0:0:0:
2,69,177520,1,10,0:0:0:0:
2,69,177603,1,8,0:0:0:0:
2,69,177686,1,8,0:0:0:0:
185,234,177853,6,0,P|245:248|330:236,1,144,6|0,3:2|3:0,0:0:0:0:
390,186,178353,1,0,0:0:0:0:
319,138,178520,2,0,P|309:102|322:59,1,72,2|0,3:2|0:0,0:0:0:0:
393,97,178853,1,0,3:0:0:0:
232,97,179020,6,0,B|161:74|166:124|78:93,1,144,2|0,0:0|0:0,0:0:0:0:
7,62,179520,1,0,3:0:0:0:
12,193,179686,2,0,L|49:344,1,144,2|2,0:0|0:0,0:0:0:0:
116,267,180186,1,0,3:0:0:0:
179,333,180353,1,0,0:0:0:0:
321,276,180520,6,0,P|274:240|180:273,1,144,2|0,3:2|3:0,0:0:0:0:
131,197,181020,1,0,0:0:0:0:
212,160,181186,2,0,P|251:139|270:104,1,72,2|0,3:2|0:0,0:0:0:0:
189,72,181520,1,0,3:0:0:0:
354,111,181686,6,0,P|378:151|404:265,1,144,2|0,0:0|0:0,0:0:0:0:
343,322,182186,2,0,L|264:308,1,72,0|0,3:0|0:0,0:0:0:0:
193,357,182520,2,0,L|131:305,1,72,0|0,3:0|0:0,0:0:0:0:
48,326,182853,2,0,L|20:250,1,72,0|0,3:0|0:0,0:0:0:0:
92,92,183186,5,2,3:2:0:0:
97,197,183353,1,2,0:0:0:0:
80,75,183520,1,0,3:2:0:0:
178,158,183686,1,2,0:0:0:0:
167,0,183853,1,2,3:2:0:0:
325,177,184186,5,2,3:2:0:0:
239,243,184353,1,2,0:0:0:0:
337,160,184520,1,0,3:0:0:0:
320,282,184686,1,2,3:2:0:0:
460,188,184853,1,2,3:2:0:0:
377,345,185020,5,8,0:0:0:0:
377,345,185103,1,8,0:0:0:0:
377,345,185186,2,0,P|342:359|287:347,1,72,2|0,3:2|0:0,0:0:0:0:
172,333,185520,2,0,P|207:319|262:331,1,72,0|0,3:0|0:0,0:0:0:0:
306,174,185853,6,0,B|254:149|254:149|205:153|205:153|132:122,1,161.999995056153,6|0,3:2|3:0,0:0:0:0:
2,173,186353,2,0,B|54:148|54:148|103:152|103:152|154:131,1,161.999995056153,8|0,0:0|3:0,0:0:0:0:
152,292,186853,2,0,L|154:113,1,161.999995056153,10|0,0:0|0:0,0:0:0:0:
226,22,187353,5,0,3:0:0:0:
226,22,187436,1,0,3:0:0:0:
226,22,187520,1,0,3:0:0:0:
330,85,187686,1,0,3:0:0:0:
330,85,187770,1,0,3:0:0:0:
330,85,187853,1,0,3:0:0:0:
429,27,188020,5,8,0:0:0:0:
457,41,188103,1,8,0:0:0:0:
479,64,188186,1,8,0:0:0:0:
491,94,188270,1,8,0:0:0:0:
492,127,188353,1,8,0:0:0:0:
482,157,188436,1,8,0:0:0:0:
461,182,188520,6,0,B|404:214|404:214|284:195,1,180,6|0,0:0|3:0,0:0:0:0:
222,141,189020,1,0,0:0:0:0:
247,274,189186,2,0,L|293:191,1,90,2|0,3:2|0:0,0:0:0:0:
260,353,189520,1,8,3:0:0:0:
174,207,189686,1,0,0:0:0:0:
174,207,189770,1,0,0:0:0:0:
174,207,189853,6,0,L|158:364,1,135,6|0,0:0|0:0,0:0:0:0:
146,364,190186,2,0,L|102:280,1,90,10|0,0:0|0:0,0:0:0:0:
275,223,190520,2,0,L|319:139,1,90,10|0,0:0|0:0,0:0:0:0:
136,99,190853,2,0,L|94:19,1,90,10|0,0:0|0:0,0:0:0:0:
8,185,191186,6,0,P|60:208|102:200,1,90,6|0,3:2|0:0,0:0:0:0:
236,87,191520,1,8,0:0:0:0:
275,223,191686,1,8,0:0:0:0:
275,223,191770,1,8,0:0:0:0:
275,223,191853,1,8,0:0:0:0:
394,110,192020,1,8,0:3:0:0:
196,173,192186,1,8,0:3:0:0:
407,0,192353,5,14,0:2:0:0:
123,22,192853,5,8,0:0:0:0:
52,109,193020,1,0,3:0:0:0:
232,33,193186,5,8,0:0:0:0:
161,120,193353,1,2,3:2:0:0:
335,37,193520,5,10,0:0:0:0:
223,201,193687,1,8,0:0:0:0:
223,201,193770,1,8,0:0:0:0:
223,201,193853,6,0,P|272:177|319:187,1,90,10|0,0:0|3:0,0:0:0:0:
455,304,194186,1,2,3:2:0:0:
282,258,194353,1,2,3:2:0:0:
455,131,194520,5,8,0:0:0:0:
282,177,194687,1,10,0:0:0:0:
28,130,194853,5,8,0:0:0:0:
201,176,195020,1,10,0:0:0:0:
28,303,195187,5,8,0:0:0:0:
201,257,195354,1,10,0:0:0:0:
127,56,195520,5,8,0:0:0:0:
106,232,195686,1,8,0:0:0:0:
245,30,195853,5,8,0:0:0:0:
245,30,195936,1,0,0:0:0:0:
245,30,196020,1,0,0:0:0:0:
309,202,196186,1,8,3:2:0:0:
317,162,196270,1,0,0:0:0:0:
325,122,196353,1,0,0:0:0:0:
333,83,196436,1,0,0:0:0:0:
341,43,196520,6,0,B|358:130|444:137|444:137|484:208|424:261,1,269.999991760254,6|0,0:0|0:0,0:0:0:0:
380,298,197520,1,0,0:0:0:0:
323,233,197686,2,0,B|272:201|221:238|221:238|195:141|104:167|104:167|59:218|103:293,1,377.999988464356,2|0,0:0|0:0,0:0:0:0:
260,132,199186,6,0,B|354:110|330:170|421:151,1,161.999995056153,2|0,0:0|0:0,0:0:0:0:
502,363,200020,5,0,0:0:0:0:
483,347,200186,1,0,0:0:0:0:
489,318,200353,1,0,0:0:0:0:
433,268,200520,6,0,B|398:270|371:247|371:247|317:360|194:315,1,270,2|0,0:0|0:0,0:0:0:0:
65,164,201853,5,2,0:3:0:0:
29,39,212520,6,0,P|72:66|56:147,1,125.999996154785,14|0,0:0|0:0,0:0:0:0:
19,213,213020,2,0,L|-1:261,2,31.4999990386963,8|8|8,3:0|3:0|3:0,0:0:0:0:
306,36,213520,2,0,L|342:106,1,62.9999980773926,2|0,0:0|3:0,0:0:0:0:
353,127,213770,1,0,3:0:0:0:
353,127,213853,6,0,P|303:117|257:231,1,188.999994232178,6|8,3:2|0:3,0:0:0:0:
323,196,214520,1,8,0:3:0:0:
483,332,214853,2,0,L|390:328,1,62.9999980773926,2|0,3:2|3:0,0:0:0:0:
399,344,215103,1,0,3:0:0:0:
387,345,215186,5,6,0:0:0:0:
170,267,215520,1,2,0:0:0:0:
122,323,215686,2,0,L|70:315,2,31.4999990386963,8|0|8,0:3|0:3|0:3,0:0:0:0:
28,356,216020,1,8,0:3:0:0:
19,285,216186,1,8,0:3:0:0:
202,348,216353,6,0,B|256:353|256:353|364:316,1,161.999995056153,6|0,0:0|3:0,0:0:0:0:
388,138,216853,1,8,0:0:0:0:
250,271,217020,1,0,3:0:0:0:
450,279,217186,1,8,0:0:0:0:
280,189,217353,1,0,3:0:0:0:
481,105,217520,1,8,0:0:0:0:
390,221,217686,1,0,3:0:0:0:
229,74,217853,6,0,L|117:96,1,80.9999975280763,6|0,0:0|0:0,0:0:0:0:
21,178,218186,2,0,P|73:179|113:202,1,80.9999975280763,8|0,0:0|0:0,0:0:0:0:
165,291,218520,1,0,3:0:0:0:
50,249,218686,1,0,3:0:0:0:
187,204,218853,1,8,0:0:0:0:
56,367,219020,1,6,0:0:0:0:
230,268,219186,5,8,0:0:0:0:
261,260,219270,1,8,0:0:0:0:
293,263,219353,1,8,0:0:0:0:
98,190,219520,5,8,0:0:0:0:
66,197,219604,1,8,0:0:0:0:
34,194,219687,1,8,0:0:0:0:
219,75,219853,5,10,0:0:0:0:
230,268,220020,1,8,0:0:0:0:
375,115,220186,1,8,0:0:0:0:
372,382,220353,1,14,0:0:0:0:
16,119,220853,6,0,B|88:94|88:94|164:107|164:107|254:69,1,215.999993408203,6|0,0:0|0:0,0:0:0:0:
88,175,221353,1,8,0:3:0:0:
257,212,221520,1,8,0:0:0:0:
88,321,221686,1,8,0:3:0:0:
64,332,221770,1,8,0:3:0:0:
46,352,221853,6,0,P|98:324|150:357,1,108,10|0,0:0|0:0,0:0:0:0:
216,370,222186,6,0,L|276:344,1,58.4999973220826,10|0,0:0|0:0,0:0:0:0:
353,260,222353,6,0,B|316:263|316:263|271:241|271:177,1,121.499996292114,10|0,0:0|0:0,0:0:0:0:
372,107,222686,6,0,P|299:171|194:113,1,202.500007724762,10|0,0:0|0:0,0:0:0:0:
160,0,223020,6,0,B|242:187|74:181|177:363,1,360,14|0,0:0|0:0,0:0:0:0:
363,264,223520,6,0,P|315:233|257:246,1,107.999996704102,8|0,0:0|0:0,0:0:0:0:
54,270,223853,2,0,P|102:301|160:288,1,107.999996704102,2|0,3:2|0:0,0:0:0:0:
21,202,224186,1,8,0:0:0:0:
173,382,224353,6,0,L|212:149,1,215.999993408203,2|0,0:0|0:0,0:0:0:0:
37,78,224853,1,8,0:0:0:0:
41,105,224936,1,8,0:0:0:0:
60,123,225020,1,0,3:0:0:0:
182,24,225186,1,2,0:0:0:0:
208,225,225353,1,0,3:0:0:0:
208,225,225436,1,0,3:0:0:0:
208,225,225520,2,0,L|194:297,1,53.9999983520508,8|0,0:0|0:0,0:0:0:0:
79,211,225686,2,0,L|95:277,1,53.9999983520508,0|0,3:0|0:0,0:0:0:0:
220,362,225853,6,0,B|265:324|265:324|394:360,1,161.999995056153,2|0,3:2|0:0,0:0:0:0:
505,270,226186,1,8,0:0:0:0:
356,120,226353,2,0,L|344:232,1,107.999996704102,2|0,0:0|3:0,0:0:0:0:
344,227,226603,1,0,3:0:0:0:
344,227,226686,1,0,3:0:0:0:
244,19,226853,6,0,B|137:-11|155:84|33:46,1,215.999993408203,10|0,0:0|0:0,0:0:0:0:
212,100,227353,1,0,3:0:0:0:
12,155,227520,2,0,L|54:263,1,107.999996704102,8|0,0:0|3:0,0:0:0:0:
66,279,227770,1,8,0:0:0:0:
85,298,227853,2,0,P|144:294|184:262,1,107.999996704102,2|0,3:2|3:0,0:0:0:0:
344,338,228186,2,0,P|314:330|282:308,1,53.9999983520508,8|0,0:0|0:0,0:0:0:0:
380,218,228353,1,0,3:0:0:0:
380,218,228436,1,8,0:0:0:0:
380,218,228520,6,0,B|411:191|411:191|505:189,1,125.999996154785,14|0,0:0|0:0,0:0:0:0:
433,96,228853,1,0,3:0:0:0:
221,169,229020,2,0,B|190:196|190:196|96:198,2,125.999996154785,14|0|0,0:0|0:0|3:0,0:0:0:0:
418,23,229520,5,8,0:3:0:0:
332,134,229686,1,8,0:3:0:0:
452,254,229853,1,8,0:3:0:0:
332,375,230020,6,0,P|316:343|286:309,1,53.9999983520508,8|8,0:3|0:3,0:0:0:0:
216,261,230186,1,0,0:0:0:0:
24,322,230353,6,0,P|40:290|70:256,1,53.9999983520508,8|8,0:0|0:0,0:0:0:0:
140,208,230520,1,8,0:0:0:0:
312,237,230686,5,8,0:0:0:0:
361,217,230770,1,8,0:0:0:0:
396,176,230853,1,8,0:0:0:0:
407,124,230936,1,8,0:0:0:0:
393,72,231020,1,8,0:0:0:0:
356,34,231103,1,8,0:0:0:0:
305,17,231186,6,0,P|251:54|158:46,1,161.999995056153,6|0,0:0|0:0,0:0:0:0:
84,44,231520,2,0,L|242:122,1,161.999995056153,8|0,0:0|0:0,0:0:0:0:
300,153,231853,2,0,P|221:141|153:182,1,161.999995056153,0|0,3:0|0:0,0:0:0:0:
116,244,232186,1,8,0:0:0:0:
375,252,232353,1,0,0:0:0:0:
375,252,232436,1,0,0:0:0:0:
375,252,232520,6,0,L|426:143,1,107.999996704102,6|0,3:2|0:0,0:0:0:0:
273,7,232853,1,8,0:0:0:0:
409,28,233020,1,0,3:0:0:0:
395,51,233103,1,8,0:0:0:0:
376,70,233186,1,0,3:0:0:0:
189,35,233353,2,0,P|135:25|72:57,1,107.999996704102,2|8,0:0|0:0,0:0:0:0:
16,207,233686,1,0,0:0:0:0:
143,102,233853,5,2,3:2:0:0:
28,291,234020,2,0,P|83:269|110:269,1,53.9999983520508,8|8,0:3|0:3,0:0:0:0:
243,259,234186,2,0,P|297:236|326:193,1,107.999996704102,10|8,0:0|0:3,0:0:0:0:
356,137,234436,1,8,0:3:0:0:
356,137,234520,2,0,L|409:247,1,107.999996704102,8|8,0:0|0:3,0:0:0:0:
265,44,234853,6,0,L|240:280,1,215.999993408203,14|0,0:0|0:0,0:0:0:0:
139,148,235353,1,0,3:0:0:0:
351,138,235520,2,0,P|311:102|259:101,1,107.999996704102,8|0,0:0|3:0,0:0:0:0:
409,241,235853,1,8,0:0:0:0:
443,76,236020,1,8,0:0:0:0:
284,205,236186,5,8,0:0:0:0:
271,153,236270,1,8,0:0:0:0:
259,101,236353,1,8,0:0:0:0:
244,50,236436,1,8,0:0:0:0:
226,0,236520,5,14,3:2:0:0:
180,183,236686,1,0,3:0:0:0:
364,15,236853,5,8,0:0:0:0:
284,205,237019,1,0,3:0:0:0:
66,160,237186,5,10,0:0:0:0:
85,134,237269,1,0,0:0:0:0:
110,113,237352,1,0,3:0:0:0:
139,100,237436,1,0,0:0:0:0:
171,95,237519,1,8,0:0:0:0:
203,97,237602,1,0,0:0:0:0:
234,108,237686,1,0,3:0:0:0:
113,312,237853,5,10,0:0:0:0:
251,191,238020,1,0,3:0:0:0:
419,384,238186,5,8,0:0:0:0:
196,245,238353,1,0,3:0:0:0:
442,104,238520,5,10,0:0:0:0:
275,267,238686,1,0,3:0:0:0:
155,29,238853,5,8,0:0:0:0:
71,291,239020,1,0,3:0:0:0:
71,291,239103,1,0,3:0:0:0:
71,291,239186,6,0,L|100:177,1,107.999996704102,10|0,0:0|3:0,0:0:0:0:
227,371,239520,1,8,0:0:0:0:
264,188,239686,1,2,3:2:0:0:
484,271,239853,5,8,0:0:0:0:
463,296,239936,1,0,0:0:0:0:
437,314,240020,1,0,3:0:0:0:
406,324,240103,1,0,0:0:0:0:
374,324,240186,1,8,0:0:0:0:
343,315,240270,1,0,0:0:0:0:
316,298,240353,5,0,3:0:0:0:
316,298,240436,1,0,3:0:0:0:
316,298,240520,5,10,0:0:0:0:
422,159,240686,1,0,3:0:0:0:
291,22,240853,1,8,0:0:0:0:
135,123,241020,2,0,L|256:109,1,107.999996704102,2|8,3:2|0:0,0:0:0:0:
154,268,241353,2,0,L|34:249,1,107.999996704102,2|8,3:2|0:0,0:0:0:0:
202,191,241686,1,2,3:2:0:0:
80,73,241853,1,8,0:0:0:0:
215,41,242020,6,0,P|270:59|301:106,1,107.999996704102,0|0,3:0|0:0,0:0:0:0:
362,280,242353,1,8,0:0:0:0:
505,205,242520,5,0,0:0:0:0:
489,183,242603,1,0,0:0:0:0:
467,167,242686,1,0,3:0:0:0:
442,158,242770,1,0,0:0:0:0:
415,159,242853,1,8,0:0:0:0:
389,167,242936,1,0,0:0:0:0:
368,183,243020,2,0,L|250:175,1,107.999996704102,2|8,3:2|0:0,0:0:0:0:
189,308,243353,5,8,0:0:0:0:
265,274,243520,1,0,3:0:0:0:
156,235,243686,2,0,L|39:228,1,90,8|0,0:3|0:0,0:0:0:0:
260,175,244020,5,8,0:3:0:0:
345,269,244186,1,8,0:3:0:0:
188,232,244353,1,8,0:3:0:0:
333,365,244520,6,0,P|391:356|440:261,1,144,6|0,3:2|0:0,0:0:0:0:
332,235,245020,1,8,0:3:0:0:
339,252,245103,1,8,0:3:0:0:
345,269,245186,1,8,0:3:0:0:
427,78,245520,2,0,P|387:56|356:54,1,72,2|8,0:0|0:3,0:0:0:0:
334,62,245770,1,8,0:3:0:0:
311,78,245853,6,0,L|163:62,1,144,8|0,0:3|0:0,0:0:0:0:
80,110,246353,2,0,L|126:139,1,36,2|0,0:0|0:0,0:0:0:0:
0,156,246520,1,0,3:0:0:0:
119,357,246853,1,2,0:0:0:0:
62,299,247020,1,0,0:0:0:0:
153,226,247186,6,0,B|238:199|227:270|322:237,1,161.999995056153,6|0,0:0|0:0,0:0:0:0:
382,156,247686,2,0,P|400:113|400:65,1,80.9999975280763,2|0,3:2|0:0,0:0:0:0:
302,13,248020,1,0,0:0:0:0:
223,69,248186,1,0,3:0:0:0:
107,19,248353,6,0,L|90:107,1,80.9999975280763,2|0,0:0|3:0,0:0:0:0:
178,184,248686,2,0,P|125:144|20:183,1,161.999995056153,2|0,0:0|0:0,0:0:0:0:
26,334,249186,1,0,3:0:0:0:
98,236,249353,1,0,0:0:0:0:
140,376,249520,1,8,0:3:0:0:
192,294,249687,1,0,0:0:0:0:
341,370,249853,6,0,B|385:333|385:333|438:331|438:331|491:276,1,161.999995056153,6|0,0:0|3:0,0:0:0:0:
497,212,250353,1,0,0:0:0:0:
392,190,250520,2,0,P|328:176|302:156,1,80.9999975280763,2|0,3:2|0:0,0:0:0:0:
213,142,250853,2,0,P|149:156|123:176,1,80.9999975280763,0|0,3:0|0:0,0:0:0:0:
61,280,251186,6,0,L|24:184,1,80.9999975280763,2|0,3:2|0:0,0:0:0:0:
49,68,251520,1,0,3:0:0:0:
122,17,251686,1,2,0:0:0:0:
203,53,251853,1,8,0:3:0:0:
213,142,252020,1,8,0:3:0:0:
290,29,252186,2,0,L|296:79,1,40.4999987640381,8|0,0:0|0:0,0:0:0:0:
319,212,252353,1,8,0:0:0:0:
319,212,252436,1,8,0:0:0:0:
319,212,252520,6,0,P|293:259|259:279,1,90,10|0,0:0|0:0,0:0:0:0:
102,325,252853,2,0,P|121:284|157:259,1,90,2|0,3:2|0:0,0:0:0:0:
261,367,253186,1,0,3:0:0:0:
302,249,253353,1,2,0:0:0:0:
177,330,253520,1,0,3:0:0:0:
76,169,253686,1,8,0:0:0:0:
76,169,253770,1,8,0:0:0:0:
76,169,253853,6,0,P|62:116|83:70,1,90,8|0,0:0|0:0,0:0:0:0:
212,22,254186,1,8,3:0:0:0:
136,121,254353,1,8,3:0:0:0:
304,229,254520,1,8,3:0:0:0:
222,107,254686,1,8,0:0:0:0:
222,107,254770,1,8,0:0:0:0:
222,107,254853,1,8,0:0:0:0:
184,305,255020,1,8,0:0:0:0:
184,305,255103,1,8,0:0:0:0:
184,305,255186,5,10,0:0:0:0:
336,162,255353,1,8,0:0:0:0:
413,367,255520,1,10,0:0:0:0:
236,202,255686,5,8,0:0:0:0:
388,59,255853,1,10,0:0:0:0:
465,264,256020,1,8,0:0:0:0:
268,78,256186,1,10,0:0:0:0:
105,306,256353,6,0,L|74:322,4,22.5,10|2|2|2|6,0:0|0:0|0:0|0:0|0:0,0:0:0:0:
256,192,256603,12,0,259186,0:0:0:0:
