osu file format v14

[General]
AudioFilename: audio.mp3
AudioLeadIn: 0
PreviewTime: 132178
Countdown: 1
SampleSet: Soft
StackLeniency: 0.4
Mode: 0
LetterboxInBreaks: 0
WidescreenStoryboard: 1

[Editor]
DistanceSpacing: 0.6
BeatDivisor: 8
GridSize: 16
TimelineZoom: 2.4

[Metadata]
Title:Haruoto*Veil
TitleUnicode:春音*ベール
Artist:Ceui
ArtistUnicode:Ceui
Creator:Alexsander
Version:Expert
Source:春音アリス*グラム
Tags:Haruoto Alice*Gram Eroge Opening full ver visual novel version video game japanese pop j-pop jpop spring is just around the corner
BeatmapID:2187179
BeatmapSetID:1045823

[Difficulty]
HPDrainRate:6
CircleSize:4
OverallDifficulty:8.5
ApproachRate:9.2
SliderMultiplier:1.7
SliderTickRate:1

[Events]
//Background and Video events
0,0,"Expert.jpg",0,0
//Break Periods
2,96720,106616
2,202053,211950
//Storyboard Layer 0 (Background)
//Storyboard Layer 1 (Fail)
//Storyboard Layer 2 (Pass)
//Storyboard Layer 3 (Foreground)
//Storyboard Layer 4 (Overlay)
//Storyboard Sound Samples

[TimingPoints]
-813,333.333333333333,4,2,1,40,1,0
-813,-166.666666666667,4,2,1,40,0,0
11020,-250,4,2,1,40,0,0
12436,-250,4,2,1,5,0,0
12520,-100,4,2,1,60,0,0
12853,-111.111111111111,4,2,1,50,0,0
17853,-100,4,2,1,60,0,0
20520,-100,4,2,1,70,0,0
21853,-125,4,2,1,40,0,0
23186,-125,4,2,1,50,0,0
33853,-100,4,2,1,60,0,0
43353,-125,4,2,1,60,0,0
44520,-142.857142857143,4,2,1,50,0,0
49853,-125,4,2,1,60,0,0
51186,-111.111111111111,4,2,1,60,0,0
52520,-100,4,2,1,70,0,0
56520,-142.857142857143,4,2,1,40,0,0
57020,-166.666666666667,4,2,1,30,0,0
57520,-200,4,2,1,30,0,0
58853,-200,4,2,1,50,0,0
59186,-83.3333333333333,4,2,1,80,0,1
67186,-71.4285714285714,4,2,1,80,0,1
68520,-83.3333333333333,4,2,1,80,0,1
82353,-100,4,2,1,70,0,1
83186,-125,4,2,1,60,0,0
83603,-125,4,2,1,5,0,0
83686,-125,4,2,1,50,0,0
84520,-142.857142857143,4,2,1,50,0,0
85853,-111.111111111111,4,2,1,50,0,0
107186,-125,4,2,1,50,0,0
115853,-111.111111111111,4,2,1,50,0,0
117853,-100,4,2,1,60,0,0
123686,-125,4,2,1,60,0,0
125853,-100,4,2,1,60,0,0
128686,-100,4,2,1,80,0,0
132186,-100,4,2,1,50,0,0
132520,-83.3333333333333,4,2,1,80,0,1
140520,-71.4285714285714,4,2,1,80,0,1
141853,-83.3333333333333,4,2,1,80,0,1
155686,-100,4,2,1,80,0,1
156520,-125,4,2,1,50,0,0
161686,-111.111111111111,4,2,1,60,0,0
172520,-100,4,2,1,70,0,0
177853,-125,4,2,1,50,0,0
185853,-111.111111111111,4,2,1,60,0,0
188520,-100,4,2,1,60,0,0
189853,-100,4,2,1,70,0,0
192853,-100,4,2,1,60,0,0
193853,-100,4,2,1,70,0,0
196520,-166.666666666667,4,2,1,70,0,0
196603,-166.666666666667,4,2,1,40,0,0
200520,-200,4,2,1,30,0,0
212520,-142.857142857143,4,2,1,50,0,0
216353,-111.111111111111,4,2,1,60,0,0
219853,-111.111111111111,4,2,1,70,0,0
220853,-83.3333333333333,4,2,1,80,0,1
222353,-76.9230769230769,4,2,1,80,0,1
222686,-90.9090909090909,4,2,1,80,0,1
223020,-71.4285714285714,4,2,1,80,0,1
223520,-83.3333333333333,4,2,1,80,0,1
228520,-71.4285714285714,4,2,1,80,0,1
229853,-83.3333333333333,4,2,1,80,0,1
243686,-100,4,2,1,60,0,1
244520,-125,4,2,1,60,0,0
247186,-111.111111111111,4,2,1,60,0,0
252520,-100,4,2,1,60,0,0
256520,-250,4,2,1,30,0,0
259186,-250,4,2,1,5,0,0

[Colours]
Combo1 : 123,61,239
Combo2 : 1,201,86
Combo3 : 239,223,33
Combo4 : 199,35,48

[HitObjects]
457,83,353,5,0,0:0:0:0:
457,83,436,1,0,0:0:0:0:
457,83,520,1,2,0:0:0:0:
403,143,686,1,0,0:0:0:0:
322,150,853,1,0,0:0:0:0:
268,88,1020,1,2,0:0:0:0:
46,148,1520,6,0,P|78:149|108:158,1,50.9999984436036,2|0,0:0|0:0,0:0:0:0:
152,205,1853,1,0,0:0:0:0:
103,264,2020,1,0,0:0:0:0:
161,313,2186,1,0,0:0:0:0:
106,367,2353,1,2,0:0:0:0:
258,355,2686,6,0,P|294:333|311:312,2,50.9999984436036,2|0|0,0:0|0:0|0:0,0:0:0:0:
239,268,3186,1,2,0:0:0:0:
295,216,3353,1,0,0:0:0:0:
371,208,3520,1,0,0:0:0:0:
439,242,3686,1,2,0:0:0:0:
238,130,4186,6,0,P|212:143|180:150,1,50.9999984436036
99,165,4520,1,2,0:0:0:0:
163,229,4686,1,0,0:0:0:0:
228,294,4853,1,0,0:0:0:0:
293,359,5020,1,2,0:0:0:0:
276,207,5353,6,0,P|240:190|205:189,2,50.9999984436036,2|0|0,0:0|0:0|0:0,0:0:0:0:
340,248,5853,2,0,L|362:137,1,101.999996887207,2|0,0:0|0:0,0:0:0:0:
319,82,6353,1,0,0:0:0:0:
215,103,6520,1,0,0:0:0:0:
166,43,6686,1,0,0:0:0:0:
125,108,6853,1,2,0:0:0:0:
70,54,7020,1,0,0:0:0:0:
57,163,7186,6,0,B|84:243|26:236|61:318,2,152.999995330811,2|2|2,0:0|0:0|0:0,0:0:0:0:
129,363,8520,6,0,P|152:324|223:312,1,101.999996887207,2|0,0:0|0:0,0:0:0:0:
269,253,9020,1,2,0:0:0:0:
196,215,9186,1,0,0:0:0:0:
203,133,9353,1,0,0:0:0:0:
266,80,9520,1,0,0:0:0:0:
343,104,9686,1,2,0:0:0:0:
269,253,10020,5,2,0:0:0:0:
196,215,10186,1,0,0:0:0:0:
114,217,10353,1,0,0:0:0:0:
60,267,10520,1,0,0:0:0:0:
40,309,10686,1,0,0:0:0:0:
48,325,10853,1,0,0:0:0:0:
51,333,11020,6,0,B|103:340|129:314|129:314|196:332|196:332|246:277|325:294,1,289,2|0,0:0|0:0,0:0:0:0:
351,271,12520,6,0,L|365:169,1,85,6|0,0:0|0:0,0:0:0:0:
339,48,12853,1,2,0:0:0:0:
245,124,13020,2,0,P|285:133|327:118,1,76.4999976654053,2|0,0:0|0:0,0:0:0:0:
207,44,13353,1,2,0:0:0:0:
165,140,13520,1,0,0:0:0:0:
32,62,13686,6,0,L|132:59,1,76.4999976654053,2|0,0:0|0:0,0:0:0:0:
12,144,14020,2,0,L|188:139,1,152.999995330811,2|0,0:0|0:0,0:0:0:0:
261,206,14520,1,2,0:0:0:0:
174,216,14686,1,0,0:0:0:0:
246,134,14853,1,2,3:2:0:0:
348,223,15020,1,8,0:3:0:0:
363,38,15186,6,0,B|310:24|310:24|217:58,1,152.999995330811,4|0,0:0|0:0,0:0:0:0:
164,139,15686,1,2,0:0:0:0:
261,206,15853,2,0,L|252:292,1,76.4999976654053,2|0,0:0|0:0,0:0:0:0:
171,359,16186,1,2,0:0:0:0:
161,275,16353,1,0,0:0:0:0:
317,356,16520,6,0,P|367:342|452:264,1,152.999995330811,2|2,0:0|0:0,0:0:0:0:
442,192,17020,1,0,0:0:0:0:
313,272,17186,2,0,P|350:261|394:224,1,76.4999976654053,2|0,0:0|0:0,0:0:0:0:
269,185,17520,2,0,L|335:185,2,50.9999984436036,8|8|8,0:3|0:3|0:3,0:0:0:0:
115,247,17853,6,0,L|156:54,1,170,12|0,0:0|3:0,0:0:0:0:
261,15,18353,1,2,0:0:0:0:
307,187,18520,2,0,L|262:103,1,85,0|0,3:0|0:0,0:0:0:0:
202,258,18853,2,0,L|172:354,1,85,8|0,0:0|0:0,0:0:0:0:
165,361,19103,1,0,0:0:0:0:
165,361,19186,6,0,P|229:323|302:380,1,170,8|0,0:0|3:0,0:0:0:0:
408,316,19686,1,2,0:0:0:0:
283,246,19853,1,0,3:0:0:0:
478,166,20020,1,8,0:0:0:0:
478,166,20103,1,8,0:0:0:0:
478,166,20186,1,8,0:3:0:0:
369,242,20353,1,0,0:0:0:0:
240,46,20520,5,8,0:0:0:0:
283,246,20686,1,8,0:0:0:0:
383,45,20853,1,8,0:0:0:0:
184,172,21020,1,8,0:0:0:0:
369,242,21186,5,8,0:0:0:0:
164,96,21353,1,8,0:0:0:0:
182,325,21520,1,4,0:3:0:0:
283,133,21686,1,10,0:0:0:0:
184,172,21853,6,0,P|145:184|131:184,3,34,2|0|8|0,0:0|0:0|0:3|0:0,0:0:0:0:
19,205,22186,2,0,P|58:217|72:217,3,34,2|0|8|0,0:0|0:0|0:3|0:0,0:0:0:0:
125,265,22520,5,2,0:0:0:0:
145,283,22603,1,0,0:0:0:0:
156,307,22686,1,8,0:3:0:0:
158,334,22770,1,0,0:0:0:0:
151,361,22853,5,8,0:3:0:0:
169,340,22936,1,0,0:0:0:0:
187,320,23020,1,0,0:0:0:0:
206,300,23103,1,0,0:0:0:0:
224,280,23186,6,0,P|276:322|354:332,1,136,6|0,0:0|3:0,0:0:0:0:
418,165,23853,1,0,3:0:0:0:
320,199,24020,1,2,0:0:0:0:
243,130,24186,1,0,3:0:0:0:
325,16,24353,6,0,L|316:89,1,68,2|0,0:0|3:0,0:0:0:0:
243,130,24686,1,2,0:0:0:0:
170,79,24853,1,0,3:0:0:0:
183,207,25020,6,0,L|92:209,1,68,2|0,0:0|3:0,0:0:0:0:
34,256,25353,1,2,0:0:0:0:
42,164,25520,1,0,3:0:0:0:
151,284,25686,6,0,L|309:280,1,136,2|0,0:0|0:0,0:0:0:0:
401,223,26186,2,0,L|426:310,1,68,2|0,3:2|0:0,0:0:0:0:
295,190,26520,2,0,L|270:277,1,68,2|0,3:2|0:0,0:0:0:0:
367,146,26853,1,0,3:0:0:0:
241,60,27020,6,0,P|197:51|160:57,1,68,2|0,0:0|0:0,0:0:0:0:
80,134,27353,1,2,0:0:0:0:
74,37,27520,1,0,3:0:0:0:
195,149,27686,2,0,B|221:221|173:221|196:284,1,136,2|0,0:0|0:0,0:0:0:0:
308,342,28186,2,0,L|383:340,1,68,0|0,3:0|0:0,0:0:0:0:
271,252,28520,5,2,3:2:0:0:
139,341,28686,2,0,L|64:339,1,68,2|0,0:0|3:0,0:0:0:0:
123,240,29020,2,0,L|191:242,1,68,2|0,0:0|3:0,0:0:0:0:
280,152,29353,2,0,L|205:150,1,68,2|0,0:0|3:0,0:0:0:0:
337,222,29686,6,0,P|370:166|329:84,1,136,2|2,0:0|0:0,0:0:0:0:
280,152,30186,1,0,3:0:0:0:
305,299,30353,2,0,P|369:299|420:223,1,136,2|0,0:0|0:0,0:0:0:0:
444,151,30853,1,2,3:2:0:0:
502,218,31020,1,0,0:0:0:0:
488,58,31186,6,0,B|424:32|425:104|328:60,1,136,2|0,3:2|3:2,0:0:0:0:
228,41,31686,1,0,0:0:0:0:
228,41,31853,2,0,B|248:89|248:89|229:174,1,136,2|0,3:2|3:0,0:0:0:0:
123,246,32353,5,0,0:0:0:0:
165,100,32520,1,6,0:0:0:0:
77,125,32686,1,2,0:0:0:0:
229,170,32853,1,0,3:0:0:0:
99,250,33020,2,0,P|58:239|29:212,1,68,8|0,0:3|0:0,0:0:0:0:
191,250,33353,1,8,0:0:0:0:
191,250,33436,1,8,0:0:0:0:
191,250,33520,2,0,L|203:302,1,34,8|0,0:0|0:0,0:0:0:0:
278,354,33686,2,0,L|290:302,1,34,0|0,3:0|3:0,0:0:0:0:
369,223,33853,6,0,P|380:172|352:125,1,85,6|0,3:2|0:0,0:0:0:0:
229,89,34186,2,0,P|216:129|228:169,1,85,8|0,0:0|0:0,0:0:0:0:
291,29,34520,1,2,3:2:0:0:
151,46,34686,1,8,0:0:0:0:
296,127,34853,1,0,3:0:0:0:
109,183,35020,6,0,B|88:237|88:237|122:352,1,170,6|0,3:2|3:0,0:0:0:0:
182,240,35520,1,8,0:0:0:0:
264,279,35686,2,0,P|238:313|198:329,1,85,2|0,0:0|3:0,0:0:0:0:
236,181,36020,1,8,0:0:0:0:
267,170,36103,1,8,0:0:0:0:
301,173,36186,1,8,0:0:0:0:
330,190,36270,1,8,0:3:0:0:
350,217,36353,1,8,0:3:0:0:
471,97,36520,6,0,L|437:249,1,127.5,6|0,0:0|0:0,0:0:0:0:
434,233,36853,2,0,L|390:139,1,85,10|0,0:0|0:0,0:0:0:0:
274,50,37186,1,2,3:2:0:0:
267,170,37353,1,0,3:0:0:0:
378,53,37520,1,8,0:0:0:0:
196,115,37686,6,0,P|106:100|80:9,1,170,6|0,3:2|0:0,0:0:0:0:
247,44,38186,2,0,P|279:129|213:197,1,170,8|2,0:0|3:2,0:0:0:0:
148,235,38686,1,0,3:0:0:0:
273,271,38853,1,10,0:0:0:0:
184,318,39020,1,0,3:0:0:0:
376,362,39186,6,0,L|433:179,1,170,6|8,3:2|0:0,0:0:0:0:
344,78,39686,2,0,L|359:171,1,85,2|0,0:0|3:0,0:0:0:0:
388,15,40020,1,0,3:0:0:0:
274,103,40186,1,8,0:0:0:0:
490,159,40353,6,0,P|434:116|353:179,1,170,2|0,3:2|3:0,0:0:0:0:
296,283,40853,1,8,0:0:0:0:
265,203,41020,2,0,L|296:283,1,85,2|0,0:0|3:0,0:0:0:0:
172,367,41353,1,8,0:0:0:0:
172,367,41436,1,8,0:0:0:0:
172,367,41520,2,0,P|116:344|90:346,1,85,8|0,0:0|0:0,0:0:0:0:
73,353,41770,1,8,0:0:0:0:
73,353,41853,6,0,L|48:189,1,127.5,4|0,0:3|0:0,0:0:0:0:
33,200,42186,1,8,0:3:0:0:
175,285,42353,2,0,L|220:107,1,170,4|0,0:1|0:0,0:0:0:0:
399,192,42853,2,0,P|334:163|266:224,1,170,10|0,0:0|0:0,0:0:0:0:
360,325,43353,6,0,L|342:237,2,68,0|0|0,3:0|0:0|0:0,0:0:0:0:
468,237,43853,1,8,0:3:0:0:
478,217,43936,1,0,0:0:0:0:
489,198,44020,1,0,0:0:0:0:
392,73,44186,2,0,P|369:95|361:112,1,34,8|0,0:3|0:0,0:0:0:0:
298,46,44353,2,0,P|285:81|283:101,1,34,8|0,0:3|0:0,0:0:0:0:
201,26,44520,6,0,P|161:56|158:133,1,118.999996368408,6|2,0:0|3:2,0:0:0:0:
254,188,45020,2,0,L|180:195,1,59.4999981842042,2|8,0:0|0:0,0:0:0:0:
101,250,45353,2,0,L|27:243,1,59.4999981842042,2|0,3:2|0:0,0:0:0:0:
148,322,45686,2,0,P|173:292|180:263,1,59.4999981842042,2|0,3:2|0:0,0:0:0:0:
101,250,46020,2,0,P|76:220|69:191,1,59.4999981842042,2|0,3:2|0:0,0:0:0:0:
104,96,46353,2,0,L|187:72,2,59.4999981842042,2|8|0,3:2|0:0|3:0,0:0:0:0:
293,20,47020,5,0,3:0:0:0:
293,20,47186,2,0,P|263:73|299:129,1,118.999996368408,2|0,3:2|3:0,0:0:0:0:
364,177,47686,1,0,0:0:0:0:
256,233,47853,2,0,L|170:235,1,59.4999981842042,8|0,0:0|3:0,0:0:0:0:
270,313,48186,1,2,0:0:0:0:
121,294,48353,6,0,P|99:246|121:178,1,118.999996368408,2|8,3:2|0:0,0:0:0:0:
183,90,48853,1,8,0:3:0:0:
230,164,49020,1,0,3:0:0:0:
99,90,49186,1,8,0:3:0:0:
180,9,49353,1,0,0:3:0:0:
115,184,49520,1,8,0:3:0:0:
22,129,49686,1,8,0:0:0:0:
107,285,49853,6,0,B|152:294|152:294|250:260,1,136,6|0,0:0|3:0,0:0:0:0:
302,172,50353,2,0,L|289:83,1,68,2|0,0:0|3:0,0:0:0:0:
320,250,50686,1,2,0:0:0:0:
225,186,50853,1,0,3:0:0:0:
292,104,51020,1,2,0:0:0:0:
139,184,51186,6,0,P|58:172|-5:120,1,152.999995330811,10|0,0:0|3:0,0:0:0:0:
61,1,51686,1,2,0:0:0:0:
99,97,51853,1,0,3:0:0:0:
210,11,52020,1,0,0:0:0:0:
271,157,52186,2,0,P|231:125|200:121,1,76.4999976654053,2|0,3:2|0:0,0:0:0:0:
305,277,52520,5,14,0:0:0:0:
377,113,52686,1,8,3:0:0:0:
195,204,52853,1,8,0:3:0:0:
394,297,53020,1,8,0:3:0:0:
271,157,53186,1,8,0:3:0:0:
239,361,53353,1,8,0:0:0:0:
340,201,53520,1,8,0:0:0:0:
207,120,53686,1,8,0:0:0:0:
332,363,53853,5,10,0:0:0:0:
441,166,54020,1,8,0:0:0:0:
254,337,54186,5,8,0:0:0:0:
308,118,54353,1,8,0:0:0:0:
170,337,54520,5,10,3:2:0:0:
165,111,54687,1,8,0:0:0:0:
95,363,54853,5,10,0:0:0:0:
31,145,55020,1,8,0:0:0:0:
307,229,55186,5,14,3:2:0:0:
78,250,55353,1,8,0:0:0:0:
78,250,55436,1,8,0:0:0:0:
78,250,55520,1,10,0:0:0:0:
235,168,55686,1,8,0:0:0:0:
235,168,55770,1,8,0:0:0:0:
235,168,55853,1,10,0:0:0:0:
91,46,56020,5,8,0:0:0:0:
88,79,56103,1,8,0:0:0:0:
85,113,56186,1,8,0:0:0:0:
83,147,56270,1,8,0:0:0:0:
80,181,56353,1,8,0:0:0:0:
77,215,56436,1,8,0:0:0:0:
75,249,56520,6,0,P|126:233|185:259,1,118.999996368408,6|0,0:0|0:0,0:0:0:0:
252,216,57020,6,0,L|233:112,1,101.999996887207,2|0,0:0|0:0,0:0:0:0:
164,77,57520,6,0,B|251:125|317:63|317:63|316:182|422:197,1,340,2|8,0:0|0:1,0:0:0:0:
146,302,59186,6,0,P|195:275|287:332,1,152.999995330811,6|0,0:0|0:0,0:0:0:0:
309,332,59520,2,0,L|304:224,1,101.999996887207,8|0,0:0|0:0,0:0:0:0:
219,45,59853,1,0,3:0:0:0:
211,186,60020,1,0,0:0:0:0:
211,186,60103,1,0,0:0:0:0:
211,186,60186,1,10,0:0:0:0:
302,19,60353,1,0,3:0:0:0:
101,76,60520,6,0,L|114:290,1,203.999993774414,2|8,0:0|0:0,0:0:0:0:
255,367,61020,1,0,3:0:0:0:
255,367,61103,1,8,0:0:0:0:
255,367,61186,1,0,3:0:0:0:
195,186,61353,2,0,L|200:288,1,101.999996887207,2|8,3:2|0:0,0:0:0:0:
106,160,61686,1,0,0:0:0:0:
281,73,61853,6,0,P|347:61|416:132,1,152.999995330811,4|0,3:2|0:0,0:0:0:0:
428,146,62186,2,0,L|406:258,1,101.999996887207,10|0,0:0|0:0,0:0:0:0:
285,329,62520,2,0,L|307:217,1,101.999996887207,2|0,3:2|0:0,0:0:0:0:
348,374,62853,1,8,0:0:0:0:
232,198,63020,6,0,P|151:181|91:281,1,203.999993774414,2|0,0:0|3:0,0:0:0:0:
286,266,63520,1,8,0:0:0:0:
260,117,63686,1,0,3:0:0:0:
260,117,63770,1,8,0:0:0:0:
260,117,63853,1,0,3:0:0:0:
173,255,64020,1,0,0:0:0:0:
150,69,64186,1,8,0:0:0:0:
232,198,64353,1,0,3:0:0:0:
361,18,64520,6,0,B|385:75|385:75|373:137|373:137|398:220,1,203.999993774414,6|8,0:0|0:0,0:0:0:0:
395,212,64936,1,0,0:0:0:0:
395,212,65020,1,2,0:0:0:0:
300,86,65186,1,0,3:0:0:0:
284,219,65353,1,0,3:0:0:0:
459,135,65520,2,0,L|491:238,1,101.999996887207,10|0,0:0|3:0,0:0:0:0:
353,369,65853,5,2,0:0:0:0:
465,326,66020,1,0,3:0:0:0:
292,301,66186,1,8,0:0:0:0:
489,232,66353,1,0,3:0:0:0:
489,232,66436,1,8,0:0:0:0:
489,232,66520,2,0,P|445:193|398:185,1,101.999996887207,2|0,3:2|0:0,0:0:0:0:
279,184,66853,2,0,L|208:211,1,50.9999984436036,8|0,0:0|0:0,0:0:0:0:
334,70,67020,2,0,L|393:90,1,50.9999984436036,8|8,0:0|0:0,0:0:0:0:
208,99,67186,6,0,B|167:115|130:104|130:104|145:213|61:244,1,237.999992736817,6|0,0:0|3:0,0:0:0:0:
279,184,67686,2,0,P|377:236|325:356,1,237.999992736817,12|0,0:0|3:0,0:0:0:0:
442,156,68186,1,6,0:0:0:0:
285,273,68353,1,8,0:3:0:0:
509,270,68520,1,8,0:3:0:0:
348,108,68686,5,8,0:3:0:0:
344,144,68770,1,8,0:3:0:0:
340,180,68853,1,8,0:0:0:0:
203,108,69020,5,8,0:0:0:0:
207,144,69104,1,8,0:0:0:0:
211,180,69187,1,8,0:0:0:0:
269,33,69353,5,8,0:0:0:0:
240,11,69436,1,8,0:0:0:0:
206,2,69520,1,8,0:0:0:0:
171,7,69603,1,8,0:0:0:0:
140,24,69686,1,8,0:0:0:0:
118,52,69770,1,8,0:0:0:0:
108,86,69853,6,0,B|89:153|89:153|94:234|182:269,2,203.999993774414,6|8|0,0:0|0:0|3:0,0:0:0:0:
235,8,70686,1,0,3:0:0:0:
359,141,70853,2,0,P|304:127|258:146,1,101.999996887207,8|0,0:0|0:0,0:0:0:0:
313,367,71186,6,0,L|314:246,1,101.999996887207,6|0,0:0|0:0,0:0:0:0:
170,160,71520,1,8,0:0:0:0:
223,314,71686,1,0,0:0:0:0:
223,314,71770,1,0,0:0:0:0:
223,314,71853,1,0,3:0:0:0:
263,142,72020,1,2,0:0:0:0:
115,270,72186,2,0,L|7:265,1,101.999996887207,8|2,0:0|0:0,0:0:0:0:
54,20,72520,6,0,P|98:82|46:156,1,152.999995330811,0|0,3:0|0:0,0:0:0:0:
49,180,72853,2,0,P|90:164|154:189,1,101.999996887207,10|0,0:0|0:0,0:0:0:0:
318,283,73186,2,0,P|359:299|423:274,1,101.999996887207,2|0,3:2|3:0,0:0:0:0:
243,229,73520,1,8,0:0:0:0:
461,356,73686,6,0,B|496:296|496:296|452:162,1,203.999993774414,14|0,0:0|3:0,0:0:0:0:
328,20,74186,1,8,0:0:0:0:
417,67,74353,2,0,P|377:110|331:119,1,101.999996887207,8|2,0:0|0:0,0:0:0:0:
183,104,74686,1,0,3:0:0:0:
183,104,74770,1,0,3:0:0:0:
183,104,74853,1,8,0:0:0:0:
218,132,74936,1,8,0:0:0:0:
233,176,75020,1,8,0:0:0:0:
231,221,75103,1,8,0:0:0:0:
201,256,75186,5,6,0:0:0:0:
308,111,75353,1,0,3:0:0:0:
141,186,75520,1,8,0:0:0:0:
255,337,75686,1,0,3:0:0:0:
226,120,75853,5,10,0:0:0:0:
349,263,76020,1,0,3:0:0:0:
318,34,76186,1,8,0:0:0:0:
240,207,76353,1,0,3:0:0:0:
445,58,76520,5,10,0:0:0:0:
349,263,76686,1,0,3:0:0:0:
226,120,76853,1,10,0:0:0:0:
442,181,77020,1,0,3:0:0:0:
176,265,77186,5,8,0:0:0:0:
326,171,77353,1,0,3:0:0:0:
309,376,77520,1,10,0:0:0:0:
240,207,77686,1,0,3:0:0:0:
65,365,77853,6,0,P|35:318|36:261,1,101.999996887207,10|0,0:0|0:0,0:0:0:0:
49,246,78103,1,0,0:0:0:0:
49,246,78186,2,0,P|79:199|78:142,1,101.999996887207,8|0,0:0|3:0,0:0:0:0:
144,315,78520,1,10,0:0:0:0:
176,139,78686,1,0,0:0:0:0:
176,139,78770,1,0,0:0:0:0:
176,139,78853,1,8,0:0:0:0:
218,233,79020,1,0,3:0:0:0:
253,39,79186,5,10,0:0:0:0:
82,56,79353,1,0,3:0:0:0:
264,129,79520,1,8,0:0:0:0:
64,144,79686,2,0,P|14:108|0:66,1,101.999996887207,0|8,3:0|0:0,0:0:0:0:
150,98,80020,2,0,L|137:208,1,101.999996887207,2|8,3:2|0:0,0:0:0:0:
177,319,80353,1,0,3:0:0:0:
247,170,80520,5,10,0:0:0:0:
310,242,80686,2,0,P|348:235|384:209,2,50.9999984436036,2|0|0,3:2|0:0|0:0,0:0:0:0:
374,140,81020,2,0,P|425:163|446:209,1,101.999996887207,8|0,0:0|0:0,0:0:0:0:
424,330,81353,5,0,3:0:0:0:
358,229,81520,1,8,0:0:0:0:
339,316,81686,2,0,L|229:319,1,101.999996887207,2|0,3:2|0:0,0:0:0:0:
128,273,82020,5,8,0:0:0:0:
226,209,82186,1,0,3:0:0:0:
148,191,82353,2,0,L|245:183,1,85,4|0,0:3|0:0,0:0:0:0:
320,141,82686,5,8,0:3:0:0:
247,97,82853,1,8,0:3:0:0:
320,56,83020,1,8,0:3:0:0:
379,203,83186,6,0,L|335:351,1,136,6|0,0:0|0:0,0:0:0:0:
202,354,83686,2,0,P|168:330|157:317,2,34,8|8|8,0:3|0:3|0:3,0:0:0:0:
104,167,84186,1,2,0:0:0:0:
138,254,84353,1,8,0:3:0:0:
138,254,84436,1,8,0:3:0:0:
138,254,84520,6,0,P|159:232|194:219,1,59.4999981842042,4|8,0:3|0:3,0:0:0:0:
229,218,84770,1,0,0:0:0:0:
229,218,84853,2,0,L|237:257,3,29.7499990921021
285,321,85186,1,8,0:0:0:0:
487,180,85520,5,8,0:3:0:0:
418,227,85686,1,8,0:3:0:0:
313,163,85853,6,0,P|277:97|328:28,1,152.999995330811,6|0,0:0|0:0,0:0:0:0:
206,56,86353,2,0,L|117:55,1,76.4999976654053,2|0,0:0|0:0,0:0:0:0:
10,109,86686,1,8,0:3:0:0:
93,172,86853,1,0,0:0:0:0:
25,282,87020,6,0,P|6:246|16:196,1,76.4999976654053,2|0,3:2|0:0,0:0:0:0:
80,343,87353,2,0,L|240:342,1,152.999995330811,2|0,3:2|0:0,0:0:0:0:
311,263,87853,2,0,P|325:226|317:181,1,76.4999976654053,2|0,3:2|0:0,0:0:0:0:
227,87,88186,1,8,0:3:0:0:
250,212,88353,1,2,0:0:0:0:
380,103,88520,6,0,L|214:86,1,152.999995330811,12|0,0:0|0:0,0:0:0:0:
105,156,89020,1,2,0:0:0:0:
136,66,89186,1,2,0:0:0:0:
199,180,89353,2,0,L|175:270,1,76.4999976654053,8|0,0:3|0:0,0:0:0:0:
329,321,89686,6,0,P|275:299|197:358,1,152.999995330811,2|8,3:2|0:3,0:0:0:0:
73,361,90186,2,0,L|38:289,1,76.4999976654053,0|2,0:0|0:0,0:0:0:0:
5,152,90520,1,8,0:3:0:0:
106,259,90686,1,2,0:0:0:0:
110,91,90853,1,8,0:0:0:0:
110,91,90936,1,0,3:0:0:0:
110,91,91020,1,8,0:0:0:0:
110,91,91103,1,8,0:0:0:0:
110,91,91186,6,0,P|145:61|192:62,1,76.4999976654053,4|0,0:1|3:2,0:0:0:0:
232,141,91520,1,0,3:2:0:0:
314,35,91686,2,0,P|353:27|401:39,1,76.4999976654053,2|8,0:0|0:3,0:0:0:0:
454,97,92020,1,2,0:0:0:0:
374,136,92186,1,8,0:3:0:0:
484,224,92353,1,0,1:0:0:0:
484,224,92436,1,0,1:0:0:0:
484,224,92520,6,0,L|311:247,1,152.999995330811,6|8,0:3|0:3,0:0:0:0:
194,268,93020,1,8,0:3:0:0:
194,268,93103,1,8,3:0:0:0:
194,268,93186,1,8,0:3:0:0:
259,335,93353,1,8,0:0:0:0:
233,352,93436,1,8,0:0:0:0:
204,360,93520,1,8,0:0:0:0:
174,359,93603,1,8,0:0:0:0:
145,348,93686,1,8,0:0:0:0:
121,329,93770,1,8,0:0:0:0:
105,303,93853,5,6,0:3:0:0:
171,178,94020,1,0,0:3:0:0:
311,199,94186,5,0,0:3:0:0:
245,74,94353,1,10,0:0:0:0:
231,256,94520,5,8,0:3:0:0:
312,119,94687,1,10,0:0:0:0:
410,201,94853,5,4,0:3:0:0:
171,178,95020,1,4,0:1:0:0:
449,53,95353,6,0,P|440:81|440:117,2,38.2499988327027,2|0|0,0:0|0:0|0:0,0:0:0:0:
506,154,95686,1,2,0:0:0:0:
501,174,95770,1,0,0:0:0:0:
497,194,95853,1,0,0:0:0:0:
397,295,96020,5,0,0:0:0:0:
370,280,96103,1,0,0:0:0:0:
339,281,96186,1,0,0:0:0:0:
310,292,96270,1,0,0:0:0:0:
296,319,96353,5,0,0:0:0:0:
273,314,96436,1,0,0:0:0:0:
262,293,96520,5,6,0:0:0:0:
249,33,107186,6,0,L|210:182,1,136,6|0,3:2|3:0,0:0:0:0:
33,37,107853,2,0,L|56:101,1,68,0|0,3:0|0:0,0:0:0:0:
131,154,108186,2,0,L|108:218,1,68,0|2,3:0|0:0,0:0:0:0:
158,312,108520,6,0,B|230:283|225:334|297:304,2,136,0|0|0,3:2|3:0|3:0,0:0:0:0:
85,362,109353,1,0,0:0:0:0:
38,268,109520,2,0,L|23:187,1,68,2|0,3:2|0:0,0:0:0:0:
87,78,109853,6,0,B|121:51|121:51|244:62,1,136,6|0,3:2|3:0,0:0:0:0:
283,119,110353,2,0,L|315:53,1,68,2|0,0:0|3:0,0:0:0:0:
212,167,110686,2,0,L|366:168,1,136,2|0,0:0|0:0,0:0:0:0:
437,258,111186,6,0,P|449:225|442:188,1,68,2|0,3:2|0:0,0:0:0:0:
501,327,111520,1,0,3:0:0:0:
501,327,111686,2,0,P|456:301|374:338,1,136,2|0,0:0|0:0,0:0:0:0:
310,376,112186,1,0,3:0:0:0:
245,317,112353,1,0,0:0:0:0:
125,382,112520,6,0,L|88:236,1,136,6|0,3:2|3:0,0:0:0:0:
141,142,113020,2,0,L|174:273,1,136,2|0,0:0|0:0,0:0:0:0:
238,174,113520,1,0,3:0:0:0:
321,229,113686,6,0,P|350:208|364:174,1,68,2|0,0:0|3:0,0:0:0:0:
364,88,114020,1,0,0:0:0:0:
302,24,114186,1,0,3:0:0:0:
190,85,114353,2,0,B|131:63|120:106|48:73,1,136,2|0,0:0|0:0,0:0:0:0:
157,156,114853,1,0,3:0:0:0:
67,196,115020,1,0,0:0:0:0:
233,247,115186,6,0,L|324:231,1,68,6|0,3:2|0:0,0:0:0:0:
119,319,115520,2,0,L|210:335,1,68,2|8,3:2|0:3,0:0:0:0:
358,309,115853,2,0,P|388:271|390:229,1,76.4999976654053,6|0,3:2|0:0,0:0:0:0:
208,90,116186,2,0,P|137:88|69:140,1,152.999995330811,6|2,3:2|0:0,0:0:0:0:
143,270,116686,5,8,3:2:0:0:
157,168,116853,1,8,0:0:0:0:
59,292,117020,1,8,0:0:0:0:
227,233,117186,1,8,0:0:0:0:
70,206,117353,1,8,0:0:0:0:
231,312,117520,1,8,0:0:0:0:
210,93,117686,1,8,0:0:0:0:
210,93,117770,1,8,0:0:0:0:
210,93,117853,6,0,L|197:181,1,85,6|0,0:0|0:0,0:0:0:0:
130,38,118186,1,8,0:0:0:0:
441,66,118686,6,0,P|395:95|359:100,1,85,8|0,0:0|0:0,0:0:0:0:
210,93,119020,1,8,0:0:0:0:
403,218,119353,5,0,3:0:0:0:
256,309,119520,1,8,0:0:0:0:
351,303,119686,1,0,3:0:0:0:
176,246,119853,1,0,3:0:0:0:
325,229,120020,1,8,0:0:0:0:
155,332,120186,1,8,0:0:0:0:
155,332,120270,1,8,0:0:0:0:
155,332,120353,1,8,0:0:0:0:
296,145,120520,5,8,0:0:0:0:
443,340,120853,1,8,0:0:0:0:
471,51,121353,5,8,0:0:0:0:
324,246,121686,1,8,0:0:0:0:
20,361,122020,5,8,0:0:0:0:
97,273,122186,1,8,0:0:0:0:
195,357,122353,1,8,0:3:0:0:
223,182,122520,1,8,0:3:0:0:
223,182,122603,1,8,0:3:0:0:
223,182,122686,1,8,0:3:0:0:
97,273,122853,1,8,0:3:0:0:
121,80,123020,1,8,0:0:0:0:
121,80,123103,1,8,0:0:0:0:
121,80,123186,6,0,P|175:39|281:72,1,170,6|0,0:0|0:0,0:0:0:0:
324,128,123686,2,0,L|289:275,1,136,2|0,0:0|0:0,0:0:0:0:
306,348,124186,1,0,0:0:0:0:
372,289,124353,1,0,3:0:0:0:
207,259,124520,1,8,0:0:0:0:
427,95,125020,6,0,P|397:57|366:44,2,68,2|0|0,0:0|0:0|0:0,0:0:0:0:
350,121,125520,2,0,L|273:119,1,68,2|0,0:0|0:0,0:0:0:0:
115,126,125853,6,0,L|148:212,1,85,6|0,3:2|0:0,0:0:0:0:
282,119,126186,2,0,L|249:205,1,85,0|0,3:0|0:0,0:0:0:0:
170,43,126520,1,0,3:0:0:0:
115,115,126686,1,0,0:0:0:0:
39,7,126853,1,0,3:0:0:0:
7,94,127020,1,0,0:0:0:0:
147,232,127186,5,6,3:2:0:0:
115,115,127353,1,0,3:0:0:0:
74,279,127520,1,2,3:2:0:0:
192,155,127686,1,0,3:0:0:0:
209,357,127853,1,2,3:2:0:0:
147,232,128020,1,0,3:0:0:0:
349,252,128186,2,0,L|246:276,1,85,2|0,3:2|0:0,0:0:0:0:
466,302,128520,5,6,0:0:0:0:
357,163,128686,1,0,3:0:0:0:
357,163,128770,1,0,3:0:0:0:
357,163,128853,2,0,L|366:119,3,42.5,10|0|8|8,0:0|0:0|0:0|0:0,0:0:0:0:
264,176,129186,2,0,L|243:136,3,42.5,10|0|0|0,0:0|0:0|3:0|3:0,0:0:0:0:
189,224,129520,2,0,L|155:194,3,42.5,10|0|0|0,0:0|0:0|3:0|3:0,0:0:0:0:
140,324,129853,5,10,0:0:0:0:
172,334,129936,1,8,0:0:0:0:
206,335,130020,1,8,0:0:0:0:
238,327,130102,1,8,0:0:0:0:
268,310,130186,1,8,0:0:0:0:
292,286,130270,1,8,0:0:0:0:
308,256,130353,6,0,L|294:195,1,42.5,8|8,0:0|0:0,0:0:0:0:
167,154,130520,1,8,0:0:0:0:
167,154,130603,1,8,0:0:0:0:
167,154,130686,2,0,L|151:217,1,42.5,8|8,0:0|0:0,0:0:0:0:
302,94,130853,1,8,0:0:0:0:
302,94,130936,1,8,0:0:0:0:
302,94,131019,2,0,L|286:31,1,42.5,8|8,0:0|0:0,0:0:0:0:
226,229,131186,5,10,0:0:0:0:
364,152,131353,1,10,0:0:0:0:
120,79,131686,5,10,0:0:0:0:
258,156,131853,1,10,0:0:0:0:
64,384,132186,6,0,L|22:258,1,127.5,8|0,0:1|0:0,0:0:0:0:
30,234,132520,6,0,P|88:256|132:246,1,101.999996887207,6|0,0:0|0:0,0:0:0:0:
275,161,132853,2,0,P|333:139|377:149,1,101.999996887207,8|0,0:0|0:0,0:0:0:0:
216,226,133186,1,0,3:0:0:0:
391,294,133353,1,0,0:0:0:0:
391,294,133436,1,0,0:0:0:0:
391,294,133520,1,10,0:0:0:0:
275,327,133686,1,0,0:0:0:0:
475,207,133853,6,0,L|475:313,1,101.999996887207,2|0,3:2|0:0,0:0:0:0:
335,219,134186,1,8,0:0:0:0:
472,114,134353,1,0,3:0:0:0:
472,114,134436,1,8,0:0:0:0:
472,114,134520,1,0,3:0:0:0:
378,55,134686,1,2,0:0:0:0:
475,207,134853,1,8,0:0:0:0:
333,132,135020,2,0,P|301:122|277:121,1,50.9999984436036,2|0,0:0|0:0,0:0:0:0:
182,138,135186,6,0,P|257:157|295:246,1,152.999995330811,2|0,3:2|0:0,0:0:0:0:
293,257,135520,2,0,P|238:244|191:266,1,101.999996887207,8|0,0:0|0:0,0:0:0:0:
26,207,135853,2,0,P|81:194|128:216,1,101.999996887207,2|0,3:2|0:0,0:0:0:0:
191,337,136186,1,8,0:0:0:0:
288,110,136353,6,0,L|351:321,1,203.999993774414,2|0,0:0|3:0,0:0:0:0:
394,147,136853,1,8,0:0:0:0:
205,144,137020,1,0,3:0:0:0:
205,144,137103,1,8,0:0:0:0:
205,144,137186,1,0,3:0:0:0:
355,53,137353,1,0,3:0:0:0:
331,255,137520,1,10,0:0:0:0:
476,178,137686,1,2,3:2:0:0:
298,349,137853,6,0,B|236:368|236:368|164:342|148:251,1,203.999993774414,6|8,0:0|0:0,0:0:0:0:
154,237,138270,1,0,0:0:0:0:
154,237,138353,2,0,L|267:256,1,101.999996887207,2|0,0:0|3:0,0:0:0:0:
382,141,138686,2,0,L|269:160,1,101.999996887207,2|8,3:2|0:0,0:0:0:0:
49,94,139020,6,0,P|135:51|216:127,1,203.999993774414,2|0,0:0|0:0,0:0:0:0:
173,297,139520,1,8,0:0:0:0:
132,136,139686,1,8,0:0:0:0:
132,136,139770,1,8,0:0:0:0:
132,136,139853,2,0,P|106:184|123:246,1,101.999996887207,2|0,3:2|0:0,0:0:0:0:
242,364,140186,2,0,P|268:316|251:254,1,101.999996887207,8|8,0:0|0:0,0:0:0:0:
250,243,140436,1,8,0:0:0:0:
241,221,140520,6,0,P|312:264|420:252,1,178.499994552612,14|0,0:0|0:0,0:0:0:0:
436,243,140853,1,2,0:0:0:0:
241,133,141020,2,0,P|312:90|420:102,1,178.499994552612,14|0,0:0|0:0,0:0:0:0:
438,123,141353,1,8,0:0:0:0:
236,31,141520,1,8,0:0:0:0:
340,183,141686,1,8,0:3:0:0:
165,108,141853,1,8,0:3:0:0:
383,33,142020,5,8,0:3:0:0:
383,33,142103,1,8,0:3:0:0:
383,33,142186,2,0,L|440:51,1,50.9999984436036,8|0,0:0|0:0,0:0:0:0:
482,167,142353,5,8,0:0:0:0:
482,167,142436,1,8,0:0:0:0:
482,167,142519,2,0,L|425:185,1,50.9999984436036,8|0,0:0|0:0,0:0:0:0:
327,245,142686,5,8,0:0:0:0:
293,234,142770,1,8,0:0:0:0:
257,233,142853,1,8,0:0:0:0:
223,244,142936,1,8,0:0:0:0:
189,256,143020,1,8,0:0:0:0:
154,260,143103,1,8,0:0:0:0:
119,254,143186,6,0,P|100:201|123:145,1,101.999996887207,6|0,0:0|0:0,0:0:0:0:
210,69,143520,1,8,0:0:0:0:
327,245,143686,2,0,P|345:192|322:136,1,101.999996887207,2|0,0:0|3:0,0:0:0:0:
255,322,144020,1,2,0:0:0:0:
257,193,144186,1,8,0:0:0:0:
429,335,144353,6,0,L|322:328,1,101.999996887207,6|0,0:0|3:0,0:0:0:0:
428,238,144686,2,0,L|327:245,1,101.999996887207,2|8,0:0|0:0,0:0:0:0:
155,199,145020,2,0,L|262:192,1,101.999996887207,2|0,0:0|3:0,0:0:0:0:
156,102,145353,2,0,L|257:108,1,101.999996887207,2|8,0:0|0:0,0:0:0:0:
93,152,145686,1,0,0:0:0:0:
291,32,145853,6,0,P|335:63|320:170,1,152.999995330811,6|0,0:0|0:0,0:0:0:0:
312,185,146186,2,0,P|349:229|348:288,1,101.999996887207,8|0,0:0|0:0,0:0:0:0:
358,314,146436,1,8,0:0:0:0:
358,314,146520,2,0,L|463:306,1,101.999996887207,8|0,0:3|0:0,0:0:0:0:
349,109,146853,1,12,0:0:0:0:
294,245,147020,6,0,P|230:243|117:156,1,203.999993774414,2|0,3:2|3:0,0:0:0:0:
256,10,147520,1,8,0:0:0:0:
234,151,147686,1,8,0:0:0:0:
30,97,147853,6,0,P|67:84|91:85,1,50.9999984436036,8|8,0:0|0:0,0:0:0:0:
235,122,148020,2,0,P|198:109|174:110,1,50.9999984436036,8|8,0:0|0:0,0:0:0:0:
108,174,148186,5,8,0:0:0:0:
111,219,148270,1,8,0:0:0:0:
115,265,148353,1,8,0:0:0:0:
118,311,148436,1,8,0:0:0:0:
122,357,148519,5,14,0:2:0:0:
20,201,148686,2,0,L|42:252,1,50.9999984436036,0|0,3:0|3:0,0:0:0:0:
191,258,148853,1,8,0:0:0:0:
88,102,149020,1,0,3:0:0:0:
118,311,149186,5,10,0:0:0:0:
246,125,149353,1,0,3:0:0:0:
95,239,149520,1,8,0:0:0:0:
328,150,149686,1,0,3:0:0:0:
140,20,149853,5,10,0:0:0:0:
191,215,150020,1,0,3:0:0:0:
191,215,150103,1,0,3:0:0:0:
191,215,150186,1,8,0:0:0:0:
303,76,150353,1,0,3:0:0:0:
353,283,150520,5,10,0:0:0:0:
235,138,150686,1,0,3:0:0:0:
432,221,150853,1,8,0:0:0:0:
272,332,151020,1,0,3:0:0:0:
394,121,151186,6,0,P|442:94|502:93,1,101.999996887207,10|0,0:0|3:0,0:0:0:0:
327,198,151520,1,8,0:0:0:0:
187,53,151686,2,0,P|139:26|79:25,1,101.999996887207,2|8,0:0|0:0,0:0:0:0:
146,149,152020,1,0,3:0:0:0:
283,37,152186,1,8,0:0:0:0:
341,235,152353,1,0,3:0:0:0:
341,235,152436,1,0,3:0:0:0:
341,235,152520,5,10,0:0:0:0:
245,135,152686,1,2,3:2:0:0:
422,214,152853,1,8,0:0:0:0:
233,300,153020,2,0,P|176:294|121:266,1,101.999996887207,2|8,3:2|0:0,0:0:0:0:
80,121,153353,5,0,3:0:0:0:
80,121,153436,1,0,3:0:0:0:
80,121,153520,2,0,L|54:193,1,50.9999984436036,8|0,0:0|0:0,0:0:0:0:
165,60,153686,2,0,L|191:132,1,50.9999984436036,0|0,3:0|0:0,0:0:0:0:
288,221,153853,5,6,0:0:0:0:
366,159,154020,2,0,P|398:145|425:145,2,50.9999984436036,0|0|0,3:2|3:0|3:0,0:0:0:0:
465,270,154353,2,0,L|484:166,1,101.999996887207,8|0,0:0|0:0,0:0:0:0:
511,62,154686,5,2,3:2:0:0:
413,143,154853,1,8,0:0:0:0:
345,73,155020,2,0,P|300:44|239:44,1,101.999996887207,2|8,3:2|0:0,0:0:0:0:
127,108,155353,5,8,0:0:0:0:
163,35,155520,1,8,0:3:0:0:
246,159,155686,2,0,L|297:243,1,85,8|0,0:3|0:0,0:0:0:0:
234,335,156020,1,8,0:3:0:0:
192,237,156186,1,8,0:3:0:0:
114,289,156353,1,8,0:3:0:0:
78,142,156520,5,14,0:0:0:0:
152,79,156686,1,0,0:0:0:0:
152,79,156770,1,0,0:0:0:0:
152,79,156853,2,0,L|236:86,1,68,8|0,0:0|0:0,0:0:0:0:
289,158,157186,2,0,L|205:165,2,68,0|0|8,3:0|3:0|0:0,0:0:0:0:
401,206,157686,6,0,L|382:352,1,136,6|0,3:2|3:0,0:0:0:0:
487,243,158186,2,0,L|494:175,1,68,8|0,0:0|0:0,0:0:0:0:
444,69,158520,5,8,0:0:0:0:
418,58,158603,1,8,0:0:0:0:
391,57,158686,1,8,0:0:0:0:
366,65,158770,1,8,0:0:0:0:
344,81,158853,1,8,0:0:0:0:
318,91,158936,1,8,0:0:0:0:
291,92,159019,1,8,0:0:0:0:
266,84,159103,1,8,0:0:0:0:
251,66,159186,5,12,0:0:0:0:
151,193,159353,1,8,0:0:0:0:
366,65,159686,5,10,0:0:0:0:
466,192,159853,1,10,0:0:0:0:
151,193,160186,5,8,0:0:0:0:
51,320,160353,1,8,0:0:0:0:
347,168,160686,5,8,0:0:0:0:
447,295,160853,1,8,0:0:0:0:
474,52,161186,5,10,0:0:0:0:
350,268,161520,1,8,0:0:0:0:
281,189,161686,6,0,B|205:157|209:217|124:177,1,152.999995330811,6|0,0:0|0:0,0:0:0:0:
158,35,162186,2,0,L|177:120,1,76.4999976654053,8|0,0:0|0:0,0:0:0:0:
53,184,162520,2,0,L|34:269,1,76.4999976654053,0|0,3:0|0:0,0:0:0:0:
147,380,162853,1,8,0:0:0:0:
211,318,163020,1,2,3:2:0:0:
211,318,163103,1,2,3:2:0:0:
211,318,163186,6,0,P|266:305|301:323,1,76.4999976654053,2|0,3:2|3:0,0:0:0:0:
372,384,163520,1,8,0:0:0:0:
432,246,163686,1,8,0:0:0:0:
432,246,163770,1,8,0:0:0:0:
432,246,163853,2,0,L|419:144,1,76.4999976654053,2|0,3:2|0:0,0:0:0:0:
325,113,164186,2,0,L|334:188,1,76.4999976654053,8|0,0:0|0:0,0:0:0:0:
372,30,164520,6,0,P|304:8|245:64,1,152.999995330811,2|8,3:2|0:0,0:0:0:0:
176,133,165020,2,0,L|6:118,1,152.999995330811,2|0,0:0|3:0,0:0:0:0:
58,217,165520,2,0,P|106:247|126:276,1,76.4999976654053,10|0,0:0|0:0,0:0:0:0:
267,312,165853,6,0,L|175:315,1,76.4999976654053,2|0,0:0|3:0,0:0:0:0:
77,372,166186,1,8,0:0:0:0:
7,299,166353,1,0,3:0:0:0:
7,299,166436,1,8,0:0:0:0:
7,299,166520,1,2,3:2:0:0:
61,224,166686,1,0,3:0:0:0:
0,121,166853,1,8,0:0:0:0:
154,191,167020,1,8,0:0:0:0:
154,191,167103,1,8,0:0:0:0:
154,191,167186,6,0,P|205:194|311:136,1,152.999995330811,6|8,3:2|0:0,0:0:0:0:
512,146,167853,2,0,P|461:149|428:171,1,76.4999976654053,0|0,3:0|0:0,0:0:0:0:
367,254,168186,2,0,P|316:251|283:229,1,76.4999976654053,8|0,0:0|3:0,0:0:0:0:
277,30,168520,6,0,P|324:84|272:162,1,152.999995330811,2|8,0:0|0:0,0:0:0:0:
100,174,169020,1,0,3:0:0:0:
100,174,169103,1,8,0:0:0:0:
100,174,169186,1,2,3:2:0:0:
210,237,169353,1,2,3:2:0:0:
117,280,169520,1,8,0:0:0:0:
185,127,169686,1,2,0:0:0:0:
295,151,169853,6,0,P|346:166|453:148,1,152.999995330811,0|8,3:0|0:0,0:0:0:0:
480,4,170353,1,2,0:0:0:0:
367,86,170520,1,0,3:0:0:0:
443,152,170686,1,2,3:2:0:0:
399,4,170853,1,8,0:0:0:0:
276,169,171020,1,6,0:0:0:0:
22,32,171353,5,8,0:0:0:0:
49,152,171520,1,8,0:0:0:0:
116,15,171686,1,8,0:0:0:0:
143,135,171853,1,8,0:0:0:0:
209,2,172020,1,8,0:0:0:0:
236,122,172186,5,8,0:0:0:0:
225,158,172270,1,8,0:0:0:0:
215,195,172353,1,8,0:0:0:0:
205,232,172436,1,8,0:0:0:0:
195,269,172520,6,0,L|220:368,1,85,14|0,3:2|0:0,0:0:0:0:
357,255,172853,2,0,L|382:156,1,85,8|0,0:0|0:0,0:0:0:0:
273,23,173186,1,8,0:0:0:0:
299,172,173353,1,0,3:0:0:0:
367,0,173520,1,8,0:0:0:0:
377,172,173686,1,0,3:0:0:0:
183,70,173853,6,0,L|148:243,1,170,10|8,0:0|0:0,0:0:0:0:
100,68,174353,1,0,0:0:0:0:
264,187,174520,1,8,0:0:0:0:
264,187,174603,1,8,0:0:0:0:
264,187,174686,1,8,0:0:0:0:
88,157,174853,1,8,0:0:0:0:
271,109,175020,1,8,0:0:0:0:
271,109,175103,1,8,0:0:0:0:
271,109,175186,5,12,0:0:0:0:
41,19,175353,1,4,0:0:0:0:
455,30,176020,6,0,L|432:117,1,85,8|0,0:3|0:0,0:0:0:0:
325,137,176353,2,0,L|348:224,1,85,10|0,0:0|0:0,0:0:0:0:
447,357,176686,5,8,0:0:0:0:
316,337,176853,1,8,0:0:0:0:
466,272,177020,1,8,0:0:0:0:
272,262,177187,1,10,0:0:0:0:
476,183,177353,1,8,0:0:0:0:
221,178,177520,1,10,0:0:0:0:
221,178,177603,1,8,0:0:0:0:
221,178,177686,1,8,0:0:0:0:
464,75,177853,6,0,P|413:56|332:59,1,136,6|0,3:2|3:0,0:0:0:0:
255,93,178353,1,0,0:0:0:0:
172,54,178520,2,0,P|129:54|96:70,1,68,2|0,3:2|0:0,0:0:0:0:
54,129,178853,1,0,3:0:0:0:
183,181,179020,6,0,P|213:242|167:312,1,136,2|0,0:0|0:0,0:0:0:0:
120,239,179520,1,0,3:0:0:0:
111,373,179686,2,0,L|265:374,1,136,2|2,0:0|0:0,0:0:0:0:
325,303,180186,1,0,3:0:0:0:
392,362,180353,1,0,0:0:0:0:
463,243,180520,6,0,P|479:187|428:129,1,136,2|0,3:2|3:0,0:0:0:0:
393,201,181020,1,0,0:0:0:0:
321,122,181186,2,0,P|312:84|326:46,1,68,2|0,3:2|0:0,0:0:0:0:
390,10,181520,1,0,3:0:0:0:
433,130,181686,6,0,L|427:275,1,136,2|0,0:0|0:0,0:0:0:0:
335,279,182186,2,0,L|356:347,1,68,0|0,3:0|0:0,0:0:0:0:
251,298,182520,2,0,L|272:366,1,68,0|0,3:0|0:0,0:0:0:0:
163,312,182853,2,0,L|184:380,1,68,0|0,3:0|0:0,0:0:0:0:
72,241,183186,5,2,3:2:0:0:
58,347,183353,1,2,0:0:0:0:
62,227,183520,1,0,3:2:0:0:
163,312,183686,1,2,0:0:0:0:
141,172,183853,1,2,3:2:0:0:
349,246,184186,5,2,3:2:0:0:
363,352,184353,1,2,0:0:0:0:
439,237,184520,1,0,3:0:0:0:
357,371,184686,1,2,3:2:0:0:
269,218,184853,1,2,3:2:0:0:
348,138,185020,5,8,0:0:0:0:
348,138,185103,1,8,0:0:0:0:
348,138,185186,2,0,L|424:148,1,68,2|0,3:2|0:0,0:0:0:0:
475,64,185520,2,0,L|407:55,1,68,0|0,3:0|0:0,0:0:0:0:
275,60,185853,6,0,B|225:73|225:73|180:65|180:65|107:80,1,152.999995330811,6|0,3:2|3:0,0:0:0:0:
56,172,186353,2,0,L|27:11,1,152.999995330811,8|0,0:0|3:0,0:0:0:0:
144,162,186853,2,0,L|115:323,1,152.999995330811,10|0,0:0|0:0,0:0:0:0:
235,254,187353,2,0,L|281:247,2,38.2499988327027,0|0|0,3:0|3:0|3:0,0:0:0:0:
144,162,187686,2,0,L|98:155,2,38.2499988327027,0|0|0,3:0|3:0|3:0,0:0:0:0:
244,125,188020,1,8,0:0:0:0:
266,114,188103,1,8,0:0:0:0:
286,99,188186,2,0,L|316:64,3,38.2499988327027,8|8|8|8,0:0|0:0|0:0|0:0,0:0:0:0:
380,19,188520,6,0,L|425:209,1,170,6|0,0:0|3:0,0:0:0:0:
383,308,189020,1,0,0:0:0:0:
229,246,189186,2,0,P|265:220|315:227,1,85,2|0,3:2|0:0,0:0:0:0:
190,340,189520,1,8,3:0:0:0:
152,179,189686,1,0,0:0:0:0:
152,179,189770,1,0,0:0:0:0:
152,179,189853,6,0,L|174:20,1,127.5,6|0,0:0|0:0,0:0:0:0:
195,25,190186,2,0,L|293:48,1,85,10|0,0:0|0:0,0:0:0:0:
455,87,190520,2,0,L|357:110,1,85,10|0,0:0|0:0,0:0:0:0:
166,181,190853,2,0,L|264:204,1,85,10|0,0:0|0:0,0:0:0:0:
444,278,191186,6,0,P|400:271|353:286,1,85,6|0,3:2|0:0,0:0:0:0:
235,372,191520,1,8,0:0:0:0:
101,218,191686,1,8,0:0:0:0:
101,218,191770,1,8,0:0:0:0:
101,218,191853,1,8,0:0:0:0:
57,334,192020,1,8,0:3:0:0:
210,251,192186,1,8,0:3:0:0:
0,81,192353,5,14,0:2:0:0:
274,301,192853,5,8,0:0:0:0:
337,164,193020,1,0,3:0:0:0:
423,266,193186,1,8,0:0:0:0:
256,205,193353,1,2,3:2:0:0:
431,108,193520,1,10,0:0:0:0:
355,315,193686,1,8,0:0:0:0:
355,315,193770,1,8,0:0:0:0:
355,315,193853,6,0,P|306:315|253:283,1,85,10|0,0:0|3:0,0:0:0:0:
183,93,194186,1,2,3:2:0:0:
144,241,194353,1,2,3:2:0:0:
266,48,194520,1,8,0:0:0:0:
335,201,194686,1,10,0:0:0:0:
96,54,194853,1,8,0:0:0:0:
266,134,195020,1,10,0:0:0:0:
84,270,195186,5,8,0:0:0:0:
155,162,195353,1,10,0:0:0:0:
226,338,195520,1,8,0:0:0:0:
164,246,195686,1,8,0:0:0:0:
328,145,195853,6,0,P|364:122|384:100,2,42.5,8|0|0,0:0|0:0|0:0,0:0:0:0:
246,247,196186,1,8,3:2:0:0:
279,245,196270,1,0,0:0:0:0:
313,244,196353,1,0,0:0:0:0:
347,243,196436,1,0,0:0:0:0:
381,242,196520,6,0,B|256:226|299:352|148:320,1,254.999992218018,6|0,0:0|0:0,0:0:0:0:
84,291,197520,1,0,0:0:0:0:
32,235,197686,2,0,B|16:172|16:172|69:130|61:62|61:62|125:140|221:120,1,356.999989105225,2|0,0:0|0:0,0:0:0:0:
413,96,199186,6,0,P|349:118|339:208,1,152.999995330811,2|0,0:0|0:0,0:0:0:0:
478,338,200020,1,0,0:0:0:0:
406,334,200186,1,0,0:0:0:0:
331,330,200353,1,0,0:0:0:0:
240,373,200520,6,0,P|225:254|343:229,1,255,2|0,0:0|0:0,0:0:0:0:
77,175,201853,5,2,0:3:0:0:
39,52,212520,6,0,L|79:176,1,118.999996368408,14|0,0:0|0:0,0:0:0:0:
148,202,213020,2,0,L|163:171,2,29.7499990921021,8|8|8,3:0|3:0|3:0,0:0:0:0:
323,351,213520,2,0,L|285:279,1,59.4999981842042,2|0,0:0|3:0,0:0:0:0:
289,280,213770,1,0,3:0:0:0:
287,280,213853,6,0,P|310:246|443:249,1,178.499994552612,6|8,3:2|0:3,0:0:0:0:
376,300,214520,1,8,0:3:0:0:
347,92,214853,2,0,L|363:16,1,59.4999981842042,2|0,3:2|3:0,0:0:0:0:
359,33,215103,1,0,3:0:0:0:
359,33,215186,5,6,0:0:0:0:
167,162,215520,1,2,0:0:0:0:
238,101,215686,2,0,L|262:66,2,29.7499990921021,8|0|8,0:3|0:3|0:3,0:0:0:0:
176,52,216020,1,8,0:3:0:0:
99,54,216186,1,8,0:3:0:0:
33,142,216353,6,0,B|24:202|24:202|86:297,1,152.999995330811,6|0,0:0|3:0,0:0:0:0:
246,257,216853,1,8,0:0:0:0:
119,192,217020,1,0,3:0:0:0:
210,331,217186,1,8,0:0:0:0:
288,191,217353,1,0,3:0:0:0:
374,376,217520,1,8,0:0:0:0:
474,275,217686,1,0,3:0:0:0:
271,375,217853,6,0,P|240:351|218:320,1,76.4999976654053,6|0,0:0|0:0,0:0:0:0:
358,237,218186,2,0,P|335:267|305:291,1,76.4999976654053,8|0,0:0|0:0,0:0:0:0:
344,78,218520,5,0,3:0:0:0:
437,202,218686,1,0,3:0:0:0:
260,200,218853,1,8,0:0:0:0:
489,82,219020,1,6,0:0:0:0:
354,183,219186,5,8,0:0:0:0:
354,183,219270,1,8,0:0:0:0:
354,183,219353,1,8,0:0:0:0:
267,46,219520,1,8,0:0:0:0:
267,46,219603,1,8,0:0:0:0:
267,46,219686,1,8,0:0:0:0:
111,121,219853,5,10,0:0:0:0:
332,180,220020,1,8,0:0:0:0:
163,283,220186,1,8,0:0:0:0:
267,46,220353,1,14,0:0:0:0:
476,333,220853,6,0,B|427:300|427:300|377:370|277:335,1,203.999993774414,6|0,0:0|0:0,0:0:0:0:
178,280,221353,1,8,0:3:0:0:
346,265,221520,1,8,0:0:0:0:
177,367,221686,1,8,0:3:0:0:
177,367,221770,1,8,0:3:0:0:
177,367,221853,6,0,P|108:333|96:250,1,152.999995330811,10|0,0:0|0:0,0:0:0:0:
100,245,222186,1,10,0:0:0:0:
284,173,222353,6,0,B|330:126|330:126|374:119|374:119|422:68,1,165.749992412568,10|0,0:0|0:0,0:0:0:0:
407,67,222686,6,0,P|331:96|255:52,1,140.25000428009,10|0,0:0|0:0,0:0:0:0:
192,39,223020,6,0,L|127:271,1,237.999992736817,14|0,0:0|0:0,0:0:0:0:
286,177,223520,2,0,P|339:172|385:198,1,101.999996887207,8|0,0:0|0:0,0:0:0:0:
222,285,223853,2,0,P|169:290|123:264,1,101.999996887207,2|0,3:2|0:0,0:0:0:0:
323,255,224186,1,8,0:0:0:0:
135,363,224353,6,0,P|54:323|70:209,1,203.999993774414,2|0,0:0|0:0,0:0:0:0:
223,139,224853,1,8,0:0:0:0:
223,139,224936,1,8,0:0:0:0:
223,139,225020,1,0,3:0:0:0:
134,276,225186,1,2,0:0:0:0:
129,98,225353,1,0,3:0:0:0:
261,237,225520,2,0,L|312:229,1,50.9999984436036,8|0,0:0|0:0,0:0:0:0:
414,166,225686,2,0,L|363:158,1,50.9999984436036,0|0,3:0|0:0,0:0:0:0:
217,77,225853,6,0,L|333:54,1,101.999996887207,2|0,3:2|0:0,0:0:0:0:
224,163,226186,1,8,0:0:0:0:
150,17,226353,2,0,L|88:218,1,203.999993774414,2|0,0:0|3:0,0:0:0:0:
321,231,226853,6,0,P|247:164|164:220,1,203.999993774414,10|0,0:0|0:0,0:0:0:0:
243,247,227353,1,0,3:0:0:0:
353,133,227520,2,0,P|367:80|344:35,1,101.999996887207,8|0,0:0|3:0,0:0:0:0:
318,26,227770,1,8,0:0:0:0:
318,26,227853,2,0,L|195:34,1,101.999996887207,2|0,3:2|3:0,0:0:0:0:
42,102,228186,1,8,0:0:0:0:
253,167,228353,1,0,3:0:0:0:
253,167,228436,1,8,0:0:0:0:
253,167,228520,6,0,P|181:137|127:143,1,118.999996368408,14|0,0:0|0:0,0:0:0:0:
421,268,229020,2,0,P|368:294|310:296,1,118.999996368408,14|0,0:0|0:0,0:0:0:0:
58,207,229520,5,8,0:3:0:0:
166,318,229686,1,8,0:3:0:0:
253,167,229853,1,8,0:3:0:0:
91,292,230020,5,8,0:3:0:0:
91,292,230103,1,8,0:3:0:0:
91,292,230186,1,0,0:0:0:0:
321,263,230353,5,8,0:0:0:0:
321,263,230436,1,8,0:0:0:0:
321,263,230519,1,8,0:0:0:0:
164,171,230686,5,8,0:0:0:0:
142,143,230770,1,8,0:0:0:0:
132,109,230853,1,8,0:0:0:0:
135,73,230936,1,8,0:0:0:0:
152,42,231020,1,8,0:0:0:0:
179,19,231103,1,8,0:0:0:0:
212,8,231186,6,0,P|257:36|309:41,1,101.999996887207,6|0,0:0|0:0,0:0:0:0:
463,109,231520,2,0,P|412:114|370:141,1,101.999996887207,8|0,0:0|0:0,0:0:0:0:
204,198,231853,2,0,P|248:225|300:230,1,101.999996887207,0|0,3:0|0:0,0:0:0:0:
163,112,232186,1,8,0:0:0:0:
25,221,232353,1,0,0:0:0:0:
25,221,232436,1,0,0:0:0:0:
25,221,232520,6,0,P|69:194|121:189,1,101.999996887207,6|0,3:2|0:0,0:0:0:0:
249,311,232853,1,8,0:0:0:0:
97,275,233020,1,0,3:0:0:0:
97,275,233104,1,8,0:0:0:0:
97,275,233187,1,0,3:0:0:0:
293,232,233353,2,0,P|328:185|336:139,1,101.999996887207,2|8,0:0|0:0,0:0:0:0:
234,29,233686,1,0,0:0:0:0:
189,221,233853,5,2,3:2:0:0:
309,69,234020,2,0,P|344:68|370:76,1,50.9999984436036,8|8,0:3|0:3,0:0:0:0:
216,136,234186,2,0,L|112:103,1,101.999996887207,10|8,0:0|0:3,0:0:0:0:
87,107,234436,1,8,0:3:0:0:
87,107,234520,2,0,L|117:213,1,101.999996887207,8|8,0:0|0:3,0:0:0:0:
329,155,234853,6,0,L|274:361,1,203.999993774414,14|0,0:0|0:0,0:0:0:0:
197,264,235353,1,0,3:0:0:0:
394,211,235520,2,0,P|451:195|502:215,1,101.999996887207,8|0,0:0|3:0,0:0:0:0:
298,274,235853,1,8,0:0:0:0:
376,103,236020,1,8,0:0:0:0:
213,169,236186,1,8,0:0:0:0:
167,169,236270,1,8,0:0:0:0:
127,148,236353,1,8,0:0:0:0:
103,109,236436,1,8,0:0:0:0:
100,64,236520,5,14,3:2:0:0:
131,248,236686,1,0,3:0:0:0:
213,41,236853,1,8,0:0:0:0:
54,175,237020,1,0,3:0:0:0:
272,288,237186,5,10,0:0:0:0:
127,148,237353,1,0,3:0:0:0:
169,357,237520,1,8,0:0:0:0:
285,195,237686,1,0,3:0:0:0:
76,289,237853,5,10,0:0:0:0:
302,363,238020,1,0,3:0:0:0:
18,355,238186,1,8,0:0:0:0:
244,281,238353,1,0,3:0:0:0:
14,157,238520,5,10,0:0:0:0:
209,69,238686,1,0,3:0:0:0:
151,253,238853,1,8,0:0:0:0:
46,56,239020,1,0,3:0:0:0:
46,56,239103,1,0,3:0:0:0:
46,56,239186,6,0,P|101:28|158:39,1,101.999996887207,10|0,0:0|3:0,0:0:0:0:
278,208,239520,1,8,0:0:0:0:
388,69,239686,1,2,3:2:0:0:
368,292,239853,5,8,0:0:0:0:
269,89,240020,1,0,3:0:0:0:
216,312,240186,1,8,0:0:0:0:
366,202,240353,1,0,3:0:0:0:
110,166,240520,5,10,0:0:0:0:
292,282,240686,1,0,3:0:0:0:
304,35,240853,1,8,0:0:0:0:
217,212,241020,6,0,L|199:105,1,101.999996887207,2|8,3:2|0:0,0:0:0:0:
382,101,241353,2,0,L|366:202,1,101.999996887207,2|8,3:2|0:0,0:0:0:0:
398,288,241686,1,2,3:2:0:0:
473,106,241853,1,8,0:0:0:0:
433,27,242020,6,0,P|375:12|329:32,1,101.999996887207,0|0,3:0|0:0,0:0:0:0:
270,202,242353,2,0,P|318:216|365:200,1,101.999996887207,8|0,0:0|0:0,0:0:0:0:
209,132,242686,5,0,3:0:0:0:
295,95,242853,1,8,0:0:0:0:
160,57,243020,2,0,P|109:58|50:84,1,101.999996887207,2|8,3:2|0:0,0:0:0:0:
3,204,243353,5,8,0:0:0:0:
84,168,243520,1,0,3:0:0:0:
20,289,243686,2,0,P|46:332|98:370,1,85,8|0,0:3|0:0,0:0:0:0:
223,320,244020,5,8,0:3:0:0:
137,291,244186,1,8,0:3:0:0:
275,384,244353,1,8,0:3:0:0:
199,236,244520,6,0,P|143:207|75:232,1,136,6|0,3:2|0:0,0:0:0:0:
22,111,245020,2,0,L|7:155,2,34,8|8|8,0:3|0:3|0:3,0:0:0:0:
212,20,245520,1,2,0:0:0:0:
275,111,245686,1,8,0:3:0:0:
275,111,245770,1,8,0:3:0:0:
275,111,245853,6,0,P|318:120|397:59,1,136,8|0,0:3|0:0,0:0:0:0:
470,131,246353,2,0,L|448:182,1,34,2|0,0:0|0:0,0:0:0:0:
373,217,246520,1,0,3:0:0:0:
161,71,246853,1,2,0:0:0:0:
99,131,247020,1,0,0:0:0:0:
168,298,247186,6,0,L|174:127,1,152.999995330811,6|0,0:0|0:0,0:0:0:0:
272,59,247686,2,0,P|313:45|360:56,1,76.4999976654053,2|0,3:2|0:0,0:0:0:0:
445,121,248020,1,0,0:0:0:0:
319,122,248186,1,0,3:0:0:0:
441,202,248353,6,0,P|462:244|458:288,1,76.4999976654053,2|0,0:0|3:0,0:0:0:0:
330,278,248686,2,0,P|394:242|462:273,1,152.999995330811,2|0,0:0|0:0,0:0:0:0:
362,360,249186,2,0,L|273:355,1,76.4999976654053,0|0,3:0|0:0,0:0:0:0:
188,263,249520,1,8,0:3:0:0:
124,352,249686,1,0,0:0:0:0:
63,204,249853,6,0,L|111:34,1,152.999995330811,6|0,0:0|3:0,0:0:0:0:
157,156,250353,1,0,0:0:0:0:
233,98,250520,2,0,P|274:88|320:106,1,76.4999976654053,2|0,3:2|0:0,0:0:0:0:
353,184,250853,2,0,P|394:194|440:176,1,76.4999976654053,0|0,3:0|0:0,0:0:0:0:
468,8,251186,6,0,L|408:68,1,76.4999976654053,2|0,3:2|0:0,0:0:0:0:
306,96,251520,1,0,3:0:0:0:
211,67,251686,1,2,0:0:0:0:
147,143,251853,1,8,0:3:0:0:
176,238,252020,1,8,0:3:0:0:
52,138,252186,2,0,L|25:190,1,38.2499988327027,8|0,0:0|0:0,0:0:0:0:
101,266,252353,1,8,0:0:0:0:
101,266,252436,1,8,0:0:0:0:
101,266,252520,6,0,P|151:236|188:241,1,85,10|0,0:0|0:0,0:0:0:0:
327,287,252853,2,0,P|285:283|252:258,1,85,2|0,3:2|0:0,0:0:0:0:
398,230,253186,1,0,3:0:0:0:
376,364,253353,1,2,0:0:0:0:
318,208,253520,1,0,3:0:0:0:
228,365,253686,1,8,0:0:0:0:
228,365,253770,1,8,0:0:0:0:
228,365,253853,6,0,L|130:336,1,85,8|0,0:0|0:0,0:0:0:0:
46,192,254186,1,8,3:0:0:0:
201,210,254353,1,8,3:0:0:0:
32,291,254520,1,8,3:0:0:0:
150,120,254686,1,8,0:0:0:0:
150,120,254770,1,8,0:0:0:0:
150,120,254853,1,8,0:0:0:0:
263,286,255020,1,8,0:0:0:0:
263,286,255104,1,8,0:0:0:0:
263,286,255186,5,10,0:0:0:0:
377,89,255353,1,8,0:0:0:0:
279,200,255520,1,10,0:0:0:0:
377,308,255686,1,8,0:0:0:0:
267,85,255853,1,10,0:0:0:0:
149,218,256020,1,8,0:0:0:0:
267,347,256186,1,10,0:0:0:0:
432,247,256353,6,0,L|412:228,4,21.25,10|2|2|2|6,0:0|0:0|0:0|0:0|0:0,0:0:0:0:
256,192,256603,12,0,259186,0:0:0:0:
