osu file format v14

[General]
AudioFilename: flower.mp3
AudioLeadIn: 0
PreviewTime: 89182
Countdown: 0
SampleSet: None
StackLeniency: 0.7
Mode: 0
LetterboxInBreaks: 1
WidescreenStoryboard: 1

[Editor]
DistanceSpacing: 0.6
BeatDivisor: 4
GridSize: 4
TimelineZoom: 2.300001

[Metadata]
Title:Hana ni Natta Shounen no Shinwa
TitleUnicode:花になった少年の神話
Artist:Ceui
ArtistUnicode:Ceui
Creator:Stormist
Version:Ember
Source:
Tags:Mythology of a boy who became a calendula 奏愛カレンデュラ
BeatmapID:1523280
BeatmapSetID:516247

[Difficulty]
HPDrainRate:4
CircleSize:4
OverallDifficulty:8
ApproachRate:9.3
SliderMultiplier:1
SliderTickRate:1

[Events]
//Background and Video events
0,0,"BG.jpg",0,0
//Break Periods
//Storyboard Layer 0 (Background)
Sprite,Background,Centre,"BG.jpg",320,240 S,0,0,701781,0.6282739,0.6450868 F,0,24864,29782,0,1 F,0,27814,826648,1 S,0,701781,788765,0.6450868,0.6340921 M,0,768462,,320.5818,240 F,0,826648,828615,1,0
Sprite,Background,Centre,"SB\End.jpg",320,280 S,0,0,,1.25 F,0,828615,829599,0,1 M,0,828615,842310,320,280,320,310 F,0,829599,845337,1,0.5 M,0,842310,842481,320,310,320,311 M,0,842481,842651,320,311,320,313 M,0,842651,842992,320,313,320,320 M,0,842992,843674,320,320,320,330 M,0,843674,844356,320,330,320,340 M,0,844356,845038,320,340,320,350 M,0,845038,845719,320,350,320,360 F,0,845337,846648,0.5,0 M,0,845719,846401,320,360,320,370
Sprite,Background,Centre,"SB\BG bw.jpg",320,240 S,0,0,,0.6282739 F,0,405775,407612,0,1 F,0,407612,441125,1 F,0,441125,443125,1,0 F,0,508874,509041,0,1 F,0,509124,510124,1,0 F,0,617440,618721,0,1 F,0,618721,627019,1 F,0,627019,651252,1,0
Sprite,Background,Centre,"SB\BG r.jpg",320,240 S,0,0,,0.6282739 F,0,517041,517208,0,1 F,0,517291,518124,1,0 F,0,578823,579461,0,1 F,0,579461,617440,1 F,0,617440,618721,1,0
Sprite,Background,Centre,"SB\embers.jpg",320,-480 M,0,627022,667256,320,-480,320,920 S,0,627341,,2
Sprite,Background,Centre,"SB\embers.jpg",320,-480 S,0,653256,,2 M,0,653256,667256,320,-480,320,0 F,0,665256,667256,1,0
Sprite,Background,Centre,"SB\embers.jpg",320,-240 M,0,627022,667256,320,-240,320,480 F,0,665256,667256,1,0
//Storyboard Layer 1 (Fail)
//Storyboard Layer 2 (Pass)
//Storyboard Layer 3 (Foreground)
Sprite,Foreground,Centre,"SB\Light.png",760,0 S,0,743186,,1.8 F,0,743186,744184,0,0.1 R,0,743186,767782,0,-3 F,0,744184,745183,0.1,0.5 F,0,745183,767782,0.5 F,0,767782,769109,0.5,0
Sprite,Foreground,Centre,"SB\flare bule.png",760,0 S,0,743186,,0.6 F,0,743186,744184,0,0.2 R,0,743186,767782,0,-0.8 F,0,744184,745183,0.2,1 F,0,745183,767782,1 F,0,767782,769109,1,0
Sprite,Foreground,Centre,"SB\Light.png",760,0 S,0,767119,,2.2 F,0,767119,769109,0,0.5 R,0,767119,790343,0,-4.5 F,0,768446,789015,0.5 F,0,789015,790343,0.5,0
Sprite,Foreground,Centre,"SB\flare red.png",760,0 S,0,767119,,1 F,0,767119,769109,0,1 R,0,767119,812878,0,3.6 F,0,768446,810580,1 F,0,810580,812878,1,0
Sprite,Foreground,Centre,"SB\Light.png",760,0 S,0,788352,,2.6 F,0,788352,790343,0,0.5 R,0,788352,812878,0,-6 F,0,790343,810580,0.5 F,0,810580,812878,0.5,0
Sprite,Foreground,Centre,"SB\flare purple.png",760,0 S,0,788352,,0.6 F,0,788352,790343,0,1 R,0,788352,812878,0,-3 F,0,790343,810580,1 F,0,810580,812878,1,0
Sprite,Foreground,Centre,"SB\o.png",358,339 C,0,846372,,255,128,255 F,0,846372,846877,0,0.6 M,0,846372,847888,358,339,359,341 V,0,846372,847888,0.4,0.4,0.38,0.38 F,0,846877,848226,0.6,1 M,0,847888,848226,359,341,359,340 V,0,847888,848563,0.38,0.38 M,0,848226,848900,359,340,358,341 F,0,848226,848900,1,0 V,0,848563,848731,0.38,0.38,6,0.03
Sprite,Foreground,Centre,"SB\wa.png",407,346 C,0,846372,,255,128,255 F,0,846372,846877,0,0.6 M,0,846372,847888,407,346,408,342 V,0,846372,847888,0.4,0.4,0.38,0.38 F,0,846877,848226,0.6,1 M,0,847888,848226,408,342,409,340 V,0,847888,848563,0.38,0.38 M,0,848226,848900,409,340,407,341 F,0,848226,848900,1,0 V,0,848563,848731,0.38,0.38,6,0.03
Sprite,Foreground,Centre,"SB\ri.png",456,337 C,0,846372,,255,128,255 F,0,846372,846877,0,0.6 M,0,846372,847888,456,337,458,342 V,0,846372,847888,0.4,0.4,0.38,0.38 F,0,846877,848226,0.6,1 M,0,847888,848226,458,342,459,340 V,0,847888,848563,0.38,0.38 M,0,848226,848900,459,340,456,342 F,0,848226,848900,1,0 V,0,848563,848731,0.38,0.38,6,0.03
Sprite,Foreground,Centre,"SB\o.png",360,338 F,0,846372,846877,0,0.6 M,0,846372,847888,360,338,360,340 V,0,846372,847888,0.4,0.4,0.38,0.38 F,0,846877,848226,0.6,1 V,0,847888,848563,0.38,0.38 F,0,848226,848900,1,0 V,0,848563,848731,0.38,0.38,6,0.03
Sprite,Foreground,Centre,"SB\wa.png",410,345 F,0,846372,846877,0,0.6 M,0,846372,847888,410,345,410,340 V,0,846372,847888,0.4,0.4,0.38,0.38 F,0,846877,848226,0.6,1 V,0,847888,848563,0.38,0.38 F,0,848226,848900,1,0 V,0,848563,848731,0.38,0.38,6,0.03
Sprite,Foreground,Centre,"SB\ri.png",460,340 F,0,846372,846877,0,0.6 V,0,846372,847888,0.4,0.4,0.38,0.38 F,0,846877,848226,0.6,1 V,0,847888,848563,0.38,0.38 F,0,848226,848900,1,0 V,0,848563,848731,0.38,0.38,6,0.03
Sprite,Foreground,Centre,"SB\Meteor.png",850,-120 R,0,255348,,5.958597 M,0,255348,255667,850,-120,90,120 F,0,255348,255667,1,0
Sprite,Foreground,Centre,"SB\star.png",760,-90 S,0,255348,,0.2 C,0,255348,,255,128,255 M,0,255348,255667,760,-90,0,150 F,0,255348,255667,1,0 R,0,255348,255667,0,-6
Sprite,Foreground,Centre,"SB\dot-dot.png",760,-90 S,0,255348,,0.6 C,0,255348,,128,255,255 M,0,255348,255667,760,-90,0,150 F,0,255348,255667,1,0
Sprite,Foreground,Centre,"SB\Meteor.png",850,-60 R,0,829599,,5.958597 M,0,829599,829927,850,-60,90,180 F,0,829599,829927,1,0
Sprite,Foreground,Centre,"SB\star.png",760,-30 S,0,829599,,0.2 C,0,829599,,128,128,192 M,0,829599,829927,760,-30,0,210 F,0,829599,829927,1,0 R,0,829599,829927,0,-6
Sprite,Foreground,Centre,"SB\dot-dot.png",760,-30 S,0,829599,,0.6 C,0,829599,,128,128,192 M,0,829599,829927,760,-30,0,210 F,0,829599,829927,1,0
Sprite,Foreground,Centre,"SB\Meteor.png",850,48 R,0,834681,,6.044071 M,0,834681,835009,850,48,90,228 F,0,834681,835009,1,0
Sprite,Foreground,Centre,"SB\star.png",760,70 S,0,834681,,0.2 C,0,834681,,255,255,128 M,0,834681,835009,760,70,0,250 F,0,834681,835009,1,0 R,0,834681,835009,0,-6
Sprite,Foreground,Centre,"SB\dot-dot.png",760,70 S,0,834681,,0.6 C,0,834681,,255,255,128 M,0,834681,835009,760,70,0,250 F,0,834681,835009,1,0
Sprite,Foreground,Centre,"SB\Meteor.png",850,-120 R,0,842550,,5.958597 M,0,842550,842878,850,-120,90,120 F,0,842550,842878,1,0
Sprite,Foreground,Centre,"SB\star.png",760,-90 S,0,842550,,0.2 C,0,842550,,128,255,255 M,0,842550,842878,760,-90,0,150 F,0,842550,842878,1,0 R,0,842550,842878,0,-6
Sprite,Foreground,Centre,"SB\dot-dot.png",760,-90 S,0,842550,,0.6 C,0,842550,,128,255,255 M,0,842550,842878,760,-90,0,150 F,0,842550,842878,1,0
Sprite,Foreground,Centre,"SB\dot-Light.png",250,350 S,0,413125,,2 C,0,413125,,128,255,255 F,0,413125,415791,1,0
Sprite,Foreground,Centre,"SB\dot-dot.png",245,345 S,0,413529,,1.2 C,0,413529,,128,255,255 M,0,413529,414803,245,345,242,242 F,0,413529,414803,1,0
Sprite,Foreground,Centre,"SB\dot-dot.png",250,351 S,0,413343,,0.6 C,0,413343,,128,255,255 M,0,413343,415057,250,351,253,211 F,0,413343,415057,1,0
Sprite,Foreground,Centre,"SB\dot-dot.png",246,346 S,0,413269,,1.1 C,0,413269,,128,255,255 M,0,413269,415007,246,346,243,241 F,0,413269,415007,1,0
Sprite,Foreground,Centre,"SB\dot-dot.png",246,344 S,0,413172,,1.2 C,0,413172,,128,255,255 M,0,413172,415913,246,344,242,231 F,0,413172,415913,1,0
Sprite,Foreground,Centre,"SB\dot-dot.png",247,342 S,0,413450,,0.9 C,0,413450,,128,255,255 M,0,413450,416309,247,342,247,261 F,0,413450,416309,1,0
Sprite,Foreground,Centre,"SB\dot-dot.png",249,355 S,0,413369,,1 C,0,413369,,128,255,255 M,0,413369,414923,249,355,252,281 F,0,413369,414923,1,0
Sprite,Foreground,Centre,"SB\dot-dot.png",252,354 S,0,413346,,0.8 C,0,413346,,128,255,255 M,0,413346,414802,252,354,248,213 F,0,413346,414802,1,0
Sprite,Foreground,Centre,"SB\dot-dot.png",248,351 S,0,413233,,1.3 C,0,413233,,128,255,255 M,0,413233,415503,248,351,251,210 F,0,413233,415503,1,0
Sprite,Foreground,Centre,"SB\dot-dot.png",245,346 S,0,413289,,0.8 C,0,413289,,128,255,255 M,0,413289,416384,245,346,241,215 F,0,413289,416384,1,0
Sprite,Foreground,Centre,"SB\dot-dot.png",255,341 S,0,413546,,1.2 C,0,413546,,128,255,255 M,0,413546,414807,255,341,254,288 F,0,413546,414807,1,0
Sprite,Foreground,Centre,"SB\dot-Light.png",354,310 S,0,413291,,2 C,0,413291,,128,255,255 F,0,413291,415958,1,0
Sprite,Foreground,Centre,"SB\dot-dot.png",356,320 S,0,413708,,0.8 C,0,413708,,128,255,255 M,0,413708,416313,356,320,358,188 F,0,413708,416313,1,0
Sprite,Foreground,Centre,"SB\dot-dot.png",355,307 S,0,413474,,0.5 C,0,413474,,128,255,255 M,0,413474,416645,355,307,359,214 F,0,413474,416645,1,0
Sprite,Foreground,Centre,"SB\dot-dot.png",351,305 S,0,413729,,1.4 C,0,413729,,128,255,255 M,0,413729,415270,351,305,350,242 F,0,413729,415270,1,0
Sprite,Foreground,Centre,"SB\dot-dot.png",356,301 S,0,413577,,1.2 C,0,413577,,128,255,255 M,0,413577,416189,356,301,352,212 F,0,413577,416189,1,0
Sprite,Foreground,Centre,"SB\dot-dot.png",349,314 S,0,413440,,0.8 C,0,413440,,128,255,255 M,0,413440,415376,349,314,345,185 F,0,413440,415376,1,0
Sprite,Foreground,Centre,"SB\dot-dot.png",353,309 S,0,413578,,1 C,0,413578,,128,255,255 M,0,413578,416891,353,309,349,231 F,0,413578,416891,1,0
Sprite,Foreground,Centre,"SB\dot-dot.png",357,311 S,0,413724,,1.2 C,0,413724,,128,255,255 M,0,413724,415794,357,311,360,208 F,0,413724,415794,1,0
Sprite,Foreground,Centre,"SB\dot-dot.png",357,315 S,0,413507,,1.4 C,0,413507,,128,255,255 M,0,413507,415257,357,315,353,225 F,0,413507,415257,1,0
Sprite,Foreground,Centre,"SB\dot-dot.png",355,319 S,0,413666,,0.7 C,0,413666,,128,255,255 M,0,413666,416106,355,319,352,246 F,0,413666,416106,1,0
Sprite,Foreground,Centre,"SB\dot-dot.png",353,307 S,0,413650,,0.9 C,0,413650,,128,255,255 M,0,413650,415120,353,307,354,229 F,0,413650,415120,1,0
Sprite,Foreground,Centre,"SB\dot-Light.png",458,270 S,0,413458,,2 C,0,413458,,128,255,255 F,0,413458,416125,1,0
Sprite,Foreground,Centre,"SB\dot-dot.png",456,274 S,0,413886,,0.6 C,0,413886,,128,255,255 M,0,413886,415507,456,274,459,143 F,0,413886,415507,1,0
Sprite,Foreground,Centre,"SB\dot-dot.png",456,272 S,0,413941,,0.8 C,0,413941,,128,255,255 M,0,413941,416429,456,272,456,127 F,0,413941,416429,1,0
Sprite,Foreground,Centre,"SB\dot-dot.png",463,267 S,0,413893,,1.1 C,0,413893,,128,255,255 M,0,413893,416991,463,267,460,175 F,0,413893,416991,1,0
Sprite,Foreground,Centre,"SB\dot-dot.png",455,276 S,0,413912,,0.9 C,0,413912,,128,255,255 M,0,413912,415314,455,276,453,143 F,0,413912,415314,1,0
Sprite,Foreground,Centre,"SB\dot-dot.png",454,277 S,0,413742,,0.6 C,0,413742,,128,255,255 M,0,413742,417089,454,277,455,224 F,0,413742,417089,1,0
Sprite,Foreground,Centre,"SB\dot-dot.png",455,276 S,0,413902,,1.5 C,0,413902,,128,255,255 M,0,413902,417000,455,276,455,222 F,0,413902,417000,1,0
Sprite,Foreground,Centre,"SB\dot-dot.png",459,279 S,0,413953,,1.3 C,0,413953,,128,255,255 M,0,413953,417008,459,279,461,168 F,0,413953,417008,1,0
Sprite,Foreground,Centre,"SB\dot-dot.png",457,261 S,0,413646,,1 C,0,413646,,128,255,255 M,0,413646,415664,457,261,455,115 F,0,413646,415664,1,0
Sprite,Foreground,Centre,"SB\dot-dot.png",454,263 S,0,413937,,1 C,0,413937,,128,255,255 M,0,413937,415525,454,263,458,147 F,0,413937,415525,1,0
Sprite,Foreground,Centre,"SB\dot-dot.png",461,270 S,0,413525,,1 C,0,413525,,128,255,255 M,0,413525,416397,461,270,460,186 F,0,413525,416397,1,0
Sprite,Foreground,Centre,"SB\dot-Light.png",562,230 S,0,413625,,2 C,0,413625,,128,255,255 F,0,413625,416291,1,0
Sprite,Foreground,Centre,"SB\dot-dot.png",561,227 S,0,413885,,1 C,0,413885,,128,255,255 M,0,413885,415495,561,227,565,109 F,0,413885,415495,1,0
Sprite,Foreground,Centre,"SB\dot-dot.png",560,229 S,0,413743,,0.8 C,0,413743,,128,255,255 M,0,413743,416838,560,229,559,81 F,0,413743,416838,1,0
Sprite,Foreground,Centre,"SB\dot-dot.png",562,233 S,0,414095,,1.2 C,0,414095,,128,255,255 M,0,414095,416625,562,233,565,156 F,0,414095,416625,1,0
Sprite,Foreground,Centre,"SB\dot-dot.png",565,228 S,0,413972,,0.6 C,0,413972,,128,255,255 M,0,413972,416420,565,228,565,104 F,0,413972,416420,1,0
Sprite,Foreground,Centre,"SB\dot-dot.png",562,228 S,0,413799,,1 C,0,413799,,128,255,255 M,0,413799,415585,562,228,560,152 F,0,413799,415585,1,0
Sprite,Foreground,Centre,"SB\dot-dot.png",564,227 S,0,414063,,0.9 C,0,414063,,128,255,255 M,0,414063,415490,564,227,560,81 F,0,414063,415490,1,0
Sprite,Foreground,Centre,"SB\dot-dot.png",561,226 S,0,414004,,0.7 C,0,414004,,128,255,255 M,0,414004,415460,561,226,557,128 F,0,414004,415460,1,0
Sprite,Foreground,Centre,"SB\dot-dot.png",566,233 S,0,414123,,1.5 C,0,414123,,128,255,255 M,0,414123,415984,566,233,564,92 F,0,414123,415984,1,0
Sprite,Foreground,Centre,"SB\dot-dot.png",566,225 S,0,413737,,0.7 C,0,413737,,128,255,255 M,0,413737,416990,566,225,563,105 F,0,413737,416990,1,0
Sprite,Foreground,Centre,"SB\dot-dot.png",565,229 S,0,413697,,1.2 C,0,413697,,128,255,255 M,0,413697,416389,565,229,564,135 F,0,413697,416389,1,0
Sprite,Foreground,Centre,"SB\dot-Light.png",502,154 S,0,413958,,2 C,0,413958,,255,255,128 F,0,413958,416291,1,0
Sprite,Foreground,Centre,"SB\dot-dot.png",504,161 S,0,414038,,1 C,0,414038,,255,255,128 M,0,414038,417207,504,161,500,52 F,0,414038,417207,1,0
Sprite,Foreground,Centre,"SB\dot-dot.png",506,162 S,0,414175,,0.7 C,0,414175,,255,255,128 M,0,414175,416252,506,162,502,45 F,0,414175,416252,1,0
Sprite,Foreground,Centre,"SB\dot-dot.png",498,152 S,0,414008,,1.2 C,0,414008,,255,255,128 M,0,414008,416967,498,152,499,48 F,0,414008,416967,1,0
Sprite,Foreground,Centre,"SB\dot-dot.png",507,156 S,0,414400,,1.2 C,0,414400,,255,255,128 M,0,414400,416479,507,156,505,38 F,0,414400,416479,1,0
Sprite,Foreground,Centre,"SB\dot-dot.png",504,144 S,0,414354,,0.7 C,0,414354,,255,255,128 M,0,414354,415530,504,144,502,47 F,0,414354,415530,1,0
Sprite,Foreground,Centre,"SB\dot-dot.png",502,153 S,0,414324,,0.8 C,0,414324,,255,255,128 M,0,414324,417135,502,153,506,44 F,0,414324,417135,1,0
Sprite,Foreground,Centre,"SB\dot-dot.png",506,150 S,0,414122,,1.3 C,0,414122,,255,255,128 M,0,414122,415758,506,150,510,14 F,0,414122,415758,1,0
Sprite,Foreground,Centre,"SB\dot-dot.png",503,146 S,0,414393,,0.8 C,0,414393,,255,255,128 M,0,414393,417239,503,146,507,16 F,0,414393,417239,1,0
Sprite,Foreground,Centre,"SB\dot-dot.png",505,151 S,0,414054,,0.6 C,0,414054,,255,255,128 M,0,414054,415869,505,151,508,7 F,0,414054,415869,1,0
Sprite,Foreground,Centre,"SB\dot-dot.png",500,157 S,0,414269,,0.6 C,0,414269,,255,255,128 M,0,414269,416783,500,157,499,69 F,0,414269,416783,1,0
Sprite,Foreground,Centre,"SB\dot-Light.png",458,270 S,0,414291,,2 C,0,414291,,255,255,128 F,0,414291,416625,1,0
Sprite,Foreground,Centre,"SB\dot-dot.png",455,273 S,0,414434,,0.7 C,0,414434,,255,255,128 M,0,414434,415775,455,273,454,160 F,0,414434,415775,1,0
Sprite,Foreground,Centre,"SB\dot-dot.png",454,265 S,0,414708,,0.7 C,0,414708,,255,255,128 M,0,414708,416576,454,265,458,118 F,0,414708,416576,1,0
Sprite,Foreground,Centre,"SB\dot-dot.png",456,270 S,0,414761,,0.9 C,0,414761,,255,255,128 M,0,414761,416337,456,270,452,141 F,0,414761,416337,1,0
Sprite,Foreground,Centre,"SB\dot-dot.png",460,276 S,0,414615,,0.9 C,0,414615,,255,255,128 M,0,414615,417349,460,276,460,126 F,0,414615,417349,1,0
Sprite,Foreground,Centre,"SB\dot-dot.png",455,280 S,0,414735,,0.5 C,0,414735,,255,255,128 M,0,414735,417390,455,280,460,170 F,0,414735,417390,1,0
Sprite,Foreground,Centre,"SB\dot-dot.png",457,277 S,0,414508,,0.9 C,0,414508,,255,255,128 M,0,414508,417267,457,277,462,134 F,0,414508,417267,1,0
Sprite,Foreground,Centre,"SB\dot-dot.png",460,272 S,0,414421,,1.3 C,0,414421,,255,255,128 M,0,414421,417542,460,272,461,150 F,0,414421,417542,1,0
Sprite,Foreground,Centre,"SB\dot-dot.png",457,263 S,0,414651,,0.9 C,0,414651,,255,255,128 M,0,414651,415771,457,263,459,142 F,0,414651,415771,1,0
Sprite,Foreground,Centre,"SB\dot-dot.png",459,268 S,0,414443,,0.6 C,0,414443,,255,255,128 M,0,414443,417431,459,268,463,184 F,0,414443,417431,1,0
Sprite,Foreground,Centre,"SB\dot-dot.png",456,273 S,0,414708,,1.5 C,0,414708,,255,255,128 M,0,414708,416569,456,273,455,185 F,0,414708,416569,1,0
Sprite,Foreground,Centre,"SB\dot-Light.png",414,390 S,0,414458,,2 C,0,414458,,128,128,192 F,0,414458,416791,1,0
Sprite,Foreground,Centre,"SB\dot-dot.png",415,382 S,0,414576,,0.7 C,0,414576,,128,128,192 M,0,414576,417194,415,382,411,286 F,0,414576,417194,1,0
Sprite,Foreground,Centre,"SB\dot-dot.png",415,394 S,0,414727,,0.8 C,0,414727,,128,128,192 M,0,414727,417395,415,394,413,305 F,0,414727,417395,1,0
Sprite,Foreground,Centre,"SB\dot-dot.png",410,387 S,0,414876,,0.6 C,0,414876,,128,128,192 M,0,414876,416147,410,387,410,260 F,0,414876,416147,1,0
Sprite,Foreground,Centre,"SB\dot-dot.png",418,381 S,0,414824,,1.2 C,0,414824,,128,128,192 M,0,414824,416177,418,381,418,298 F,0,414824,416177,1,0
Sprite,Foreground,Centre,"SB\dot-dot.png",417,393 S,0,414609,,1.4 C,0,414609,,128,128,192 M,0,414609,416407,417,393,417,317 F,0,414609,416407,1,0
Sprite,Foreground,Centre,"SB\dot-dot.png",410,383 S,0,414684,,1.3 C,0,414684,,128,128,192 M,0,414684,416712,410,383,410,235 F,0,414684,416712,1,0
Sprite,Foreground,Centre,"SB\dot-dot.png",417,395 S,0,414518,,0.9 C,0,414518,,128,128,192 M,0,414518,416185,417,395,419,245 F,0,414518,416185,1,0
Sprite,Foreground,Centre,"SB\dot-dot.png",409,399 S,0,414642,,0.5 C,0,414642,,128,128,192 M,0,414642,416771,409,399,410,252 F,0,414642,416771,1,0
Sprite,Foreground,Centre,"SB\dot-dot.png",413,399 S,0,414867,,1.4 C,0,414867,,128,128,192 M,0,414867,416298,413,399,416,276 F,0,414867,416298,1,0
Sprite,Foreground,Centre,"SB\dot-dot.png",416,383 S,0,414530,,0.9 C,0,414530,,128,128,192 M,0,414530,417748,416,383,414,289 F,0,414530,417748,1,0
Sprite,Foreground,Centre,"SB\dot-Light.png",125,275 S,0,414791,,2 C,0,414791,,255,128,255 F,0,414791,417125,1,0
Sprite,Foreground,Centre,"SB\dot-dot.png",128,277 S,0,415209,,1.2 C,0,415209,,255,128,255 M,0,415209,417839,128,277,132,207 F,0,415209,417839,1,0
Sprite,Foreground,Centre,"SB\dot-dot.png",123,268 S,0,415019,,0.6 C,0,415019,,255,128,255 M,0,415019,416566,123,268,120,127 F,0,415019,416566,1,0
Sprite,Foreground,Centre,"SB\dot-dot.png",121,271 S,0,415071,,0.8 C,0,415071,,255,128,255 M,0,415071,417378,121,271,118,211 F,0,415071,417378,1,0
Sprite,Foreground,Centre,"SB\dot-dot.png",125,266 S,0,414924,,1.4 C,0,414924,,255,128,255 M,0,414924,416881,125,266,125,175 F,0,414924,416881,1,0
Sprite,Foreground,Centre,"SB\dot-dot.png",125,266 S,0,415090,,1.1 C,0,415090,,255,128,255 M,0,415090,417135,125,266,125,152 F,0,415090,417135,1,0
Sprite,Foreground,Centre,"SB\dot-dot.png",120,284 S,0,415036,,1.5 C,0,415036,,255,128,255 M,0,415036,417715,120,284,123,154 F,0,415036,417715,1,0
Sprite,Foreground,Centre,"SB\dot-dot.png",129,280 S,0,414859,,0.7 C,0,414859,,255,128,255 M,0,414859,417799,129,280,128,189 F,0,414859,417799,1,0
Sprite,Foreground,Centre,"SB\dot-dot.png",123,277 S,0,414795,,1.2 C,0,414795,,255,128,255 M,0,414795,416922,123,277,119,211 F,0,414795,416922,1,0
Sprite,Foreground,Centre,"SB\dot-dot.png",129,272 S,0,415147,,1 C,0,415147,,255,128,255 M,0,415147,417366,129,272,131,162 F,0,415147,417366,1,0
Sprite,Foreground,Centre,"SB\dot-dot.png",128,273 S,0,415234,,0.7 C,0,415234,,255,128,255 M,0,415234,416256,128,273,124,218 F,0,415234,416256,1,0
Sprite,Foreground,Centre,"SB\dot-Light.png",409,152 S,0,415125,,2 C,0,415125,,128,255,255 F,0,415125,417458,1,0
Sprite,Foreground,Centre,"SB\dot-dot.png",406,146 S,0,415388,,1.3 C,0,415388,,128,255,255 M,0,415388,417048,406,146,410,50 F,0,415388,417048,1,0
Sprite,Foreground,Centre,"SB\dot-dot.png",406,157 S,0,415196,,0.8 C,0,415196,,128,255,255 M,0,415196,418137,406,157,410,40 F,0,415196,418137,1,0
Sprite,Foreground,Centre,"SB\dot-dot.png",407,145 S,0,415590,,1.3 C,0,415590,,128,255,255 M,0,415590,416906,407,145,404,29 F,0,415590,416906,1,0
Sprite,Foreground,Centre,"SB\dot-dot.png",404,160 S,0,415450,,0.9 C,0,415450,,128,255,255 M,0,415450,417946,404,160,401,47 F,0,415450,417946,1,0
Sprite,Foreground,Centre,"SB\dot-dot.png",408,147 S,0,415617,,1 C,0,415617,,128,255,255 M,0,415617,417264,408,147,407,24 F,0,415617,417264,1,0
Sprite,Foreground,Centre,"SB\dot-dot.png",413,160 S,0,415280,,0.6 C,0,415280,,128,255,255 M,0,415280,417534,413,160,414,52 F,0,415280,417534,1,0
Sprite,Foreground,Centre,"SB\dot-dot.png",412,154 S,0,415465,,0.6 C,0,415465,,128,255,255 M,0,415465,417612,412,154,412,74 F,0,415465,417612,1,0
Sprite,Foreground,Centre,"SB\dot-dot.png",406,151 S,0,415316,,0.6 C,0,415316,,128,255,255 M,0,415316,417217,406,151,406,13 F,0,415316,417217,1,0
Sprite,Foreground,Centre,"SB\dot-dot.png",405,147 S,0,415531,,1.2 C,0,415531,,128,255,255 M,0,415531,416482,405,147,402,95 F,0,415531,416482,1,0
Sprite,Foreground,Centre,"SB\dot-dot.png",413,144 S,0,415165,,0.6 C,0,415165,,128,255,255 M,0,415165,416549,413,144,411,31 F,0,415165,416549,1,0
Sprite,Foreground,Centre,"SB\dot-Light.png",295,439 S,0,415458,,2 C,0,415458,,255,255,128 F,0,415458,417791,1,0
Sprite,Foreground,Centre,"SB\dot-dot.png",293,437 S,0,415588,,0.6 C,0,415588,,255,255,128 M,0,415588,418440,293,437,288,339 F,0,415588,418440,1,0
Sprite,Foreground,Centre,"SB\dot-dot.png",294,445 S,0,415840,,0.9 C,0,415840,,255,255,128 M,0,415840,416910,294,445,296,332 F,0,415840,416910,1,0
Sprite,Foreground,Centre,"SB\dot-dot.png",293,430 S,0,415636,,1 C,0,415636,,255,255,128 M,0,415636,418229,293,430,294,348 F,0,415636,418229,1,0
Sprite,Foreground,Centre,"SB\dot-dot.png",290,430 S,0,415936,,0.9 C,0,415936,,255,255,128 M,0,415936,417435,290,430,289,380 F,0,415936,417435,1,0
Sprite,Foreground,Centre,"SB\dot-dot.png",299,448 S,0,415481,,0.5 C,0,415481,,255,255,128 M,0,415481,417991,299,448,303,314 F,0,415481,417991,1,0
Sprite,Foreground,Centre,"SB\dot-dot.png",290,430 S,0,415706,,1 C,0,415706,,255,255,128 M,0,415706,418610,290,430,291,370 F,0,415706,418610,1,0
Sprite,Foreground,Centre,"SB\dot-dot.png",297,441 S,0,415467,,1.3 C,0,415467,,255,255,128 M,0,415467,417122,297,441,296,384 F,0,415467,417122,1,0
Sprite,Foreground,Centre,"SB\dot-dot.png",292,434 S,0,415594,,1.2 C,0,415594,,255,255,128 M,0,415594,418746,292,434,293,289 F,0,415594,418746,1,0
Sprite,Foreground,Centre,"SB\dot-dot.png",296,434 S,0,415795,,0.6 C,0,415795,,255,255,128 M,0,415795,417946,296,434,300,342 F,0,415795,417946,1,0
Sprite,Foreground,Centre,"SB\dot-dot.png",292,444 S,0,415609,,0.9 C,0,415609,,255,255,128 M,0,415609,417586,292,444,293,340 F,0,415609,417586,1,0
Sprite,Foreground,Centre,"SB\dot-Light.png",172,156 S,0,415791,,2 C,0,415791,,128,128,192 F,0,415791,418125,1,0
Sprite,Foreground,Centre,"SB\dot-dot.png",172,164 S,0,415989,,0.9 C,0,415989,,128,128,192 M,0,415989,418409,172,164,174,102 F,0,415989,418409,1,0
Sprite,Foreground,Centre,"SB\dot-dot.png",175,151 S,0,416284,,0.7 C,0,416284,,128,128,192 M,0,416284,418870,175,151,179,67 F,0,416284,418870,1,0
Sprite,Foreground,Centre,"SB\dot-dot.png",169,150 S,0,416047,,1.1 C,0,416047,,128,128,192 M,0,416047,417950,169,150,170,48 F,0,416047,417950,1,0
Sprite,Foreground,Centre,"SB\dot-dot.png",168,152 S,0,416142,,1 C,0,416142,,128,128,192 M,0,416142,418307,168,152,165,40 F,0,416142,418307,1,0
Sprite,Foreground,Centre,"SB\dot-dot.png",170,165 S,0,416006,,1.3 C,0,416006,,128,128,192 M,0,416006,418743,170,165,174,26 F,0,416006,418743,1,0
Sprite,Foreground,Centre,"SB\dot-dot.png",172,158 S,0,415883,,0.6 C,0,415883,,128,128,192 M,0,415883,418307,172,158,168,48 F,0,415883,418307,1,0
Sprite,Foreground,Centre,"SB\dot-dot.png",173,155 S,0,416202,,1.3 C,0,416202,,128,128,192 M,0,416202,417422,173,155,172,96 F,0,416202,417422,1,0
Sprite,Foreground,Centre,"SB\dot-dot.png",168,152 S,0,416185,,1.2 C,0,416185,,128,128,192 M,0,416185,418547,168,152,169,14 F,0,416185,418547,1,0
Sprite,Foreground,Centre,"SB\dot-dot.png",177,146 S,0,416050,,1.4 C,0,416050,,128,128,192 M,0,416050,418113,177,146,181,30 F,0,416050,418113,1,0
Sprite,Foreground,Centre,"SB\dot-dot.png",175,148 S,0,416187,,1.3 C,0,416187,,128,128,192 M,0,416187,418517,175,148,176,90 F,0,416187,418517,1,0
Sprite,Foreground,Centre,"SB\dot-Light.png",459,269 S,0,416125,,2 C,0,416125,,255,128,255 F,0,416125,418791,1,0
Sprite,Foreground,Centre,"SB\dot-dot.png",457,274 S,0,416143,,0.6 C,0,416143,,255,128,255 M,0,416143,419295,457,274,459,128 F,0,416143,419295,1,0
Sprite,Foreground,Centre,"SB\dot-dot.png",458,270 S,0,416242,,0.6 C,0,416242,,255,128,255 M,0,416242,418450,458,270,463,214 F,0,416242,418450,1,0
Sprite,Foreground,Centre,"SB\dot-dot.png",459,277 S,0,416227,,1.3 C,0,416227,,255,128,255 M,0,416227,419284,459,277,461,206 F,0,416227,419284,1,0
Sprite,Foreground,Centre,"SB\dot-dot.png",462,268 S,0,416267,,1.2 C,0,416267,,255,128,255 M,0,416267,419670,462,268,465,138 F,0,416267,419670,1,0
Sprite,Foreground,Centre,"SB\dot-dot.png",461,263 S,0,416266,,1.3 C,0,416266,,255,128,255 M,0,416266,418030,461,263,459,138 F,0,416266,418030,1,0
Sprite,Foreground,Centre,"SB\dot-dot.png",460,278 S,0,416597,,0.9 C,0,416597,,255,128,255 M,0,416597,417830,460,278,459,211 F,0,416597,417830,1,0
Sprite,Foreground,Centre,"SB\dot-dot.png",455,276 S,0,416127,,0.6 C,0,416127,,255,128,255 M,0,416127,419268,455,276,456,189 F,0,416127,419268,1,0
Sprite,Foreground,Centre,"SB\dot-dot.png",462,278 S,0,416310,,0.7 C,0,416310,,255,128,255 M,0,416310,418171,462,278,461,190 F,0,416310,418171,1,0
Sprite,Foreground,Centre,"SB\dot-dot.png",458,266 S,0,416382,,1.4 C,0,416382,,255,128,255 M,0,416382,418275,458,266,456,177 F,0,416382,418275,1,0
Sprite,Foreground,Centre,"SB\dot-dot.png",456,263 S,0,416306,,0.6 C,0,416306,,255,128,255 M,0,416306,419569,456,263,452,132 F,0,416306,419569,1,0
Sprite,Foreground,Centre,"SB\dot-Light.png",176,392 S,0,416458,,2 C,0,416458,,128,255,255 F,0,416458,419125,1,0
Sprite,Foreground,Centre,"SB\dot-dot.png",176,392 S,0,416791,,1.5 C,0,416791,,128,255,255 M,0,416791,418531,176,392,177,251 F,0,416791,418531,1,0
Sprite,Foreground,Centre,"SB\dot-dot.png",177,398 S,0,416906,,1.2 C,0,416906,,128,255,255 M,0,416906,418703,177,398,175,284 F,0,416906,418703,1,0
Sprite,Foreground,Centre,"SB\dot-dot.png",180,387 S,0,416580,,1.4 C,0,416580,,128,255,255 M,0,416580,418629,180,387,179,264 F,0,416580,418629,1,0
Sprite,Foreground,Centre,"SB\dot-dot.png",176,392 S,0,416754,,0.7 C,0,416754,,128,255,255 M,0,416754,419009,176,392,176,258 F,0,416754,419009,1,0
Sprite,Foreground,Centre,"SB\dot-dot.png",176,383 S,0,416521,,1.1 C,0,416521,,128,255,255 M,0,416521,419768,176,383,171,308 F,0,416521,419768,1,0
Sprite,Foreground,Centre,"SB\dot-dot.png",174,395 S,0,416501,,1.2 C,0,416501,,128,255,255 M,0,416501,418396,174,395,171,302 F,0,416501,418396,1,0
Sprite,Foreground,Centre,"SB\dot-dot.png",178,385 S,0,416735,,1.4 C,0,416735,,128,255,255 M,0,416735,419678,178,385,177,256 F,0,416735,419678,1,0
Sprite,Foreground,Centre,"SB\dot-dot.png",171,391 S,0,416608,,0.7 C,0,416608,,128,255,255 M,0,416608,418261,171,391,174,246 F,0,416608,418261,1,0
Sprite,Foreground,Centre,"SB\dot-dot.png",173,392 S,0,416808,,1.5 C,0,416808,,128,255,255 M,0,416808,418169,173,392,170,297 F,0,416808,418169,1,0
Sprite,Foreground,Centre,"SB\dot-dot.png",175,402 S,0,416758,,1.4 C,0,416758,,128,255,255 M,0,416758,418423,175,402,172,293 F,0,416758,418423,1,0
Sprite,Foreground,Centre,"SB\dot-Light.png",289,105 S,0,416791,,2 C,0,416791,,255,255,128 F,0,416791,419458,1,0
Sprite,Foreground,Centre,"SB\dot-dot.png",290,109 S,0,417291,,1.1 C,0,417291,,255,255,128 M,0,417291,419665,290,109,287,-17 F,0,417291,419665,1,0
Sprite,Foreground,Centre,"SB\dot-dot.png",284,104 S,0,417202,,0.7 C,0,417202,,255,255,128 M,0,417202,419268,284,104,286,32 F,0,417202,419268,1,0
Sprite,Foreground,Centre,"SB\dot-dot.png",286,103 S,0,417054,,0.9 C,0,417054,,255,255,128 M,0,417054,419190,286,103,286,-32 F,0,417054,419190,1,0
Sprite,Foreground,Centre,"SB\dot-dot.png",285,97 S,0,417018,,1.3 C,0,417018,,255,255,128 M,0,417018,419572,285,97,284,-13 F,0,417018,419572,1,0
Sprite,Foreground,Centre,"SB\dot-dot.png",292,114 S,0,417084,,1.3 C,0,417084,,255,255,128 M,0,417084,418689,292,114,291,-23 F,0,417084,418689,1,0
Sprite,Foreground,Centre,"SB\dot-dot.png",288,96 S,0,416949,,0.7 C,0,416949,,255,255,128 M,0,416949,420456,288,96,289,-16 F,0,416949,420456,1,0
Sprite,Foreground,Centre,"SB\dot-dot.png",286,112 S,0,417257,,0.9 C,0,417257,,255,255,128 M,0,417257,418831,286,112,287,-25 F,0,417257,418831,1,0
Sprite,Foreground,Centre,"SB\dot-dot.png",292,97 S,0,416889,,1.2 C,0,416889,,255,255,128 M,0,416889,419593,292,97,291,-31 F,0,416889,419593,1,0
Sprite,Foreground,Centre,"SB\dot-dot.png",293,103 S,0,417229,,0.9 C,0,417229,,255,255,128 M,0,417229,418825,293,103,294,39 F,0,417229,418825,1,0
Sprite,Foreground,Centre,"SB\dot-dot.png",285,104 S,0,416820,,0.8 C,0,416820,,255,255,128 M,0,416820,419054,285,104,290,-25 F,0,416820,419054,1,0
Sprite,Foreground,Centre,"SB\dot-Light.png",414,390 S,0,417125,,2 C,0,417125,,128,128,192 F,0,417125,419791,1,0
Sprite,Foreground,Centre,"SB\dot-dot.png",418,400 S,0,417582,,1.5 C,0,417582,,128,128,192 M,0,417582,418894,418,400,416,251 F,0,417582,418894,1,0
Sprite,Foreground,Centre,"SB\dot-dot.png",418,390 S,0,417585,,1.5 C,0,417585,,128,128,192 M,0,417585,420632,418,390,416,316 F,0,417585,420632,1,0
Sprite,Foreground,Centre,"SB\dot-dot.png",417,398 S,0,417335,,1.4 C,0,417335,,128,128,192 M,0,417335,420271,417,398,418,250 F,0,417335,420271,1,0
Sprite,Foreground,Centre,"SB\dot-dot.png",415,398 S,0,417504,,0.8 C,0,417504,,128,128,192 M,0,417504,419800,415,398,411,307 F,0,417504,419800,1,0
Sprite,Foreground,Centre,"SB\dot-dot.png",415,381 S,0,417456,,0.5 C,0,417456,,128,128,192 M,0,417456,419412,415,381,411,321 F,0,417456,419412,1,0
Sprite,Foreground,Centre,"SB\dot-dot.png",414,394 S,0,417237,,1.1 C,0,417237,,128,128,192 M,0,417237,419853,414,394,411,315 F,0,417237,419853,1,0
Sprite,Foreground,Centre,"SB\dot-dot.png",411,396 S,0,417524,,1.1 C,0,417524,,128,128,192 M,0,417524,420783,411,396,406,267 F,0,417524,420783,1,0
Sprite,Foreground,Centre,"SB\dot-dot.png",417,394 S,0,417172,,1.3 C,0,417172,,128,128,192 M,0,417172,420655,417,394,412,253 F,0,417172,420655,1,0
Sprite,Foreground,Centre,"SB\dot-dot.png",418,380 S,0,417329,,1 C,0,417329,,128,128,192 M,0,417329,419780,418,380,417,248 F,0,417329,419780,1,0
Sprite,Foreground,Centre,"SB\dot-dot.png",411,388 S,0,417138,,1.3 C,0,417138,,128,128,192 M,0,417138,419419,411,388,409,268 F,0,417138,419419,1,0
Sprite,Foreground,Centre,"SB\dot-Light.png",294,266 S,0,417458,,2 C,0,417458,,255,128,255 F,0,417458,420125,1,0
Sprite,Foreground,Centre,"SB\dot-dot.png",294,263 S,0,417710,,1.3 C,0,417710,,255,128,255 M,0,417710,419722,294,263,298,199 F,0,417710,419722,1,0
Sprite,Foreground,Centre,"SB\dot-dot.png",296,268 S,0,417862,,1 C,0,417862,,255,128,255 M,0,417862,419227,296,268,295,197 F,0,417862,419227,1,0
Sprite,Foreground,Centre,"SB\dot-dot.png",290,275 S,0,417762,,0.7 C,0,417762,,255,128,255 M,0,417762,419776,290,275,289,186 F,0,417762,419776,1,0
Sprite,Foreground,Centre,"SB\dot-dot.png",296,275 S,0,417814,,0.9 C,0,417814,,255,128,255 M,0,417814,421110,296,275,296,209 F,0,417814,421110,1,0
Sprite,Foreground,Centre,"SB\dot-dot.png",291,269 S,0,417669,,0.6 C,0,417669,,255,128,255 M,0,417669,419447,291,269,290,202 F,0,417669,419447,1,0
Sprite,Foreground,Centre,"SB\dot-dot.png",289,266 S,0,417632,,1 C,0,417632,,255,128,255 M,0,417632,420589,289,266,291,201 F,0,417632,420589,1,0
Sprite,Foreground,Centre,"SB\dot-dot.png",294,259 S,0,417911,,1.3 C,0,417911,,255,128,255 M,0,417911,419803,294,259,295,119 F,0,417911,419803,1,0
Sprite,Foreground,Centre,"SB\dot-dot.png",292,260 S,0,417806,,1.1 C,0,417806,,255,128,255 M,0,417806,420577,292,260,291,131 F,0,417806,420577,1,0
Sprite,Foreground,Centre,"SB\dot-dot.png",299,257 S,0,417762,,1.1 C,0,417762,,255,128,255 M,0,417762,420043,299,257,297,159 F,0,417762,420043,1,0
Sprite,Foreground,Centre,"SB\dot-dot.png",293,257 S,0,417563,,1.1 C,0,417563,,255,128,255 M,0,417563,420643,293,257,297,206 F,0,417563,420643,1,0
Sprite,Foreground,Centre,"SB\dot-Light.png",294,266 S,0,418125,,2 C,0,418125,,128,255,255 F,0,418125,420792,1,0
Sprite,Foreground,Centre,"SB\dot-dot.png",291,261 S,0,418385,,1.1 C,0,418385,,128,255,255 M,0,418385,421170,291,261,287,180 F,0,418385,421170,1,0
Sprite,Foreground,Centre,"SB\dot-dot.png",291,261 S,0,418362,,1.1 C,0,418362,,128,255,255 M,0,418362,421078,291,261,295,165 F,0,418362,421078,1,0
Sprite,Foreground,Centre,"SB\dot-dot.png",294,258 S,0,418446,,1.3 C,0,418446,,128,255,255 M,0,418446,419982,294,258,298,118 F,0,418446,419982,1,0
Sprite,Foreground,Centre,"SB\dot-dot.png",294,265 S,0,418449,,1.2 C,0,418449,,128,255,255 M,0,418449,420785,294,265,297,199 F,0,418449,420785,1,0
Sprite,Foreground,Centre,"SB\dot-dot.png",292,273 S,0,418439,,0.7 C,0,418439,,128,255,255 M,0,418439,420338,292,273,296,214 F,0,418439,420338,1,0
Sprite,Foreground,Centre,"SB\dot-dot.png",293,266 S,0,418294,,1 C,0,418294,,128,255,255 M,0,418294,421267,293,266,291,133 F,0,418294,421267,1,0
Sprite,Foreground,Centre,"SB\dot-dot.png",296,267 S,0,418412,,1.4 C,0,418412,,128,255,255 M,0,418412,421659,296,267,294,149 F,0,418412,421659,1,0
Sprite,Foreground,Centre,"SB\dot-dot.png",299,259 S,0,418200,,1.1 C,0,418200,,128,255,255 M,0,418200,420195,299,259,301,204 F,0,418200,420195,1,0
Sprite,Foreground,Centre,"SB\dot-dot.png",295,270 S,0,418469,,0.6 C,0,418469,,128,255,255 M,0,418469,420265,295,270,296,170 F,0,418469,420265,1,0
Sprite,Foreground,Centre,"SB\dot-dot.png",296,265 S,0,418463,,1.2 C,0,418463,,128,255,255 M,0,418463,420931,296,265,294,160 F,0,418463,420931,1,0
Sprite,Foreground,Centre,"SB\dot-Light.png",530,178 S,0,418625,,2 C,0,418625,,255,255,128 F,0,418625,421292,1,0
Sprite,Foreground,Centre,"SB\dot-dot.png",531,180 S,0,418629,,1.4 C,0,418629,,255,255,128 M,0,418629,420294,531,180,533,37 F,0,418629,420294,1,0
Sprite,Foreground,Centre,"SB\dot-dot.png",527,171 S,0,418780,,1.5 C,0,418780,,255,255,128 M,0,418780,420408,527,171,531,74 F,0,418780,420408,1,0
Sprite,Foreground,Centre,"SB\dot-dot.png",530,176 S,0,419039,,0.8 C,0,419039,,255,255,128 M,0,419039,421247,530,176,526,99 F,0,419039,421247,1,0
Sprite,Foreground,Centre,"SB\dot-dot.png",531,170 S,0,418835,,0.9 C,0,418835,,255,255,128 M,0,418835,420903,531,170,529,84 F,0,418835,420903,1,0
Sprite,Foreground,Centre,"SB\dot-dot.png",530,170 S,0,418793,,1.4 C,0,418793,,255,255,128 M,0,418793,421685,530,170,534,103 F,0,418793,421685,1,0
Sprite,Foreground,Centre,"SB\dot-dot.png",525,187 S,0,419071,,1.4 C,0,419071,,255,255,128 M,0,419071,421488,525,187,522,120 F,0,419071,421488,1,0
Sprite,Foreground,Centre,"SB\dot-dot.png",534,187 S,0,419075,,1.3 C,0,419075,,255,255,128 M,0,419075,421231,534,187,537,63 F,0,419075,421231,1,0
Sprite,Foreground,Centre,"SB\dot-dot.png",529,187 S,0,419031,,1.1 C,0,419031,,255,255,128 M,0,419031,420465,529,187,526,110 F,0,419031,420465,1,0
Sprite,Foreground,Centre,"SB\dot-dot.png",529,168 S,0,418911,,0.7 C,0,418911,,255,255,128 M,0,418911,420562,529,168,534,76 F,0,418911,420562,1,0
Sprite,Foreground,Centre,"SB\dot-dot.png",532,185 S,0,419048,,0.9 C,0,419048,,255,255,128 M,0,419048,420839,532,185,532,53 F,0,419048,420839,1,0
Sprite,Foreground,Centre,"SB\dot-Light.png",114,178 S,0,419125,,2 C,0,419125,,128,128,192 F,0,419125,421792,1,0
Sprite,Foreground,Centre,"SB\dot-dot.png",111,186 S,0,419170,,0.6 C,0,419170,,128,128,192 M,0,419170,421476,111,186,110,129 F,0,419170,421476,1,0
Sprite,Foreground,Centre,"SB\dot-dot.png",114,173 S,0,419418,,1.4 C,0,419418,,128,128,192 M,0,419418,421812,114,173,114,105 F,0,419418,421812,1,0
Sprite,Foreground,Centre,"SB\dot-dot.png",115,184 S,0,419557,,0.7 C,0,419557,,128,128,192 M,0,419557,420809,115,184,119,70 F,0,419557,420809,1,0
Sprite,Foreground,Centre,"SB\dot-dot.png",110,188 S,0,419368,,1.3 C,0,419368,,128,128,192 M,0,419368,420878,110,188,113,96 F,0,419368,420878,1,0
Sprite,Foreground,Centre,"SB\dot-dot.png",118,181 S,0,419583,,0.7 C,0,419583,,128,128,192 M,0,419583,421594,118,181,115,63 F,0,419583,421594,1,0
Sprite,Foreground,Centre,"SB\dot-dot.png",118,176 S,0,419495,,0.7 C,0,419495,,128,128,192 M,0,419495,421939,118,176,118,98 F,0,419495,421939,1,0
Sprite,Foreground,Centre,"SB\dot-dot.png",112,184 S,0,419568,,0.8 C,0,419568,,128,128,192 M,0,419568,421145,112,184,113,89 F,0,419568,421145,1,0
Sprite,Foreground,Centre,"SB\dot-dot.png",114,172 S,0,419492,,1.5 C,0,419492,,128,128,192 M,0,419492,421528,114,172,112,77 F,0,419492,421528,1,0
Sprite,Foreground,Centre,"SB\dot-dot.png",115,187 S,0,419416,,0.6 C,0,419416,,128,128,192 M,0,419416,421220,115,187,112,109 F,0,419416,421220,1,0
Sprite,Foreground,Centre,"SB\dot-dot.png",118,186 S,0,419369,,1.4 C,0,419369,,128,128,192 M,0,419369,422161,118,186,115,53 F,0,419369,422161,1,0
Sprite,Foreground,Centre,"SB\dot-Light.png",186,302 S,0,419291,,2 C,0,419291,,128,128,192 F,0,419291,421958,1,0
Sprite,Foreground,Centre,"SB\dot-dot.png",186,299 S,0,419753,,0.9 C,0,419753,,128,128,192 M,0,419753,421253,186,299,191,178 F,0,419753,421253,1,0
Sprite,Foreground,Centre,"SB\dot-dot.png",185,302 S,0,419301,,1 C,0,419301,,128,128,192 M,0,419301,422770,185,302,189,215 F,0,419301,422770,1,0
Sprite,Foreground,Centre,"SB\dot-dot.png",190,300 S,0,419664,,1.3 C,0,419664,,128,128,192 M,0,419664,421800,190,300,193,209 F,0,419664,421800,1,0
Sprite,Foreground,Centre,"SB\dot-dot.png",184,302 S,0,419361,,0.8 C,0,419361,,128,128,192 M,0,419361,421701,184,302,183,163 F,0,419361,421701,1,0
Sprite,Foreground,Centre,"SB\dot-dot.png",184,310 S,0,419717,,1.3 C,0,419717,,128,128,192 M,0,419717,421516,184,310,184,229 F,0,419717,421516,1,0
Sprite,Foreground,Centre,"SB\dot-dot.png",183,300 S,0,419625,,1.1 C,0,419625,,128,128,192 M,0,419625,422063,183,300,188,191 F,0,419625,422063,1,0
Sprite,Foreground,Centre,"SB\dot-dot.png",185,296 S,0,419733,,0.7 C,0,419733,,128,128,192 M,0,419733,422058,185,296,188,147 F,0,419733,422058,1,0
Sprite,Foreground,Centre,"SB\dot-dot.png",188,310 S,0,419368,,1.3 C,0,419368,,128,128,192 M,0,419368,421225,188,310,188,213 F,0,419368,421225,1,0
Sprite,Foreground,Centre,"SB\dot-dot.png",189,294 S,0,419446,,0.6 C,0,419446,,128,128,192 M,0,419446,422955,189,294,193,240 F,0,419446,422955,1,0
Sprite,Foreground,Centre,"SB\dot-dot.png",191,294 S,0,419341,,1 C,0,419341,,128,128,192 M,0,419341,422473,191,294,193,201 F,0,419341,422473,1,0
Sprite,Foreground,Centre,"SB\dot-Light.png",530,178 S,0,420458,,2 C,0,420458,,255,128,255 F,0,420458,423125,1,0
Sprite,Foreground,Centre,"SB\dot-dot.png",532,182 S,0,420717,,0.8 C,0,420717,,255,128,255 M,0,420717,423295,532,182,529,65 F,0,420717,423295,1,0
Sprite,Foreground,Centre,"SB\dot-dot.png",532,183 S,0,420882,,1.4 C,0,420882,,255,128,255 M,0,420882,423543,532,183,534,96 F,0,420882,423543,1,0
Sprite,Foreground,Centre,"SB\dot-dot.png",525,169 S,0,420874,,0.9 C,0,420874,,255,128,255 M,0,420874,423143,525,169,523,46 F,0,420874,423143,1,0
Sprite,Foreground,Centre,"SB\dot-dot.png",535,188 S,0,420783,,0.7 C,0,420783,,255,128,255 M,0,420783,423774,535,188,535,45 F,0,420783,423774,1,0
Sprite,Foreground,Centre,"SB\dot-dot.png",529,183 S,0,420468,,0.7 C,0,420468,,255,128,255 M,0,420468,422815,529,183,526,123 F,0,420468,422815,1,0
Sprite,Foreground,Centre,"SB\dot-dot.png",531,183 S,0,420890,,1.4 C,0,420890,,255,128,255 M,0,420890,423094,531,183,535,93 F,0,420890,423094,1,0
Sprite,Foreground,Centre,"SB\dot-dot.png",528,187 S,0,420650,,0.8 C,0,420650,,255,128,255 M,0,420650,423030,528,187,531,43 F,0,420650,423030,1,0
Sprite,Foreground,Centre,"SB\dot-dot.png",527,174 S,0,420770,,0.9 C,0,420770,,255,128,255 M,0,420770,423761,527,174,526,31 F,0,420770,423761,1,0
Sprite,Foreground,Centre,"SB\dot-dot.png",530,177 S,0,420557,,0.7 C,0,420557,,255,128,255 M,0,420557,423794,530,177,526,102 F,0,420557,423794,1,0
Sprite,Foreground,Centre,"SB\dot-dot.png",534,179 S,0,420696,,0.9 C,0,420696,,255,128,255 M,0,420696,422294,534,179,532,107 F,0,420696,422294,1,0
Sprite,Foreground,Centre,"SB\dot-Light.png",458,302 S,0,420625,,2 C,0,420625,,255,128,255 F,0,420625,423292,1,0
Sprite,Foreground,Centre,"SB\dot-dot.png",463,311 S,0,420921,,1.3 C,0,420921,,255,128,255 M,0,420921,423658,463,311,468,223 F,0,420921,423658,1,0
Sprite,Foreground,Centre,"SB\dot-dot.png",460,298 S,0,420642,,0.7 C,0,420642,,255,128,255 M,0,420642,422650,460,298,461,228 F,0,420642,422650,1,0
Sprite,Foreground,Centre,"SB\dot-dot.png",455,298 S,0,420956,,1.3 C,0,420956,,255,128,255 M,0,420956,422885,455,298,454,193 F,0,420956,422885,1,0
Sprite,Foreground,Centre,"SB\dot-dot.png",453,310 S,0,421064,,1.4 C,0,421064,,255,128,255 M,0,421064,422956,453,310,449,167 F,0,421064,422956,1,0
Sprite,Foreground,Centre,"SB\dot-dot.png",458,299 S,0,420754,,1.3 C,0,420754,,255,128,255 M,0,420754,422729,458,299,455,210 F,0,420754,422729,1,0
Sprite,Foreground,Centre,"SB\dot-dot.png",455,299 S,0,420661,,0.8 C,0,420661,,255,128,255 M,0,420661,423981,455,299,460,179 F,0,420661,423981,1,0
Sprite,Foreground,Centre,"SB\dot-dot.png",458,305 S,0,420928,,1.1 C,0,420928,,255,128,255 M,0,420928,423865,458,305,458,164 F,0,420928,423865,1,0
Sprite,Foreground,Centre,"SB\dot-dot.png",459,303 S,0,421024,,1.1 C,0,421024,,255,128,255 M,0,421024,422378,459,303,463,223 F,0,421024,422378,1,0
Sprite,Foreground,Centre,"SB\dot-dot.png",459,300 S,0,421091,,1.3 C,0,421091,,255,128,255 M,0,421091,423186,459,300,462,222 F,0,421091,423186,1,0
Sprite,Foreground,Centre,"SB\dot-dot.png",461,300 S,0,420765,,1.2 C,0,420765,,255,128,255 M,0,420765,422582,461,300,464,203 F,0,420765,422582,1,0
Sprite,Foreground,Centre,"SB\dot-Light.png",322,394 S,0,421125,,2 C,0,421125,,128,255,255 F,0,421125,423792,1,0
Sprite,Foreground,Centre,"SB\dot-dot.png",318,397 S,0,421491,,1.4 C,0,421491,,128,255,255 M,0,421491,423118,318,397,315,317 F,0,421491,423118,1,0
Sprite,Foreground,Centre,"SB\dot-dot.png",326,390 S,0,421387,,1.4 C,0,421387,,128,255,255 M,0,421387,424702,326,390,328,294 F,0,421387,424702,1,0
Sprite,Foreground,Centre,"SB\dot-dot.png",318,400 S,0,421430,,1.3 C,0,421430,,128,255,255 M,0,421430,424636,318,400,322,295 F,0,421430,424636,1,0
Sprite,Foreground,Centre,"SB\dot-dot.png",325,404 S,0,421349,,1.3 C,0,421349,,128,255,255 M,0,421349,424114,325,404,324,264 F,0,421349,424114,1,0
Sprite,Foreground,Centre,"SB\dot-dot.png",324,390 S,0,421255,,1.4 C,0,421255,,128,255,255 M,0,421255,424460,324,390,320,292 F,0,421255,424460,1,0
Sprite,Foreground,Centre,"SB\dot-dot.png",322,398 S,0,421262,,1 C,0,421262,,128,255,255 M,0,421262,423378,322,398,321,316 F,0,421262,423378,1,0
Sprite,Foreground,Centre,"SB\dot-dot.png",322,392 S,0,421403,,1.4 C,0,421403,,128,255,255 M,0,421403,424128,322,392,321,323 F,0,421403,424128,1,0
Sprite,Foreground,Centre,"SB\dot-dot.png",323,391 S,0,421130,,1.2 C,0,421130,,128,255,255 M,0,421130,423450,323,391,326,303 F,0,421130,423450,1,0
Sprite,Foreground,Centre,"SB\dot-dot.png",319,401 S,0,421554,,1.1 C,0,421554,,128,255,255 M,0,421554,423099,319,401,321,344 F,0,421554,423099,1,0
Sprite,Foreground,Centre,"SB\dot-dot.png",318,403 S,0,421193,,1 C,0,421193,,128,255,255 M,0,421193,423827,318,403,317,272 F,0,421193,423827,1,0
Sprite,Foreground,Centre,"SB\dot-Light.png",212,201 S,0,421625,,2 C,0,421625,,255,255,128 F,0,421625,424292,1,0
Sprite,Foreground,Centre,"SB\dot-dot.png",215,199 S,0,421847,,0.8 C,0,421847,,255,255,128 M,0,421847,423783,215,199,219,116 F,0,421847,423783,1,0
Sprite,Foreground,Centre,"SB\dot-dot.png",207,195 S,0,421834,,0.9 C,0,421834,,255,255,128 M,0,421834,423897,207,195,206,95 F,0,421834,423897,1,0
Sprite,Foreground,Centre,"SB\dot-dot.png",208,205 S,0,421977,,1.5 C,0,421977,,255,255,128 M,0,421977,423677,208,205,210,150 F,0,421977,423677,1,0
Sprite,Foreground,Centre,"SB\dot-dot.png",216,206 S,0,421846,,1.2 C,0,421846,,255,255,128 M,0,421846,423527,216,206,220,112 F,0,421846,423527,1,0
Sprite,Foreground,Centre,"SB\dot-dot.png",217,210 S,0,421951,,0.8 C,0,421951,,255,255,128 M,0,421951,424821,217,210,218,135 F,0,421951,424821,1,0
Sprite,Foreground,Centre,"SB\dot-dot.png",213,198 S,0,421634,,0.5 C,0,421634,,255,255,128 M,0,421634,424395,213,198,213,88 F,0,421634,424395,1,0
Sprite,Foreground,Centre,"SB\dot-dot.png",209,206 S,0,421642,,0.5 C,0,421642,,255,255,128 M,0,421642,424761,209,206,206,154 F,0,421642,424761,1,0
Sprite,Foreground,Centre,"SB\dot-dot.png",208,194 S,0,421923,,1.2 C,0,421923,,255,255,128 M,0,421923,423812,208,194,211,65 F,0,421923,423812,1,0
Sprite,Foreground,Centre,"SB\dot-dot.png",216,196 S,0,421695,,1.2 C,0,421695,,255,255,128 M,0,421695,425036,216,196,214,84 F,0,421695,425036,1,0
Sprite,Foreground,Centre,"SB\dot-dot.png",208,199 S,0,421871,,0.8 C,0,421871,,255,255,128 M,0,421871,424420,208,199,205,88 F,0,421871,424420,1,0
Sprite,Foreground,Centre,"SB\dot-Light.png",433,202 S,0,422125,,2 C,0,422125,,128,128,192 F,0,422125,424792,1,0
Sprite,Foreground,Centre,"SB\dot-dot.png",429,204 S,0,422212,,0.6 C,0,422212,,128,128,192 M,0,422212,425141,429,204,430,137 F,0,422212,425141,1,0
Sprite,Foreground,Centre,"SB\dot-dot.png",435,194 S,0,422468,,1 C,0,422468,,128,128,192 M,0,422468,424036,435,194,434,105 F,0,422468,424036,1,0
Sprite,Foreground,Centre,"SB\dot-dot.png",429,193 S,0,422514,,1.3 C,0,422514,,128,128,192 M,0,422514,425375,429,193,429,115 F,0,422514,425375,1,0
Sprite,Foreground,Centre,"SB\dot-dot.png",429,197 S,0,422521,,0.9 C,0,422521,,128,128,192 M,0,422521,424906,429,197,425,118 F,0,422521,424906,1,0
Sprite,Foreground,Centre,"SB\dot-dot.png",436,199 S,0,422491,,1.2 C,0,422491,,128,128,192 M,0,422491,423860,436,199,440,104 F,0,422491,423860,1,0
Sprite,Foreground,Centre,"SB\dot-dot.png",432,194 S,0,422321,,1.2 C,0,422321,,128,128,192 M,0,422321,423988,432,194,430,103 F,0,422321,423988,1,0
Sprite,Foreground,Centre,"SB\dot-dot.png",433,202 S,0,422251,,1.3 C,0,422251,,128,128,192 M,0,422251,425167,433,202,434,62 F,0,422251,425167,1,0
Sprite,Foreground,Centre,"SB\dot-dot.png",431,202 S,0,422394,,1.1 C,0,422394,,128,128,192 M,0,422394,425400,431,202,433,65 F,0,422394,425400,1,0
Sprite,Foreground,Centre,"SB\dot-dot.png",437,207 S,0,422597,,0.6 C,0,422597,,128,128,192 M,0,422597,425572,437,207,435,62 F,0,422597,425572,1,0
Sprite,Foreground,Centre,"SB\dot-dot.png",434,211 S,0,422238,,0.7 C,0,422238,,128,128,192 M,0,422238,424277,434,211,434,126 F,0,422238,424277,1,0
Sprite,Foreground,Centre,"SB\dot-Light.png",212,330 S,0,422625,,2 C,0,422625,,255,128,255 F,0,422625,425292,1,0
Sprite,Foreground,Centre,"SB\dot-dot.png",209,324 S,0,422750,,1 C,0,422750,,255,128,255 M,0,422750,425701,209,324,209,175 F,0,422750,425701,1,0
Sprite,Foreground,Centre,"SB\dot-dot.png",209,327 S,0,422907,,1.2 C,0,422907,,255,128,255 M,0,422907,425306,209,327,208,230 F,0,422907,425306,1,0
Sprite,Foreground,Centre,"SB\dot-dot.png",208,321 S,0,423080,,1.5 C,0,423080,,255,128,255 M,0,423080,425130,208,321,208,199 F,0,423080,425130,1,0
Sprite,Foreground,Centre,"SB\dot-dot.png",210,322 S,0,422677,,0.6 C,0,422677,,255,128,255 M,0,422677,425952,210,322,208,203 F,0,422677,425952,1,0
Sprite,Foreground,Centre,"SB\dot-dot.png",211,332 S,0,423040,,1.3 C,0,423040,,255,128,255 M,0,423040,424728,211,332,207,267 F,0,423040,424728,1,0
Sprite,Foreground,Centre,"SB\dot-dot.png",211,329 S,0,422853,,0.8 C,0,422853,,255,128,255 M,0,422853,424334,211,329,210,235 F,0,422853,424334,1,0
Sprite,Foreground,Centre,"SB\dot-dot.png",212,329 S,0,422702,,0.9 C,0,422702,,255,128,255 M,0,422702,426269,212,329,217,238 F,0,422702,426269,1,0
Sprite,Foreground,Centre,"SB\dot-dot.png",210,335 S,0,422874,,0.8 C,0,422874,,255,128,255 M,0,422874,426115,210,335,211,250 F,0,422874,426115,1,0
Sprite,Foreground,Centre,"SB\dot-dot.png",208,331 S,0,422997,,1.5 C,0,422997,,255,128,255 M,0,422997,425715,208,331,206,210 F,0,422997,425715,1,0
Sprite,Foreground,Centre,"SB\dot-dot.png",215,338 S,0,422948,,1.3 C,0,422948,,255,128,255 M,0,422948,424399,215,338,210,249 F,0,422948,424399,1,0
Sprite,Foreground,Centre,"SB\dot-Light.png",433,330 S,0,423125,,2 C,0,423125,,128,255,255 F,0,423125,425792,1,0
Sprite,Foreground,Centre,"SB\dot-dot.png",437,337 S,0,423612,,0.7 C,0,423612,,128,255,255 M,0,423612,425047,437,337,442,228 F,0,423612,425047,1,0
Sprite,Foreground,Centre,"SB\dot-dot.png",430,338 S,0,423599,,0.7 C,0,423599,,128,255,255 M,0,423599,426192,430,338,427,276 F,0,423599,426192,1,0
Sprite,Foreground,Centre,"SB\dot-dot.png",428,332 S,0,423590,,1.3 C,0,423590,,128,255,255 M,0,423590,426717,428,332,430,209 F,0,423590,426717,1,0
Sprite,Foreground,Centre,"SB\dot-dot.png",434,336 S,0,423472,,0.8 C,0,423472,,128,255,255 M,0,423472,425806,434,336,434,234 F,0,423472,425806,1,0
Sprite,Foreground,Centre,"SB\dot-dot.png",433,333 S,0,423260,,0.8 C,0,423260,,128,255,255 M,0,423260,424794,433,333,429,230 F,0,423260,424794,1,0
Sprite,Foreground,Centre,"SB\dot-dot.png",429,337 S,0,423425,,1 C,0,423425,,128,255,255 M,0,423425,426612,429,337,433,211 F,0,423425,426612,1,0
Sprite,Foreground,Centre,"SB\dot-dot.png",433,331 S,0,423177,,1.1 C,0,423177,,128,255,255 M,0,423177,425324,433,331,436,194 F,0,423177,425324,1,0
Sprite,Foreground,Centre,"SB\dot-dot.png",431,331 S,0,423443,,1 C,0,423443,,128,255,255 M,0,423443,425923,431,331,427,261 F,0,423443,425923,1,0
Sprite,Foreground,Centre,"SB\dot-dot.png",429,320 S,0,423230,,1 C,0,423230,,128,255,255 M,0,423230,426643,429,320,428,185 F,0,423230,426643,1,0
Sprite,Foreground,Centre,"SB\dot-dot.png",431,337 S,0,423299,,1.2 C,0,423299,,128,255,255 M,0,423299,426686,431,337,433,276 F,0,423299,426686,1,0
Sprite,Foreground,Centre,"SB\dot-Light.png",322,137 S,0,423625,,2 C,0,423625,,255,255,128 F,0,423625,426292,1,0
Sprite,Foreground,Centre,"SB\dot-dot.png",328,136 S,0,423729,,1.2 C,0,423729,,255,255,128 M,0,423729,425957,328,136,325,33 F,0,423729,425957,1,0
Sprite,Foreground,Centre,"SB\dot-dot.png",334,133 S,0,423944,,0.9 C,0,423944,,255,255,128 M,0,423944,425849,334,133,336,51 F,0,423944,425849,1,0
Sprite,Foreground,Centre,"SB\dot-dot.png",331,135 S,0,423865,,0.7 C,0,423865,,255,255,128 M,0,423865,426670,331,135,330,-4 F,0,423865,426670,1,0
Sprite,Foreground,Centre,"SB\dot-dot.png",331,142 S,0,423932,,0.7 C,0,423932,,255,255,128 M,0,423932,426755,331,142,330,11 F,0,423932,426755,1,0
Sprite,Foreground,Centre,"SB\dot-dot.png",332,145 S,0,423754,,1.2 C,0,423754,,255,255,128 M,0,423754,425921,332,145,332,90 F,0,423754,425921,1,0
Sprite,Foreground,Centre,"SB\dot-dot.png",336,135 S,0,423794,,1.1 C,0,423794,,255,255,128 M,0,423794,426818,336,135,337,62 F,0,423794,426818,1,0
Sprite,Foreground,Centre,"SB\dot-dot.png",337,147 S,0,423999,,1.2 C,0,423999,,255,255,128 M,0,423999,426688,337,147,337,36 F,0,423999,426688,1,0
Sprite,Foreground,Centre,"SB\dot-dot.png",329,132 S,0,423740,,1.3 C,0,423740,,255,255,128 M,0,423740,425332,329,132,330,42 F,0,423740,425332,1,0
Sprite,Foreground,Centre,"SB\dot-dot.png",336,145 S,0,424106,,1.1 C,0,424106,,255,255,128 M,0,424106,426837,336,145,340,64 F,0,424106,426837,1,0
Sprite,Foreground,Centre,"SB\dot-dot.png",336,139 S,0,423686,,0.9 C,0,423686,,255,255,128 M,0,423686,426952,336,139,337,14 F,0,423686,426952,1,0
Sprite,Foreground,Centre,"SB\dot-Light.png",322,234 S,0,424125,,2 C,0,424125,,128,128,192 F,0,424125,426792,1,0
Sprite,Foreground,Centre,"SB\dot-dot.png",318,226 S,0,424370,,0.6 C,0,424370,,128,128,192 M,0,424370,426799,318,226,316,121 F,0,424370,426799,1,0
Sprite,Foreground,Centre,"SB\dot-dot.png",323,228 S,0,424218,,1.3 C,0,424218,,128,128,192 M,0,424218,427432,323,228,322,103 F,0,424218,427432,1,0
Sprite,Foreground,Centre,"SB\dot-dot.png",320,238 S,0,424551,,1.3 C,0,424551,,128,128,192 M,0,424551,427154,320,238,318,145 F,0,424551,427154,1,0
Sprite,Foreground,Centre,"SB\dot-dot.png",322,238 S,0,424484,,1.2 C,0,424484,,128,128,192 M,0,424484,427135,322,238,323,167 F,0,424484,427135,1,0
Sprite,Foreground,Centre,"SB\dot-dot.png",321,236 S,0,424387,,0.9 C,0,424387,,128,128,192 M,0,424387,427271,321,236,317,166 F,0,424387,427271,1,0
Sprite,Foreground,Centre,"SB\dot-dot.png",327,233 S,0,424216,,0.7 C,0,424216,,128,128,192 M,0,424216,425883,327,233,330,170 F,0,424216,425883,1,0
Sprite,Foreground,Centre,"SB\dot-dot.png",318,230 S,0,424198,,0.8 C,0,424198,,128,128,192 M,0,424198,426854,318,230,322,160 F,0,424198,426854,1,0
Sprite,Foreground,Centre,"SB\dot-dot.png",321,244 S,0,424411,,1.2 C,0,424411,,128,128,192 M,0,424411,427692,321,244,319,152 F,0,424411,427692,1,0
Sprite,Foreground,Centre,"SB\dot-dot.png",326,229 S,0,424154,,1.2 C,0,424154,,128,128,192 M,0,424154,425948,326,229,328,98 F,0,424154,425948,1,0
Sprite,Foreground,Centre,"SB\dot-dot.png",324,230 S,0,424213,,0.7 C,0,424213,,128,128,192 M,0,424213,426411,324,230,329,119 F,0,424213,426411,1,0
Sprite,Foreground,Centre,"SB\dot-Light.png",322,330 S,0,424625,,2 C,0,424625,,255,128,255 F,0,424625,427292,1,0
Sprite,Foreground,Centre,"SB\dot-dot.png",321,325 S,0,424988,,1.4 C,0,424988,,255,128,255 M,0,424988,427561,321,325,321,223 F,0,424988,427561,1,0
Sprite,Foreground,Centre,"SB\dot-dot.png",322,330 S,0,425037,,1.3 C,0,425037,,255,128,255 M,0,425037,426842,322,330,321,191 F,0,425037,426842,1,0
Sprite,Foreground,Centre,"SB\dot-dot.png",324,328 S,0,425066,,1.4 C,0,425066,,255,128,255 M,0,425066,428209,324,328,328,222 F,0,425066,428209,1,0
Sprite,Foreground,Centre,"SB\dot-dot.png",323,336 S,0,424659,,0.8 C,0,424659,,255,128,255 M,0,424659,427798,323,336,324,218 F,0,424659,427798,1,0
Sprite,Foreground,Centre,"SB\dot-dot.png",325,339 S,0,424888,,0.5 C,0,424888,,255,128,255 M,0,424888,427806,325,339,324,276 F,0,424888,427806,1,0
Sprite,Foreground,Centre,"SB\dot-dot.png",320,324 S,0,424954,,1.3 C,0,424954,,255,128,255 M,0,424954,426690,320,324,316,259 F,0,424954,426690,1,0
Sprite,Foreground,Centre,"SB\dot-dot.png",322,327 S,0,424677,,0.6 C,0,424677,,255,128,255 M,0,424677,426402,322,327,318,216 F,0,424677,426402,1,0
Sprite,Foreground,Centre,"SB\dot-dot.png",320,333 S,0,424733,,1.2 C,0,424733,,255,128,255 M,0,424733,428284,320,333,316,226 F,0,424733,428284,1,0
Sprite,Foreground,Centre,"SB\dot-dot.png",327,321 S,0,425006,,1.4 C,0,425006,,255,128,255 M,0,425006,427870,327,321,326,200 F,0,425006,427870,1,0
Sprite,Foreground,Centre,"SB\dot-dot.png",327,328 S,0,424752,,0.7 C,0,424752,,255,128,255 M,0,424752,427028,327,328,323,271 F,0,424752,427028,1,0
Sprite,Foreground,Centre,"SB\dot-Light.png",106,230 S,0,425125,,2 C,0,425125,,128,255,255 F,0,425125,427792,1,0
Sprite,Foreground,Centre,"SB\dot-dot.png",103,231 S,0,425529,,1.4 C,0,425529,,128,255,255 M,0,425529,428335,103,231,104,91 F,0,425529,428335,1,0
Sprite,Foreground,Centre,"SB\dot-dot.png",107,230 S,0,425464,,1.4 C,0,425464,,128,255,255 M,0,425464,428505,107,230,102,131 F,0,425464,428505,1,0
Sprite,Foreground,Centre,"SB\dot-dot.png",102,239 S,0,425502,,1.1 C,0,425502,,128,255,255 M,0,425502,428155,102,239,102,103 F,0,425502,428155,1,0
Sprite,Foreground,Centre,"SB\dot-dot.png",110,236 S,0,425259,,0.9 C,0,425259,,128,255,255 M,0,425259,427372,110,236,106,165 F,0,425259,427372,1,0
Sprite,Foreground,Centre,"SB\dot-dot.png",104,222 S,0,425283,,1.2 C,0,425283,,128,255,255 M,0,425283,427359,104,222,109,106 F,0,425283,427359,1,0
Sprite,Foreground,Centre,"SB\dot-dot.png",108,233 S,0,425305,,1.2 C,0,425305,,128,255,255 M,0,425305,428209,108,233,110,100 F,0,425305,428209,1,0
Sprite,Foreground,Centre,"SB\dot-dot.png",103,222 S,0,425423,,1.4 C,0,425423,,128,255,255 M,0,425423,427479,103,222,105,126 F,0,425423,427479,1,0
Sprite,Foreground,Centre,"SB\dot-dot.png",110,229 S,0,425536,,1.5 C,0,425536,,128,255,255 M,0,425536,428008,110,229,110,126 F,0,425536,428008,1,0
Sprite,Foreground,Centre,"SB\dot-dot.png",104,240 S,0,425334,,1 C,0,425334,,128,255,255 M,0,425334,428681,104,240,108,127 F,0,425334,428681,1,0
Sprite,Foreground,Centre,"SB\dot-dot.png",108,237 S,0,425264,,0.8 C,0,425264,,128,255,255 M,0,425264,428383,108,237,106,148 F,0,425264,428383,1,0
Sprite,Foreground,Centre,"SB\dot-Light.png",538,230 S,0,425625,,2 C,0,425625,,255,255,128 F,0,425625,428292,1,0
Sprite,Foreground,Centre,"SB\dot-dot.png",541,234 S,0,425780,,0.5 C,0,425780,,255,255,128 M,0,425780,428334,541,234,537,95 F,0,425780,428334,1,0
Sprite,Foreground,Centre,"SB\dot-dot.png",533,225 S,0,425768,,1.3 C,0,425768,,255,255,128 M,0,425768,428430,533,225,536,146 F,0,425768,428430,1,0
Sprite,Foreground,Centre,"SB\dot-dot.png",542,228 S,0,426002,,1.3 C,0,426002,,255,255,128 M,0,426002,428791,542,228,546,154 F,0,426002,428791,1,0
Sprite,Foreground,Centre,"SB\dot-dot.png",539,235 S,0,425783,,1.2 C,0,425783,,255,255,128 M,0,425783,427861,539,235,536,160 F,0,425783,427861,1,0
Sprite,Foreground,Centre,"SB\dot-dot.png",542,230 S,0,426017,,1 C,0,426017,,255,255,128 M,0,426017,428459,542,230,539,130 F,0,426017,428459,1,0
Sprite,Foreground,Centre,"SB\dot-dot.png",534,233 S,0,426102,,0.7 C,0,426102,,255,255,128 M,0,426102,427370,534,233,532,141 F,0,426102,427370,1,0
Sprite,Foreground,Centre,"SB\dot-dot.png",537,236 S,0,425753,,1.4 C,0,425753,,255,255,128 M,0,425753,427547,537,236,536,87 F,0,425753,427547,1,0
Sprite,Foreground,Centre,"SB\dot-dot.png",536,232 S,0,425827,,0.7 C,0,425827,,255,255,128 M,0,425827,428292,536,232,540,109 F,0,425827,428292,1,0
Sprite,Foreground,Centre,"SB\dot-dot.png",540,226 S,0,425839,,1.3 C,0,425839,,255,255,128 M,0,425839,427465,540,226,543,95 F,0,425839,427465,1,0
Sprite,Foreground,Centre,"SB\dot-dot.png",538,230 S,0,426092,,1 C,0,426092,,255,255,128 M,0,426092,428898,538,230,536,176 F,0,426092,428898,1,0
Sprite,Foreground,Centre,"SB\dot-Light.png",202,202 S,0,426125,,2 C,0,426125,,128,128,192 F,0,426125,429792,1,0
Sprite,Foreground,Centre,"SB\dot-dot.png",206,193 S,0,426618,,1.2 C,0,426618,,128,128,192 M,0,426618,430302,206,193,204,99 F,0,426618,430302,1,0
Sprite,Foreground,Centre,"SB\dot-dot.png",207,203 S,0,426324,,0.8 C,0,426324,,128,128,192 M,0,426324,429553,207,203,209,137 F,0,426324,429553,1,0
Sprite,Foreground,Centre,"SB\dot-dot.png",201,201 S,0,426294,,0.7 C,0,426294,,128,128,192 M,0,426294,429384,201,201,205,112 F,0,426294,429384,1,0
Sprite,Foreground,Centre,"SB\dot-dot.png",207,193 S,0,426151,,0.8 C,0,426151,,128,128,192 M,0,426151,429256,207,193,209,60 F,0,426151,429256,1,0
Sprite,Foreground,Centre,"SB\dot-dot.png",203,193 S,0,426480,,1.2 C,0,426480,,128,128,192 M,0,426480,430366,203,193,200,51 F,0,426480,430366,1,0
Sprite,Foreground,Centre,"SB\dot-dot.png",199,209 S,0,426551,,1.4 C,0,426551,,128,128,192 M,0,426551,430744,199,209,200,129 F,0,426551,430744,1,0
Sprite,Foreground,Centre,"SB\dot-dot.png",203,205 S,0,426222,,1.1 C,0,426222,,128,128,192 M,0,426222,429221,203,205,206,127 F,0,426222,429221,1,0
Sprite,Foreground,Centre,"SB\dot-dot.png",199,199 S,0,426169,,1.1 C,0,426169,,128,128,192 M,0,426169,429052,199,199,203,142 F,0,426169,429052,1,0
Sprite,Foreground,Centre,"SB\dot-dot.png",197,207 S,0,426327,,1.1 C,0,426327,,128,128,192 M,0,426327,429011,197,207,198,138 F,0,426327,429011,1,0
Sprite,Foreground,Centre,"SB\dot-dot.png",207,196 S,0,426149,,1.3 C,0,426149,,128,128,192 M,0,426149,429074,207,196,210,96 F,0,426149,429074,1,0
Sprite,Foreground,Centre,"SB\dot-Light.png",442,202 S,0,426625,,2 C,0,426625,,255,128,255 F,0,426625,429292,1,0
Sprite,Foreground,Centre,"SB\dot-dot.png",443,194 S,0,426914,,1 C,0,426914,,255,128,255 M,0,426914,429991,443,194,439,124 F,0,426914,429991,1,0
Sprite,Foreground,Centre,"SB\dot-dot.png",446,200 S,0,427015,,1.4 C,0,427015,,255,128,255 M,0,427015,429522,446,200,444,63 F,0,427015,429522,1,0
Sprite,Foreground,Centre,"SB\dot-dot.png",440,199 S,0,427022,,1.4 C,0,427022,,255,128,255 M,0,427022,428298,440,199,439,111 F,0,427022,428298,1,0
Sprite,Foreground,Centre,"SB\dot-dot.png",445,202 S,0,426828,,1.3 C,0,426828,,255,128,255 M,0,426828,428315,445,202,446,151 F,0,426828,428315,1,0
Sprite,Foreground,Centre,"SB\dot-dot.png",446,199 S,0,426971,,1.3 C,0,426971,,255,128,255 M,0,426971,429205,446,199,450,66 F,0,426971,429205,1,0
Sprite,Foreground,Centre,"SB\dot-dot.png",444,207 S,0,426963,,1.4 C,0,426963,,255,128,255 M,0,426963,428431,444,207,442,110 F,0,426963,428431,1,0
Sprite,Foreground,Centre,"SB\dot-dot.png",447,201 S,0,426884,,0.6 C,0,426884,,255,128,255 M,0,426884,429890,447,201,450,102 F,0,426884,429890,1,0
Sprite,Foreground,Centre,"SB\dot-dot.png",441,202 S,0,426728,,1.5 C,0,426728,,255,128,255 M,0,426728,428692,441,202,439,147 F,0,426728,428692,1,0
Sprite,Foreground,Centre,"SB\dot-dot.png",446,196 S,0,426869,,1.3 C,0,426869,,255,128,255 M,0,426869,429868,446,196,441,139 F,0,426869,429868,1,0
Sprite,Foreground,Centre,"SB\dot-dot.png",446,194 S,0,426666,,0.5 C,0,426666,,255,128,255 M,0,426666,429113,446,194,450,138 F,0,426666,429113,1,0
Sprite,Foreground,Centre,"SB\dot-Light.png",242,410 S,0,427125,,2 C,0,427125,,128,255,255 F,0,427125,429792,1,0
Sprite,Foreground,Centre,"SB\dot-dot.png",246,409 S,0,427469,,1.3 C,0,427469,,128,255,255 M,0,427469,429270,246,409,243,306 F,0,427469,429270,1,0
Sprite,Foreground,Centre,"SB\dot-dot.png",238,413 S,0,427240,,0.5 C,0,427240,,128,255,255 M,0,427240,428793,238,413,243,267 F,0,427240,428793,1,0
Sprite,Foreground,Centre,"SB\dot-dot.png",245,400 S,0,427316,,0.8 C,0,427316,,128,255,255 M,0,427316,429346,245,400,243,313 F,0,427316,429346,1,0
Sprite,Foreground,Centre,"SB\dot-dot.png",238,419 S,0,427325,,1.4 C,0,427325,,128,255,255 M,0,427325,429762,238,419,233,309 F,0,427325,429762,1,0
Sprite,Foreground,Centre,"SB\dot-dot.png",246,405 S,0,427505,,1.5 C,0,427505,,128,255,255 M,0,427505,429496,246,405,241,294 F,0,427505,429496,1,0
Sprite,Foreground,Centre,"SB\dot-dot.png",240,402 S,0,427438,,1.4 C,0,427438,,128,255,255 M,0,427438,429563,240,402,241,338 F,0,427438,429563,1,0
Sprite,Foreground,Centre,"SB\dot-dot.png",244,410 S,0,427390,,1.3 C,0,427390,,128,255,255 M,0,427390,430632,244,410,248,327 F,0,427390,430632,1,0
Sprite,Foreground,Centre,"SB\dot-dot.png",240,413 S,0,427333,,0.8 C,0,427333,,128,255,255 M,0,427333,428842,240,413,238,346 F,0,427333,428842,1,0
Sprite,Foreground,Centre,"SB\dot-dot.png",243,415 S,0,427188,,1.1 C,0,427188,,128,255,255 M,0,427188,428891,243,415,243,271 F,0,427188,428891,1,0
Sprite,Foreground,Centre,"SB\dot-dot.png",247,408 S,0,427175,,1 C,0,427175,,128,255,255 M,0,427175,430055,247,408,252,267 F,0,427175,430055,1,0
Sprite,Foreground,Centre,"SB\dot-Light.png",402,410 S,0,427625,,2 C,0,427625,,255,255,128 F,0,427625,430292,1,0
Sprite,Foreground,Centre,"SB\dot-dot.png",404,405 S,0,428039,,1.2 C,0,428039,,255,255,128 M,0,428039,430760,404,405,401,324 F,0,428039,430760,1,0
Sprite,Foreground,Centre,"SB\dot-dot.png",403,401 S,0,427821,,1.4 C,0,427821,,255,255,128 M,0,427821,429353,403,401,399,319 F,0,427821,429353,1,0
Sprite,Foreground,Centre,"SB\dot-dot.png",400,408 S,0,427988,,1.3 C,0,427988,,255,255,128 M,0,427988,429335,400,408,400,300 F,0,427988,429335,1,0
Sprite,Foreground,Centre,"SB\dot-dot.png",398,415 S,0,427704,,1.4 C,0,427704,,255,255,128 M,0,427704,430386,398,415,401,355 F,0,427704,430386,1,0
Sprite,Foreground,Centre,"SB\dot-dot.png",405,402 S,0,427758,,1.3 C,0,427758,,255,255,128 M,0,427758,429937,405,402,404,295 F,0,427758,429937,1,0
Sprite,Foreground,Centre,"SB\dot-dot.png",399,416 S,0,427920,,0.6 C,0,427920,,255,255,128 M,0,427920,430099,399,416,396,273 F,0,427920,430099,1,0
Sprite,Foreground,Centre,"SB\dot-dot.png",404,406 S,0,428105,,1 C,0,428105,,255,255,128 M,0,428105,431108,404,406,399,343 F,0,428105,431108,1,0
Sprite,Foreground,Centre,"SB\dot-dot.png",399,401 S,0,428038,,0.5 C,0,428038,,255,255,128 M,0,428038,431098,399,401,403,293 F,0,428038,431098,1,0
Sprite,Foreground,Centre,"SB\dot-dot.png",404,409 S,0,427636,,1.4 C,0,427636,,255,255,128 M,0,427636,431151,404,409,408,306 F,0,427636,431151,1,0
Sprite,Foreground,Centre,"SB\dot-dot.png",406,402 S,0,427715,,1.4 C,0,427715,,255,255,128 M,0,427715,430281,406,402,403,268 F,0,427715,430281,1,0
Sprite,Foreground,Centre,"SB\dot-Light.png",178,322 S,0,428125,,2 C,0,428125,,128,128,192 F,0,428125,430792,1,0
Sprite,Foreground,Centre,"SB\dot-dot.png",176,328 S,0,428473,,0.8 C,0,428473,,128,128,192 M,0,428473,429858,176,328,180,211 F,0,428473,429858,1,0
Sprite,Foreground,Centre,"SB\dot-dot.png",183,329 S,0,428252,,1.1 C,0,428252,,128,128,192 M,0,428252,430336,183,329,184,216 F,0,428252,430336,1,0
Sprite,Foreground,Centre,"SB\dot-dot.png",175,330 S,0,428492,,1.1 C,0,428492,,128,128,192 M,0,428492,429964,175,330,178,200 F,0,428492,429964,1,0
Sprite,Foreground,Centre,"SB\dot-dot.png",179,329 S,0,428405,,1.1 C,0,428405,,128,128,192 M,0,428405,429811,179,329,177,181 F,0,428405,429811,1,0
Sprite,Foreground,Centre,"SB\dot-dot.png",180,315 S,0,428294,,1.4 C,0,428294,,128,128,192 M,0,428294,431756,180,315,179,216 F,0,428294,431756,1,0
Sprite,Foreground,Centre,"SB\dot-dot.png",179,325 S,0,428519,,1.2 C,0,428519,,128,128,192 M,0,428519,430266,179,325,179,274 F,0,428519,430266,1,0
Sprite,Foreground,Centre,"SB\dot-dot.png",174,319 S,0,428140,,1.4 C,0,428140,,128,128,192 M,0,428140,430868,174,319,171,217 F,0,428140,430868,1,0
Sprite,Foreground,Centre,"SB\dot-dot.png",174,322 S,0,428213,,1.5 C,0,428213,,128,128,192 M,0,428213,429871,174,322,170,184 F,0,428213,429871,1,0
Sprite,Foreground,Centre,"SB\dot-dot.png",179,314 S,0,428194,,1 C,0,428194,,128,128,192 M,0,428194,430488,179,314,183,216 F,0,428194,430488,1,0
Sprite,Foreground,Centre,"SB\dot-dot.png",178,329 S,0,428607,,1.5 C,0,428607,,128,128,192 M,0,428607,431543,178,329,178,211 F,0,428607,431543,1,0
Sprite,Foreground,Centre,"SB\dot-Light.png",466,322 S,0,428625,,2 C,0,428625,,255,128,255 F,0,428625,431292,1,0
Sprite,Foreground,Centre,"SB\dot-dot.png",464,313 S,0,428648,,1.2 C,0,428648,,255,128,255 M,0,428648,431749,464,313,468,258 F,0,428648,431749,1,0
Sprite,Foreground,Centre,"SB\dot-dot.png",462,320 S,0,428638,,0.9 C,0,428638,,255,128,255 M,0,428638,431062,462,320,463,240 F,0,428638,431062,1,0
Sprite,Foreground,Centre,"SB\dot-dot.png",466,324 S,0,429039,,0.9 C,0,429039,,255,128,255 M,0,429039,432078,466,324,463,211 F,0,429039,432078,1,0
Sprite,Foreground,Centre,"SB\dot-dot.png",468,332 S,0,428705,,0.9 C,0,428705,,255,128,255 M,0,428705,430720,468,332,464,267 F,0,428705,430720,1,0
Sprite,Foreground,Centre,"SB\dot-dot.png",469,327 S,0,429117,,1.5 C,0,429117,,255,128,255 M,0,429117,432185,469,327,470,266 F,0,429117,432185,1,0
Sprite,Foreground,Centre,"SB\dot-dot.png",469,319 S,0,428763,,1 C,0,428763,,255,128,255 M,0,428763,430531,469,319,471,210 F,0,428763,430531,1,0
Sprite,Foreground,Centre,"SB\dot-dot.png",471,320 S,0,428664,,1.2 C,0,428664,,255,128,255 M,0,428664,431013,471,320,475,231 F,0,428664,431013,1,0
Sprite,Foreground,Centre,"SB\dot-dot.png",462,325 S,0,428748,,0.7 C,0,428748,,255,128,255 M,0,428748,430308,462,325,465,187 F,0,428748,430308,1,0
Sprite,Foreground,Centre,"SB\dot-dot.png",463,327 S,0,428647,,0.7 C,0,428647,,255,128,255 M,0,428647,430638,463,327,462,212 F,0,428647,430638,1,0
Sprite,Foreground,Centre,"SB\dot-dot.png",467,332 S,0,428675,,1.4 C,0,428675,,255,128,255 M,0,428675,430787,467,332,466,262 F,0,428675,430787,1,0
Sprite,Foreground,Centre,"SB\dot-Light.png",322,338 S,0,429125,,2 C,0,429125,,128,255,255 F,0,429125,431792,1,0
Sprite,Foreground,Centre,"SB\dot-dot.png",320,348 S,0,429305,,1.4 C,0,429305,,128,255,255 M,0,429305,431626,320,348,316,250 F,0,429305,431626,1,0
Sprite,Foreground,Centre,"SB\dot-dot.png",325,331 S,0,429621,,1.2 C,0,429621,,128,255,255 M,0,429621,432338,325,331,322,200 F,0,429621,432338,1,0
Sprite,Foreground,Centre,"SB\dot-dot.png",326,334 S,0,429386,,0.7 C,0,429386,,128,255,255 M,0,429386,432569,326,334,330,223 F,0,429386,432569,1,0
Sprite,Foreground,Centre,"SB\dot-dot.png",323,347 S,0,429262,,0.9 C,0,429262,,128,255,255 M,0,429262,430899,323,347,319,226 F,0,429262,430899,1,0
Sprite,Foreground,Centre,"SB\dot-dot.png",319,334 S,0,429222,,1.2 C,0,429222,,128,255,255 M,0,429222,431379,319,334,323,210 F,0,429222,431379,1,0
Sprite,Foreground,Centre,"SB\dot-dot.png",321,348 S,0,429314,,0.5 C,0,429314,,128,255,255 M,0,429314,432690,321,348,320,212 F,0,429314,432690,1,0
Sprite,Foreground,Centre,"SB\dot-dot.png",320,334 S,0,429470,,1.5 C,0,429470,,128,255,255 M,0,429470,432018,320,334,324,230 F,0,429470,432018,1,0
Sprite,Foreground,Centre,"SB\dot-dot.png",321,337 S,0,429213,,1 C,0,429213,,128,255,255 M,0,429213,431511,321,337,318,259 F,0,429213,431511,1,0
Sprite,Foreground,Centre,"SB\dot-dot.png",325,343 S,0,429472,,1.1 C,0,429472,,128,255,255 M,0,429472,431340,325,343,323,262 F,0,429472,431340,1,0
Sprite,Foreground,Centre,"SB\dot-dot.png",326,336 S,0,429571,,1.1 C,0,429571,,128,255,255 M,0,429571,430967,326,336,329,246 F,0,429571,430967,1,0
Sprite,Foreground,Centre,"SB\dot-Light.png",322,146 S,0,430125,,2 C,0,430125,,255,255,128 F,0,430125,432792,1,0
Sprite,Foreground,Centre,"SB\dot-dot.png",320,150 S,0,430540,,1.4 C,0,430540,,255,255,128 M,0,430540,433539,320,150,318,8 F,0,430540,433539,1,0
Sprite,Foreground,Centre,"SB\dot-dot.png",321,152 S,0,430492,,1.3 C,0,430492,,255,255,128 M,0,430492,433433,321,152,323,54 F,0,430492,433433,1,0
Sprite,Foreground,Centre,"SB\dot-dot.png",321,151 S,0,430492,,1.5 C,0,430492,,255,255,128 M,0,430492,433573,321,151,324,15 F,0,430492,433573,1,0
Sprite,Foreground,Centre,"SB\dot-dot.png",325,141 S,0,430185,,1.4 C,0,430185,,255,255,128 M,0,430185,432069,325,141,327,36 F,0,430185,432069,1,0
Sprite,Foreground,Centre,"SB\dot-dot.png",319,154 S,0,430397,,1.1 C,0,430397,,255,255,128 M,0,430397,433204,319,154,322,85 F,0,430397,433204,1,0
Sprite,Foreground,Centre,"SB\dot-dot.png",326,144 S,0,430148,,0.6 C,0,430148,,255,255,128 M,0,430148,432462,326,144,322,11 F,0,430148,432462,1,0
Sprite,Foreground,Centre,"SB\dot-dot.png",323,151 S,0,430541,,1.2 C,0,430541,,255,255,128 M,0,430541,433694,323,151,321,26 F,0,430541,433694,1,0
Sprite,Foreground,Centre,"SB\dot-dot.png",319,149 S,0,430368,,1 C,0,430368,,255,255,128 M,0,430368,433422,319,149,322,32 F,0,430368,433422,1,0
Sprite,Foreground,Centre,"SB\dot-dot.png",319,150 S,0,430590,,1.4 C,0,430590,,255,255,128 M,0,430590,432585,319,150,320,44 F,0,430590,432585,1,0
Sprite,Foreground,Centre,"SB\dot-dot.png",325,143 S,0,430473,,1.2 C,0,430473,,255,255,128 M,0,430473,432168,325,143,323,80 F,0,430473,432168,1,0
Sprite,Foreground,Centre,"SB\dot-Light.png",322,242 S,0,430291,,2 C,0,430291,,255,255,128 F,0,430291,432958,1,0
Sprite,Foreground,Centre,"SB\dot-dot.png",320,239 S,0,430412,,1.4 C,0,430412,,255,255,128 M,0,430412,433606,320,239,324,144 F,0,430412,433606,1,0
Sprite,Foreground,Centre,"SB\dot-dot.png",325,239 S,0,430480,,1.2 C,0,430480,,255,255,128 M,0,430480,432039,325,239,323,124 F,0,430480,432039,1,0
Sprite,Foreground,Centre,"SB\dot-dot.png",325,252 S,0,430693,,1.4 C,0,430693,,255,255,128 M,0,430693,432733,325,252,323,128 F,0,430693,432733,1,0
Sprite,Foreground,Centre,"SB\dot-dot.png",321,246 S,0,430369,,1.3 C,0,430369,,255,255,128 M,0,430369,432366,321,246,317,116 F,0,430369,432366,1,0
Sprite,Foreground,Centre,"SB\dot-dot.png",323,236 S,0,430376,,1 C,0,430376,,255,255,128 M,0,430376,432668,323,236,326,136 F,0,430376,432668,1,0
Sprite,Foreground,Centre,"SB\dot-dot.png",324,232 S,0,430693,,0.8 C,0,430693,,255,255,128 M,0,430693,432324,324,232,323,115 F,0,430693,432324,1,0
Sprite,Foreground,Centre,"SB\dot-dot.png",320,250 S,0,430371,,1.1 C,0,430371,,255,255,128 M,0,430371,433789,320,250,322,200 F,0,430371,433789,1,0
Sprite,Foreground,Centre,"SB\dot-dot.png",322,237 S,0,430520,,1.4 C,0,430520,,255,255,128 M,0,430520,433522,322,237,321,148 F,0,430520,433522,1,0
Sprite,Foreground,Centre,"SB\dot-dot.png",320,238 S,0,430786,,1 C,0,430786,,255,255,128 M,0,430786,432870,320,238,319,148 F,0,430786,432870,1,0
Sprite,Foreground,Centre,"SB\dot-dot.png",317,235 S,0,430512,,1.1 C,0,430512,,255,255,128 M,0,430512,433187,317,235,318,176 F,0,430512,433187,1,0
Sprite,Foreground,Centre,"SB\dot-Light.png",134,282 S,0,430625,,2 C,0,430625,,128,128,192 F,0,430625,433292,1,0
Sprite,Foreground,Centre,"SB\dot-dot.png",139,290 S,0,431041,,1.2 C,0,431041,,128,128,192 M,0,431041,433905,139,290,139,177 F,0,431041,433905,1,0
Sprite,Foreground,Centre,"SB\dot-dot.png",134,289 S,0,430838,,1.5 C,0,430838,,128,128,192 M,0,430838,433595,134,289,132,226 F,0,430838,433595,1,0
Sprite,Foreground,Centre,"SB\dot-dot.png",132,287 S,0,430765,,0.7 C,0,430765,,128,128,192 M,0,430765,433269,132,287,137,151 F,0,430765,433269,1,0
Sprite,Foreground,Centre,"SB\dot-dot.png",138,280 S,0,430728,,0.7 C,0,430728,,128,128,192 M,0,430728,432888,138,280,135,147 F,0,430728,432888,1,0
Sprite,Foreground,Centre,"SB\dot-dot.png",130,278 S,0,430748,,1.2 C,0,430748,,128,128,192 M,0,430748,433279,130,278,125,131 F,0,430748,433279,1,0
Sprite,Foreground,Centre,"SB\dot-dot.png",138,275 S,0,430780,,1.1 C,0,430780,,128,128,192 M,0,430780,432936,138,275,139,189 F,0,430780,432936,1,0
Sprite,Foreground,Centre,"SB\dot-dot.png",138,284 S,0,430748,,1.5 C,0,430748,,128,128,192 M,0,430748,432649,138,284,137,167 F,0,430748,432649,1,0
Sprite,Foreground,Centre,"SB\dot-dot.png",133,285 S,0,430804,,1.1 C,0,430804,,128,128,192 M,0,430804,434255,133,285,130,175 F,0,430804,434255,1,0
Sprite,Foreground,Centre,"SB\dot-dot.png",130,289 S,0,430643,,0.7 C,0,430643,,128,128,192 M,0,430643,432995,130,289,132,173 F,0,430643,432995,1,0
Sprite,Foreground,Centre,"SB\dot-dot.png",135,288 S,0,430659,,0.8 C,0,430659,,128,128,192 M,0,430659,433691,135,288,131,182 F,0,430659,433691,1,0
Sprite,Foreground,Centre,"SB\dot-Light.png",234,202 S,0,430958,,2 C,0,430958,,255,128,255 F,0,430958,433625,1,0
Sprite,Foreground,Centre,"SB\dot-dot.png",231,193 S,0,431419,,1.2 C,0,431419,,255,128,255 M,0,431419,432764,231,193,227,124 F,0,431419,432764,1,0
Sprite,Foreground,Centre,"SB\dot-dot.png",236,200 S,0,431068,,1.3 C,0,431068,,255,128,255 M,0,431068,433940,236,200,234,72 F,0,431068,433940,1,0
Sprite,Foreground,Centre,"SB\dot-dot.png",231,206 S,0,431113,,1 C,0,431113,,255,128,255 M,0,431113,434013,231,206,234,101 F,0,431113,434013,1,0
Sprite,Foreground,Centre,"SB\dot-dot.png",231,206 S,0,431270,,1.3 C,0,431270,,255,128,255 M,0,431270,433853,231,206,234,112 F,0,431270,433853,1,0
Sprite,Foreground,Centre,"SB\dot-dot.png",239,192 S,0,431299,,0.7 C,0,431299,,255,128,255 M,0,431299,432929,239,192,238,87 F,0,431299,432929,1,0
Sprite,Foreground,Centre,"SB\dot-dot.png",230,193 S,0,431195,,0.7 C,0,431195,,255,128,255 M,0,431195,433068,230,193,231,58 F,0,431195,433068,1,0
Sprite,Foreground,Centre,"SB\dot-dot.png",237,205 S,0,431167,,1.2 C,0,431167,,255,128,255 M,0,431167,433074,237,205,236,123 F,0,431167,433074,1,0
Sprite,Foreground,Centre,"SB\dot-dot.png",229,196 S,0,431043,,0.5 C,0,431043,,255,128,255 M,0,431043,434438,229,196,227,134 F,0,431043,434438,1,0
Sprite,Foreground,Centre,"SB\dot-dot.png",237,194 S,0,431219,,0.8 C,0,431219,,255,128,255 M,0,431219,433538,237,194,242,62 F,0,431219,433538,1,0
Sprite,Foreground,Centre,"SB\dot-dot.png",237,198 S,0,430991,,0.8 C,0,430991,,255,128,255 M,0,430991,433668,237,198,236,71 F,0,430991,433668,1,0
Sprite,Foreground,Centre,"SB\dot-Light.png",278,390 S,0,431291,,2 C,0,431291,,128,255,255 F,0,431291,433958,1,0
Sprite,Foreground,Centre,"SB\dot-dot.png",275,383 S,0,431779,,0.7 C,0,431779,,128,255,255 M,0,431779,434951,275,383,274,243 F,0,431779,434951,1,0
Sprite,Foreground,Centre,"SB\dot-dot.png",283,391 S,0,431410,,1.2 C,0,431410,,128,255,255 M,0,431410,434925,283,391,287,286 F,0,431410,434925,1,0
Sprite,Foreground,Centre,"SB\dot-dot.png",279,398 S,0,431471,,0.7 C,0,431471,,128,255,255 M,0,431471,434155,279,398,280,314 F,0,431471,434155,1,0
Sprite,Foreground,Centre,"SB\dot-dot.png",275,380 S,0,431585,,1.1 C,0,431585,,128,255,255 M,0,431585,434414,275,380,278,285 F,0,431585,434414,1,0
Sprite,Foreground,Centre,"SB\dot-dot.png",280,399 S,0,431790,,1.4 C,0,431790,,128,255,255 M,0,431790,433851,280,399,276,306 F,0,431790,433851,1,0
Sprite,Foreground,Centre,"SB\dot-dot.png",282,399 S,0,431377,,0.7 C,0,431377,,128,255,255 M,0,431377,434246,282,399,283,269 F,0,431377,434246,1,0
Sprite,Foreground,Centre,"SB\dot-dot.png",276,388 S,0,431756,,0.9 C,0,431756,,128,255,255 M,0,431756,434053,276,388,277,314 F,0,431756,434053,1,0
Sprite,Foreground,Centre,"SB\dot-dot.png",278,394 S,0,431561,,0.9 C,0,431561,,128,255,255 M,0,431561,434430,278,394,275,254 F,0,431561,434430,1,0
Sprite,Foreground,Centre,"SB\dot-dot.png",281,381 S,0,431546,,0.9 C,0,431546,,128,255,255 M,0,431546,434537,281,381,279,296 F,0,431546,434537,1,0
Sprite,Foreground,Centre,"SB\dot-dot.png",276,381 S,0,431460,,1.1 C,0,431460,,128,255,255 M,0,431460,434078,276,381,280,312 F,0,431460,434078,1,0
Sprite,Foreground,Centre,"SB\dot-Light.png",390,326 S,0,431625,,2 C,0,431625,,255,255,128 F,0,431625,434292,1,0
Sprite,Foreground,Centre,"SB\dot-dot.png",394,324 S,0,431910,,1.3 C,0,431910,,255,255,128 M,0,431910,433560,394,324,390,248 F,0,431910,433560,1,0
Sprite,Foreground,Centre,"SB\dot-dot.png",389,322 S,0,431713,,1.2 C,0,431713,,255,255,128 M,0,431713,434621,389,322,384,204 F,0,431713,434621,1,0
Sprite,Foreground,Centre,"SB\dot-dot.png",391,316 S,0,432012,,1.2 C,0,432012,,255,255,128 M,0,432012,434578,391,316,387,184 F,0,432012,434578,1,0
Sprite,Foreground,Centre,"SB\dot-dot.png",391,320 S,0,431920,,0.9 C,0,431920,,255,255,128 M,0,431920,433403,391,320,387,239 F,0,431920,433403,1,0
Sprite,Foreground,Centre,"SB\dot-dot.png",390,332 S,0,431767,,1 C,0,431767,,255,255,128 M,0,431767,433874,390,332,394,190 F,0,431767,433874,1,0
Sprite,Foreground,Centre,"SB\dot-dot.png",392,317 S,0,431980,,1.2 C,0,431980,,255,255,128 M,0,431980,434778,392,317,394,196 F,0,431980,434778,1,0
Sprite,Foreground,Centre,"SB\dot-dot.png",391,319 S,0,432083,,0.7 C,0,432083,,255,255,128 M,0,432083,433500,391,319,389,232 F,0,432083,433500,1,0
Sprite,Foreground,Centre,"SB\dot-dot.png",387,333 S,0,431778,,0.7 C,0,431778,,255,255,128 M,0,431778,433756,387,333,389,201 F,0,431778,433756,1,0
Sprite,Foreground,Centre,"SB\dot-dot.png",394,327 S,0,431685,,1.3 C,0,431685,,255,255,128 M,0,431685,434136,394,327,391,178 F,0,431685,434136,1,0
Sprite,Foreground,Centre,"SB\dot-dot.png",387,332 S,0,431945,,1.4 C,0,431945,,255,255,128 M,0,431945,435151,387,332,389,276 F,0,431945,435151,1,0
Sprite,Foreground,Centre,"SB\dot-Light.png",486,242 S,0,431958,,2 C,0,431958,,128,128,192 F,0,431958,434625,1,0
Sprite,Foreground,Centre,"SB\dot-dot.png",482,251 S,0,432428,,0.7 C,0,432428,,128,128,192 M,0,432428,433944,482,251,483,126 F,0,432428,433944,1,0
Sprite,Foreground,Centre,"SB\dot-dot.png",486,241 S,0,432030,,1.1 C,0,432030,,128,128,192 M,0,432030,434698,486,241,487,142 F,0,432030,434698,1,0
Sprite,Foreground,Centre,"SB\dot-dot.png",485,246 S,0,432168,,0.8 C,0,432168,,128,128,192 M,0,432168,434039,485,246,487,147 F,0,432168,434039,1,0
Sprite,Foreground,Centre,"SB\dot-dot.png",487,233 S,0,432149,,0.9 C,0,432149,,128,128,192 M,0,432149,434490,487,233,485,142 F,0,432149,434490,1,0
Sprite,Foreground,Centre,"SB\dot-dot.png",489,243 S,0,432130,,1.5 C,0,432130,,128,128,192 M,0,432130,434268,489,243,485,133 F,0,432130,434268,1,0
Sprite,Foreground,Centre,"SB\dot-dot.png",487,241 S,0,432090,,1.4 C,0,432090,,128,128,192 M,0,432090,434164,487,241,488,126 F,0,432090,434164,1,0
Sprite,Foreground,Centre,"SB\dot-dot.png",488,239 S,0,431990,,0.8 C,0,431990,,128,128,192 M,0,431990,435426,488,239,489,141 F,0,431990,435426,1,0
Sprite,Foreground,Centre,"SB\dot-dot.png",490,249 S,0,432341,,0.9 C,0,432341,,128,128,192 M,0,432341,435295,490,249,486,111 F,0,432341,435295,1,0
Sprite,Foreground,Centre,"SB\dot-dot.png",487,242 S,0,432230,,1.2 C,0,432230,,128,128,192 M,0,432230,435317,487,242,483,106 F,0,432230,435317,1,0
Sprite,Foreground,Centre,"SB\dot-dot.png",481,238 S,0,432351,,1.4 C,0,432351,,128,128,192 M,0,432351,435295,481,238,481,125 F,0,432351,435295,1,0
Sprite,Foreground,Centre,"SB\dot-Light.png",554,134 S,0,432291,,2 C,0,432291,,255,128,255 F,0,432291,434958,1,0
Sprite,Foreground,Centre,"SB\dot-dot.png",549,139 S,0,432596,,1.5 C,0,432596,,255,128,255 M,0,432596,435241,549,139,553,8 F,0,432596,435241,1,0
Sprite,Foreground,Centre,"SB\dot-dot.png",553,142 S,0,432503,,1 C,0,432503,,255,128,255 M,0,432503,434129,553,142,551,63 F,0,432503,434129,1,0
Sprite,Foreground,Centre,"SB\dot-dot.png",559,139 S,0,432400,,1.3 C,0,432400,,255,128,255 M,0,432400,434530,559,139,563,-10 F,0,432400,434530,1,0
Sprite,Foreground,Centre,"SB\dot-dot.png",553,131 S,0,432765,,1.1 C,0,432765,,255,128,255 M,0,432765,434424,553,131,553,77 F,0,432765,434424,1,0
Sprite,Foreground,Centre,"SB\dot-dot.png",558,135 S,0,432367,,1.1 C,0,432367,,255,128,255 M,0,432367,435130,558,135,561,53 F,0,432367,435130,1,0
Sprite,Foreground,Centre,"SB\dot-dot.png",556,128 S,0,432554,,1.2 C,0,432554,,255,128,255 M,0,432554,435721,556,128,553,34 F,0,432554,435721,1,0
Sprite,Foreground,Centre,"SB\dot-dot.png",550,131 S,0,432394,,1.5 C,0,432394,,255,128,255 M,0,432394,435635,550,131,549,23 F,0,432394,435635,1,0
Sprite,Foreground,Centre,"SB\dot-dot.png",556,128 S,0,432386,,1.4 C,0,432386,,255,128,255 M,0,432386,435310,556,128,560,0 F,0,432386,435310,1,0
Sprite,Foreground,Centre,"SB\dot-dot.png",555,142 S,0,432756,,0.8 C,0,432756,,255,128,255 M,0,432756,434737,555,142,554,-8 F,0,432756,434737,1,0
Sprite,Foreground,Centre,"SB\dot-dot.png",558,136 S,0,432598,,1 C,0,432598,,255,128,255 M,0,432598,435614,558,136,561,-10 F,0,432598,435614,1,0
//Storyboard Sound Samples

[TimingPoints]
723255,332.409972299169,4,1,1,80,1,0
723255,-55.5555555555556,4,1,1,80,0,0
768462,331.491712707182,4,1,1,80,1,1
768462,-55.5555555555556,4,1,1,80,0,1
789594,-55.5555555555556,4,1,1,80,0,0
789677,-55.5555555555556,4,1,1,80,0,1
810892,327.868852459016,6,1,1,70,1,0
810892,-58.8235294117647,6,1,1,70,0,0
826629,340.909090909091,4,1,1,70,1,0
827310,-64.5161290322581,4,1,1,55,0,0
827992,-71.4285714285714,4,1,1,40,0,0
828674,-80,4,1,1,25,0,0

[Colours]
Combo1 : 255,128,255
Combo2 : 128,255,255
Combo3 : 255,255,128
Combo4 : 128,128,192

[HitObjects]
208,108,723255,6,0,P|132:72|32:84,1,179.999994506836,2|8,0:0|0:0,0:0:0:0:
60,300,723753,1,0,0:0:0:0:
328,108,723919,2,0,P|404:72|504:84,1,179.999994506836,0|8,0:0|0:0,0:0:0:0:
464,320,724418,1,0,0:0:0:0:
368,172,724584,6,0,L|360:64,1,89.999997253418
144,264,724917,2,0,L|140:372,1,89.999997253418,8|0,0:0|0:0,0:0:0:0:
196,104,725249,1,0,0:0:0:0:
296,252,725415,1,0,0:0:0:0:
236,88,725581,1,8,0:0:0:0:
216,264,725914,5,2,0:3:0:0:
356,92,726080,1,0,0:0:0:0:
424,248,726246,2,0,L|452:352,1,89.999997253418,8|0,0:0|2:0,0:0:0:0:
336,120,726579,1,0,0:0:0:0:
216,296,726745,1,0,0:0:0:0:
406,175,726911,2,0,L|321:108,1,89.9999972534181,8|0,0:0|2:0,0:0:0:0:
256,112,727243,5,0,0:0:0:0:
324,352,727410,1,0,0:0:0:0:
440,272,727576,1,8,0:0:0:0:
160,152,727742,1,0,0:0:0:0:
400,308,727908,1,0,0:0:0:0:
192,108,728074,1,0,0:0:0:0:
460,220,728241,2,0,L|468:124,1,89.999997253418,8|0,0:0|2:0,0:0:0:0:
207,50,728573,6,0,P|291:22|380:36,1,179.999994506836,2|8,0:0|0:0,0:0:0:0:
136,132,729072,2,0,P|112:100|96:28,1,89.999997253418
424,172,729404,1,0,0:0:0:0:
432,308,729570,2,0,P|392:312|321:290,1,89.999997253418,8|0,0:0|2:0,0:0:0:0:
104,216,729903,6,0,L|120:324,1,89.999997253418
384,212,730235,2,0,L|368:320,1,89.999997253418,8|0,0:0|0:0,0:0:0:0:
180,180,730568,1,0,0:0:0:0:
388,280,730734,1,0,0:0:0:0:
216,88,730900,1,8,0:0:0:0:
476,208,731066,1,0,0:0:0:0:
380,60,731232,6,0,P|312:100|196:100,1,179.999994506836,2|8,0:3|0:0,0:0:0:0:
120,52,731731,1,0,0:0:0:0:
40,164,731897,2,0,L|24:268,2,89.999997253418,0|0|8,0:0|0:0|0:0,0:0:0:0:
80,340,732562,6,0,P|68:296|72:240,1,89.999997253418
248,192,732811,1,0,0:0:0:0:
248,192,732894,2,0,P|260:148|256:92,1,89.999997253418,8|0,0:0|0:0,0:0:0:0:
224,348,733227,2,0,L|328:352,1,89.999997253418
456,248,733476,1,0,0:0:0:0:
456,248,733559,2,0,P|472:296|448:360,1,89.999997253418,8|0,0:0|0:0,0:0:0:0:
504,84,733892,6,0,L|316:112,1,179.999994506836,4|8,0:0|0:0,0:0:0:0:
216,120,734390,1,0,0:0:0:0:
104,52,734556,2,0,B|52:60|52:60|0:108|20:196,1,179.999994506836,0|8,0:0|0:0,0:0:0:0:
128,332,735055,1,0,0:0:0:0:
296,76,735221,6,0,L|408:84,1,89.999997253418
384,320,735554,2,0,L|276:328,1,89.999997253418,8|0,0:0|0:0,0:0:0:0:
216,44,735886,1,0,0:0:0:0:
128,252,736052,1,0,0:0:0:0:
136,28,736218,1,8,0:0:0:0:
212,248,736385,1,0,0:0:0:0:
328,120,736551,6,0,P|404:100|480:36,1,179.999994506836,2|8,0:3|0:0,0:0:0:0:
236,248,737050,2,0,P|236:296|260:356,1,89.999997253418
480,332,737382,1,0,0:0:0:0:
400,104,737548,1,8,0:0:0:0:
336,352,737714,1,0,0:0:0:0:
512,104,737881,5,0,0:0:0:0:
408,356,738047,1,0,0:0:0:0:
280,220,738213,2,0,P|276:120|236:44,1,179.999994506836,8|0,0:0|0:0,0:0:0:0:
384,68,738712,2,0,L|404:184,1,89.9999972534181,0|8,0:0|0:0,0:0:0:0:
88,68,739210,6,0,L|76:168,1,89.999997253418,2|0,0:0|0:0,0:0:0:0:
328,272,739543,1,8,0:0:0:0:
240,84,739709,1,0,0:0:0:0:
112,60,739875,1,0,0:0:0:0:
200,344,740041,1,0,0:0:0:0:
0,104,740207,1,8,0:0:0:0:
56,268,740374,1,0,0:0:0:0:
52,288,740457,1,0,0:0:0:0:
48,308,740540,5,0,0:0:0:0:
156,348,740706,1,0,0:0:0:0:
292,268,740872,2,0,P|296:312|324:364,1,89.999997253418,8|0,0:0|0:0,0:0:0:0:
356,372,741122,1,0,0:0:0:0:
356,372,741205,1,0,0:0:0:0:
452,352,741371,1,0,0:0:0:0:
400,200,741537,2,0,P|380:244|376:296,1,89.999997253418,8|0,0:0|0:0,0:0:0:0:
472,128,741869,6,0,L|476:24,1,89.999997253418,2|0,0:3|0:0,0:0:0:0:
320,168,742202,2,0,L|316:56,1,89.999997253418,8|0,0:0|0:0,0:0:0:0:
432,344,742534,2,0,L|424:248,1,89.999997253418
192,352,742867,2,0,L|196:252,1,89.999997253418,8|0,0:0|0:0,0:0:0:0:
272,152,743199,5,0,0:0:0:0:
104,72,743365,1,0,0:0:0:0:
288,300,743532,1,8,0:0:0:0:
384,160,743698,1,0,0:0:0:0:
361,120,743781,1,0,0:0:0:0:
321,97,743864,1,8,0:0:0:0:
64,296,744030,1,0,0:0:0:0:
87,336,744113,1,0,0:0:0:0:
127,359,744196,1,8,0:0:0:0:
384,160,744363,1,0,0:0:0:0:
384,160,744446,1,0,0:0:0:0:
384,160,744529,6,0,L|208:72,1,179.999994506836,4|8,0:0|0:0,0:0:0:0:
380,40,745027,1,0,0:0:0:0:
372,320,745194,2,0,P|328:336|276:336,1,89.999997253418
108,52,745526,2,0,P|152:54|195:69,1,89.999997253418,8|0,0:0|2:0,0:0:0:0:
152,244,745858,5,0,0:0:0:0:
364,172,746025,1,0,0:0:0:0:
88,200,746191,2,0,P|76:296|128:376,1,179.999994506836,8|2,0:0|0:2,0:0:0:0:
364,172,746689,1,0,0:0:0:0:
360,260,746856,2,0,P|356:304|336:352,1,89.999997253418,8|0,0:0|0:0,0:0:0:0:
349,95,747188,6,0,P|436:114|500:176,2,179.999994506836,2|8|0,0:3|0:0|0:0,0:0:0:0:
264,36,748019,1,0,0:0:0:0:
160,100,748185,2,0,L|60:88,1,89.999997253418,8|0,0:0|2:0,0:0:0:0:
40,352,748518,5,0,0:0:0:0:
168,212,748684,1,0,0:0:0:0:
340,144,748850,2,0,P|384:140|444:156,1,89.999997253418,8|0,0:0|0:0,0:0:0:0:
432,344,749182,1,2,0:2:0:0:
168,212,749349,1,0,0:0:0:0:
340,144,749515,1,8,0:0:0:0:
432,344,749681,1,0,0:0:0:0:
484,16,749847,6,0,P|508:112|484:204,1,179.999994506836,2|8,0:0|0:0,0:0:0:0:
332,224,750346,1,0,0:0:0:0:
212,148,750512,2,0,L|112:140,1,89.999997253418
208,176,750845,2,0,L|100:180,1,89.999997253418,8|0,0:0|0:0,0:0:0:0:
40,304,751177,6,0,P|132:284|236:316,1,179.999994506836,0|8,0:0|0:0,0:0:0:0:
304,336,751676,2,0,L|300:236,1,89.999997253418,0|2,0:0|0:2,0:0:0:0:
292,56,752008,1,0,0:0:0:0:
340,336,752174,2,0,L|360:224,1,89.999997253418,8|0,0:0|2:0,0:0:0:0:
68,208,752507,6,0,P|60:124|88:16,1,179.999994506836,2|8,0:3|0:0,0:0:0:0:
256,24,753005,1,0,0:0:0:0:
456,24,753171,2,0,P|464:108|436:216,1,179.999994506836,0|8,0:0|0:0,0:0:0:0:
12,200,753670,1,0,0:0:0:0:
300,180,753836,5,0,0:0:0:0:
20,272,754002,1,0,0:0:0:0:
308,280,754169,1,8,0:0:0:0:
0,236,754335,1,0,0:0:0:0:
320,232,754501,1,2,0:2:0:0:
36,320,754667,1,0,0:0:0:0:
308,176,754833,2,0,P|356:164|412:116,1,89.999997253418,8|0,0:0|2:0,0:0:0:0:
316,64,755166,6,0,L|524:24,1,179.999994506836,4|8,0:0|0:0,0:0:0:0:
480,184,755664,1,0,0:0:0:0:
272,240,755831,2,0,L|284:128,1,89.999997253418
336,344,756163,2,0,L|460:340,1,89.999997253418,8|0,0:0|2:0,0:0:0:0:
472,176,756495,5,0,0:0:0:0:
352,276,756662,1,0,0:0:0:0:
168,80,756828,1,8,0:0:0:0:
180,240,756994,1,0,0:0:0:0:
472,176,757160,2,0,P|484:132|484:68,1,89.9999972534181,2|0,0:2|0:0,0:0:0:0:
352,276,757493,2,0,P|340:320|340:384,1,89.9999972534181,8|0,0:0|2:0,0:0:0:0:
168,80,757825,6,0,P|256:52|360:80,1,179.999994506836,2|8,0:3|0:0,0:0:0:0:
148,156,758324,2,0,P|172:200|176:272,1,89.999997253418
144,340,758656,1,0,0:0:0:0:
324,232,758822,1,8,0:0:0:0:
64,312,758989,1,0,0:0:0:0:
256,312,759155,6,0,P|340:336|440:324,1,179.999994506836,0|8,0:0|0:0,0:0:0:0:
464,192,759653,1,0,0:0:0:0:
448,52,759820,2,0,P|364:28|264:40,1,179.999994506836,2|8,0:2|0:0,0:0:0:0:
464,192,760318,1,0,0:0:0:0:
344,148,760484,6,0,L|324:56,2,89.999997253418,2|0|8,0:0|0:0|0:0,0:0:0:0:
236,204,760983,1,0,0:0:0:0:
120,252,761149,2,0,L|100:344,2,89.999997253418,0|0|8,0:0|0:0|0:0,0:0:0:0:
236,204,761648,1,0,0:0:0:0:
408,128,761814,6,0,L|376:36,2,89.999997253418,0|0|8,0:0|0:0|0:0,0:0:0:0:
236,204,762313,1,0,0:0:0:0:
88,272,762479,2,0,L|56:364,2,89.999997253418,2|0|8,0:2|0:0|0:0,0:0:0:0:
236,204,762977,1,0,0:0:0:0:
333,283,763144,5,2,0:3:0:0:
392,352,763310,1,0,0:0:0:0:
475,316,763476,1,8,0:0:0:0:
467,226,763642,1,0,0:0:0:0:
379,206,763809,1,0,0:0:0:0:
371,116,763975,1,0,0:0:0:0:
454,81,764141,1,8,0:0:0:0:
512,149,764307,1,0,0:0:0:0:
371,116,764473,6,0,P|352:76|344:16,1,89.999997253418,2|0,0:3|0:0,0:0:0:0:
140,148,764806,2,0,P|159:108|167:48,1,89.999997253418,8|0,0:0|0:0,0:0:0:0:
392,228,765138,2,0,P|347:224|291:201,1,89.999997253418,2|0,0:2|0:0,0:0:0:0:
116,256,765471,2,0,P|160:252|216:229,1,89.999997253418,8|0,0:0|0:0,0:0:0:0:
172,120,765803,5,4,0:0:0:0:
256,316,765969,1,0,0:0:0:0:
256,140,766135,1,8,0:0:0:0:
288,360,766302,1,0,0:0:0:0:
380,308,766468,6,0,P|428:320|476:348,1,89.999997253418
132,308,766800,2,0,P|84:320|36:348,1,89.999997253418,8|0,0:0|0:0,0:0:0:0:
406,108,767133,1,8,0:0:0:0:
355,284,767299,1,8,0:0:0:0:
105,108,767465,1,8,0:0:0:0:
156,284,767631,1,8,0:0:0:0:
481,67,767797,1,8,0:0:0:0:
404,331,767963,1,8,0:0:0:0:
30,67,768129,1,8,0:0:0:0:
107,331,768295,1,8,0:0:0:0:
107,331,768462,6,0,P|91:243|107:155,1,179.999994506836,4|8,0:0|0:0,0:0:0:0:
288,88,768959,2,0,L|392:84,1,89.999997253418
456,296,769291,1,0,0:0:0:0:
120,328,769456,2,0,P|76:320|24:324,1,89.999997253418,8|0,0:0|2:0,0:0:0:0:
40,12,769787,6,0,P|84:20|136:16,1,89.999997253418
452,32,770120,1,8,0:0:0:0:
456,348,770285,1,0,0:0:0:0:
44,340,770450,1,2,0:2:0:0:
180,60,770616,1,2,0:0:0:0:
344,340,770782,2,0,P|388:352|456:352,1,89.999997253418,8|0,0:0|2:0,0:0:0:0:
469,103,771113,6,0,P|489:191|476:280,1,179.999994506836,2|8,0:0|0:0,0:0:0:0:
280,44,771611,2,0,L|184:36,1,89.999997253418
432,344,771942,1,0,0:0:0:0:
168,344,772108,2,0,L|60:348,1,89.999997253418,8|0,0:0|2:0,0:0:0:0:
44,96,772439,5,0,0:0:0:0:
488,96,772605,1,0,0:0:0:0:
256,360,772771,1,8,0:0:0:0:
256,32,772937,1,0,0:0:0:0:
428,164,773102,2,0,P|448:224|444:280,1,89.999997253418,2|0,0:2|0:0,0:0:0:0:
76,252,773434,2,0,P|79:207|96:165,1,89.999997253418,8|0,0:0|0:0,0:0:0:0:
346,309,773765,6,0,P|258:327|171:307,1,179.999994506836,4|8,0:0|0:0,0:0:0:0:
172,104,774263,1,0,0:0:0:0:
504,152,774428,2,0,P|512:108|508:52,1,89.999997253418
346,309,774760,2,0,L|274:225,1,89.999997253418,8|0,0:0|2:0,0:0:0:0:
172,104,775091,6,0,P|156:148|156:208,1,89.999997253418
504,152,775423,1,8,0:0:0:0:
172,104,775589,1,0,0:0:0:0:
140,20,775754,2,0,P|93:28|41:58,1,89.999997253418,2|0,0:2|0:0,0:0:0:0:
160,328,776086,1,8,0:0:0:0:
140,20,776252,1,0,0:0:0:0:
44,96,776417,6,0,P|4:192|8:292,1,179.999994506836,2|8,0:0|0:0,0:0:0:0:
456,320,776915,2,0,P|468:280|468:212,1,89.999997253418
88,232,777246,1,0,0:0:0:0:
88,232,777412,2,0,P|90:276|102:319,1,89.999997253418,8|0,0:0|2:0,0:0:0:0:
392,288,777743,5,0,0:0:0:0:
56,104,777909,1,0,0:0:0:0:
456,232,778075,1,8,0:0:0:0:
96,48,778241,1,0,0:0:0:0:
360,356,778407,1,2,0:2:0:0:
32,176,778573,1,0,0:0:0:0:
480,160,778738,1,8,0:0:0:0:
160,28,778903,1,0,0:0:0:0:
204,268,779069,6,0,P|300:256|400:296,1,179.999994506836,4|8,0:0|0:0,0:0:0:0:
52,48,779567,1,0,0:0:0:0:
40,312,779732,2,0,L|136:308,1,89.999997253418
141,44,780064,2,0,L|45:48,1,89.999997253418,8|0,0:0|2:0,0:0:0:0:
40,312,780395,6,0,L|36:200,1,89.999997253418
464,64,780726,2,0,L|468:176,1,89.999997253418,8|0,0:0|0:0,0:0:0:0:
320,360,781058,1,2,0:0:0:0:
136,24,781223,1,0,0:0:0:0:
136,356,781389,1,8,0:0:0:0:
348,20,781555,1,0,0:2:0:0:
320,360,781721,6,0,P|340:273|327:176,1,179.999994506836,2|8,0:0|0:0,0:0:0:0:
160,72,782218,2,0,L|156:168,1,89.999997253418
176,352,782550,1,0,0:0:0:0:
476,324,782716,2,0,L|469:235,1,89.999997253418,8|0,0:0|2:0,0:0:0:0:
36,200,783047,5,0,0:0:0:0:
308,320,783214,1,0,0:0:0:0:
272,8,783379,1,8,0:0:0:0:
36,200,783544,1,0,0:0:0:0:
308,320,783710,2,0,P|260:312|212:288,1,89.999997253418,2|0,0:2|0:0,0:0:0:0:
272,8,784042,2,0,P|264:56|240:104,1,89.999997253418,8|0,0:0|2:0,0:0:0:0:
36,200,784373,6,0,P|37:117|86:7,1,179.999994506836,4|8,0:0|0:0,0:0:0:0:
112,80,784870,1,0,0:0:0:0:
260,304,785036,1,0,0:0:0:0:
0,216,785202,1,0,0:0:0:0:
280,112,785368,2,0,P|284:60|272:4,1,89.999997253418,8|0,0:0|2:0,0:0:0:0:
352,64,785699,6,0,L|460:60,1,89.999997253418
452,348,786030,2,0,L|362:344,1,89.999997253418,8|0,0:0|0:0,0:0:0:0:
312,0,786362,2,0,L|420:4,1,89.999997253418,2|0,0:2|0:0,0:0:0:0:
444,380,786694,2,0,L|352:384,1,89.999997253418,8|0,0:0|0:0,0:0:0:0:
108,340,787025,5,2,0:0:0:0:
256,256,787191,2,0,P|272:172|240:68,2,179.999994506836,8|8|8,0:0|0:0|0:0,0:0:0:0:
160,336,788020,2,0,L|56:340,1,89.999997253418,8|0,0:0|0:0,0:0:0:0:
416,52,788351,1,8,0:0:0:0:
256,344,788517,1,8,0:0:0:0:
96,52,788682,1,8,0:0:0:0:
468,192,788848,1,8,0:0:0:0:
96,332,789014,1,8,0:0:0:0:
256,40,789180,1,8,0:0:0:0:
416,332,789345,1,8,0:0:0:0:
360,352,789428,1,8,0:0:0:0:
304,332,789511,1,8,0:0:0:0:
284,276,789594,1,8,0:0:0:0:
312,224,789677,2,0,P|400:176|464:220,1,179.999994506836,4|8,0:0|0:0,0:0:0:0:
60,352,790173,1,0,0:0:0:0:
444,356,790340,2,0,P|400:364|328:356,1,89.999997253418
44,272,790671,2,0,P|89:264|134:266,1,89.999997253418,8|0,0:0|2:0,0:0:0:0:
472,312,791002,5,0,0:0:0:0:
40,200,791168,1,0,0:0:0:0:
468,44,791334,1,8,0:0:0:0:
40,200,791500,1,0,0:0:0:0:
472,312,791666,2,0,L|376:316,1,89.9999972534181,2|0,0:2|0:0,0:0:0:0:
52,44,791997,2,0,L|48:152,1,89.999997253418,8|0,0:0|0:0,0:0:0:0:
340,72,792328,6,0,P|424:40|544:60,1,179.999994506836,2|8,0:0|0:0,0:0:0:0:
24,288,792826,2,0,L|55:372,1,89.999997253418
484,360,793157,1,0,0:0:0:0:
48,120,793323,2,0,P|32:80|48:12,1,89.9999972534181,8|0,0:0|2:0,0:0:0:0:
416,72,793655,6,0,P|460:84|504:83,1,89.999997253418
252,296,793986,2,0,P|274:334|307:365,1,89.999997253418,8|0,0:0|0:0,0:0:0:0:
84,72,794318,2,0,P|72:115|73:160,1,89.999997253418,2|0,0:2|0:0,0:0:0:0:
307,365,794650,1,8,0:0:0:0:
504,82,794816,1,0,0:0:0:0:
307,365,794981,6,0,L|293:186,1,179.999994506836,4|8,0:0|0:0,0:0:0:0:
32,44,795477,1,0,0:0:0:0:
476,228,795644,2,0,L|476:336,1,89.999997253418
24,132,795975,2,0,L|24:240,1,89.9999972534181,8|0,0:0|0:0,0:0:0:0:
484,368,796307,6,0,L|364:380,1,89.999997253418
256,24,796638,1,8,0:0:0:0:
48,348,796804,1,0,0:0:0:0:
472,180,796970,1,2,0:2:0:0:
24,80,797135,1,0,0:0:0:0:
384,348,797301,2,0,L|488:340,1,89.999997253418,8|0,0:0|2:0,0:0:0:0:
24,220,797632,6,0,P|24:120|68:52,1,179.999994506836,2|8,0:0|0:0,0:0:0:0:
376,64,798130,2,0,L|492:36,1,89.999997253418
464,332,798461,1,0,0:0:0:0:
464,332,798627,2,0,L|377:354,1,89.999997253418,8|0,0:0|0:0,0:0:0:0:
24,332,798958,6,0,P|65:358|118:376,1,89.999997253418
400,40,799290,2,0,P|447:51|497:76,1,89.999997253418,8|0,0:0|0:0,0:0:0:0:
512,220,799622,1,8,0:0:0:0:
88,160,799787,1,8,0:0:0:0:
88,160,799870,1,8,0:0:0:0:
88,160,799953,1,8,0:0:0:0:
496,292,800118,1,8,0:0:0:0:
104,324,800284,6,0,L|80:124,1,179.999994506836,4|8,0:0|0:0,0:0:0:0:
76,16,800782,1,0,0:0:0:0:
468,100,800948,1,0,0:0:0:0:
128,360,801113,1,0,0:0:0:0:
424,204,801279,2,0,L|544:240,1,89.9999972534181,8|0,0:0|2:0,0:0:0:0:
212,8,801610,6,0,P|256:0|324:12,1,89.999997253418
140,384,801942,2,0,P|99:364|51:314,1,89.999997253418,8|0,0:0|0:0,0:0:0:0:
480,144,802273,2,0,P|501:183|510:251,1,89.999997253418,2|0,0:2|0:0,0:0:0:0:
0,236,802605,2,0,P|5:191|38:130,1,89.999997253418,8|0,0:0|0:0,0:0:0:0:
464,56,802937,6,0,P|472:152|440:240,1,179.999994506836,4|8,0:0|0:0,0:0:0:0:
52,36,803433,1,0,0:0:0:0:
256,384,803599,1,0,0:0:0:0:
508,228,803765,1,0,0:0:0:0:
100,320,803931,2,0,P|52:328|0:316,1,89.999997253418,8|0,0:0|2:0,0:0:0:0:
480,292,804262,6,0,L|488:382,1,89.999997253418
36,92,804594,2,0,L|44:3,1,89.999997253418,8|0,0:0|0:0,0:0:0:0:
496,356,804926,5,0,0:0:0:0:
344,0,805091,1,0,0:0:0:0:
192,384,805257,1,8,0:0:0:0:
40,32,805423,1,0,0:0:0:0:
40,32,805589,6,0,P|3:113|6:202,1,179.999994506836,4|8,0:0|0:0,0:0:0:0:
472,40,806086,1,0,0:0:0:0:
48,352,806252,1,0,0:0:0:0:
464,352,806417,1,0,0:0:0:0:
256,64,806583,2,0,P|292:36|328:-16,1,89.999997253418,8|0,0:0|0:0,0:0:0:0:
256,368,806915,5,0,0:0:0:0:
40,64,807080,1,0,0:0:0:0:
464,196,807246,1,8,0:0:0:0:
92,344,807412,1,0,0:0:0:0:
256,28,807577,1,2,0:2:0:0:
420,344,807743,1,0,0:0:0:0:
52,196,807909,2,0,L|160:192,1,89.999997253418,8|0,0:0|0:0,0:0:0:0:
252,236,808241,6,0,B|232:308|284:356|284:356|336:364,1,179.999994506836,4|8,0:0|0:0,0:0:0:0:
312,24,808737,1,0,0:0:0:0:
77,301,808903,1,2,0:2:0:0:
448,216,809069,1,2,0:2:0:0:
92,80,809235,1,8,0:2:0:0:
287,381,809401,1,0,0:0:0:0:
464,140,809566,5,8,0:0:0:0:
438,149,809649,1,2,2:0:0:0:
412,156,809732,1,8,0:0:0:0:
386,161,809815,1,2,2:0:0:0:
359,165,809898,1,8,0:0:0:0:
332,166,809981,1,2,2:0:0:0:
305,165,810064,1,8,0:0:0:0:
278,162,810147,1,2,2:0:0:0:
252,157,810230,1,8,0:0:0:0:
225,150,810312,1,2,2:0:0:0:
200,142,810395,1,8,0:0:0:0:
175,131,810478,1,2,2:0:0:0:
151,118,810561,1,8,0:0:0:0:
129,104,810644,1,2,2:0:0:0:
107,88,810727,1,8,0:0:0:0:
86,70,810810,1,2,2:0:0:0:
72,48,810892,6,0,L|56:224,1,170.000003242493,4|0,0:0|0:0,0:0:0:0:
404,216,811383,2,0,L|416:100,1,85.0000016212463,8|0,0:0|0:0,0:0:0:0:
116,168,811711,1,0,0:0:0:0:
236,332,811875,2,0,B|284:332|284:332|344:348|344:348|408:344,2,170.000003242493,8|8|8,0:0|0:0|0:0,0:0:0:0:
380,332,812859,5,8,0:0:0:0:
480,92,813023,1,8,0:0:0:0:
104,184,813187,1,0,0:0:0:0:
324,176,813351,2,0,P|264:120|240:20,1,170.000003242493,8|0,0:0|0:0,0:0:0:0:
152,256,813842,2,0,L|132:372,1,85.0000016212463,8|0,0:0|0:0,0:0:0:0:
424,304,814170,2,0,P|468:296|516:304,1,85.0000016212463
304,320,814498,2,0,P|260:328|212:320,1,85.0000016212463
82,321,814826,5,2,0:0:0:0:
194,83,814990,5,0,0:0:0:0:
253,55,815072,5,0,0:0:0:0:
313,76,815154,5,0,0:0:0:0:
445,329,815318,5,8,0:0:0:0:
78,329,815482,5,0,0:0:0:0:
65,264,815564,5,0,0:0:0:0:
100,209,815646,5,0,0:0:0:0:
253,55,815810,5,0,0:0:0:0:
410,209,815973,5,0,0:0:0:0:
445,264,816055,5,0,0:0:0:0:
432,329,816137,5,0,0:0:0:0:
254,233,816301,6,0,P|266:165|246:45,1,170.000003242493,8|0,0:0|0:0,0:0:0:0:
468,96,816793,5,0,0:0:0:0:
468,96,816957,2,0,P|448:56|416:20,1,85.0000016212463
340,200,817285,2,0,P|359:239|386:271,1,85.0000016212463,8|0,0:0|0:0,0:0:0:0:
48,96,817613,2,0,P|45:140|55:187,1,85.0000016212463,8|0,0:0|0:0,0:0:0:0:
260,104,817941,1,0,0:0:0:0:
48,220,818105,1,8,0:0:0:0:
260,348,818269,1,8,0:0:0:0:
96,352,818432,2,0,L|0:352,1,85.0000016212463,8|8,0:0|0:0,0:0:0:0:
268,360,818760,6,0,P|340:308|376:208,1,170.000003242493,4|0,0:0|0:0,0:0:0:0:
148,168,819252,1,0,0:0:0:0:
404,64,819416,2,0,L|496:68,1,85.0000016212463,8|0,0:0|0:0,0:0:0:0:
368,332,819744,2,0,L|276:328,1,85.0000016212463,8|0,0:0|0:0,0:0:0:0:
268,44,820072,2,0,P|276:84|272:144,1,85.0000016212463,8|0,0:0|0:0,0:0:0:0:
40,180,820400,2,0,P|32:140|36:80,1,85.0000016212463,8|0,0:0|0:0,0:0:0:0:
100,260,820728,6,0,L|68:352,1,85.0000016212463,8|0,0:0|0:0,0:0:0:0:
428,280,821055,2,0,L|396:372,1,85.0000016212463,8|0,0:0|0:0,0:0:0:0:
176,68,821383,2,0,P|216:64|280:72,1,85.0000016212463,8|0,0:0|0:0,0:0:0:0:
320,344,821711,2,0,P|280:340|216:348,1,85.0000016212463,8|0,0:0|0:0,0:0:0:0:
476,112,822039,1,0,0:0:0:0:
476,112,822203,2,0,P|480:64|472:16,1,85.0000016212463,8|8,0:0|0:0,0:0:0:0:
400,196,822531,1,0,0:0:0:0:
304,124,822695,6,0,P|216:92|104:108,1,170.000003242493,2|0,0:0|0:0,0:0:0:0:
40,188,823187,2,0,P|128:220|240:204,1,170.000003242493
140,96,823678,2,0,L|108:280,1,170.000003242493,8|8,0:0|0:0,0:0:0:0:
260,348,824170,2,0,L|292:164,1,170.000003242493,8|8,0:0|0:0,0:0:0:0:
256,192,824662,1,10,0:0:0:0:
21,192,824826,1,8,0:0:0:0:
485,192,824990,1,8,0:0:0:0:
256,0,825154,1,8,0:0:0:0:
61,337,825318,1,8,0:0:0:0:
447,337,825482,1,8,0:0:0:0:
8,186,825646,1,8,0:0:0:0:
503,11,825810,1,0,0:0:0:0:
8,11,825973,1,0,0:0:0:0:
503,372,826137,1,0,0:0:0:0:
8,372,826301,1,0,0:0:0:0:
503,186,826465,1,8,0:0:0:0:
256,192,826629,12,2,829356,2:3:0:0:
