osu file format v14

[General]
AudioFilename: audio.mp3
AudioLeadIn: 0
PreviewTime: 25824
Countdown: 0
SampleSet: Normal
StackLeniency: 0.7
Mode: 1
LetterboxInBreaks: 0
WidescreenStoryboard: 0

[Editor]
Bookmarks: 612025
DistanceSpacing: 0.6
BeatDivisor: 4
GridSize: 4
TimelineZoom: 2.699999

[Metadata]
Title:Hana ni Natta Shounen no Shinwa
TitleUnicode:花になった少年の神話
Artist:Ceui
ArtistUnicode:Ceui
Creator:Nao Tomori
Version:Petal
Source:
Tags:flower story sun god love boy Muse myth 奏愛カレンデュラ souai mythology legend of a boy who became a calendula japanese jpop pop novelty
BeatmapID:2249862
BeatmapSetID:1075182

[Difficulty]
HPDrainRate:4
CircleSize:5
OverallDifficulty:6.5
ApproachRate:5
SliderMultiplier:1.4
SliderTickRate:1

[Events]
//Background and Video events
0,0,"leaf.jpg",0,0
//Break Periods
2,84032,88233
2,128246,133839
2,255560,262160
2,405983,411930
2,517329,521928
2,618289,626144
//Storyboard Layer 0 (Background)
//Storyboard Layer 1 (Fail)
//Storyboard Layer 2 (Pass)
//Storyboard Layer 3 (Foreground)
//Storyboard Layer 4 (Overlay)
//Storyboard Sound Samples

[TimingPoints]
26225,800.106680890785,4,1,0,28,1,0
26225,-66.6666666666667,4,1,0,28,0,0
89433,-54.6448087431694,4,1,0,38,0,0
115836,-71.4285714285714,4,1,0,38,0,0
124600,838.574423480084,4,1,0,38,1,8
124600,-68.1523887412254,4,1,0,38,0,0
125438,800.106680890785,4,1,0,38,1,0
125438,-71.4285714285714,4,1,0,38,0,0
127980,800.106680890785,4,1,0,38,1,8
127980,-71.4285714285714,4,1,0,38,0,0
128638,800.160032006401,4,1,0,38,1,0
128638,-71.4285714285714,4,1,0,38,0,0
135039,327.868852459016,6,1,0,68,1,0
135039,-100,6,1,0,68,0,0
150940,-100,6,1,0,48,0,0
166514,-100,6,1,0,58,0,0
190120,327.868852459016,5,1,0,68,1,0
190120,-76.9230769230769,5,1,0,68,0,0
190775,-100,5,1,0,68,0,0
191759,-76.9230769230769,5,1,0,68,0,0
192414,-100,5,1,0,68,0,0
193070,-95.2380952380952,5,1,0,68,0,0
193152,-90.9090909090909,5,1,0,68,0,0
193234,-86.2068965517241,5,1,0,68,0,0
193316,-81.6326530612245,5,1,0,68,0,0
193398,-76.9230769230769,5,1,0,68,0,0
194053,-100,5,1,0,68,0,0
196677,-76.9230769230769,5,1,0,68,0,0
197332,-100,5,1,0,68,0,0
198316,-76.9230769230769,5,1,0,68,0,0
198971,-100,5,1,0,68,0,0
199956,327.868852459016,6,1,0,68,1,0
199956,-100,6,1,0,68,0,0
207169,319.148936170213,4,1,0,68,1,0
207169,-89.6458987001345,4,1,0,78,0,1
227594,-89.6458987001345,4,1,0,88,0,0
227754,-103.092783505155,4,1,0,48,0,0
237807,-103.092783505155,4,1,0,58,0,0
248020,-103.092783505155,4,1,0,68,0,0
253286,-100,4,1,0,68,0,0
253365,-90.9090909090909,4,1,0,68,0,0
253445,-83.3333333333333,4,1,0,68,0,0
253764,-100,4,1,0,68,0,0
255360,333.333333333333,4,1,0,68,1,0
255360,-98.360655737705,4,1,0,68,0,0
255693,-130.718954248366,4,1,0,38,0,0
263360,-112.044817927171,4,1,0,38,0,0
286693,-76.9230769230769,4,1,0,38,0,0
286859,-112.044817927171,4,1,0,38,0,0
301359,-98.360655737705,4,1,0,48,0,0
303359,-98.360655737705,4,1,0,68,0,0
305193,-98.360655737705,4,1,0,68,0,0
305276,-93.4579439252336,4,1,0,68,0,0
305359,-89.2857142857143,4,1,0,68,0,0
305526,-98.360655737705,4,1,0,68,0,0
307193,-98.360655737705,4,1,0,68,0,0
307276,-93.4579439252336,4,1,0,68,0,0
307359,-89.2857142857143,4,1,0,68,0,0
307526,-98.360655737705,4,1,0,68,0,0
309193,-98.360655737705,4,1,0,68,0,0
309276,-93.4579439252336,4,1,0,68,0,0
309359,-89.2857142857143,4,1,0,68,0,0
309526,-98.360655737705,4,1,0,68,0,0
310193,-98.360655737705,4,1,0,68,0,0
310276,-93.4579439252336,4,1,0,68,0,0
310359,-89.2857142857143,4,1,0,68,0,0
310526,-98.360655737705,4,1,0,68,0,0
311193,-98.360655737705,4,1,0,68,0,0
311276,-93.4579439252336,4,1,0,68,0,0
311359,-89.2857142857143,4,1,0,68,0,0
311526,-98.360655737705,4,1,0,68,0,0
319359,-89.2857142857143,4,1,0,68,0,0
319526,-130.718954248366,4,1,0,68,0,0
326693,-98.360655737705,4,1,0,68,0,0
329359,333.333333333333,4,1,0,68,1,0
329359,-98.360655737705,4,1,0,68,0,0
337859,-95.2380952380952,4,1,0,68,0,0
338359,-92.5925925925926,4,1,0,68,0,0
338859,-90.0900900900901,4,1,0,68,0,0
339025,-90.0900900900901,4,1,0,68,0,0
339109,-89.2857142857143,4,1,0,68,0,0
339192,-88.4955752212389,4,1,0,68,0,0
339275,-87.719298245614,4,1,0,68,0,0
339359,-86.9565217391304,4,1,0,68,0,0
340025,-98.360655737705,4,1,0,68,0,0
349663,-91.743119266055,4,1,0,68,0,0
349747,-90.9090909090909,4,1,0,68,0,0
349830,-90.0900900900901,4,1,0,68,0,0
349913,-89.2857142857143,4,1,0,68,0,0
349997,-88.4955752212389,4,1,0,68,0,0
350692,-98.360655737705,4,1,0,68,0,0
366525,333.333333333333,4,1,0,68,1,0
366525,-98.360655737705,4,1,0,68,0,0
379858,333.333333333333,4,1,0,68,1,8
379858,-98.360655737705,4,1,0,68,0,0
380025,333.333333333333,4,1,0,68,1,0
380025,-98.360655737705,4,1,0,68,0,0
382191,-97.0873786407767,4,1,0,68,0,0
382275,-95.2380952380952,4,1,0,68,0,0
382358,-92.5925925925926,4,1,0,68,0,0
382441,-89.2857142857143,4,1,0,68,0,0
382525,-85.4700854700855,4,1,0,68,0,0
382608,-81.3008130081301,4,1,0,68,0,0
382691,-76.3358778625954,4,1,0,78,0,0
385358,319.148936170213,4,1,0,78,1,1
385358,-89.6458987001345,4,1,0,78,0,1
405783,-89.6458987001345,4,1,0,88,0,0
405943,-137.45704467354,4,1,0,28,0,0
413130,333.333333333333,4,1,0,58,1,0
413130,-98.360655737705,4,1,0,58,0,0
434130,333.333333333333,6,1,0,18,1,0
434130,-130.718954248366,6,1,0,18,0,0
442130,-119.047619047619,6,1,0,28,0,0
450130,-119.047619047619,6,1,0,38,0,0
465629,-117.233294255569,6,1,0,38,0,0
465796,-115.473441108545,6,1,0,38,0,0
465963,-113.636363636364,6,1,0,38,0,0
466046,-112.359550561798,6,1,0,38,0,0
466129,-111.111111111111,6,1,0,48,0,0
489463,-108.695652173913,6,1,0,58,0,0
489629,-107.52688172043,6,1,0,58,0,0
489796,-106.382978723404,6,1,0,58,0,0
489963,-105.263157894737,6,1,0,58,0,0
490129,-98.360655737705,6,1,0,63,0,0
502129,-85.4700854700855,6,1,0,73,0,0
505963,-98.360655737705,6,1,0,58,0,0
506046,-102.040816326531,6,1,0,58,0,0
506129,-106.382978723404,6,1,0,58,0,0
514129,-108.695652173913,6,1,0,58,0,0
514296,-112.359550561798,6,1,0,58,0,0
514463,-119.047619047619,6,1,0,58,0,0
517296,-130.718954248366,6,1,0,58,0,0
523128,333.333333333333,5,1,0,58,1,0
523128,-122.549019607843,5,1,0,58,0,0
529794,-108.932461873638,5,1,0,58,0,0
536461,333.333333333333,3,1,0,68,1,0
536461,-85.4700854700855,3,1,0,68,0,0
539128,327.868852459016,5,1,0,68,1,0
539128,-76.9230769230769,5,1,0,68,0,0
539783,-100,5,1,0,68,0,0
540767,-76.9230769230769,5,1,0,68,0,0
541422,-100,5,1,0,68,0,0
542406,-76.9230769230769,5,1,0,68,0,0
543061,-100,5,1,0,68,0,0
545685,-76.9230769230769,5,1,0,68,0,0
546340,-100,5,1,0,68,0,0
547324,-76.9230769230769,5,1,0,68,0,0
547979,-100,5,1,0,68,0,0
548964,327.868852459016,3,1,0,68,1,8
548964,-100,3,1,0,68,0,0
555849,327.868852459016,3,1,0,68,1,8
555849,-100,3,1,0,68,0,0
556012,-100,3,1,0,68,0,0
556094,-93.0232558139535,3,1,0,68,0,0
556177,319.148936170213,4,1,0,78,1,1
556177,-89.6458987001345,4,1,0,78,0,1
576602,-89.6458987001345,4,1,0,78,0,0
578517,-80.9388911371914,4,1,0,78,0,0
578597,-81.9336337566571,4,1,0,78,0,0
578677,-82.9531314807134,4,1,0,78,0,0
578756,-83.9983200335993,4,1,0,78,0,0
578836,-85.0701829008932,4,1,0,78,0,0
578916,-86.1697544161999,4,1,0,78,0,0
578996,-87.2981230903536,4,1,0,78,0,0
579075,-88.4564352056612,4,1,0,78,0,0
579155,-89.6458987001345,4,1,0,78,0,1
599581,319.148936170213,7,1,0,78,1,0
599581,-89.6458987001345,7,1,0,78,0,0
599740,-102.732240437158,7,1,0,68,0,0
608517,-93.7207122774133,7,1,0,78,0,1
610749,319.148936170213,7,1,0,78,1,1
610749,-93.7207122774133,7,1,0,78,0,1
611387,-86.9565217391304,7,1,0,78,0,1
615855,-86.2068965517241,7,1,0,78,0,1
615935,-85.4700854700855,7,1,0,78,0,1
616014,-84.7457627118644,7,1,0,78,0,1
616094,-84.0336134453781,7,1,0,79,0,1
616174,-83.3333333333333,7,1,0,80,0,1
616254,-82.6446280991736,7,1,0,81,0,1
616334,-81.9672131147541,7,1,0,82,0,1
616413,-81.3008130081301,7,1,0,83,0,1
616493,-80.6451612903226,7,1,0,84,0,1
616573,-80,7,1,0,85,0,1
616653,-79.3650793650794,7,1,0,86,0,1
616733,-78.7401574803149,7,1,0,87,0,1
616812,-78.125,7,1,0,88,0,1
617451,-100,7,1,0,88,0,1
618089,-137.45704467354,7,1,0,48,0,0
618249,-137.45704467354,7,1,0,18,0,0
627344,638.297872340426,3,1,0,18,1,0
627344,-68.3760683760684,3,1,0,18,0,0
629258,666.666666666667,3,1,0,18,1,0
629258,-65.6814449917898,3,1,0,18,0,0
635258,666.666666666667,3,1,0,18,1,0
635258,-65.6814449917898,3,1,0,18,0,0
651258,-61.576354679803,3,1,0,28,0,0
659258,-54.7345374931582,3,1,0,48,0,0
665758,-54.054054054054,3,1,0,48,0,0
665924,-52.9100529100529,3,1,0,48,0,0
666091,-51.5463917525773,3,1,0,48,0,0
666258,-49.1803278688524,3,1,0,68,0,0
667258,333.333333333333,3,1,0,68,1,0
667258,-98.360655737705,3,1,0,68,0,0
699258,333.148250971682,3,1,0,68,1,0
699258,-98.4153005464482,3,1,0,68,0,0
723244,332.594235033259,4,1,0,68,1,0
723244,-90.00900090009,4,1,0,68,0,0
744530,332.409972299169,4,1,0,68,1,0
744530,-89.9604174163368,4,1,0,68,0,0
767798,-89.2857142857143,4,1,0,68,0,0
767964,-89.2857142857143,4,1,0,68,0,0
768048,-89.2857142857143,4,1,0,68,0,0
768131,-89.2857142857143,4,1,0,68,0,0
768214,-88.4955752212389,4,1,0,68,0,0
768297,-87.719298245614,4,1,0,68,0,0
768380,-86.9565217391304,4,1,0,68,0,0
768463,331.638293168251,4,1,0,78,1,1
768463,-86.2068965517241,4,1,0,78,0,1
810912,327.689787001638,4,1,0,78,1,0
810912,-87.2448089338684,4,1,0,78,0,0
825330,-88.4955752212389,4,1,0,78,0,0
825412,-89.2857142857143,4,1,0,78,0,0
825494,-90.0900900900901,4,1,0,78,0,0
825576,-90.9090909090909,4,1,0,78,0,0
825658,-91.743119266055,4,1,0,78,0,0
825739,-92.5925925925926,4,1,0,78,0,0
825821,-93.4579439252336,4,1,0,78,0,0
825903,-94.3396226415094,4,1,0,78,0,0
825985,-95.2380952380952,4,1,0,78,0,0
826067,-96.1538461538461,4,1,0,78,0,0
826149,-97.0873786407767,4,1,0,78,0,0
826231,-99.009900990099,4,1,0,78,0,0
826313,-102.040816326531,4,1,0,78,0,0
826395,-106.382978723404,4,1,0,78,0,0
826477,-112.359550561798,4,1,0,78,0,0
826641,-133.333333333333,4,1,0,78,0,0

[HitObjects]
220,170,26225,5,8,0:0:0:0:
220,170,27025,1,8,0:0:0:0:
294,159,27225,1,8,0:0:0:0:
267,151,27425,1,0,0:0:0:0:
272,156,27825,1,8,0:0:0:0:
283,63,28625,1,0,0:0:0:0:
220,170,29425,1,8,0:0:0:0:
220,170,30225,1,8,0:0:0:0:
294,159,30425,1,8,0:0:0:0:
267,151,30625,1,0,0:0:0:0:
272,156,31025,1,8,0:0:0:0:
220,170,32625,1,8,0:0:0:0:
220,170,33425,1,8,0:0:0:0:
294,159,33625,1,8,0:0:0:0:
267,151,33826,1,0,0:0:0:0:
272,156,34226,1,8,0:0:0:0:
262,214,35026,1,0,0:0:0:0:
220,170,35826,1,8,0:0:0:0:
220,170,36626,1,8,0:0:0:0:
294,159,36826,1,8,0:0:0:0:
267,151,37026,1,0,0:0:0:0:
272,156,37426,1,8,0:0:0:0:
329,111,39026,1,0,0:0:0:0:
329,111,40226,1,0,0:0:0:0:
329,111,40626,1,8,0:0:0:0:
329,111,41427,1,0,0:0:0:0:
329,111,42227,1,8,0:0:0:0:
329,111,43427,1,8,0:0:0:0:
329,111,43827,1,0,0:0:0:0:
329,111,45427,1,0,0:0:0:0:
329,111,46627,1,0,0:0:0:0:
329,111,47027,1,8,0:0:0:0:
329,111,47827,1,0,0:0:0:0:
329,111,48227,1,0,0:0:0:0:
329,111,48627,1,8,0:0:0:0:
329,111,49828,1,8,0:0:0:0:
329,111,50228,1,0,0:0:0:0:
340,155,51828,1,0,0:0:0:0:
343,147,53028,1,8,0:0:0:0:
343,147,53428,1,0,0:0:0:0:
343,147,54028,1,0,0:0:0:0:
343,147,54628,1,0,0:0:0:0:
343,147,55028,1,8,0:0:0:0:
342,142,56229,1,8,0:0:0:0:
342,142,56629,1,0,0:0:0:0:
342,142,57429,1,8,0:0:0:0:
342,142,58229,1,8,0:0:0:0:
211,28,58629,1,0,0:0:0:0:
400,161,59029,1,8,0:0:0:0:
400,161,59229,1,8,0:0:0:0:
400,161,59429,1,0,0:0:0:0:
400,161,59829,1,8,0:0:0:0:
400,161,60629,1,0,0:0:0:0:
400,161,61429,1,8,0:0:0:0:
148,89,61829,1,0,0:0:0:0:
400,161,62229,1,8,0:0:0:0:
400,161,62429,1,8,0:0:0:0:
400,161,62629,1,0,0:0:0:0:
406,171,63029,1,8,0:0:0:0:
421,186,64230,1,0,0:0:0:0:
422,191,64630,1,8,0:0:0:0:
422,168,65830,1,8,0:0:0:0:
422,168,66230,1,8,0:0:0:0:
422,171,66630,1,0,0:0:0:0:
422,172,67030,1,0,0:0:0:0:
148,89,67430,1,8,0:0:0:0:
422,172,67830,1,0,0:0:0:0:
422,173,69030,1,8,0:0:0:0:
423,180,69430,1,0,0:0:0:0:
425,179,70230,1,0,0:0:0:0:
425,183,71030,1,8,0:0:0:0:
425,183,72231,1,0,0:0:0:0:
425,183,72631,1,8,0:0:0:0:
425,183,73031,1,8,0:0:0:0:
425,183,73431,1,0,0:0:0:0:
205,142,73831,1,0,0:0:0:0:
425,183,74231,1,8,0:0:0:0:
425,183,75031,1,8,0:0:0:0:
285,165,75431,1,8,0:0:0:0:
425,183,75831,1,0,0:0:0:0:
425,183,77031,1,0,0:0:0:0:
425,183,77431,1,8,0:0:0:0:
352,117,78631,1,8,0:0:0:0:
352,117,79032,1,0,0:0:0:0:
352,117,79632,1,0,0:0:0:0:
352,117,80232,1,0,0:0:0:0:
349,98,80632,1,8,0:0:0:0:
349,98,81832,1,8,0:0:0:0:
318,95,82232,1,0,0:0:0:0:
318,95,83032,1,8,0:0:0:0:
318,94,83832,1,0,0:0:0:0:
313,123,89433,5,0,0:0:0:0:
316,123,89833,1,8,0:0:0:0:
316,123,90233,1,0,0:0:0:0:
316,123,91433,1,0,0:0:0:0:
316,121,91833,1,8,0:0:0:0:
316,120,93033,1,8,0:0:0:0:
311,103,93233,1,8,0:0:0:0:
316,120,93433,1,0,0:0:0:0:
315,113,93834,1,0,0:0:0:0:
347,113,94034,1,8,0:0:0:0:
348,112,94434,1,0,0:0:0:0:
348,112,94634,1,8,0:0:0:0:
348,112,95834,1,0,0:0:0:0:
348,112,96234,1,8,0:0:0:0:
348,112,96634,1,0,0:0:0:0:
348,112,97834,1,0,0:0:0:0:
348,112,98234,1,8,0:0:0:0:
348,112,99434,1,8,0:0:0:0:
348,112,99634,1,8,0:0:0:0:
348,112,99834,1,0,0:0:0:0:
339,108,100234,1,0,0:0:0:0:
339,108,100434,1,0,0:0:0:0:
339,108,100834,1,8,0:0:0:0:
339,108,101034,1,0,0:0:0:0:
339,108,102235,1,0,0:0:0:0:
339,108,102635,1,8,0:0:0:0:
331,105,103035,1,0,0:0:0:0:
262,176,104235,1,0,0:0:0:0:
270,179,104635,1,8,0:0:0:0:
267,187,105835,1,8,0:0:0:0:
267,187,106035,1,8,0:0:0:0:
267,187,106235,1,0,0:0:0:0:
271,185,106635,1,0,0:0:0:0:
271,185,106835,1,8,0:0:0:0:
271,185,107235,1,8,0:0:0:0:
271,185,107435,1,0,0:0:0:0:
274,184,107835,1,8,0:0:0:0:
275,184,108635,1,0,0:0:0:0:
275,184,109036,1,8,0:0:0:0:
275,184,109436,1,0,0:0:0:0:
275,184,110636,1,0,0:0:0:0:
275,184,111036,1,0,0:0:0:0:
275,184,112236,1,8,0:0:0:0:
275,184,112436,1,8,0:0:0:0:
275,184,112636,1,0,0:0:0:0:
275,184,113236,1,0,0:0:0:0:
387,241,115836,5,8,0:0:0:0:
386,245,116637,1,0,0:0:0:0:
386,245,117437,1,8,0:0:0:0:
386,245,118237,1,8,0:0:0:0:
386,245,119037,1,0,0:0:0:0:
386,245,120637,1,8,0:0:0:0:
386,245,121437,1,0,0:0:0:0:
386,245,122237,1,0,0:0:0:0:
361,234,123838,1,8,0:0:0:0:
361,234,124600,1,0,0:0:0:0:
361,234,125019,1,0,0:0:0:0:
361,234,125438,1,8,0:0:0:0:
364,233,127038,1,8,0:0:0:0:
367,227,127104,1,8,0:0:0:0:
412,162,127980,1,0,0:0:0:0:
364,233,128046,1,0,0:0:0:0:
360,222,135039,5,12,0:0:0:0:
312,245,135530,1,0,0:0:0:0:
312,245,135694,1,8,0:0:0:0:
312,245,135858,1,8,0:0:0:0:
312,245,136022,1,4,0:0:0:0:
314,246,136350,1,4,0:0:0:0:
316,250,136678,1,4,0:0:0:0:
317,256,137006,1,8,0:0:0:0:
317,256,137170,1,8,0:0:0:0:
317,256,137334,1,0,0:0:0:0:
317,256,137498,1,0,0:0:0:0:
317,256,137579,1,0,0:0:0:0:
317,256,137661,1,8,0:0:0:0:
317,256,137825,1,8,0:0:0:0:
317,256,137989,1,4,0:0:0:0:
320,268,138317,1,8,0:0:0:0:
320,268,138481,1,0,0:0:0:0:
268,179,138563,1,0,0:0:0:0:
299,254,138645,1,8,0:0:0:0:
242,79,138727,1,8,0:0:0:0:
299,254,138809,1,0,0:0:0:0:
299,254,138973,1,12,0:0:0:0:
268,204,139137,1,0,0:0:0:0:
268,204,139301,1,8,0:0:0:0:
268,204,139465,1,0,0:0:0:0:
268,204,139629,1,0,0:0:0:0:
246,86,139711,1,8,0:0:0:0:
268,204,139793,1,0,0:0:0:0:
268,204,139875,1,0,0:0:0:0:
268,204,139957,1,8,0:0:0:0:
265,219,140120,1,8,0:0:0:0:
265,219,140202,1,8,0:0:0:0:
265,219,140284,1,0,0:0:0:0:
236,76,140366,1,0,0:0:0:0:
270,220,140448,1,8,0:0:0:0:
270,220,140776,1,0,0:0:0:0:
270,220,140940,1,8,0:0:0:0:
270,220,141268,1,8,0:0:0:0:
270,220,141432,1,0,0:0:0:0:
284,213,141514,1,0,0:0:0:0:
279,216,141596,1,8,0:0:0:0:
284,213,141760,1,8,0:0:0:0:
284,213,141924,1,0,0:0:0:0:
284,213,142088,1,8,0:0:0:0:
284,213,142170,1,8,0:0:0:0:
284,213,142252,1,0,0:0:0:0:
284,213,142416,1,8,0:0:0:0:
284,213,142579,1,8,0:0:0:0:
315,216,142743,1,8,0:0:0:0:
315,216,142907,1,4,0:0:0:0:
332,137,143071,1,8,0:0:0:0:
364,128,143399,1,0,0:0:0:0:
364,128,143563,1,8,0:0:0:0:
364,128,143727,1,8,0:0:0:0:
364,128,143891,1,4,0:0:0:0:
364,128,144219,1,4,0:0:0:0:
364,128,144547,1,4,0:0:0:0:
364,128,144875,1,0,0:0:0:0:
364,128,145039,1,8,0:0:0:0:
340,154,145120,1,8,0:0:0:0:
340,154,145202,1,0,0:0:0:0:
340,154,145366,1,0,0:0:0:0:
340,154,145530,1,8,0:0:0:0:
343,110,145694,1,8,0:0:0:0:
337,151,145858,1,4,0:0:0:0:
337,151,146186,1,0,0:0:0:0:
337,151,146350,1,8,0:0:0:0:
337,151,146432,1,8,0:0:0:0:
337,151,146514,1,8,0:0:0:0:
337,151,146678,1,8,0:0:0:0:
337,151,146842,1,4,0:0:0:0:
336,154,147170,1,8,0:0:0:0:
336,154,147334,5,0,0:0:0:0:
336,154,147661,1,0,0:0:0:0:
342,156,147825,1,8,0:0:0:0:
350,164,148153,1,0,0:0:0:0:
349,135,148317,1,8,0:0:0:0:
352,153,148481,1,8,0:0:0:0:
352,153,148645,1,0,0:0:0:0:
352,135,148809,1,8,0:0:0:0:
345,154,149137,1,0,0:0:0:0:
347,163,149301,1,8,0:0:0:0:
347,163,149465,1,8,0:0:0:0:
347,163,149547,1,8,0:0:0:0:
347,163,149629,1,0,0:0:0:0:
347,163,149711,1,0,0:0:0:0:
347,163,149793,1,8,0:0:0:0:
347,163,149875,1,0,0:0:0:0:
347,163,149957,1,8,0:0:0:0:
347,163,150120,1,0,0:0:0:0:
347,163,150284,1,0,0:0:0:0:
347,175,150366,1,0,0:0:0:0:
347,175,150448,1,0,0:0:0:0:
347,175,150612,1,0,0:0:0:0:
346,180,150776,1,12,0:0:0:0:
300,167,151104,1,0,0:0:0:0:
313,171,151268,1,8,0:0:0:0:
324,169,151432,1,8,0:0:0:0:
328,170,151760,1,0,0:0:0:0:
328,170,151924,1,0,0:0:0:0:
328,170,152088,1,8,0:0:0:0:
328,170,152252,1,0,0:0:0:0:
334,172,152416,1,8,0:0:0:0:
330,177,152743,1,8,0:0:0:0:
330,177,152907,1,0,0:0:0:0:
330,177,153235,1,0,0:0:0:0:
330,177,153399,1,8,0:0:0:0:
330,177,153727,1,0,0:0:0:0:
330,177,153891,1,0,0:0:0:0:
256,115,153973,1,0,0:0:0:0:
330,177,154055,1,8,0:0:0:0:
330,177,154219,1,0,0:0:0:0:
330,177,154383,1,0,0:0:0:0:
315,164,154711,1,8,0:0:0:0:
319,165,155038,1,0,0:0:0:0:
319,165,155202,1,8,0:0:0:0:
319,165,155366,1,8,0:0:0:0:
312,162,155530,1,0,0:0:0:0:
312,162,155694,1,8,0:0:0:0:
312,162,156022,1,8,0:0:0:0:
312,162,156186,1,0,0:0:0:0:
312,162,156350,1,8,0:0:0:0:
312,162,156514,1,8,0:0:0:0:
317,140,156678,1,0,0:0:0:0:
317,140,156842,1,8,0:0:0:0:
318,140,157170,1,0,0:0:0:0:
318,140,157334,1,0,0:0:0:0:
318,140,157498,1,8,0:0:0:0:
318,140,157579,1,0,0:0:0:0:
318,140,157661,1,8,0:0:0:0:
318,140,157825,1,8,0:0:0:0:
318,140,157989,1,0,0:0:0:0:
263,277,158153,1,0,0:0:0:0:
264,176,158235,1,0,0:0:0:0:
316,141,158317,1,0,0:0:0:0:
263,277,158481,1,0,0:0:0:0:
316,141,158645,1,12,0:0:0:0:
270,286,159137,1,0,0:0:0:0:
270,286,159301,1,8,0:0:0:0:
270,286,159465,1,8,0:0:0:0:
270,286,159629,1,0,0:0:0:0:
274,287,159793,1,0,0:0:0:0:
274,287,159957,1,8,0:0:0:0:
274,287,160120,1,0,0:0:0:0:
274,287,160202,1,0,0:0:0:0:
274,287,160284,1,8,0:0:0:0:
274,287,160448,1,8,0:0:0:0:
274,287,160612,1,0,0:0:0:0:
283,291,161104,1,0,0:0:0:0:
283,291,161268,1,8,0:0:0:0:
283,291,161432,1,8,0:0:0:0:
283,291,161596,1,0,0:0:0:0:
283,291,161924,1,0,0:0:0:0:
283,291,162088,1,0,0:0:0:0:
283,291,162252,1,8,0:0:0:0:
283,291,162416,1,8,0:0:0:0:
283,291,162579,1,0,0:0:0:0:
284,292,163071,1,0,0:0:0:0:
284,292,163399,1,0,0:0:0:0:
289,303,163563,1,8,0:0:0:0:
292,268,163727,1,0,0:0:0:0:
292,268,163891,1,0,0:0:0:0:
293,271,164219,1,8,0:0:0:0:
293,271,164383,1,0,0:0:0:0:
293,271,164465,1,0,0:0:0:0:
299,262,164547,1,8,0:0:0:0:
304,275,164875,1,0,0:0:0:0:
304,275,165038,1,8,0:0:0:0:
304,275,165202,1,8,0:0:0:0:
304,275,165366,1,0,0:0:0:0:
304,275,165448,1,8,0:0:0:0:
304,275,165530,1,0,0:0:0:0:
304,275,165694,1,0,0:0:0:0:
304,275,165858,1,0,0:0:0:0:
304,275,166022,1,0,0:0:0:0:
292,128,166104,1,0,0:0:0:0:
304,275,166186,1,8,0:0:0:0:
340,101,166268,1,0,0:0:0:0:
304,275,166350,1,0,0:0:0:0:
304,275,166432,1,0,0:0:0:0:
304,275,166514,1,12,0:0:0:0:
304,275,166678,1,12,0:0:0:0:
284,201,167006,1,0,0:0:0:0:
286,193,167334,1,0,0:0:0:0:
286,193,167498,1,12,0:0:0:0:
286,193,167661,1,12,0:0:0:0:
264,164,167989,1,0,0:0:0:0:
264,164,168317,1,0,0:0:0:0:
286,193,168481,1,12,0:0:0:0:
286,193,168644,1,12,0:0:0:0:
285,181,168973,1,0,0:0:0:0:
285,181,169137,1,0,0:0:0:0:
285,181,169301,1,8,0:0:0:0:
285,181,169465,1,8,0:0:0:0:
285,181,169629,1,0,0:0:0:0:
285,181,169711,1,0,0:0:0:0:
285,181,169793,1,8,0:0:0:0:
285,181,169875,1,0,0:0:0:0:
285,181,169957,1,8,0:0:0:0:
285,181,170038,1,8,0:0:0:0:
285,181,170120,1,0,0:0:0:0:
285,181,170202,1,8,0:0:0:0:
285,181,170284,1,0,0:0:0:0:
286,193,170448,1,12,0:0:0:0:
286,193,170611,1,12,0:0:0:0:
293,190,170940,1,0,0:0:0:0:
293,190,171268,1,0,0:0:0:0:
286,193,171432,1,12,0:0:0:0:
286,193,171595,1,12,0:0:0:0:
337,207,171924,1,0,0:0:0:0:
337,207,172252,1,0,0:0:0:0:
286,193,172416,1,12,0:0:0:0:
286,193,172579,1,12,0:0:0:0:
336,207,172907,1,0,0:0:0:0:
316,214,173071,1,8,0:0:0:0:
316,214,173235,1,8,0:0:0:0:
316,214,173317,1,8,0:0:0:0:
316,214,173399,1,0,0:0:0:0:
286,193,173727,1,12,0:0:0:0:
286,193,174055,1,4,0:0:0:0:
254,176,174383,1,0,0:0:0:0:
254,176,174875,1,0,0:0:0:0:
255,169,175038,1,8,0:0:0:0:
255,169,175202,1,8,0:0:0:0:
255,169,175366,1,0,0:0:0:0:
255,169,175694,1,0,0:0:0:0:
255,169,175858,1,8,0:0:0:0:
255,169,176022,1,0,0:0:0:0:
255,169,176186,1,0,0:0:0:0:
255,169,176350,1,8,0:0:0:0:
256,162,176514,1,0,0:0:0:0:
256,162,176842,1,0,0:0:0:0:
256,162,177006,1,8,0:0:0:0:
256,162,177170,1,8,0:0:0:0:
256,162,177334,1,0,0:0:0:0:
256,162,177498,1,8,0:0:0:0:
256,162,177579,1,8,0:0:0:0:
256,162,177661,1,0,0:0:0:0:
256,162,177825,1,0,0:0:0:0:
256,162,177989,1,0,0:0:0:0:
256,162,178153,1,0,0:0:0:0:
256,162,178317,1,8,0:0:0:0:
256,162,178809,1,0,0:0:0:0:
256,162,179137,1,0,0:0:0:0:
256,162,179219,1,0,0:0:0:0:
256,162,179301,1,8,0:0:0:0:
256,162,179465,1,0,0:0:0:0:
256,162,179629,1,8,0:0:0:0:
256,162,179793,1,0,0:0:0:0:
336,144,179875,1,0,0:0:0:0:
256,162,179957,1,8,0:0:0:0:
228,75,180120,1,8,0:0:0:0:
301,160,180284,1,0,0:0:0:0:
308,170,180448,1,8,0:0:0:0:
308,170,180776,1,0,0:0:0:0:
308,170,180940,1,8,0:0:0:0:
308,170,181104,1,0,0:0:0:0:
308,170,181186,1,8,0:0:0:0:
308,170,181268,1,0,0:0:0:0:
308,170,181432,1,8,0:0:0:0:
308,170,181760,1,8,0:0:0:0:
308,170,181924,1,0,0:0:0:0:
308,170,182006,1,0,0:0:0:0:
308,170,182088,1,0,0:0:0:0:
312,170,182170,1,0,0:0:0:0:
312,170,182252,1,8,0:0:0:0:
174,102,182416,1,0,0:0:0:0:
184,110,182743,1,0,0:0:0:0:
184,110,182907,1,8,0:0:0:0:
184,110,183071,1,8,0:0:0:0:
184,110,183235,1,0,0:0:0:0:
184,110,183563,1,8,0:0:0:0:
184,110,183727,1,0,0:0:0:0:
183,115,183809,1,0,0:0:0:0:
184,110,183891,1,8,0:0:0:0:
193,110,184055,1,8,0:0:0:0:
183,115,184219,1,0,0:0:0:0:
183,115,184711,1,0,0:0:0:0:
183,115,184875,1,8,0:0:0:0:
183,115,185038,1,0,0:0:0:0:
183,115,185120,1,0,0:0:0:0:
183,115,185202,1,8,0:0:0:0:
183,115,185366,1,8,0:0:0:0:
183,115,185530,1,0,0:0:0:0:
213,123,185694,1,0,0:0:0:0:
213,123,185858,1,8,0:0:0:0:
213,123,186022,1,0,0:0:0:0:
213,123,186186,1,8,0:0:0:0:
213,123,186678,1,0,0:0:0:0:
213,123,187006,1,0,0:0:0:0:
213,123,187170,1,8,0:0:0:0:
222,129,187334,1,8,0:0:0:0:
222,129,187498,1,0,0:0:0:0:
220,126,187825,1,0,0:0:0:0:
220,126,187989,1,0,0:0:0:0:
220,126,188071,1,0,0:0:0:0:
220,126,188153,1,8,0:0:0:0:
220,126,188317,1,8,0:0:0:0:
220,126,188481,1,0,0:0:0:0:
220,126,188645,1,8,0:0:0:0:
220,126,188809,1,0,0:0:0:0:
220,126,188891,1,8,0:0:0:0:
220,126,188973,1,0,0:0:0:0:
220,126,189055,1,0,0:0:0:0:
220,126,189137,1,8,0:0:0:0:
220,134,189301,1,8,0:0:0:0:
220,134,189465,1,0,0:0:0:0:
220,134,189629,1,8,0:0:0:0:
220,134,189711,1,0,0:0:0:0:
220,134,189793,1,8,0:0:0:0:
220,134,189875,1,8,0:0:0:0:
220,134,189957,1,0,0:0:0:0:
220,134,190120,1,12,0:0:0:0:
241,284,190283,1,0,0:0:0:0:
220,134,190447,1,0,0:0:0:0:
220,140,190611,1,12,0:0:0:0:
222,171,191103,1,8,0:0:0:0:
222,171,191267,1,8,0:0:0:0:
227,86,191349,1,8,0:0:0:0:
225,176,191431,1,0,0:0:0:0:
225,176,191595,1,0,0:0:0:0:
225,176,191759,1,12,0:0:0:0:
225,176,191923,1,0,0:0:0:0:
227,181,192087,1,0,0:0:0:0:
233,138,192251,1,12,0:0:0:0:
233,183,192742,1,8,0:0:0:0:
244,187,192906,1,8,0:0:0:0:
233,183,193070,1,0,0:0:0:0:
338,158,193152,1,0,0:0:0:0:
240,145,193234,1,0,0:0:0:0:
329,153,193316,1,0,0:0:0:0:
225,176,193398,1,12,0:0:0:0:
225,176,193562,1,0,0:0:0:0:
227,181,193726,1,0,0:0:0:0:
233,138,193890,1,12,0:0:0:0:
262,205,194382,1,0,0:0:0:0:
262,205,194546,1,8,0:0:0:0:
262,205,194628,1,8,0:0:0:0:
262,205,194710,1,0,0:0:0:0:
340,96,194792,1,8,0:0:0:0:
262,205,194874,1,0,0:0:0:0:
262,205,194956,1,0,0:0:0:0:
262,205,195038,1,8,0:0:0:0:
262,205,195201,1,8,0:0:0:0:
262,205,195365,1,0,0:0:0:0:
262,194,195529,1,12,0:0:0:0:
266,188,195857,1,0,0:0:0:0:
266,188,196021,1,8,0:0:0:0:
266,188,196185,1,8,0:0:0:0:
266,188,196267,1,8,0:0:0:0:
266,188,196349,1,0,0:0:0:0:
266,188,196513,1,0,0:0:0:0:
225,176,196677,1,12,0:0:0:0:
225,176,196841,1,0,0:0:0:0:
227,181,197005,1,0,0:0:0:0:
233,138,197169,1,12,0:0:0:0:
347,193,197497,1,0,0:0:0:0:
347,216,197660,1,8,0:0:0:0:
347,216,197824,1,8,0:0:0:0:
355,277,197906,1,8,0:0:0:0:
346,210,197988,1,0,0:0:0:0:
346,210,198152,1,0,0:0:0:0:
225,176,198316,1,12,0:0:0:0:
225,176,198480,1,0,0:0:0:0:
227,181,198644,1,0,0:0:0:0:
233,138,198808,1,12,0:0:0:0:
112,166,199136,1,0,0:0:0:0:
128,163,199218,1,0,0:0:0:0:
128,163,199300,1,8,0:0:0:0:
249,163,199382,1,8,0:0:0:0:
128,163,199464,1,0,0:0:0:0:
128,163,199628,1,8,0:0:0:0:
273,129,199710,1,0,0:0:0:0:
128,163,199792,1,8,0:0:0:0:
148,175,199956,1,0,0:0:0:0:
225,130,200119,1,0,0:0:0:0:
225,130,200283,1,8,0:0:0:0:
225,130,200447,1,0,0:0:0:0:
225,130,200775,1,0,0:0:0:0:
225,130,200939,1,8,0:0:0:0:
225,130,201103,1,8,0:0:0:0:
225,130,201267,1,0,0:0:0:0:
361,174,201431,1,0,0:0:0:0:
361,174,201513,1,0,0:0:0:0:
221,130,201595,1,8,0:0:0:0:
221,130,201759,1,8,0:0:0:0:
221,130,201923,1,0,0:0:0:0:
313,193,202005,1,8,0:0:0:0:
221,130,202087,1,0,0:0:0:0:
245,61,202169,1,0,0:0:0:0:
221,130,202251,1,8,0:0:0:0:
221,130,202415,1,0,0:0:0:0:
220,130,202742,1,0,0:0:0:0:
220,130,202824,1,0,0:0:0:0:
220,130,202906,1,8,0:0:0:0:
213,132,203070,1,0,0:0:0:0:
213,132,203234,1,8,0:0:0:0:
220,132,203398,1,0,0:0:0:0:
220,132,203562,1,8,0:0:0:0:
220,132,203726,1,8,0:0:0:0:
318,191,203808,1,8,0:0:0:0:
220,132,203890,1,0,0:0:0:0:
274,152,204054,1,0,0:0:0:0:
264,150,204136,1,0,0:0:0:0:
218,132,204218,1,0,0:0:0:0:
218,132,204382,1,8,0:0:0:0:
262,152,204546,1,0,0:0:0:0:
225,136,204710,1,8,0:0:0:0:
231,123,204874,1,0,0:0:0:0:
260,137,205037,1,0,0:0:0:0:
260,137,205119,1,0,0:0:0:0:
260,137,205201,1,8,0:0:0:0:
252,111,205283,1,8,0:0:0:0:
260,137,205365,1,0,0:0:0:0:
304,212,205447,1,0,0:0:0:0:
248,138,205529,1,8,0:0:0:0:
304,212,205611,1,0,0:0:0:0:
248,138,205693,1,8,0:0:0:0:
209,195,205857,1,4,0:0:0:0:
267,196,207169,1,12,0:0:0:0:
235,142,207328,1,0,0:0:0:0:
360,156,207488,1,8,0:0:0:0:
354,152,207647,1,0,0:0:0:0:
350,152,207727,1,0,0:0:0:0:
354,152,207807,1,0,0:0:0:0:
206,149,207887,1,0,0:0:0:0:
350,152,207966,1,8,0:0:0:0:
350,152,208126,1,0,0:0:0:0:
350,152,208286,1,8,0:0:0:0:
350,152,208365,1,8,0:0:0:0:
350,152,208445,1,0,0:0:0:0:
350,152,208605,1,8,0:0:0:0:
206,149,208684,1,8,0:0:0:0:
350,152,208764,1,8,0:0:0:0:
350,152,208924,1,0,0:0:0:0:
342,152,209004,1,0,0:0:0:0:
342,152,209083,1,0,0:0:0:0:
338,156,209243,1,8,0:0:0:0:
237,69,209403,1,4,0:0:0:0:
252,104,209722,1,12,0:0:0:0:
252,104,209881,1,0,0:0:0:0:
252,104,210041,1,8,0:0:0:0:
252,104,210200,1,0,0:0:0:0:
252,104,210280,1,0,0:0:0:0:
249,108,210360,1,8,0:0:0:0:
249,108,210520,1,8,0:0:0:0:
249,108,210599,1,8,0:0:0:0:
249,108,210679,1,0,0:0:0:0:
249,81,210839,1,8,0:0:0:0:
249,81,210919,1,8,0:0:0:0:
249,81,210998,1,8,0:0:0:0:
249,81,211158,1,0,0:0:0:0:
249,81,211317,1,0,0:0:0:0:
206,149,211397,1,0,0:0:0:0:
249,81,211477,1,8,0:0:0:0:
249,81,211557,1,8,0:0:0:0:
249,81,211637,1,0,0:0:0:0:
249,81,211796,1,0,0:0:0:0:
249,81,211876,1,0,0:0:0:0:
249,81,211956,1,8,0:0:0:0:
249,81,212115,1,8,0:0:0:0:
249,81,212275,1,4,0:0:0:0:
222,157,212594,1,8,0:0:0:0:
237,168,212754,1,0,0:0:0:0:
230,182,212833,1,0,0:0:0:0:
230,182,212913,1,0,0:0:0:0:
230,182,213073,1,8,0:0:0:0:
230,182,213232,1,0,0:0:0:0:
230,182,213392,1,8,0:0:0:0:
287,158,213472,1,8,0:0:0:0:
287,158,213551,1,8,0:0:0:0:
206,149,213631,1,8,0:0:0:0:
287,158,213711,1,0,0:0:0:0:
287,158,213871,1,0,0:0:0:0:
291,159,214030,1,8,0:0:0:0:
291,159,214190,1,0,0:0:0:0:
241,179,214349,1,8,0:0:0:0:
217,75,214429,1,8,0:0:0:0:
256,144,214509,1,0,0:0:0:0:
260,148,214669,1,8,0:0:0:0:
247,145,214748,1,0,0:0:0:0:
247,145,214828,1,8,0:0:0:0:
247,145,214988,1,0,0:0:0:0:
247,145,215147,1,0,0:0:0:0:
247,145,215307,1,8,0:0:0:0:
247,145,215387,1,0,0:0:0:0:
247,145,215466,1,8,0:0:0:0:
219,67,215546,1,8,0:0:0:0:
247,145,215626,1,0,0:0:0:0:
238,124,215786,1,8,0:0:0:0:
238,124,215945,1,0,0:0:0:0:
238,124,216025,1,0,0:0:0:0:
238,124,216105,1,8,0:0:0:0:
238,124,216264,1,8,0:0:0:0:
238,124,216424,1,0,0:0:0:0:
241,136,216583,1,8,0:0:0:0:
241,136,216663,1,8,0:0:0:0:
241,136,216743,1,0,0:0:0:0:
241,136,216823,1,8,0:0:0:0:
241,136,216903,1,0,0:0:0:0:
222,126,216982,1,0,0:0:0:0:
241,136,217062,1,8,0:0:0:0:
241,136,217222,1,8,0:0:0:0:
241,136,217381,1,4,0:0:0:0:
244,181,217700,1,8,0:0:0:0:
244,181,217860,1,0,0:0:0:0:
262,182,217940,1,0,0:0:0:0:
262,182,218020,1,0,0:0:0:0:
262,182,218179,1,8,0:0:0:0:
262,182,218339,1,0,0:0:0:0:
262,182,218498,1,8,0:0:0:0:
262,182,218578,1,8,0:0:0:0:
262,182,218658,1,0,0:0:0:0:
262,182,218738,1,0,0:0:0:0:
262,182,218817,1,8,0:0:0:0:
262,182,218977,1,8,0:0:0:0:
262,182,219137,1,0,0:0:0:0:
262,175,219216,1,0,0:0:0:0:
262,175,219296,1,0,0:0:0:0:
206,149,219376,1,0,0:0:0:0:
262,175,219456,1,8,0:0:0:0:
262,175,219615,1,4,0:0:0:0:
284,178,219934,1,12,0:0:0:0:
231,77,220094,1,0,0:0:0:0:
178,159,220254,1,8,0:0:0:0:
206,175,220413,1,8,0:0:0:0:
206,175,220493,1,8,0:0:0:0:
206,175,220573,1,0,0:0:0:0:
206,175,220732,1,8,0:0:0:0:
206,175,220892,1,0,0:0:0:0:
206,175,221051,1,8,0:0:0:0:
206,175,221131,1,8,0:0:0:0:
206,175,221211,1,0,0:0:0:0:
206,175,221371,1,8,0:0:0:0:
155,56,221450,1,0,0:0:0:0:
206,175,221530,1,0,0:0:0:0:
206,175,221690,1,0,0:0:0:0:
163,41,221770,1,0,0:0:0:0:
206,175,221849,1,0,0:0:0:0:
206,175,222009,1,8,0:0:0:0:
206,175,222169,1,0,0:0:0:0:
259,138,222248,1,0,0:0:0:0:
206,175,222328,1,0,0:0:0:0:
259,138,222408,1,0,0:0:0:0:
206,175,222488,1,12,0:0:0:0:
279,227,222647,1,0,0:0:0:0:
206,176,222807,1,8,0:0:0:0:
206,176,222966,1,0,0:0:0:0:
210,178,223046,1,0,0:0:0:0:
210,178,223126,1,0,0:0:0:0:
210,178,223286,1,8,0:0:0:0:
210,178,223445,1,0,0:0:0:0:
210,178,223605,1,8,0:0:0:0:
210,178,223684,1,8,0:0:0:0:
210,178,223764,1,0,0:0:0:0:
210,178,223924,1,8,0:0:0:0:
137,96,224004,1,8,0:0:0:0:
231,193,224083,1,0,0:0:0:0:
210,178,224243,1,0,0:0:0:0:
210,178,224323,1,0,0:0:0:0:
210,178,224403,1,8,0:0:0:0:
206,149,224482,1,8,0:0:0:0:
210,178,224562,1,0,0:0:0:0:
216,180,224722,1,0,0:0:0:0:
216,180,224881,1,8,0:0:0:0:
216,180,225041,1,4,0:0:0:0:
356,240,225360,1,8,0:0:0:0:
235,176,225520,1,0,0:0:0:0:
224,171,225599,1,8,0:0:0:0:
294,163,225679,1,0,0:0:0:0:
224,171,225839,1,0,0:0:0:0:
224,171,225998,1,0,0:0:0:0:
224,171,226158,1,8,0:0:0:0:
224,171,226238,1,0,0:0:0:0:
224,171,226317,1,8,0:0:0:0:
224,171,226397,1,8,0:0:0:0:
224,171,226477,1,0,0:0:0:0:
224,171,226637,1,0,0:0:0:0:
238,132,226796,1,8,0:0:0:0:
238,132,226876,1,0,0:0:0:0:
238,132,226956,1,8,0:0:0:0:
206,81,227036,1,8,0:0:0:0:
238,132,227115,1,8,0:0:0:0:
238,132,227195,1,8,0:0:0:0:
238,132,227275,1,0,0:0:0:0:
238,132,227434,1,0,0:0:0:0:
238,132,227594,1,12,0:0:0:0:
179,69,228073,1,8,0:0:0:0:
198,139,228232,1,0,0:0:0:0:
206,154,228551,1,0,0:0:0:0:
194,123,228711,1,8,0:0:0:0:
281,166,228871,1,0,0:0:0:0:
194,123,229030,1,0,0:0:0:0:
194,123,229190,1,8,0:0:0:0:
194,123,229429,1,0,0:0:0:0:
194,123,229509,1,8,0:0:0:0:
194,123,229669,1,8,0:0:0:0:
194,123,229828,1,0,0:0:0:0:
194,123,229988,1,0,0:0:0:0:
194,123,230147,1,12,0:0:0:0:
194,123,230626,1,8,0:0:0:0:
194,123,230786,1,0,0:0:0:0:
194,123,231105,1,0,0:0:0:0:
194,123,231264,1,8,0:0:0:0:
200,123,231583,1,8,0:0:0:0:
200,123,231743,1,0,0:0:0:0:
213,132,231903,1,0,0:0:0:0:
213,132,232062,1,8,0:0:0:0:
213,132,232222,1,8,0:0:0:0:
267,126,232301,1,8,0:0:0:0:
213,132,232381,1,0,0:0:0:0:
213,132,232461,1,0,0:0:0:0:
213,132,232541,1,8,0:0:0:0:
213,132,232700,1,4,0:0:0:0:
213,126,233179,1,8,0:0:0:0:
213,126,233339,1,0,0:0:0:0:
213,126,233658,1,0,0:0:0:0:
213,126,233817,1,8,0:0:0:0:
213,126,234137,1,0,0:0:0:0:
213,126,234296,1,8,0:0:0:0:
213,126,234456,1,8,0:0:0:0:
213,126,234615,1,0,0:0:0:0:
213,126,234775,1,0,0:0:0:0:
213,126,234855,1,0,0:0:0:0:
213,126,234934,1,8,0:0:0:0:
213,126,235094,1,8,0:0:0:0:
213,126,235254,1,4,0:0:0:0:
295,138,235732,1,0,0:0:0:0:
297,126,235892,1,12,0:0:0:0:
297,130,236211,1,8,0:0:0:0:
297,130,236371,1,0,0:0:0:0:
297,130,236530,1,0,0:0:0:0:
236,107,236610,1,0,0:0:0:0:
297,130,236690,1,8,0:0:0:0:
297,130,236770,1,0,0:0:0:0:
297,130,236849,1,8,0:0:0:0:
297,130,237009,1,0,0:0:0:0:
297,130,237169,1,0,0:0:0:0:
291,132,237328,1,8,0:0:0:0:
291,132,237408,1,8,0:0:0:0:
291,132,237488,1,0,0:0:0:0:
291,132,237567,1,0,0:0:0:0:
291,132,237647,1,0,0:0:0:0:
291,132,237727,1,0,0:0:0:0:
291,132,237807,1,12,0:0:0:0:
351,255,237966,1,0,0:0:0:0:
381,169,238286,1,8,0:0:0:0:
372,191,238445,1,0,0:0:0:0:
372,191,238605,1,0,0:0:0:0:
205,142,238684,1,0,0:0:0:0:
305,136,238764,1,0,0:0:0:0:
305,136,238924,1,8,0:0:0:0:
305,136,239243,1,0,0:0:0:0:
309,121,239403,1,8,0:0:0:0:
313,127,239562,1,8,0:0:0:0:
315,128,239642,1,8,0:0:0:0:
313,127,239722,1,0,0:0:0:0:
315,128,239881,1,0,0:0:0:0:
317,136,240041,1,8,0:0:0:0:
317,136,240200,1,0,0:0:0:0:
317,136,240360,1,0,0:0:0:0:
317,136,240520,1,8,0:0:0:0:
313,167,240839,1,8,0:0:0:0:
313,167,240998,1,0,0:0:0:0:
313,167,241158,1,0,0:0:0:0:
313,167,241238,1,8,0:0:0:0:
313,167,241317,1,0,0:0:0:0:
313,167,241477,1,8,0:0:0:0:
313,167,241796,1,0,0:0:0:0:
313,167,241956,1,8,0:0:0:0:
313,167,242115,1,8,0:0:0:0:
313,167,242195,1,8,0:0:0:0:
313,167,242275,1,0,0:0:0:0:
313,167,242434,1,0,0:0:0:0:
313,167,242594,1,8,0:0:0:0:
203,135,242674,1,8,0:0:0:0:
313,167,242754,1,0,0:0:0:0:
203,135,242833,1,0,0:0:0:0:
313,167,242913,1,8,0:0:0:0:
313,167,243073,1,0,0:0:0:0:
313,167,243392,1,8,0:0:0:0:
313,167,243551,1,0,0:0:0:0:
313,167,243711,1,0,0:0:0:0:
118,164,243791,1,0,0:0:0:0:
313,167,243871,1,8,0:0:0:0:
313,167,244030,1,0,0:0:0:0:
313,167,244349,1,0,0:0:0:0:
313,167,244509,1,8,0:0:0:0:
313,167,244669,1,8,0:0:0:0:
313,167,244828,1,0,0:0:0:0:
313,167,244988,1,0,0:0:0:0:
313,167,245067,1,0,0:0:0:0:
313,167,245147,1,8,0:0:0:0:
193,153,245227,1,0,0:0:0:0:
313,167,245307,1,8,0:0:0:0:
313,167,245466,1,4,0:0:0:0:
311,170,245945,1,0,0:0:0:0:
311,170,246105,1,4,0:0:0:0:
311,170,246583,1,0,0:0:0:0:
311,170,246663,1,0,0:0:0:0:
435,103,246743,1,8,0:0:0:0:
435,103,246849,1,8,0:0:0:0:
435,103,246956,1,8,0:0:0:0:
422,109,247062,1,0,0:0:0:0:
422,112,247169,1,8,0:0:0:0:
422,109,247275,1,8,0:0:0:0:
422,112,247381,1,0,0:0:0:0:
422,109,247488,1,0,0:0:0:0:
423,118,247594,1,0,0:0:0:0:
422,124,247700,1,8,0:0:0:0:
422,124,247807,1,0,0:0:0:0:
422,124,247913,1,0,0:0:0:0:
422,124,248020,1,12,0:0:0:0:
422,124,248179,1,12,0:0:0:0:
367,161,248498,1,0,0:0:0:0:
422,124,248817,1,12,0:0:0:0:
422,124,248976,1,12,0:0:0:0:
366,151,249296,1,0,0:0:0:0:
366,151,249376,1,0,0:0:0:0:
366,151,249456,1,0,0:0:0:0:
366,151,249536,1,0,0:0:0:0:
422,124,249615,1,12,0:0:0:0:
422,124,249774,1,12,0:0:0:0:
333,151,250094,1,8,0:0:0:0:
333,151,250254,1,0,0:0:0:0:
333,151,250413,1,0,0:0:0:0:
333,151,250573,1,8,0:0:0:0:
333,151,250732,1,0,0:0:0:0:
333,151,250892,1,8,0:0:0:0:
333,151,250972,1,0,0:0:0:0:
333,151,251051,1,8,0:0:0:0:
333,151,251131,1,8,0:0:0:0:
333,151,251211,1,0,0:0:0:0:
333,151,251291,1,0,0:0:0:0:
422,124,251371,1,12,0:0:0:0:
422,124,251530,1,12,0:0:0:0:
239,174,251849,1,0,0:0:0:0:
249,163,252009,1,12,0:0:0:0:
249,163,252328,1,0,0:0:0:0:
422,124,252488,1,12,0:0:0:0:
422,124,252647,1,12,0:0:0:0:
252,154,252966,1,4,0:0:0:0:
252,154,253286,1,0,0:0:0:0:
252,154,253365,1,0,0:0:0:0:
252,154,253445,1,8,0:0:0:0:
182,131,254722,1,0,0:0:0:0:
183,130,255041,1,0,0:0:0:0:
183,130,255200,1,0,0:0:0:0:
182,123,255360,1,8,0:0:0:0:
353,262,263360,5,0,0:0:0:0:
267,150,263693,1,8,0:0:0:0:
267,150,263915,1,8,0:0:0:0:
276,88,264248,5,8,0:0:0:0:
276,88,264360,1,0,0:0:0:0:
276,88,264582,1,8,0:0:0:0:
276,88,264915,1,0,0:0:0:0:
276,88,265248,1,8,0:0:0:0:
276,88,265360,1,0,0:0:0:0:
276,88,265582,1,0,0:0:0:0:
276,88,265915,1,8,0:0:0:0:
276,88,266248,1,0,0:0:0:0:
276,88,266360,1,8,0:0:0:0:
276,88,266582,1,8,0:0:0:0:
276,88,266693,1,0,0:0:0:0:
276,88,266915,1,0,0:0:0:0:
276,88,267026,1,8,0:0:0:0:
276,88,267360,1,0,0:0:0:0:
325,155,267693,1,8,0:0:0:0:
325,155,267915,1,0,0:0:0:0:
224,138,268248,1,0,0:0:0:0:
224,138,268360,1,8,0:0:0:0:
224,138,268693,1,8,0:0:0:0:
224,138,268804,1,0,0:0:0:0:
224,138,268915,1,0,0:0:0:0:
224,138,269026,1,8,0:0:0:0:
224,138,269248,1,8,0:0:0:0:
224,138,269360,1,0,0:0:0:0:
244,175,269915,1,0,0:0:0:0:
244,175,270248,1,8,0:0:0:0:
244,175,270360,1,0,0:0:0:0:
244,175,270582,1,0,0:0:0:0:
244,175,270693,1,8,0:0:0:0:
244,175,271360,1,0,0:0:0:0:
244,175,271915,1,0,0:0:0:0:
244,175,272026,1,8,0:0:0:0:
244,175,272360,1,0,0:0:0:0:
244,175,272693,1,0,0:0:0:0:
244,175,272915,1,8,0:0:0:0:
244,175,273026,1,0,0:0:0:0:
244,175,273248,1,0,0:0:0:0:
244,175,273360,1,8,0:0:0:0:
244,175,273915,1,0,0:0:0:0:
244,175,274026,1,8,0:0:0:0:
244,175,274360,1,8,0:0:0:0:
244,175,274693,1,0,0:0:0:0:
244,175,274915,1,8,0:0:0:0:
244,175,275026,1,0,0:0:0:0:
244,175,275248,1,0,0:0:0:0:
244,175,275360,1,8,0:0:0:0:
201,184,275915,1,0,0:0:0:0:
211,173,276026,1,8,0:0:0:0:
211,173,276248,1,8,0:0:0:0:
211,173,276360,1,0,0:0:0:0:
211,173,276693,1,0,0:0:0:0:
211,173,276804,1,8,0:0:0:0:
211,173,276915,1,8,0:0:0:0:
211,173,277026,1,0,0:0:0:0:
211,173,277360,1,0,0:0:0:0:
211,173,277582,1,8,0:0:0:0:
211,173,277915,1,0,0:0:0:0:
211,173,278248,1,8,0:0:0:0:
211,173,278360,1,0,0:0:0:0:
211,173,278582,1,0,0:0:0:0:
211,173,278693,1,8,0:0:0:0:
233,177,279360,1,8,0:0:0:0:
233,177,279915,1,0,0:0:0:0:
233,177,280026,1,8,0:0:0:0:
233,177,280360,1,0,0:0:0:0:
233,177,280582,1,0,0:0:0:0:
233,177,280693,1,8,0:0:0:0:
233,177,280915,1,8,0:0:0:0:
233,177,281026,1,0,0:0:0:0:
233,177,281360,1,8,0:0:0:0:
233,177,281915,1,0,0:0:0:0:
233,177,282026,1,8,0:0:0:0:
233,177,282248,1,8,0:0:0:0:
233,177,282360,1,8,0:0:0:0:
233,177,282471,1,0,0:0:0:0:
233,177,282582,1,0,0:0:0:0:
233,177,282693,1,8,0:0:0:0:
233,177,282804,1,0,0:0:0:0:
233,177,282915,1,0,0:0:0:0:
233,177,283026,1,8,0:0:0:0:
233,177,283248,1,8,0:0:0:0:
233,177,283359,1,0,0:0:0:0:
238,130,283915,1,0,0:0:0:0:
238,130,284026,1,8,0:0:0:0:
238,130,284248,1,8,0:0:0:0:
238,130,284359,1,0,0:0:0:0:
238,130,284693,1,0,0:0:0:0:
238,130,284915,1,8,0:0:0:0:
238,130,285026,1,0,0:0:0:0:
238,130,285248,1,0,0:0:0:0:
238,130,285359,1,8,0:0:0:0:
238,130,285915,1,8,0:0:0:0:
238,130,286026,1,0,0:0:0:0:
238,130,286359,1,0,0:0:0:0:
238,130,286582,1,0,0:0:0:0:
238,130,286693,1,12,0:0:0:0:
259,172,287359,1,4,0:0:0:0:
247,194,287693,1,8,0:0:0:0:
247,194,288248,1,8,0:0:0:0:
259,172,288359,1,0,0:0:0:0:
247,194,288693,1,0,0:0:0:0:
247,194,289026,1,8,0:0:0:0:
247,194,289359,1,0,0:0:0:0:
198,113,289915,1,0,0:0:0:0:
198,113,290026,1,8,0:0:0:0:
247,194,290359,1,0,0:0:0:0:
198,113,290693,1,0,0:0:0:0:
247,194,291026,1,8,0:0:0:0:
247,194,291359,1,0,0:0:0:0:
231,92,291859,1,8,0:0:0:0:
231,92,292026,1,0,0:0:0:0:
247,194,292359,1,0,0:0:0:0:
230,92,292693,1,8,0:0:0:0:
247,194,293026,1,8,0:0:0:0:
247,194,293359,1,0,0:0:0:0:
182,155,293693,1,8,0:0:0:0:
247,194,293915,1,8,0:0:0:0:
247,194,294026,1,0,0:0:0:0:
182,155,294359,1,0,0:0:0:0:
210,131,294693,1,8,0:0:0:0:
210,131,295359,1,0,0:0:0:0:
210,131,295693,1,8,0:0:0:0:
210,131,296248,1,8,0:0:0:0:
210,131,296359,1,0,0:0:0:0:
210,131,296693,1,0,0:0:0:0:
205,144,297026,1,8,0:0:0:0:
205,144,297359,1,0,0:0:0:0:
205,144,297915,1,0,0:0:0:0:
205,144,298026,1,8,0:0:0:0:
205,144,298359,1,0,0:0:0:0:
205,144,298693,1,0,0:0:0:0:
205,144,299026,1,8,0:0:0:0:
205,144,299359,1,0,0:0:0:0:
205,144,299859,1,8,0:0:0:0:
205,144,300026,1,0,0:0:0:0:
205,144,300248,1,8,0:0:0:0:
205,144,300359,1,0,0:0:0:0:
205,144,300582,1,0,0:0:0:0:
205,144,300693,1,8,0:0:0:0:
205,144,301026,1,8,0:0:0:0:
205,144,301359,1,0,0:0:0:0:
205,144,301471,1,8,0:0:0:0:
205,144,301582,1,8,0:0:0:0:
205,144,301693,1,0,0:0:0:0:
205,144,301804,1,8,0:0:0:0:
205,144,301915,1,8,0:0:0:0:
205,144,302026,1,0,0:0:0:0:
205,144,302248,1,0,0:0:0:0:
205,144,302359,1,8,0:0:0:0:
205,144,302582,1,0,0:0:0:0:
205,144,302693,1,8,0:0:0:0:
205,144,302804,1,8,0:0:0:0:
205,144,302915,1,8,0:0:0:0:
205,144,303026,1,0,0:0:0:0:
205,144,303137,1,0,0:0:0:0:
237,149,303248,1,0,0:0:0:0:
237,149,303359,1,12,0:0:0:0:
285,173,303693,1,0,0:0:0:0:
285,173,303859,1,0,0:0:0:0:
285,173,304026,1,0,0:0:0:0:
285,173,304193,1,8,0:0:0:0:
285,173,304359,1,0,0:0:0:0:
285,173,304526,1,0,0:0:0:0:
151,128,304609,1,0,0:0:0:0:
285,173,304693,1,0,0:0:0:0:
285,173,304859,1,0,0:0:0:0:
285,173,305026,1,8,0:0:0:0:
285,173,305193,1,8,0:0:0:0:
285,173,305276,1,8,0:0:0:0:
285,173,305359,1,4,0:0:0:0:
285,173,305693,1,0,0:0:0:0:
285,173,305859,1,0,0:0:0:0:
277,167,306026,1,0,0:0:0:0:
277,167,306193,1,8,0:0:0:0:
223,174,306276,1,0,0:0:0:0:
277,167,306359,1,8,0:0:0:0:
277,167,306526,1,0,0:0:0:0:
277,167,306693,1,0,0:0:0:0:
277,167,306859,1,8,0:0:0:0:
277,167,307026,1,0,0:0:0:0:
277,167,307193,1,0,0:0:0:0:
277,167,307276,1,0,0:0:0:0:
277,167,307359,1,12,0:0:0:0:
267,110,307693,1,0,0:0:0:0:
267,110,307859,1,8,0:0:0:0:
267,110,307943,1,8,0:0:0:0:
267,110,308026,1,0,0:0:0:0:
267,110,308193,1,0,0:0:0:0:
267,110,308359,1,8,0:0:0:0:
267,110,308526,1,0,0:0:0:0:
198,127,308609,1,0,0:0:0:0:
267,110,308693,1,0,0:0:0:0:
267,110,308859,1,0,0:0:0:0:
267,110,309026,1,8,0:0:0:0:
267,110,309193,1,0,0:0:0:0:
267,110,309276,1,0,0:0:0:0:
267,110,309359,1,12,0:0:0:0:
267,110,309693,1,0,0:0:0:0:
267,110,309859,1,0,0:0:0:0:
267,110,310026,1,8,0:0:0:0:
267,110,310193,1,8,0:0:0:0:
267,110,310276,1,8,0:0:0:0:
267,110,310359,1,4,0:0:0:0:
267,110,310693,1,0,0:0:0:0:
267,110,310859,1,0,0:0:0:0:
267,110,311026,1,8,0:0:0:0:
267,110,311193,1,0,0:0:0:0:
267,110,311276,1,0,0:0:0:0:
267,110,311359,1,12,0:0:0:0:
267,110,311693,1,0,0:0:0:0:
267,110,311859,1,0,0:0:0:0:
267,110,312026,1,0,0:0:0:0:
267,110,312193,1,8,0:0:0:0:
267,110,312359,1,0,0:0:0:0:
312,176,312526,1,0,0:0:0:0:
312,176,312693,1,8,0:0:0:0:
312,176,312859,1,8,0:0:0:0:
312,176,312943,1,8,0:0:0:0:
312,176,313026,1,0,0:0:0:0:
312,176,313193,1,0,0:0:0:0:
312,176,313359,1,8,0:0:0:0:
190,138,313443,1,8,0:0:0:0:
312,176,313526,1,0,0:0:0:0:
190,138,313609,1,0,0:0:0:0:
312,176,313693,1,8,0:0:0:0:
312,176,313859,1,0,0:0:0:0:
312,176,314026,1,0,0:0:0:0:
312,176,314193,1,0,0:0:0:0:
163,121,314276,1,0,0:0:0:0:
312,176,314359,1,8,0:0:0:0:
312,176,314526,1,0,0:0:0:0:
312,176,314693,1,8,0:0:0:0:
312,176,314859,1,0,0:0:0:0:
312,176,314943,1,0,0:0:0:0:
312,176,315026,1,8,0:0:0:0:
214,119,315109,1,8,0:0:0:0:
312,176,315193,1,0,0:0:0:0:
312,176,315359,1,8,0:0:0:0:
192,166,315443,1,0,0:0:0:0:
312,176,315526,1,8,0:0:0:0:
312,176,315609,1,8,0:0:0:0:
312,176,315693,1,0,0:0:0:0:
312,176,315859,1,0,0:0:0:0:
312,176,316026,1,8,0:0:0:0:
312,176,316193,1,8,0:0:0:0:
312,176,316359,1,0,0:0:0:0:
312,176,316526,1,0,0:0:0:0:
206,136,316609,1,0,0:0:0:0:
312,176,316693,1,8,0:0:0:0:
312,176,316859,1,0,0:0:0:0:
312,176,317026,1,0,0:0:0:0:
312,176,317193,1,8,0:0:0:0:
312,176,317276,1,0,0:0:0:0:
312,176,317359,1,8,0:0:0:0:
312,176,317526,1,0,0:0:0:0:
312,176,317693,1,0,0:0:0:0:
335,179,317859,1,0,0:0:0:0:
335,179,318026,1,8,0:0:0:0:
335,179,318193,1,0,0:0:0:0:
335,179,318359,1,8,0:0:0:0:
335,179,318526,1,8,0:0:0:0:
204,135,318609,1,8,0:0:0:0:
335,179,318693,1,0,0:0:0:0:
335,179,318859,1,0,0:0:0:0:
335,179,318943,1,0,0:0:0:0:
335,179,319026,1,8,0:0:0:0:
335,179,319193,1,0,0:0:0:0:
335,179,319359,1,12,0:0:0:0:
335,179,321359,1,0,0:0:0:0:
335,179,321526,1,0,0:0:0:0:
335,179,322026,1,8,0:0:0:0:
335,179,322359,1,0,0:0:0:0:
335,179,322526,1,0,0:0:0:0:
335,179,323359,1,0,0:0:0:0:
335,179,323526,1,0,0:0:0:0:
335,179,324359,1,0,0:0:0:0:
335,179,324526,1,0,0:0:0:0:
335,179,325359,1,8,0:0:0:0:
335,179,325526,1,0,0:0:0:0:
335,179,326359,1,0,0:0:0:0:
335,179,326526,1,0,0:0:0:0:
270,163,326693,1,12,0:0:0:0:
270,163,327026,1,12,0:0:0:0:
270,163,327359,1,0,0:0:0:0:
282,156,327526,1,0,0:0:0:0:
282,156,327693,1,8,0:0:0:0:
282,156,327859,1,0,0:0:0:0:
282,156,327943,1,0,0:0:0:0:
282,156,328026,1,8,0:0:0:0:
282,156,328193,1,8,0:0:0:0:
282,156,328359,1,0,0:0:0:0:
282,156,328526,1,0,0:0:0:0:
282,156,328693,1,8,0:0:0:0:
282,156,328859,1,0,0:0:0:0:
282,156,328943,1,8,0:0:0:0:
282,156,329026,1,0,0:0:0:0:
257,166,329359,1,8,0:0:0:0:
257,166,329525,1,0,0:0:0:0:
257,166,329859,1,8,0:0:0:0:
257,166,330025,1,8,0:0:0:0:
257,166,330192,1,0,0:0:0:0:
257,166,330525,1,0,0:0:0:0:
257,166,330609,1,0,0:0:0:0:
257,166,330692,1,8,0:0:0:0:
257,166,330859,1,0,0:0:0:0:
257,166,331192,1,8,0:0:0:0:
257,166,331359,1,8,0:0:0:0:
257,166,331525,1,0,0:0:0:0:
257,166,331859,1,8,0:0:0:0:
310,165,331942,1,8,0:0:0:0:
310,165,332025,1,0,0:0:0:0:
310,165,332192,1,0,0:0:0:0:
310,165,332525,1,0,0:0:0:0:
310,165,332692,1,8,0:0:0:0:
310,165,332859,1,0,0:0:0:0:
310,165,333192,1,0,0:0:0:0:
310,165,333359,1,8,0:0:0:0:
310,165,333525,1,0,0:0:0:0:
310,165,333692,1,0,0:0:0:0:
310,165,333859,1,0,0:0:0:0:
310,165,334025,1,8,0:0:0:0:
308,137,334136,1,0,0:0:0:0:
308,137,334247,1,0,0:0:0:0:
308,137,334359,1,8,0:0:0:0:
308,137,334470,1,8,0:0:0:0:
308,137,334581,1,8,0:0:0:0:
388,122,334692,1,0,0:0:0:0:
286,125,334859,1,0,0:0:0:0:
286,125,335192,1,0,0:0:0:0:
286,125,335359,1,8,0:0:0:0:
286,125,335525,1,0,0:0:0:0:
286,125,335692,1,0,0:0:0:0:
286,125,335859,1,0,0:0:0:0:
286,125,336025,1,12,0:0:0:0:
286,125,336192,1,0,0:0:0:0:
286,125,336525,1,0,0:0:0:0:
286,125,336692,1,12,0:0:0:0:
286,125,336859,1,0,0:0:0:0:
286,125,337025,1,0,0:0:0:0:
286,125,337359,1,12,0:0:0:0:
286,125,337525,1,12,0:0:0:0:
286,125,337859,1,12,0:0:0:0:
286,125,338025,1,12,0:0:0:0:
286,125,338359,1,12,0:0:0:0:
286,125,338525,1,12,0:0:0:0:
286,125,338859,1,12,0:0:0:0:
286,125,339025,1,12,0:0:0:0:
286,125,339192,1,0,0:0:0:0:
224,142,339275,1,0,0:0:0:0:
286,125,339359,1,12,0:0:0:0:
286,125,339525,1,12,0:0:0:0:
286,125,340025,1,4,0:0:0:0:
378,286,340359,1,0,0:0:0:0:
378,286,340525,1,8,0:0:0:0:
378,286,340692,1,0,0:0:0:0:
378,286,340859,1,8,0:0:0:0:
378,286,341192,1,8,0:0:0:0:
378,286,341359,1,0,0:0:0:0:
378,286,341525,1,8,0:0:0:0:
378,286,341609,1,8,0:0:0:0:
378,286,341692,1,0,0:0:0:0:
378,286,341859,1,0,0:0:0:0:
376,284,342192,1,8,0:0:0:0:
376,284,342275,1,8,0:0:0:0:
376,284,342359,1,0,0:0:0:0:
376,284,342525,1,0,0:0:0:0:
376,284,342609,1,0,0:0:0:0:
376,284,342692,1,8,0:0:0:0:
376,284,342859,1,8,0:0:0:0:
376,284,343192,1,0,0:0:0:0:
376,284,343359,1,8,0:0:0:0:
376,284,343525,1,0,0:0:0:0:
376,284,343859,1,0,0:0:0:0:
376,284,344025,1,0,0:0:0:0:
376,284,344192,1,8,0:0:0:0:
376,284,344275,1,8,0:0:0:0:
376,284,344359,1,0,0:0:0:0:
376,284,344525,1,0,0:0:0:0:
376,284,344609,1,0,0:0:0:0:
376,284,344692,1,8,0:0:0:0:
376,284,344859,1,0,0:0:0:0:
376,284,344942,1,0,0:0:0:0:
376,284,345025,1,8,0:0:0:0:
376,284,345109,1,0,0:0:0:0:
376,284,345192,1,8,0:0:0:0:
376,284,345275,1,8,0:0:0:0:
376,284,345359,1,0,0:0:0:0:
226,205,345692,1,0,0:0:0:0:
226,205,345859,1,8,0:0:0:0:
226,205,346025,1,0,0:0:0:0:
226,205,346359,1,8,0:0:0:0:
226,205,346525,1,8,0:0:0:0:
226,205,346692,1,0,0:0:0:0:
237,207,346859,1,0,0:0:0:0:
237,207,346942,1,0,0:0:0:0:
237,207,347025,1,8,0:0:0:0:
237,207,347192,1,8,0:0:0:0:
237,207,347359,1,0,0:0:0:0:
237,207,347525,1,8,0:0:0:0:
237,207,347692,1,0,0:0:0:0:
237,207,347859,1,0,0:0:0:0:
237,207,347942,1,0,0:0:0:0:
237,207,348025,1,8,0:0:0:0:
237,207,348192,1,8,0:0:0:0:
237,207,348275,1,8,0:0:0:0:
237,207,348359,1,0,0:0:0:0:
226,178,348442,1,0,0:0:0:0:
237,207,348525,1,8,0:0:0:0:
237,207,348859,1,0,0:0:0:0:
237,207,349025,1,8,0:0:0:0:
237,207,349192,1,0,0:0:0:0:
237,207,349275,1,0,0:0:0:0:
237,207,349359,1,8,0:0:0:0:
213,142,349442,1,0,0:0:0:0:
237,207,349525,1,8,0:0:0:0:
237,207,349692,1,0,0:0:0:0:
205,131,349775,1,0,0:0:0:0:
237,207,349859,1,0,0:0:0:0:
237,207,349942,1,0,0:0:0:0:
237,207,350025,1,12,0:0:0:0:
237,207,350192,1,12,0:0:0:0:
263,205,350692,1,4,0:0:0:0:
259,168,351025,1,0,0:0:0:0:
259,168,351359,1,0,0:0:0:0:
259,168,351525,1,8,0:0:0:0:
259,168,351692,1,0,0:0:0:0:
259,168,351859,1,8,0:0:0:0:
259,168,351942,1,8,0:0:0:0:
259,168,352025,1,0,0:0:0:0:
259,168,352192,1,0,0:0:0:0:
259,168,352359,1,8,0:0:0:0:
259,168,352525,1,0,0:0:0:0:
259,168,352859,1,0,0:0:0:0:
259,168,353025,1,8,0:0:0:0:
259,168,353192,1,0,0:0:0:0:
259,168,353275,1,0,0:0:0:0:
259,168,353359,1,8,0:0:0:0:
259,168,353609,1,0,0:0:0:0:
259,168,353692,1,8,0:0:0:0:
259,168,353859,1,0,0:0:0:0:
259,168,354025,1,8,0:0:0:0:
262,172,354192,1,0,0:0:0:0:
262,172,354359,1,0,0:0:0:0:
262,172,354525,1,8,0:0:0:0:
262,172,354692,1,0,0:0:0:0:
262,172,354859,1,8,0:0:0:0:
262,172,354942,1,8,0:0:0:0:
262,172,355025,1,0,0:0:0:0:
252,130,355192,1,0,0:0:0:0:
262,172,355275,1,0,0:0:0:0:
252,130,355359,1,8,0:0:0:0:
252,130,355525,1,0,0:0:0:0:
279,192,355859,1,0,0:0:0:0:
279,192,355942,1,0,0:0:0:0:
279,192,356025,1,8,0:0:0:0:
255,191,356192,1,8,0:0:0:0:
255,191,356359,1,0,0:0:0:0:
255,191,356525,1,8,0:0:0:0:
255,191,356859,1,0,0:0:0:0:
255,191,357025,1,8,0:0:0:0:
255,191,357192,1,8,0:0:0:0:
255,191,357275,1,8,0:0:0:0:
255,191,357359,1,0,0:0:0:0:
255,191,357525,1,8,0:0:0:0:
255,191,357692,1,8,0:0:0:0:
255,191,357859,1,0,0:0:0:0:
255,191,358192,1,8,0:0:0:0:
255,191,358358,1,0,0:0:0:0:
255,191,358525,1,0,0:0:0:0:
255,191,358692,1,8,0:0:0:0:
321,116,358942,1,8,0:0:0:0:
255,191,359025,1,0,0:0:0:0:
255,191,359192,1,8,0:0:0:0:
255,191,359525,1,8,0:0:0:0:
255,191,359692,1,0,0:0:0:0:
255,191,359858,1,0,0:0:0:0:
255,191,360025,1,8,0:0:0:0:
321,116,360275,1,8,0:0:0:0:
255,191,360358,1,0,0:0:0:0:
255,191,360525,1,8,0:0:0:0:
255,191,360858,1,0,0:0:0:0:
255,191,361025,1,8,0:0:0:0:
255,191,361108,1,8,0:0:0:0:
255,191,361192,1,8,0:0:0:0:
255,191,361275,1,8,0:0:0:0:
255,191,361358,1,4,0:0:0:0:
282,173,361692,1,0,0:0:0:0:
282,173,362025,1,0,0:0:0:0:
282,173,362192,1,8,0:0:0:0:
282,173,362275,1,0,0:0:0:0:
282,173,362358,1,8,0:0:0:0:
282,173,362525,1,8,0:0:0:0:
281,169,362858,1,0,0:0:0:0:
281,169,363025,1,8,0:0:0:0:
281,169,363192,1,0,0:0:0:0:
281,169,363525,1,0,0:0:0:0:
281,169,363692,1,8,0:0:0:0:
281,169,363858,1,0,0:0:0:0:
281,169,363942,1,0,0:0:0:0:
259,150,364025,1,8,0:0:0:0:
197,118,364192,1,0,0:0:0:0:
260,133,364358,1,0,0:0:0:0:
260,133,364525,1,8,0:0:0:0:
260,133,364858,1,0,0:0:0:0:
260,133,364942,1,0,0:0:0:0:
260,133,365025,1,8,0:0:0:0:
260,133,365192,1,8,0:0:0:0:
260,133,365358,1,0,0:0:0:0:
260,133,365525,1,0,0:0:0:0:
260,128,365692,1,8,0:0:0:0:
206,121,365858,1,0,0:0:0:0:
206,121,366025,1,8,0:0:0:0:
206,121,366192,1,0,0:0:0:0:
206,121,366275,1,0,0:0:0:0:
206,121,366358,1,0,0:0:0:0:
206,121,366442,1,0,0:0:0:0:
206,121,366525,1,12,0:0:0:0:
199,88,366858,1,0,0:0:0:0:
199,88,367025,1,8,0:0:0:0:
199,88,367191,1,0,0:0:0:0:
192,102,367275,1,0,0:0:0:0:
173,99,367358,1,0,0:0:0:0:
173,99,367525,1,8,0:0:0:0:
173,99,367608,1,0,0:0:0:0:
173,99,367691,1,0,0:0:0:0:
173,99,367858,1,12,0:0:0:0:
169,96,368191,1,0,0:0:0:0:
169,96,368275,1,0,0:0:0:0:
169,96,368358,1,0,0:0:0:0:
169,96,368525,1,8,0:0:0:0:
169,96,368608,1,8,0:0:0:0:
169,96,368691,1,0,0:0:0:0:
169,96,368858,1,8,0:0:0:0:
169,96,368941,1,0,0:0:0:0:
169,96,369025,1,8,0:0:0:0:
169,96,369191,1,4,0:0:0:0:
169,70,369525,1,0,0:0:0:0:
169,70,369691,1,0,0:0:0:0:
169,70,369775,1,0,0:0:0:0:
169,70,369858,1,8,0:0:0:0:
169,70,370025,1,0,0:0:0:0:
169,70,370108,1,0,0:0:0:0:
169,70,370191,1,8,0:0:0:0:
169,70,370275,1,0,0:0:0:0:
169,70,370358,1,8,0:0:0:0:
169,70,370525,1,4,0:0:0:0:
169,70,370858,1,8,0:0:0:0:
169,70,370941,1,0,0:0:0:0:
169,70,371025,1,8,0:0:0:0:
169,70,371191,1,8,0:0:0:0:
169,70,371358,1,8,0:0:0:0:
169,70,371441,1,8,0:0:0:0:
169,70,371525,1,8,0:0:0:0:
163,47,371608,1,8,0:0:0:0:
205,83,371691,1,0,0:0:0:0:
246,108,371775,1,0,0:0:0:0:
163,47,371858,1,12,0:0:0:0:
262,109,372191,1,0,0:0:0:0:
262,109,372358,1,8,0:0:0:0:
241,54,372441,1,8,0:0:0:0:
241,54,372525,1,0,0:0:0:0:
241,54,372691,1,0,0:0:0:0:
171,122,372775,1,0,0:0:0:0:
241,54,372858,1,8,0:0:0:0:
241,54,373025,1,0,0:0:0:0:
241,54,373191,1,12,0:0:0:0:
241,53,373441,1,0,0:0:0:0:
241,53,373525,1,8,0:0:0:0:
234,57,373691,1,8,0:0:0:0:
234,57,373775,1,8,0:0:0:0:
234,57,373858,1,0,0:0:0:0:
234,57,374025,1,0,0:0:0:0:
234,57,374108,1,0,0:0:0:0:
234,57,374191,1,8,0:0:0:0:
234,57,374358,1,0,0:0:0:0:
234,57,374525,1,12,0:0:0:0:
234,57,374691,1,0,0:0:0:0:
234,57,374858,1,0,0:0:0:0:
234,57,375025,1,8,0:0:0:0:
234,57,375191,1,0,0:0:0:0:
234,57,375275,1,0,0:0:0:0:
234,57,375358,1,0,0:0:0:0:
232,65,375525,1,8,0:0:0:0:
232,65,375691,1,0,0:0:0:0:
232,65,375858,1,8,0:0:0:0:
279,90,376191,1,0,0:0:0:0:
279,90,376358,1,8,0:0:0:0:
279,90,376441,1,8,0:0:0:0:
279,90,376525,1,0,0:0:0:0:
279,90,376691,1,8,0:0:0:0:
279,90,376774,1,8,0:0:0:0:
279,90,376858,1,0,0:0:0:0:
190,35,376941,1,8,0:0:0:0:
222,59,377025,1,0,0:0:0:0:
237,49,377108,1,0,0:0:0:0:
222,59,377191,1,12,0:0:0:0:
194,118,377525,1,0,0:0:0:0:
219,116,377691,1,8,0:0:0:0:
219,116,377775,1,0,0:0:0:0:
219,116,377858,1,8,0:0:0:0:
219,116,378025,1,8,0:0:0:0:
171,122,378108,1,8,0:0:0:0:
219,116,378191,1,0,0:0:0:0:
219,116,378358,1,0,0:0:0:0:
219,116,378525,1,12,0:0:0:0:
219,116,378858,1,0,0:0:0:0:
219,116,379025,1,8,0:0:0:0:
219,116,379108,1,8,0:0:0:0:
219,116,379191,1,0,0:0:0:0:
219,116,379358,1,0,0:0:0:0:
219,116,379525,1,8,0:0:0:0:
219,116,379691,1,4,0:0:0:0:
195,136,380025,1,8,0:0:0:0:
214,202,380191,1,0,0:0:0:0:
217,128,380358,1,8,0:0:0:0:
217,128,380525,1,0,0:0:0:0:
217,128,380608,1,0,0:0:0:0:
217,128,380691,1,8,0:0:0:0:
217,128,380858,1,0,0:0:0:0:
217,128,381025,1,8,0:0:0:0:
217,128,381191,1,0,0:0:0:0:
217,128,381275,1,0,0:0:0:0:
217,128,381358,1,8,0:0:0:0:
190,44,381441,1,8,0:0:0:0:
217,128,381525,1,0,0:0:0:0:
217,128,381691,1,8,0:0:0:0:
217,128,381858,1,0,0:0:0:0:
171,122,381941,1,0,0:0:0:0:
217,128,382025,1,8,0:0:0:0:
217,128,382191,1,8,0:0:0:0:
273,96,382275,1,8,0:0:0:0:
217,128,382358,1,0,0:0:0:0:
256,123,382441,1,0,0:0:0:0:
217,128,382525,1,0,0:0:0:0:
217,128,382608,1,0,0:0:0:0:
217,128,382691,1,12,0:0:0:0:
217,128,382858,1,12,0:0:0:0:
219,128,383191,1,12,0:0:0:0:
219,128,383358,1,12,0:0:0:0:
205,121,383691,1,4,0:0:0:0:
205,121,384025,1,4,0:0:0:0:
205,121,384191,1,12,0:0:0:0:
205,121,384358,1,4,0:0:0:0:
219,118,385358,1,12,0:0:0:0:
223,207,385517,1,0,0:0:0:0:
223,207,385677,1,8,0:0:0:0:
223,207,385756,1,0,0:0:0:0:
223,207,385836,1,8,0:0:0:0:
290,82,385916,1,8,0:0:0:0:
223,207,385996,1,0,0:0:0:0:
223,207,386155,1,8,0:0:0:0:
222,200,386315,1,0,0:0:0:0:
222,200,386475,1,8,0:0:0:0:
191,138,386554,1,8,0:0:0:0:
191,138,386634,1,0,0:0:0:0:
222,196,386794,1,0,0:0:0:0:
191,138,386873,1,0,0:0:0:0:
198,132,386953,1,0,0:0:0:0:
222,196,387113,1,8,0:0:0:0:
205,136,387193,1,0,0:0:0:0:
182,145,387272,1,0,0:0:0:0:
222,196,387432,1,8,0:0:0:0:
177,148,387592,1,4,0:0:0:0:
162,170,387911,1,12,0:0:0:0:
209,222,388070,1,0,0:0:0:0:
171,122,388150,1,0,0:0:0:0:
226,202,388230,1,8,0:0:0:0:
226,202,388389,1,0,0:0:0:0:
226,202,388469,1,0,0:0:0:0:
226,202,388549,1,0,0:0:0:0:
226,202,388709,1,8,0:0:0:0:
226,202,388788,1,8,0:0:0:0:
226,202,388868,1,0,0:0:0:0:
226,202,389028,1,8,0:0:0:0:
226,202,389187,1,8,0:0:0:0:
226,202,389347,1,0,0:0:0:0:
226,202,389427,1,0,0:0:0:0:
226,202,389506,1,0,0:0:0:0:
226,202,389666,1,8,0:0:0:0:
226,202,389746,1,8,0:0:0:0:
226,202,389826,1,0,0:0:0:0:
226,202,389985,1,0,0:0:0:0:
226,202,390145,1,12,0:0:0:0:
180,139,390304,1,12,0:0:0:0:
220,201,390464,1,4,0:0:0:0:
182,152,390783,1,8,0:0:0:0:
190,169,390943,1,0,0:0:0:0:
190,169,391022,1,0,0:0:0:0:
190,169,391102,1,0,0:0:0:0:
190,169,391262,1,8,0:0:0:0:
190,169,391342,1,0,0:0:0:0:
190,169,391421,1,0,0:0:0:0:
190,169,391581,1,8,0:0:0:0:
190,169,391661,1,0,0:0:0:0:
190,169,391740,1,8,0:0:0:0:
190,169,391820,1,8,0:0:0:0:
190,169,391900,1,0,0:0:0:0:
190,169,392060,1,8,0:0:0:0:
190,169,392219,1,8,0:0:0:0:
190,169,392299,1,8,0:0:0:0:
190,169,392379,1,0,0:0:0:0:
190,169,392538,1,8,0:0:0:0:
190,169,392698,1,0,0:0:0:0:
194,71,392778,1,0,0:0:0:0:
190,128,392858,1,0,0:0:0:0:
190,128,392937,1,0,0:0:0:0:
190,128,393017,1,8,0:0:0:0:
289,87,393177,1,0,0:0:0:0:
201,153,393496,1,0,0:0:0:0:
201,153,393655,1,12,0:0:0:0:
208,152,393815,1,0,0:0:0:0:
208,152,393975,1,0,0:0:0:0:
208,152,394134,1,0,0:0:0:0:
208,152,394214,1,0,0:0:0:0:
208,152,394294,1,12,0:0:0:0:
208,152,394453,1,0,0:0:0:0:
210,164,394772,1,0,0:0:0:0:
210,164,394852,1,0,0:0:0:0:
210,164,394932,1,8,0:0:0:0:
210,164,395092,1,8,0:0:0:0:
210,164,395251,1,0,0:0:0:0:
210,164,395331,1,0,0:0:0:0:
210,164,395411,1,0,0:0:0:0:
210,164,395490,1,0,0:0:0:0:
210,164,395570,1,12,0:0:0:0:
272,198,395730,1,0,0:0:0:0:
272,198,395889,1,8,0:0:0:0:
272,198,396049,1,0,0:0:0:0:
272,198,396129,1,0,0:0:0:0:
228,163,396209,1,0,0:0:0:0:
232,165,396368,1,8,0:0:0:0:
230,168,396448,1,8,0:0:0:0:
232,165,396528,1,0,0:0:0:0:
230,168,396687,1,8,0:0:0:0:
230,168,396847,1,8,0:0:0:0:
230,168,397006,1,0,0:0:0:0:
230,168,397086,1,8,0:0:0:0:
230,168,397166,1,0,0:0:0:0:
230,168,397326,1,8,0:0:0:0:
171,122,397405,1,8,0:0:0:0:
230,168,397485,1,8,0:0:0:0:
171,122,397565,1,8,0:0:0:0:
227,159,397645,1,0,0:0:0:0:
227,159,397804,1,12,0:0:0:0:
227,159,398123,1,4,0:0:0:0:
219,164,398283,1,0,0:0:0:0:
219,164,398443,1,8,0:0:0:0:
219,164,398602,1,0,0:0:0:0:
219,164,398682,1,0,0:0:0:0:
219,164,398762,1,0,0:0:0:0:
219,164,398921,1,8,0:0:0:0:
219,164,399001,1,0,0:0:0:0:
219,164,399081,1,0,0:0:0:0:
219,164,399240,1,8,0:0:0:0:
219,164,399320,1,8,0:0:0:0:
219,164,399400,1,0,0:0:0:0:
219,164,399560,1,8,0:0:0:0:
219,164,399719,1,8,0:0:0:0:
219,164,399879,1,0,0:0:0:0:
204,147,399959,1,8,0:0:0:0:
219,164,400038,1,0,0:0:0:0:
219,164,400198,1,0,0:0:0:0:
215,153,400358,1,12,0:0:0:0:
212,155,400677,1,4,0:0:0:0:
246,163,400996,1,8,0:0:0:0:
246,163,401155,1,0,0:0:0:0:
243,152,401235,1,0,0:0:0:0:
243,152,401315,1,0,0:0:0:0:
243,146,401475,1,8,0:0:0:0:
243,146,401634,1,0,0:0:0:0:
245,114,401794,1,8,0:0:0:0:
245,114,401873,1,8,0:0:0:0:
245,114,401953,1,0,0:0:0:0:
245,114,402113,1,8,0:0:0:0:
245,114,402193,1,0,0:0:0:0:
245,114,402272,1,0,0:0:0:0:
245,114,402432,1,0,0:0:0:0:
245,114,402512,1,0,0:0:0:0:
245,114,402592,1,8,0:0:0:0:
245,114,402751,1,0,0:0:0:0:
173,76,402831,1,0,0:0:0:0:
245,114,402911,1,0,0:0:0:0:
207,127,402990,1,0,0:0:0:0:
245,114,403070,1,8,0:0:0:0:
207,127,403150,1,8,0:0:0:0:
245,114,403230,1,4,0:0:0:0:
184,153,403549,1,8,0:0:0:0:
184,153,403709,1,8,0:0:0:0:
184,153,403868,1,4,0:0:0:0:
184,153,404187,1,8,0:0:0:0:
188,159,404347,1,8,0:0:0:0:
188,159,404506,1,4,0:0:0:0:
188,159,404826,1,0,0:0:0:0:
188,159,404985,1,8,0:0:0:0:
188,159,405065,1,0,0:0:0:0:
188,159,405145,1,8,0:0:0:0:
188,159,405225,1,8,0:0:0:0:
188,159,405304,1,0,0:0:0:0:
188,159,405464,1,0,0:0:0:0:
188,159,405623,1,8,0:0:0:0:
188,159,405783,1,4,0:0:0:0:
224,201,413130,5,0,0:0:0:0:
240,185,413296,1,12,0:0:0:0:
285,124,413630,1,0,0:0:0:0:
285,124,413963,1,8,0:0:0:0:
285,124,414463,1,0,0:0:0:0:
285,124,414796,1,8,0:0:0:0:
285,124,415130,1,8,0:0:0:0:
285,124,415463,1,8,0:0:0:0:
285,124,415796,1,0,0:0:0:0:
285,124,416130,1,8,0:0:0:0:
285,124,416463,1,8,0:0:0:0:
285,124,416796,1,0,0:0:0:0:
285,124,417130,1,0,0:0:0:0:
285,123,417463,1,8,0:0:0:0:
248,43,418130,1,0,0:0:0:0:
252,36,418630,1,8,0:0:0:0:
252,36,419130,1,8,0:0:0:0:
252,36,419296,1,0,0:0:0:0:
250,45,419630,1,0,0:0:0:0:
247,53,420130,1,0,0:0:0:0:
244,60,420296,1,0,0:0:0:0:
241,70,420463,1,0,0:0:0:0:
241,70,420630,1,8,0:0:0:0:
241,70,420963,1,0,0:0:0:0:
241,70,421046,1,8,0:0:0:0:
240,76,421130,1,8,0:0:0:0:
240,76,421630,1,0,0:0:0:0:
240,76,422130,1,8,0:0:0:0:
240,76,422630,1,0,0:0:0:0:
240,76,423130,1,0,0:0:0:0:
240,76,423630,1,8,0:0:0:0:
240,76,424130,1,0,0:0:0:0:
240,76,424463,1,8,0:0:0:0:
240,76,424630,1,0,0:0:0:0:
240,76,425130,1,8,0:0:0:0:
240,76,425296,1,0,0:0:0:0:
240,76,425463,1,0,0:0:0:0:
240,76,425630,1,8,0:0:0:0:
248,94,425963,1,0,0:0:0:0:
248,94,426130,1,8,0:0:0:0:
248,94,426463,1,8,0:0:0:0:
248,94,426630,1,0,0:0:0:0:
219,86,426963,1,0,0:0:0:0:
219,86,427130,1,8,0:0:0:0:
221,72,427463,1,0,0:0:0:0:
221,72,427630,1,8,0:0:0:0:
221,72,427796,1,0,0:0:0:0:
221,74,428130,1,0,0:0:0:0:
221,74,428630,1,8,0:0:0:0:
221,74,428796,1,0,0:0:0:0:
221,74,428963,1,0,0:0:0:0:
221,74,429130,1,8,0:0:0:0:
217,69,429296,1,8,0:0:0:0:
217,70,429630,1,8,0:0:0:0:
219,70,430130,1,0,0:0:0:0:
219,70,430296,1,8,0:0:0:0:
219,65,430630,1,0,0:0:0:0:
219,68,430963,1,0,0:0:0:0:
219,68,431296,1,0,0:0:0:0:
219,68,431630,1,0,0:0:0:0:
221,66,431963,1,8,0:0:0:0:
221,66,432296,1,8,0:0:0:0:
221,66,434130,1,8,0:0:0:0:
221,66,435130,1,0,0:0:0:0:
221,66,435796,1,0,0:0:0:0:
221,66,436130,1,8,0:0:0:0:
221,66,437130,1,0,0:0:0:0:
221,66,438130,1,8,0:0:0:0:
217,54,439130,1,0,0:0:0:0:
217,56,439796,1,0,0:0:0:0:
217,57,440130,1,8,0:0:0:0:
217,57,441130,1,0,0:0:0:0:
217,57,442130,1,0,0:0:0:0:
291,144,442463,1,0,0:0:0:0:
291,144,442630,1,0,0:0:0:0:
289,127,442796,1,8,0:0:0:0:
288,122,443130,1,0,0:0:0:0:
288,122,443463,1,0,0:0:0:0:
288,122,443796,1,8,0:0:0:0:
288,122,444130,1,0,0:0:0:0:
288,122,444463,1,0,0:0:0:0:
288,122,444630,1,0,0:0:0:0:
288,128,444796,1,8,0:0:0:0:
288,128,445130,1,8,0:0:0:0:
288,128,445796,1,8,0:0:0:0:
288,128,446130,1,0,0:0:0:0:
232,92,446463,1,0,0:0:0:0:
225,89,446630,1,0,0:0:0:0:
225,89,446796,1,8,0:0:0:0:
220,78,447130,1,0,0:0:0:0:
219,77,447463,1,0,0:0:0:0:
219,77,447796,1,8,0:0:0:0:
219,77,448130,1,0,0:0:0:0:
219,77,448630,1,8,0:0:0:0:
219,77,448796,1,0,0:0:0:0:
219,77,448963,1,0,0:0:0:0:
219,68,449130,1,8,0:0:0:0:
219,68,449963,1,0,0:0:0:0:
219,68,450130,1,8,0:0:0:0:
223,59,450463,1,0,0:0:0:0:
223,59,450796,1,0,0:0:0:0:
217,38,451130,1,8,0:0:0:0:
217,44,451796,1,0,0:0:0:0:
217,45,452130,1,8,0:0:0:0:
216,64,452630,1,0,0:0:0:0:
216,64,452796,1,8,0:0:0:0:
216,64,453130,1,0,0:0:0:0:
216,64,453796,1,0,0:0:0:0:
216,64,454130,1,8,0:0:0:0:
216,64,454630,1,8,0:0:0:0:
216,64,455130,1,8,0:0:0:0:
216,64,455463,1,0,0:0:0:0:
216,64,455796,1,0,0:0:0:0:
216,64,456130,1,8,0:0:0:0:
218,67,456630,1,0,0:0:0:0:
218,67,456796,1,8,0:0:0:0:
209,63,457130,1,0,0:0:0:0:
215,63,457796,1,8,0:0:0:0:
215,63,457963,1,8,0:0:0:0:
215,63,458130,1,0,0:0:0:0:
252,148,458630,1,0,0:0:0:0:
252,148,458796,1,0,0:0:0:0:
256,148,459130,1,8,0:0:0:0:
257,144,459463,1,0,0:0:0:0:
257,140,459796,1,0,0:0:0:0:
257,140,460130,1,8,0:0:0:0:
257,140,460630,1,0,0:0:0:0:
257,140,460796,1,8,0:0:0:0:
258,136,461130,1,8,0:0:0:0:
258,136,461463,1,8,0:0:0:0:
258,136,461796,1,0,0:0:0:0:
258,136,462130,1,0,0:0:0:0:
305,134,462630,1,0,0:0:0:0:
305,134,462796,1,8,0:0:0:0:
305,134,463129,1,8,0:0:0:0:
305,134,463463,1,0,0:0:0:0:
305,134,463796,1,0,0:0:0:0:
305,134,464129,1,8,0:0:0:0:
305,134,464796,1,0,0:0:0:0:
305,134,464963,1,8,0:0:0:0:
305,134,465129,1,8,0:0:0:0:
305,134,465296,1,0,0:0:0:0:
305,134,465463,1,8,0:0:0:0:
182,68,465629,1,0,0:0:0:0:
182,68,465796,1,0,0:0:0:0:
182,68,465963,1,0,0:0:0:0:
182,68,466046,1,0,0:0:0:0:
182,68,466129,1,8,0:0:0:0:
185,85,466463,1,8,0:0:0:0:
185,85,466629,1,0,0:0:0:0:
186,85,466963,1,0,0:0:0:0:
191,68,467129,1,8,0:0:0:0:
196,74,467463,1,8,0:0:0:0:
196,74,467629,1,8,0:0:0:0:
196,74,467796,1,0,0:0:0:0:
198,79,468129,1,8,0:0:0:0:
209,144,468463,1,8,0:0:0:0:
205,100,468629,1,0,0:0:0:0:
205,100,468796,1,8,0:0:0:0:
205,100,468963,1,8,0:0:0:0:
205,100,469129,1,0,0:0:0:0:
203,99,469463,1,0,0:0:0:0:
203,99,469796,1,0,0:0:0:0:
203,99,470129,1,8,0:0:0:0:
171,53,470463,1,8,0:0:0:0:
206,99,470629,1,0,0:0:0:0:
206,99,470963,1,0,0:0:0:0:
206,99,471129,1,8,0:0:0:0:
206,99,471463,1,8,0:0:0:0:
206,99,471629,1,8,0:0:0:0:
206,99,471796,1,0,0:0:0:0:
206,99,471963,1,0,0:0:0:0:
206,99,472129,1,8,0:0:0:0:
189,95,472463,1,0,0:0:0:0:
251,91,472629,1,8,0:0:0:0:
196,95,472963,1,0,0:0:0:0:
196,95,473129,1,8,0:0:0:0:
196,94,473463,1,0,0:0:0:0:
197,80,473629,1,0,0:0:0:0:
197,80,473796,1,8,0:0:0:0:
197,80,473963,1,0,0:0:0:0:
197,80,474046,1,0,0:0:0:0:
211,105,474129,1,8,0:0:0:0:
200,127,474629,1,0,0:0:0:0:
200,127,474796,1,8,0:0:0:0:
202,120,474963,1,8,0:0:0:0:
202,120,475129,1,0,0:0:0:0:
202,120,475463,1,8,0:0:0:0:
202,120,475629,1,8,0:0:0:0:
202,120,475796,1,0,0:0:0:0:
202,120,475963,1,0,0:0:0:0:
204,128,476046,1,0,0:0:0:0:
202,120,476129,1,8,0:0:0:0:
205,131,476629,1,0,0:0:0:0:
205,131,476796,1,8,0:0:0:0:
205,131,476963,1,8,0:0:0:0:
206,137,477129,1,0,0:0:0:0:
206,137,477463,1,8,0:0:0:0:
206,137,477796,1,0,0:0:0:0:
206,137,477963,1,8,0:0:0:0:
208,124,478129,1,0,0:0:0:0:
254,127,478463,1,0,0:0:0:0:
224,43,478629,1,0,0:0:0:0:
254,127,478796,1,8,0:0:0:0:
228,92,478963,1,8,0:0:0:0:
228,92,479129,1,0,0:0:0:0:
228,92,479463,1,0,0:0:0:0:
228,92,479629,1,8,0:0:0:0:
228,92,479796,1,0,0:0:0:0:
228,92,479963,1,0,0:0:0:0:
228,92,480129,1,8,0:0:0:0:
228,91,480629,1,8,0:0:0:0:
228,91,480796,1,0,0:0:0:0:
228,91,480963,1,0,0:0:0:0:
228,91,481129,1,8,0:0:0:0:
224,89,481463,1,8,0:0:0:0:
224,89,481796,1,0,0:0:0:0:
224,89,481963,1,8,0:0:0:0:
224,89,482129,1,0,0:0:0:0:
259,166,482629,1,0,0:0:0:0:
259,166,482796,1,8,0:0:0:0:
259,166,482963,1,0,0:0:0:0:
259,166,483129,1,8,0:0:0:0:
259,166,483296,1,8,0:0:0:0:
259,166,483463,1,0,0:0:0:0:
261,165,483796,1,0,0:0:0:0:
261,165,483963,1,0,0:0:0:0:
261,165,484129,1,8,0:0:0:0:
261,165,484296,1,0,0:0:0:0:
198,48,484629,1,8,0:0:0:0:
200,76,484796,1,0,0:0:0:0:
201,84,484963,1,0,0:0:0:0:
201,84,485129,1,8,0:0:0:0:
201,84,485296,1,0,0:0:0:0:
201,84,485463,1,8,0:0:0:0:
201,84,485796,1,8,0:0:0:0:
201,84,485963,1,8,0:0:0:0:
201,84,486046,1,8,0:0:0:0:
201,84,486129,1,0,0:0:0:0:
212,109,486463,1,8,0:0:0:0:
212,109,486629,1,0,0:0:0:0:
212,109,486713,1,8,0:0:0:0:
212,109,486796,1,0,0:0:0:0:
212,109,486963,1,0,0:0:0:0:
212,109,487129,1,8,0:0:0:0:
212,109,487296,1,8,0:0:0:0:
212,109,487463,1,0,0:0:0:0:
213,108,487796,1,0,0:0:0:0:
278,99,487879,1,0,0:0:0:0:
225,98,487963,1,8,0:0:0:0:
278,99,488046,1,8,0:0:0:0:
225,98,488129,1,0,0:0:0:0:
225,98,488296,1,8,0:0:0:0:
225,98,488463,1,8,0:0:0:0:
225,98,488629,1,0,0:0:0:0:
228,100,488963,1,0,0:0:0:0:
228,100,489129,1,0,0:0:0:0:
228,100,489296,1,0,0:0:0:0:
228,100,489463,1,8,0:0:0:0:
209,83,489629,1,8,0:0:0:0:
209,83,489796,1,0,0:0:0:0:
209,83,489963,1,0,0:0:0:0:
209,83,490129,1,12,0:0:0:0:
212,75,490463,1,0,0:0:0:0:
212,75,490629,1,8,0:0:0:0:
227,80,490796,1,8,0:0:0:0:
227,80,490963,1,0,0:0:0:0:
227,80,491129,1,8,0:0:0:0:
226,76,491463,1,0,0:0:0:0:
227,69,491629,1,0,0:0:0:0:
230,72,491796,1,8,0:0:0:0:
230,72,491963,1,8,0:0:0:0:
230,72,492129,1,4,0:0:0:0:
230,78,492463,1,8,0:0:0:0:
230,78,492546,1,8,0:0:0:0:
230,78,492629,1,0,0:0:0:0:
230,78,492796,1,0,0:0:0:0:
230,78,492963,1,8,0:0:0:0:
230,78,493129,1,0,0:0:0:0:
230,78,493296,1,8,0:0:0:0:
230,78,493463,1,8,0:0:0:0:
230,78,493629,1,0,0:0:0:0:
230,78,493713,1,8,0:0:0:0:
230,78,493796,1,0,0:0:0:0:
230,78,493963,1,0,0:0:0:0:
230,78,494129,1,12,0:0:0:0:
231,74,494463,1,0,0:0:0:0:
231,74,494629,1,8,0:0:0:0:
231,74,494796,1,8,0:0:0:0:
231,74,494963,1,0,0:0:0:0:
231,74,495046,1,0,0:0:0:0:
231,74,495129,1,8,0:0:0:0:
231,74,495296,1,0,0:0:0:0:
231,74,495463,1,8,0:0:0:0:
231,74,495629,1,8,0:0:0:0:
231,74,495796,1,0,0:0:0:0:
231,74,495963,1,0,0:0:0:0:
231,74,496129,1,12,0:0:0:0:
231,74,496629,1,0,0:0:0:0:
231,74,496796,1,8,0:0:0:0:
210,64,496963,1,8,0:0:0:0:
210,64,497129,1,0,0:0:0:0:
210,64,497296,1,8,0:0:0:0:
337,85,497463,1,8,0:0:0:0:
216,93,497629,1,0,0:0:0:0:
216,93,497713,1,0,0:0:0:0:
213,48,497796,1,0,0:0:0:0:
213,48,497963,1,0,0:0:0:0:
213,48,498129,1,12,0:0:0:0:
232,80,498463,1,0,0:0:0:0:
232,80,498629,1,8,0:0:0:0:
232,80,498796,1,8,0:0:0:0:
232,80,498963,1,0,0:0:0:0:
232,80,499129,1,8,0:0:0:0:
232,80,499463,1,8,0:0:0:0:
232,80,499629,1,8,0:0:0:0:
232,80,499796,1,0,0:0:0:0:
232,80,499963,1,0,0:0:0:0:
232,80,500129,1,12,0:0:0:0:
184,139,500463,1,0,0:0:0:0:
182,132,500629,1,8,0:0:0:0:
182,132,500963,1,0,0:0:0:0:
182,132,501129,1,8,0:0:0:0:
182,132,501296,1,0,0:0:0:0:
184,124,501463,1,8,0:0:0:0:
184,124,501629,1,8,0:0:0:0:
184,124,501713,1,8,0:0:0:0:
184,124,501796,1,0,0:0:0:0:
184,124,501963,1,0,0:0:0:0:
184,124,502129,1,12,0:0:0:0:
184,124,503129,1,12,0:0:0:0:
184,124,504129,1,12,0:0:0:0:
184,124,504296,1,0,0:0:0:0:
184,124,504463,1,0,0:0:0:0:
184,124,504629,1,8,0:0:0:0:
200,99,504963,1,0,0:0:0:0:
205,96,505129,1,12,0:0:0:0:
313,175,505963,1,0,0:0:0:0:
313,175,506046,1,8,0:0:0:0:
313,175,506129,1,0,0:0:0:0:
313,175,506796,1,0,0:0:0:0:
313,175,506963,1,0,0:0:0:0:
313,175,507129,1,8,0:0:0:0:
313,175,507629,1,8,0:0:0:0:
313,175,508129,1,0,0:0:0:0:
313,175,508463,1,8,0:0:0:0:
313,175,508796,1,0,0:0:0:0:
313,175,508963,1,8,0:0:0:0:
313,175,509296,1,0,0:0:0:0:
313,175,509463,1,8,0:0:0:0:
313,175,509629,1,8,0:0:0:0:
313,175,509796,1,0,0:0:0:0:
334,202,510129,1,0,0:0:0:0:
334,202,510796,1,0,0:0:0:0:
327,206,510963,1,8,0:0:0:0:
327,206,511129,1,0,0:0:0:0:
327,206,512129,1,0,0:0:0:0:
327,206,512463,1,8,0:0:0:0:
327,206,512629,1,8,0:0:0:0:
327,206,512963,1,8,0:0:0:0:
327,206,513296,1,0,0:0:0:0:
327,206,513463,1,8,0:0:0:0:
328,208,513796,1,0,0:0:0:0:
386,174,514129,1,0,0:0:0:0:
386,174,514296,1,8,0:0:0:0:
386,174,514463,1,0,0:0:0:0:
390,230,517129,1,12,0:0:0:0:
379,249,523128,5,8,0:0:0:0:
284,188,523294,1,0,0:0:0:0:
284,188,523461,1,0,0:0:0:0:
260,144,523628,1,8,0:0:0:0:
252,139,523961,1,8,0:0:0:0:
252,139,524128,1,0,0:0:0:0:
251,136,524461,1,0,0:0:0:0:
379,249,524794,5,8,0:0:0:0:
284,188,524960,1,0,0:0:0:0:
284,188,525127,1,0,0:0:0:0:
260,144,525294,1,8,0:0:0:0:
252,139,525627,1,0,0:0:0:0:
252,139,525794,1,8,0:0:0:0:
251,136,526128,1,8,0:0:0:0:
379,249,526461,5,8,0:0:0:0:
284,188,526627,1,0,0:0:0:0:
284,188,526794,1,0,0:0:0:0:
260,144,526961,1,8,0:0:0:0:
252,139,527294,1,8,0:0:0:0:
252,139,527461,1,0,0:0:0:0:
251,136,527794,1,0,0:0:0:0:
379,249,528128,5,8,0:0:0:0:
284,188,528294,1,0,0:0:0:0:
284,188,528461,1,0,0:0:0:0:
260,144,528628,1,8,0:0:0:0:
252,139,528961,1,0,0:0:0:0:
252,139,529128,1,8,0:0:0:0:
165,58,529294,1,0,0:0:0:0:
251,136,529461,1,8,0:0:0:0:
249,124,529794,1,8,0:0:0:0:
247,128,529961,1,0,0:0:0:0:
247,128,530128,1,0,0:0:0:0:
204,70,530294,1,8,0:0:0:0:
247,128,530461,1,0,0:0:0:0:
247,128,530628,1,0,0:0:0:0:
240,98,530794,1,8,0:0:0:0:
240,98,531128,1,0,0:0:0:0:
249,124,531460,1,8,0:0:0:0:
247,128,531627,1,0,0:0:0:0:
247,128,531794,1,0,0:0:0:0:
204,70,531960,1,8,0:0:0:0:
247,128,532127,1,0,0:0:0:0:
247,128,532294,1,0,0:0:0:0:
240,98,532460,1,8,0:0:0:0:
240,98,532794,1,8,0:0:0:0:
240,98,532960,1,0,0:0:0:0:
249,124,533128,1,8,0:0:0:0:
247,128,533295,1,0,0:0:0:0:
247,128,533462,1,0,0:0:0:0:
204,70,533628,1,8,0:0:0:0:
247,128,533795,1,0,0:0:0:0:
247,128,533962,1,0,0:0:0:0:
240,98,534128,1,8,0:0:0:0:
240,98,534462,1,0,0:0:0:0:
156,126,534544,1,0,0:0:0:0:
240,98,534628,1,0,0:0:0:0:
195,73,534711,1,0,0:0:0:0:
204,75,534794,1,8,0:0:0:0:
204,75,534961,1,0,0:0:0:0:
204,75,535128,1,0,0:0:0:0:
204,75,535294,1,8,0:0:0:0:
199,73,535628,1,8,0:0:0:0:
199,73,535794,1,0,0:0:0:0:
199,73,535961,1,0,0:0:0:0:
199,73,536044,1,0,0:0:0:0:
199,73,536128,1,8,0:0:0:0:
199,73,536294,1,8,0:0:0:0:
199,73,536461,1,4,0:0:0:0:
195,71,536794,1,8,0:0:0:0:
195,71,536961,1,4,0:0:0:0:
195,71,537294,1,8,0:0:0:0:
195,71,537461,1,4,0:0:0:0:
195,71,537794,1,0,0:0:0:0:
195,71,537961,1,12,0:0:0:0:
195,71,538294,1,8,0:0:0:0:
195,71,538461,1,4,0:0:0:0:
195,71,538794,1,4,0:0:0:0:
191,61,539128,1,12,0:0:0:0:
255,219,539291,1,0,0:0:0:0:
239,200,539455,1,0,0:0:0:0:
272,139,539619,1,12,0:0:0:0:
234,144,540111,1,0,0:0:0:0:
200,118,540275,1,0,0:0:0:0:
234,144,540439,1,8,0:0:0:0:
234,144,540603,1,0,0:0:0:0:
234,144,540767,1,12,0:0:0:0:
200,69,540931,1,0,0:0:0:0:
196,88,541095,1,0,0:0:0:0:
237,128,541259,1,12,0:0:0:0:
244,106,541587,1,8,0:0:0:0:
242,96,541750,1,0,0:0:0:0:
242,96,541914,1,0,0:0:0:0:
242,96,541996,1,0,0:0:0:0:
242,96,542078,1,8,0:0:0:0:
242,96,542242,1,0,0:0:0:0:
242,96,542406,1,12,0:0:0:0:
242,96,542570,1,0,0:0:0:0:
242,96,542734,1,0,0:0:0:0:
242,96,542898,1,12,0:0:0:0:
235,105,543226,1,0,0:0:0:0:
235,105,543390,1,8,0:0:0:0:
235,105,543554,1,8,0:0:0:0:
235,105,543636,1,8,0:0:0:0:
235,105,543718,1,0,0:0:0:0:
235,105,543882,1,8,0:0:0:0:
235,105,544046,1,4,0:0:0:0:
235,110,544373,1,8,0:0:0:0:
322,96,544537,1,0,0:0:0:0:
187,17,544811,1,0,0:0:0:0:
328,97,544920,1,0,0:0:0:0:
412,75,545029,1,8,0:0:0:0:
359,94,545138,1,0,0:0:0:0:
348,97,545248,1,0,0:0:0:0:
412,75,545357,1,8,0:0:0:0:
200,97,545521,1,0,0:0:0:0:
412,75,545685,1,12,0:0:0:0:
359,177,545849,1,0,0:0:0:0:
359,177,546013,1,0,0:0:0:0:
359,177,546177,1,12,0:0:0:0:
350,178,546505,1,0,0:0:0:0:
350,178,546668,1,8,0:0:0:0:
350,178,546832,1,8,0:0:0:0:
350,178,546914,1,8,0:0:0:0:
348,169,546996,1,0,0:0:0:0:
348,169,547160,1,0,0:0:0:0:
348,169,547324,1,12,0:0:0:0:
215,101,547488,1,0,0:0:0:0:
215,101,547652,1,0,0:0:0:0:
215,101,547816,1,12,0:0:0:0:
215,101,548144,1,0,0:0:0:0:
215,101,548308,1,8,0:0:0:0:
215,101,548390,1,8,0:0:0:0:
215,101,548472,1,0,0:0:0:0:
215,101,548554,1,0,0:0:0:0:
215,101,548636,1,8,0:0:0:0:
215,101,548800,1,8,0:0:0:0:
215,101,548964,1,4,0:0:0:0:
216,111,549127,1,0,0:0:0:0:
216,111,549291,1,8,0:0:0:0:
216,111,549455,1,0,0:0:0:0:
216,111,549783,1,0,0:0:0:0:
216,111,549947,1,8,0:0:0:0:
216,111,550111,1,8,0:0:0:0:
216,111,550193,1,8,0:0:0:0:
216,111,550275,1,0,0:0:0:0:
216,111,550439,1,0,0:0:0:0:
175,148,550603,1,8,0:0:0:0:
216,111,550767,1,8,0:0:0:0:
216,111,550931,1,0,0:0:0:0:
216,111,551095,1,0,0:0:0:0:
216,111,551259,1,8,0:0:0:0:
216,111,551423,1,0,0:0:0:0:
216,111,551750,1,0,0:0:0:0:
216,111,551832,1,0,0:0:0:0:
216,111,551914,1,8,0:0:0:0:
191,52,552078,1,0,0:0:0:0:
191,52,552242,1,8,0:0:0:0:
192,72,552406,1,0,0:0:0:0:
192,72,552570,1,8,0:0:0:0:
192,72,552734,1,8,0:0:0:0:
187,81,552898,1,4,0:0:0:0:
185,113,553226,1,0,0:0:0:0:
185,113,553390,1,0,0:0:0:0:
295,106,553472,1,0,0:0:0:0:
185,113,553554,1,8,0:0:0:0:
185,113,553718,1,0,0:0:0:0:
182,114,554045,1,0,0:0:0:0:
173,119,554209,1,0,0:0:0:0:
199,115,554373,1,8,0:0:0:0:
191,117,554537,1,8,0:0:0:0:
191,117,554619,1,8,0:0:0:0:
191,117,554701,1,8,0:0:0:0:
191,117,554783,1,8,0:0:0:0:
191,117,554865,1,4,0:0:0:0:
223,129,556012,1,0,0:0:0:0:
240,153,556094,1,0,0:0:0:0:
248,130,556177,1,12,0:0:0:0:
297,128,556336,1,0,0:0:0:0:
302,123,556496,1,8,0:0:0:0:
293,117,556655,1,0,0:0:0:0:
293,117,556735,1,0,0:0:0:0:
293,117,556815,1,0,0:0:0:0:
293,117,556974,1,8,0:0:0:0:
299,113,557054,1,0,0:0:0:0:
299,113,557134,1,0,0:0:0:0:
299,113,557294,1,8,0:0:0:0:
299,113,557373,1,8,0:0:0:0:
299,113,557453,1,0,0:0:0:0:
299,113,557613,1,0,0:0:0:0:
299,113,557772,1,8,0:0:0:0:
208,86,557932,1,0,0:0:0:0:
217,62,558012,1,0,0:0:0:0:
217,62,558091,1,0,0:0:0:0:
295,106,558171,1,0,0:0:0:0:
217,62,558251,1,8,0:0:0:0:
223,48,558411,1,4,0:0:0:0:
225,60,558730,1,12,0:0:0:0:
217,42,558889,1,0,0:0:0:0:
242,70,559049,1,8,0:0:0:0:
244,80,559208,1,0,0:0:0:0:
244,76,559288,1,0,0:0:0:0:
244,80,559368,1,0,0:0:0:0:
244,76,559528,1,8,0:0:0:0:
244,80,559607,1,0,0:0:0:0:
244,76,559687,1,0,0:0:0:0:
244,80,559847,1,8,0:0:0:0:
244,76,559927,1,8,0:0:0:0:
244,80,560006,1,0,0:0:0:0:
244,76,560166,1,0,0:0:0:0:
244,76,560325,1,8,0:0:0:0:
244,76,560485,1,0,0:0:0:0:
244,76,560565,1,8,0:0:0:0:
244,76,560645,1,0,0:0:0:0:
244,76,560804,1,0,0:0:0:0:
244,76,560964,1,12,0:0:0:0:
241,74,561283,1,4,0:0:0:0:
241,74,561442,1,0,0:0:0:0:
241,74,561602,1,8,0:0:0:0:
241,74,561682,1,0,0:0:0:0:
241,74,561762,1,8,0:0:0:0:
241,74,561841,1,8,0:0:0:0:
241,74,561921,1,0,0:0:0:0:
241,74,562081,1,8,0:0:0:0:
241,74,562240,1,0,0:0:0:0:
241,74,562400,1,8,0:0:0:0:
241,74,562480,1,8,0:0:0:0:
241,74,562559,1,8,0:0:0:0:
241,74,562719,1,0,0:0:0:0:
241,74,562799,1,0,0:0:0:0:
241,74,562879,1,0,0:0:0:0:
241,74,563038,1,8,0:0:0:0:
241,74,563118,1,8,0:0:0:0:
241,74,563198,1,0,0:0:0:0:
241,74,563357,1,0,0:0:0:0:
241,74,563517,1,8,0:0:0:0:
244,93,563597,1,8,0:0:0:0:
241,74,563677,1,8,0:0:0:0:
242,88,563756,1,8,0:0:0:0:
241,74,563836,1,4,0:0:0:0:
242,88,563996,1,0,0:0:0:0:
266,111,564315,1,0,0:0:0:0:
276,85,564474,1,8,0:0:0:0:
278,90,564634,1,0,0:0:0:0:
278,90,564794,1,8,0:0:0:0:
209,44,564873,1,8,0:0:0:0:
278,90,564953,1,8,0:0:0:0:
278,90,565033,1,8,0:0:0:0:
196,97,565113,1,4,0:0:0:0:
196,97,565272,1,0,0:0:0:0:
196,90,565591,1,0,0:0:0:0:
196,90,565671,1,8,0:0:0:0:
196,90,565751,1,0,0:0:0:0:
196,90,565911,1,0,0:0:0:0:
195,83,565990,1,0,0:0:0:0:
196,83,566070,1,8,0:0:0:0:
195,83,566150,1,0,0:0:0:0:
196,83,566230,1,8,0:0:0:0:
196,83,566389,1,4,0:0:0:0:
260,107,566549,1,0,0:0:0:0:
264,101,566708,1,8,0:0:0:0:
264,99,566788,1,0,0:0:0:0:
259,92,566868,1,8,0:0:0:0:
259,92,566948,1,8,0:0:0:0:
259,92,567028,1,0,0:0:0:0:
259,92,567187,1,8,0:0:0:0:
259,92,567267,1,0,0:0:0:0:
259,92,567347,1,0,0:0:0:0:
241,94,567506,1,8,0:0:0:0:
229,91,567586,1,8,0:0:0:0:
229,91,567666,1,0,0:0:0:0:
229,91,567825,1,0,0:0:0:0:
229,91,567905,1,0,0:0:0:0:
229,91,567985,1,8,0:0:0:0:
232,88,568145,1,0,0:0:0:0:
211,110,568224,1,0,0:0:0:0:
232,88,568304,1,8,0:0:0:0:
211,110,568384,1,8,0:0:0:0:
232,88,568464,1,0,0:0:0:0:
230,65,568623,1,12,0:0:0:0:
182,63,568942,1,4,0:0:0:0:
207,156,569102,1,0,0:0:0:0:
207,156,569262,1,8,0:0:0:0:
207,150,569421,1,8,0:0:0:0:
207,150,569501,1,0,0:0:0:0:
207,150,569581,1,0,0:0:0:0:
207,150,569740,1,8,0:0:0:0:
207,150,569900,1,0,0:0:0:0:
207,150,570059,1,8,0:0:0:0:
207,150,570139,1,8,0:0:0:0:
207,150,570219,1,0,0:0:0:0:
207,150,570379,1,8,0:0:0:0:
207,150,570458,1,8,0:0:0:0:
207,150,570538,1,8,0:0:0:0:
174,111,570618,1,8,0:0:0:0:
207,150,570698,1,0,0:0:0:0:
295,106,570778,1,0,0:0:0:0:
207,150,570857,1,8,0:0:0:0:
207,150,571017,1,0,0:0:0:0:
207,150,571177,1,12,0:0:0:0:
178,192,571496,1,4,0:0:0:0:
178,192,571655,1,8,0:0:0:0:
183,204,571735,1,0,0:0:0:0:
178,192,571815,1,8,0:0:0:0:
183,204,571895,1,8,0:0:0:0:
183,204,571974,1,0,0:0:0:0:
183,204,572134,1,0,0:0:0:0:
183,204,572294,1,8,0:0:0:0:
183,204,572373,1,0,0:0:0:0:
183,204,572453,1,0,0:0:0:0:
183,204,572613,1,8,0:0:0:0:
183,204,572692,1,8,0:0:0:0:
183,204,572772,1,0,0:0:0:0:
183,204,572852,1,0,0:0:0:0:
183,204,572932,1,8,0:0:0:0:
183,204,573012,1,0,0:0:0:0:
183,204,573091,1,8,0:0:0:0:
183,204,573251,1,8,0:0:0:0:
204,93,573331,1,8,0:0:0:0:
183,204,573411,1,0,0:0:0:0:
176,87,573490,1,0,0:0:0:0:
183,204,573570,1,8,0:0:0:0:
183,204,573730,1,4,0:0:0:0:
183,204,573889,1,0,0:0:0:0:
183,204,573969,1,0,0:0:0:0:
183,204,574049,1,12,0:0:0:0:
167,149,574208,1,0,0:0:0:0:
167,156,574528,1,0,0:0:0:0:
167,156,574607,1,8,0:0:0:0:
167,156,574687,1,0,0:0:0:0:
167,156,574847,1,0,0:0:0:0:
167,156,575006,1,8,0:0:0:0:
167,156,575166,1,8,0:0:0:0:
167,156,575325,1,4,0:0:0:0:
167,156,575485,1,0,0:0:0:0:
211,73,575645,1,8,0:0:0:0:
167,158,575804,1,0,0:0:0:0:
167,158,575884,1,0,0:0:0:0:
167,158,575964,1,8,0:0:0:0:
167,158,576123,1,0,0:0:0:0:
192,110,576203,1,0,0:0:0:0:
167,158,576283,1,0,0:0:0:0:
173,128,576363,1,0,0:0:0:0:
167,158,576442,1,8,0:0:0:0:
167,158,576522,1,0,0:0:0:0:
167,158,576602,1,8,0:0:0:0:
205,172,578517,1,8,0:0:0:0:
205,172,578597,1,8,0:0:0:0:
205,172,578677,1,8,0:0:0:0:
205,172,578756,1,8,0:0:0:0:
216,75,578836,1,8,0:0:0:0:
208,84,578916,1,8,0:0:0:0:
167,158,578996,1,8,0:0:0:0:
167,158,579075,1,8,0:0:0:0:
167,158,579155,1,4,0:0:0:0:
217,182,579474,1,8,0:0:0:0:
217,182,579634,1,0,0:0:0:0:
217,182,579714,1,8,0:0:0:0:
217,182,579794,1,0,0:0:0:0:
217,182,579953,1,0,0:0:0:0:
217,182,580113,1,8,0:0:0:0:
217,182,580272,1,0,0:0:0:0:
217,182,580432,1,12,0:0:0:0:
214,182,580751,1,8,0:0:0:0:
214,182,580911,1,0,0:0:0:0:
214,182,580990,1,0,0:0:0:0:
214,182,581070,1,0,0:0:0:0:
210,194,581230,1,0,0:0:0:0:
207,188,581389,1,8,0:0:0:0:
207,188,581549,1,8,0:0:0:0:
207,188,581708,1,4,0:0:0:0:
207,193,582028,1,8,0:0:0:0:
208,174,582187,1,8,0:0:0:0:
208,174,582267,1,8,0:0:0:0:
208,173,582347,1,0,0:0:0:0:
208,174,582506,1,0,0:0:0:0:
198,93,582586,1,0,0:0:0:0:
208,174,582666,1,8,0:0:0:0:
208,174,582746,1,8,0:0:0:0:
208,174,582825,1,0,0:0:0:0:
208,174,582905,1,8,0:0:0:0:
204,179,582985,1,0,0:0:0:0:
203,181,583145,1,8,0:0:0:0:
203,181,583304,1,0,0:0:0:0:
206,124,583464,1,0,0:0:0:0:
200,133,583623,1,8,0:0:0:0:
198,127,583703,1,0,0:0:0:0:
198,127,583783,1,0,0:0:0:0:
198,127,583863,1,0,0:0:0:0:
198,127,583942,1,8,0:0:0:0:
193,125,584102,1,8,0:0:0:0:
193,116,584182,1,8,0:0:0:0:
193,116,584262,1,0,0:0:0:0:
195,165,584421,1,0,0:0:0:0:
195,165,584501,1,0,0:0:0:0:
195,165,584581,1,8,0:0:0:0:
195,165,584661,1,0,0:0:0:0:
195,165,584740,1,8,0:0:0:0:
206,100,584820,1,8,0:0:0:0:
198,143,584900,1,0,0:0:0:0:
185,113,585059,1,8,0:0:0:0:
185,113,585139,1,8,0:0:0:0:
185,113,585219,1,0,0:0:0:0:
185,113,585299,1,8,0:0:0:0:
185,113,585379,1,0,0:0:0:0:
185,113,585458,1,0,0:0:0:0:
185,113,585538,1,8,0:0:0:0:
185,113,585698,1,0,0:0:0:0:
185,113,585778,1,0,0:0:0:0:
185,113,585857,1,0,0:0:0:0:
195,158,585937,1,0,0:0:0:0:
185,113,586017,1,8,0:0:0:0:
185,113,586097,1,8,0:0:0:0:
185,113,586177,1,0,0:0:0:0:
185,113,586256,1,8,0:0:0:0:
185,113,586336,1,0,0:0:0:0:
185,113,586416,1,0,0:0:0:0:
185,113,586496,1,8,0:0:0:0:
263,89,586655,1,0,0:0:0:0:
183,172,586815,1,8,0:0:0:0:
342,171,586921,1,0,0:0:0:0:
333,169,587028,1,0,0:0:0:0:
333,169,587134,1,8,0:0:0:0:
339,164,587240,1,0,0:0:0:0:
336,157,587347,1,0,0:0:0:0:
335,157,587453,1,8,0:0:0:0:
317,178,587613,1,0,0:0:0:0:
320,164,587772,1,8,0:0:0:0:
320,164,587879,1,8,0:0:0:0:
320,164,587985,1,8,0:0:0:0:
320,164,588091,1,0,0:0:0:0:
320,164,588198,1,0,0:0:0:0:
320,164,588304,1,0,0:0:0:0:
320,164,588411,1,8,0:0:0:0:
320,164,588517,1,0,0:0:0:0:
320,164,588623,1,0,0:0:0:0:
320,164,588730,1,8,0:0:0:0:
308,161,588836,1,8,0:0:0:0:
306,162,588942,1,8,0:0:0:0:
308,161,589049,1,0,0:0:0:0:
266,148,589155,1,0,0:0:0:0:
258,151,589262,1,0,0:0:0:0:
329,106,589368,5,12,0:0:0:0:
276,228,589528,1,0,0:0:0:0:
276,228,589607,1,8,0:0:0:0:
276,228,589687,1,0,0:0:0:0:
238,187,589767,1,0,0:0:0:0:
238,187,589847,1,8,0:0:0:0:
234,195,589927,1,0,0:0:0:0:
234,195,590006,1,8,0:0:0:0:
234,195,590086,1,8,0:0:0:0:
234,195,590166,1,0,0:0:0:0:
234,195,590246,1,8,0:0:0:0:
234,195,590325,1,0,0:0:0:0:
234,195,590485,1,8,0:0:0:0:
234,195,590565,1,8,0:0:0:0:
234,195,590645,1,0,0:0:0:0:
234,195,590724,1,0,0:0:0:0:
234,195,590804,1,8,0:0:0:0:
229,191,590964,1,8,0:0:0:0:
226,186,591044,1,8,0:0:0:0:
226,186,591123,1,0,0:0:0:0:
229,191,591203,1,0,0:0:0:0:
226,186,591283,1,8,0:0:0:0:
226,186,591363,1,0,0:0:0:0:
229,191,591442,1,8,0:0:0:0:
226,186,591522,1,0,0:0:0:0:
226,186,591602,1,8,0:0:0:0:
229,191,591682,1,8,0:0:0:0:
226,186,591762,1,8,0:0:0:0:
218,131,591841,1,8,0:0:0:0:
220,137,591921,1,4,0:0:0:0:
177,178,592161,1,0,0:0:0:0:
177,178,592240,1,8,0:0:0:0:
177,178,592400,1,8,0:0:0:0:
177,178,592480,1,8,0:0:0:0:
177,178,592559,1,0,0:0:0:0:
170,174,592719,1,0,0:0:0:0:
170,174,592879,1,8,0:0:0:0:
170,174,593038,1,0,0:0:0:0:
170,174,593198,1,8,0:0:0:0:
170,174,593278,1,8,0:0:0:0:
170,174,593357,1,0,0:0:0:0:
170,174,593437,1,0,0:0:0:0:
170,174,593517,1,8,0:0:0:0:
170,174,593597,1,0,0:0:0:0:
170,174,593677,1,8,0:0:0:0:
170,174,593756,1,8,0:0:0:0:
170,174,593836,1,0,0:0:0:0:
170,174,593996,1,8,0:0:0:0:
170,174,594075,1,8,0:0:0:0:
170,174,594155,1,0,0:0:0:0:
250,70,594235,1,8,0:0:0:0:
153,102,594315,1,8,0:0:0:0:
153,102,594395,1,8,0:0:0:0:
153,94,594474,1,4,0:0:0:0:
243,215,594714,1,0,0:0:0:0:
243,215,594794,1,8,0:0:0:0:
239,210,594953,1,0,0:0:0:0:
229,147,595033,1,8,0:0:0:0:
247,179,595113,1,0,0:0:0:0:
247,179,595272,1,0,0:0:0:0:
247,179,595432,1,8,0:0:0:0:
247,179,595591,1,8,0:0:0:0:
247,179,595671,1,8,0:0:0:0:
241,174,595751,1,0,0:0:0:0:
242,174,595911,1,0,0:0:0:0:
241,174,595990,1,8,0:0:0:0:
242,174,596150,1,0,0:0:0:0:
241,174,596230,1,8,0:0:0:0:
242,174,596389,1,0,0:0:0:0:
237,134,596469,1,0,0:0:0:0:
242,174,596549,1,0,0:0:0:0:
236,174,596629,1,0,0:0:0:0:
236,174,596708,1,8,0:0:0:0:
236,174,596868,1,8,0:0:0:0:
236,174,597028,1,4,0:0:0:0:
211,95,597267,1,0,0:0:0:0:
211,95,597347,1,8,0:0:0:0:
211,111,597506,1,0,0:0:0:0:
211,111,597586,1,0,0:0:0:0:
211,111,597666,1,8,0:0:0:0:
211,111,597825,1,0,0:0:0:0:
211,111,597905,1,8,0:0:0:0:
184,53,598065,1,0,0:0:0:0:
211,111,598145,1,8,0:0:0:0:
199,24,598224,1,8,0:0:0:0:
185,67,598304,1,0,0:0:0:0:
220,85,598464,1,0,0:0:0:0:
185,67,598623,1,8,0:0:0:0:
185,67,598783,1,0,0:0:0:0:
185,67,598863,1,0,0:0:0:0:
185,67,598942,1,8,0:0:0:0:
185,67,599102,1,8,0:0:0:0:
275,102,599182,1,8,0:0:0:0:
185,67,599262,1,8,0:0:0:0:
185,67,599421,1,8,0:0:0:0:
191,66,599581,1,4,0:0:0:0:
270,189,599900,1,0,0:0:0:0:
270,189,600059,1,0,0:0:0:0:
270,189,600219,1,8,0:0:0:0:
259,174,600538,1,0,0:0:0:0:
258,166,600698,1,0,0:0:0:0:
258,166,601017,1,0,0:0:0:0:
258,166,601096,1,0,0:0:0:0:
258,166,601176,1,8,0:0:0:0:
216,72,601336,1,0,0:0:0:0:
236,100,601495,1,8,0:0:0:0:
236,100,601655,1,8,0:0:0:0:
236,100,601815,1,4,0:0:0:0:
237,100,602134,1,0,0:0:0:0:
237,100,602293,1,0,0:0:0:0:
237,100,602453,1,8,0:0:0:0:
237,101,602772,1,0,0:0:0:0:
237,101,602932,1,0,0:0:0:0:
237,101,603251,1,0,0:0:0:0:
237,101,603410,1,0,0:0:0:0:
237,101,603490,1,0,0:0:0:0:
237,101,603570,1,8,0:0:0:0:
237,101,603650,1,0,0:0:0:0:
237,101,603729,1,8,0:0:0:0:
237,101,603809,1,0,0:0:0:0:
237,101,603889,1,0,0:0:0:0:
237,101,603969,1,0,0:0:0:0:
237,101,604049,1,12,0:0:0:0:
237,101,604368,1,0,0:0:0:0:
237,101,604527,1,0,0:0:0:0:
237,101,604687,1,8,0:0:0:0:
237,101,605006,1,0,0:0:0:0:
237,101,605166,1,0,0:0:0:0:
237,101,605325,1,8,0:0:0:0:
187,140,605485,1,0,0:0:0:0:
237,101,605644,1,8,0:0:0:0:
238,124,605963,1,12,0:0:0:0:
238,124,606283,1,4,0:0:0:0:
215,101,606602,1,0,0:0:0:0:
215,101,606761,1,0,0:0:0:0:
196,102,606921,1,12,0:0:0:0:
198,140,607081,1,0,0:0:0:0:
200,145,607160,1,0,0:0:0:0:
198,140,607240,1,8,0:0:0:0:
198,147,607400,1,8,0:0:0:0:
198,147,607559,1,0,0:0:0:0:
198,147,607639,1,8,0:0:0:0:
198,147,607719,1,0,0:0:0:0:
198,147,607878,1,0,0:0:0:0:
200,145,608198,1,8,0:0:0:0:
200,145,608357,1,8,0:0:0:0:
247,188,608517,5,0,0:0:0:0:
247,188,608623,1,8,0:0:0:0:
247,188,608729,1,8,0:0:0:0:
233,164,608836,1,0,0:0:0:0:
233,164,608995,1,0,0:0:0:0:
233,164,609155,1,8,0:0:0:0:
233,164,609315,1,8,0:0:0:0:
233,164,609474,1,0,0:0:0:0:
233,164,609581,1,8,0:0:0:0:
233,164,609687,1,8,0:0:0:0:
233,164,609793,1,0,0:0:0:0:
233,164,609953,1,0,0:0:0:0:
233,159,610112,1,8,0:0:0:0:
229,209,610219,1,0,0:0:0:0:
229,209,610325,1,0,0:0:0:0:
229,209,610432,1,8,0:0:0:0:
224,210,610538,1,8,0:0:0:0:
223,210,610644,1,0,0:0:0:0:
224,210,610749,1,12,0:0:0:0:
204,200,611068,1,0,0:0:0:0:
204,200,611227,1,0,0:0:0:0:
309,196,611387,1,0,0:0:0:0:
309,196,611467,1,0,0:0:0:0:
224,140,611546,1,8,0:0:0:0:
224,140,611626,1,8,0:0:0:0:
217,136,611706,1,0,0:0:0:0:
244,148,611786,1,8,0:0:0:0:
244,149,611866,1,8,0:0:0:0:
204,71,611945,1,8,0:0:0:0:
238,143,612025,1,0,0:0:0:0:
224,122,612185,1,8,0:0:0:0:
224,122,612264,1,8,0:0:0:0:
224,122,612344,1,0,0:0:0:0:
214,97,612424,1,0,0:0:0:0:
224,122,612504,1,8,0:0:0:0:
218,122,612584,1,0,0:0:0:0:
215,122,612663,1,0,0:0:0:0:
215,122,612743,1,8,0:0:0:0:
218,122,612823,1,0,0:0:0:0:
215,122,612903,1,0,0:0:0:0:
214,111,612983,1,8,0:0:0:0:
212,114,613142,1,0,0:0:0:0:
214,111,613222,1,8,0:0:0:0:
212,114,613301,1,0,0:0:0:0:
212,114,613381,1,0,0:0:0:0:
211,117,613461,1,8,0:0:0:0:
177,63,613541,1,0,0:0:0:0:
175,88,613621,1,8,0:0:0:0:
175,88,613701,1,8,0:0:0:0:
175,88,613780,1,0,0:0:0:0:
175,88,613860,1,0,0:0:0:0:
168,86,613940,1,8,0:0:0:0:
168,86,614100,1,8,0:0:0:0:
168,86,614179,1,8,0:0:0:0:
168,86,614259,1,0,0:0:0:0:
168,86,614339,1,0,0:0:0:0:
168,86,614419,1,8,0:0:0:0:
168,86,614499,1,0,0:0:0:0:
168,86,614578,1,8,0:0:0:0:
168,86,614658,1,8,0:0:0:0:
168,86,614738,1,0,0:0:0:0:
168,86,614897,1,8,0:0:0:0:
167,72,614977,1,8,0:0:0:0:
167,72,615057,1,0,0:0:0:0:
167,72,615137,1,0,0:0:0:0:
167,72,615217,1,8,0:0:0:0:
167,72,615296,1,0,0:0:0:0:
167,72,615376,1,8,0:0:0:0:
167,72,615456,1,0,0:0:0:0:
167,72,615536,1,8,0:0:0:0:
167,72,615616,1,8,0:0:0:0:
167,72,615695,1,0,0:0:0:0:
167,72,615775,1,0,0:0:0:0:
167,72,615855,1,8,0:0:0:0:
167,72,615935,1,8,0:0:0:0:
167,72,616014,1,8,0:0:0:0:
167,72,616094,1,8,0:0:0:0:
167,72,616174,1,0,0:0:0:0:
167,72,616254,1,0,0:0:0:0:
167,72,616334,1,8,0:0:0:0:
167,72,616413,1,0,0:0:0:0:
167,72,616493,1,8,0:0:0:0:
167,72,616573,1,8,0:0:0:0:
167,72,616653,1,0,0:0:0:0:
167,72,616733,1,0,0:0:0:0:
167,72,616812,1,12,0:0:0:0:
157,86,617451,1,12,0:0:0:0:
157,88,618089,1,4,0:0:0:0:
392,281,627344,5,0,0:0:0:0:
390,292,628301,1,8,0:0:0:0:
390,292,628620,1,8,0:0:0:0:
391,293,628939,1,0,0:0:0:0:
391,293,629258,1,8,0:0:0:0:
228,170,630258,1,0,0:0:0:0:
227,161,631258,1,8,0:0:0:0:
222,149,632258,1,8,0:0:0:0:
218,146,632591,1,0,0:0:0:0:
218,146,633258,1,8,0:0:0:0:
202,133,635258,1,0,0:0:0:0:
202,133,636258,1,0,0:0:0:0:
202,133,636591,1,8,0:0:0:0:
202,133,636924,1,8,0:0:0:0:
202,133,637258,1,0,0:0:0:0:
202,133,638258,1,8,0:0:0:0:
199,132,638591,1,0,0:0:0:0:
199,132,638924,1,0,0:0:0:0:
198,132,639258,1,8,0:0:0:0:
198,132,640924,1,8,0:0:0:0:
198,132,641258,1,0,0:0:0:0:
316,170,642591,1,0,0:0:0:0:
316,170,642924,1,0,0:0:0:0:
316,170,643258,1,8,0:0:0:0:
298,143,644591,1,8,0:0:0:0:
298,143,644924,1,8,0:0:0:0:
298,143,645258,1,0,0:0:0:0:
300,143,646591,1,0,0:0:0:0:
300,143,646924,1,0,0:0:0:0:
300,143,647258,1,8,0:0:0:0:
300,143,648924,1,8,0:0:0:0:
300,143,649258,1,0,0:0:0:0:
300,129,651258,1,8,0:0:0:0:
300,129,652258,1,0,0:0:0:0:
300,129,652591,1,0,0:0:0:0:
300,129,652924,1,0,0:0:0:0:
300,129,653258,1,8,0:0:0:0:
301,132,654258,1,8,0:0:0:0:
301,132,654591,1,0,0:0:0:0:
301,132,654924,1,0,0:0:0:0:
301,132,655258,1,8,0:0:0:0:
307,129,656258,1,0,0:0:0:0:
301,132,656924,1,8,0:0:0:0:
301,132,657258,1,0,0:0:0:0:
307,128,658591,1,8,0:0:0:0:
307,128,658924,1,0,0:0:0:0:
307,128,659258,1,8,0:0:0:0:
307,128,659758,1,0,0:0:0:0:
307,128,659924,1,0,0:0:0:0:
307,128,660258,1,8,0:0:0:0:
307,128,660591,1,8,0:0:0:0:
307,128,660924,1,8,0:0:0:0:
307,128,661258,1,0,0:0:0:0:
307,128,661758,1,0,0:0:0:0:
307,128,661924,1,0,0:0:0:0:
307,128,662258,1,8,0:0:0:0:
307,123,662591,1,0,0:0:0:0:
307,123,662924,1,0,0:0:0:0:
307,123,663258,1,8,0:0:0:0:
307,123,663591,1,8,0:0:0:0:
307,123,663924,1,0,0:0:0:0:
307,123,664258,1,8,0:0:0:0:
240,131,664924,1,0,0:0:0:0:
240,119,665258,1,8,0:0:0:0:
240,119,665758,1,8,0:0:0:0:
240,119,665924,1,0,0:0:0:0:
240,119,666091,1,0,0:0:0:0:
240,119,666258,1,12,0:0:0:0:
240,113,666591,1,8,0:0:0:0:
240,113,666758,1,0,0:0:0:0:
301,89,666841,1,0,0:0:0:0:
240,113,666924,1,0,0:0:0:0:
240,113,667091,1,0,0:0:0:0:
240,113,667258,1,12,0:0:0:0:
328,144,667424,1,0,0:0:0:0:
328,144,667591,1,0,0:0:0:0:
327,152,667758,1,8,0:0:0:0:
327,152,667924,1,0,0:0:0:0:
327,146,668091,1,0,0:0:0:0:
327,146,668174,1,0,0:0:0:0:
327,146,668258,1,8,0:0:0:0:
327,146,668424,1,0,0:0:0:0:
327,146,668591,1,8,0:0:0:0:
327,146,668758,1,8,0:0:0:0:
327,146,668841,1,8,0:0:0:0:
327,146,668924,1,0,0:0:0:0:
327,146,669091,1,0,0:0:0:0:
327,146,669258,1,12,0:0:0:0:
327,146,669424,1,0,0:0:0:0:
327,146,669591,1,0,0:0:0:0:
327,146,669758,1,8,0:0:0:0:
327,146,669924,1,0,0:0:0:0:
327,146,670091,1,0,0:0:0:0:
327,146,670174,1,0,0:0:0:0:
327,146,670258,1,8,0:0:0:0:
327,146,670424,1,0,0:0:0:0:
327,146,670591,1,8,0:0:0:0:
327,146,670674,1,8,0:0:0:0:
327,146,670758,1,0,0:0:0:0:
277,108,670841,1,0,0:0:0:0:
277,108,670924,1,8,0:0:0:0:
277,108,671091,1,0,0:0:0:0:
266,130,671174,1,0,0:0:0:0:
279,124,671258,1,12,0:0:0:0:
194,118,671424,1,0,0:0:0:0:
194,111,671758,1,0,0:0:0:0:
194,111,671924,1,8,0:0:0:0:
194,111,672091,1,0,0:0:0:0:
194,111,672258,1,12,0:0:0:0:
194,111,672424,1,0,0:0:0:0:
194,111,672758,1,0,0:0:0:0:
194,111,672924,1,8,0:0:0:0:
194,111,673091,1,8,0:0:0:0:
194,111,673258,1,4,0:0:0:0:
295,131,673591,1,8,0:0:0:0:
286,133,673758,1,0,0:0:0:0:
286,133,673841,1,0,0:0:0:0:
286,133,673924,1,0,0:0:0:0:
286,133,674091,1,0,0:0:0:0:
286,133,674258,1,12,0:0:0:0:
286,133,674424,1,8,0:0:0:0:
286,133,674508,1,8,0:0:0:0:
286,133,674591,1,0,0:0:0:0:
286,133,674674,1,8,0:0:0:0:
286,133,674758,1,8,0:0:0:0:
286,133,674841,1,8,0:0:0:0:
279,138,674924,1,0,0:0:0:0:
279,137,675008,1,0,0:0:0:0:
279,138,675091,1,8,0:0:0:0:
278,142,675174,1,8,0:0:0:0:
279,138,675258,1,4,0:0:0:0:
217,79,675424,1,0,0:0:0:0:
219,89,675758,1,8,0:0:0:0:
219,89,675924,1,0,0:0:0:0:
219,89,676091,1,0,0:0:0:0:
219,89,676258,1,8,0:0:0:0:
219,89,676341,1,0,0:0:0:0:
219,89,676424,1,8,0:0:0:0:
215,90,676758,1,0,0:0:0:0:
215,90,676841,1,0,0:0:0:0:
215,90,676924,1,8,0:0:0:0:
215,90,677091,1,0,0:0:0:0:
215,90,677258,1,8,0:0:0:0:
211,91,677424,1,0,0:0:0:0:
211,91,677758,1,8,0:0:0:0:
211,91,677841,1,8,0:0:0:0:
211,91,677924,1,0,0:0:0:0:
211,91,678091,1,8,0:0:0:0:
211,91,678258,1,4,0:0:0:0:
211,91,678591,1,0,0:0:0:0:
211,91,678758,1,0,0:0:0:0:
211,91,678924,1,8,0:0:0:0:
317,111,679035,1,0,0:0:0:0:
317,111,679146,1,0,0:0:0:0:
317,111,679258,1,8,0:0:0:0:
325,80,679424,1,0,0:0:0:0:
320,84,679591,1,0,0:0:0:0:
320,84,679758,1,8,0:0:0:0:
320,84,679924,1,0,0:0:0:0:
320,84,680091,1,8,0:0:0:0:
320,84,680174,1,0,0:0:0:0:
320,84,680258,1,8,0:0:0:0:
250,63,680341,1,8,0:0:0:0:
320,84,680424,1,0,0:0:0:0:
320,84,680591,1,8,0:0:0:0:
320,84,680758,1,8,0:0:0:0:
320,84,680841,1,8,0:0:0:0:
320,84,680924,1,0,0:0:0:0:
320,84,681091,1,0,0:0:0:0:
320,84,681258,1,8,0:0:0:0:
320,84,681424,1,0,0:0:0:0:
320,84,681591,1,8,0:0:0:0:
320,84,681674,1,0,0:0:0:0:
320,84,681758,1,8,0:0:0:0:
208,79,681924,1,0,0:0:0:0:
208,79,682091,1,8,0:0:0:0:
208,79,682174,1,0,0:0:0:0:
203,72,682258,1,8,0:0:0:0:
203,72,682424,1,0,0:0:0:0:
203,72,682591,1,8,0:0:0:0:
359,65,682702,1,8,0:0:0:0:
359,65,682813,1,8,0:0:0:0:
359,65,682924,1,0,0:0:0:0:
359,65,683035,1,0,0:0:0:0:
349,67,683146,1,0,0:0:0:0:
352,51,683258,1,12,0:0:0:0:
250,146,683591,1,0,0:0:0:0:
250,146,683758,1,8,0:0:0:0:
250,146,683924,1,8,0:0:0:0:
250,146,684091,1,0,0:0:0:0:
250,146,684174,1,8,0:0:0:0:
250,146,684258,1,0,0:0:0:0:
258,132,684424,1,0,0:0:0:0:
252,141,684591,1,8,0:0:0:0:
252,141,684758,1,8,0:0:0:0:
252,141,684924,1,0,0:0:0:0:
210,111,685035,1,0,0:0:0:0:
209,118,685146,1,8,0:0:0:0:
210,111,685258,1,0,0:0:0:0:
264,154,685369,1,8,0:0:0:0:
264,154,685480,1,8,0:0:0:0:
210,111,685591,1,0,0:0:0:0:
220,127,685702,1,8,0:0:0:0:
241,68,685813,1,8,0:0:0:0:
182,57,685924,1,0,0:0:0:0:
241,68,686091,1,0,0:0:0:0:
241,68,686258,1,12,0:0:0:0:
288,99,686591,1,8,0:0:0:0:
284,108,686758,1,8,0:0:0:0:
289,94,686924,1,0,0:0:0:0:
288,85,687091,1,0,0:0:0:0:
288,85,687174,1,0,0:0:0:0:
288,85,687258,1,8,0:0:0:0:
288,85,687424,1,0,0:0:0:0:
286,81,687758,5,0,0:0:0:0:
286,81,687924,1,8,0:0:0:0:
286,81,688091,1,0,0:0:0:0:
286,81,688258,1,12,0:0:0:0:
286,76,688591,1,0,0:0:0:0:
286,76,688758,1,8,0:0:0:0:
286,76,688841,1,8,0:0:0:0:
286,76,688924,1,0,0:0:0:0:
286,76,689091,1,8,0:0:0:0:
286,76,689258,1,8,0:0:0:0:
286,76,689424,1,0,0:0:0:0:
286,71,689758,1,0,0:0:0:0:
286,71,689841,1,0,0:0:0:0:
286,71,689924,1,0,0:0:0:0:
286,71,690091,1,0,0:0:0:0:
286,71,690258,1,12,0:0:0:0:
286,71,690424,1,8,0:0:0:0:
286,71,690591,1,8,0:0:0:0:
286,71,690758,1,0,0:0:0:0:
286,71,690841,1,0,0:0:0:0:
286,71,690924,1,8,0:0:0:0:
286,71,691091,1,8,0:0:0:0:
286,71,691258,1,4,0:0:0:0:
235,35,691424,1,8,0:0:0:0:
237,51,691758,1,0,0:0:0:0:
233,47,691924,1,0,0:0:0:0:
233,47,692091,1,8,0:0:0:0:
233,47,692174,1,0,0:0:0:0:
233,47,692258,1,8,0:0:0:0:
233,47,692424,1,8,0:0:0:0:
233,47,692591,1,0,0:0:0:0:
233,47,692758,1,0,0:0:0:0:
233,47,692924,1,8,0:0:0:0:
216,76,693258,1,0,0:0:0:0:
216,76,693424,1,8,0:0:0:0:
209,73,693758,1,0,0:0:0:0:
209,73,693924,1,0,0:0:0:0:
209,73,694091,1,8,0:0:0:0:
209,73,694174,1,8,0:0:0:0:
209,73,694258,1,0,0:0:0:0:
209,67,694424,1,0,0:0:0:0:
209,67,694591,1,8,0:0:0:0:
209,67,694758,1,0,0:0:0:0:
209,67,694924,1,8,0:0:0:0:
209,67,695091,1,8,0:0:0:0:
209,59,695258,1,0,0:0:0:0:
209,59,695424,1,8,0:0:0:0:
275,53,695758,1,0,0:0:0:0:
267,73,695924,1,0,0:0:0:0:
267,73,696091,1,8,0:0:0:0:
267,73,696174,1,0,0:0:0:0:
267,73,696258,1,8,0:0:0:0:
264,67,696341,1,8,0:0:0:0:
267,73,696424,1,0,0:0:0:0:
205,72,696591,1,0,0:0:0:0:
224,85,696758,1,0,0:0:0:0:
224,75,696924,1,8,0:0:0:0:
224,75,697091,1,8,0:0:0:0:
224,75,697258,1,0,0:0:0:0:
338,99,697369,1,8,0:0:0:0:
327,98,697480,1,8,0:0:0:0:
322,94,697591,1,0,0:0:0:0:
338,99,697702,1,8,0:0:0:0:
327,98,697813,1,8,0:0:0:0:
275,86,697924,1,0,0:0:0:0:
275,86,698035,1,0,0:0:0:0:
275,86,698146,1,0,0:0:0:0:
275,86,698258,1,12,0:0:0:0:
275,86,698424,1,0,0:0:0:0:
275,86,698591,1,8,0:0:0:0:
275,86,698702,1,8,0:0:0:0:
275,86,698813,1,8,0:0:0:0:
275,86,698924,1,0,0:0:0:0:
275,86,699035,1,0,0:0:0:0:
275,86,699146,1,0,0:0:0:0:
275,86,699258,1,12,0:0:0:0:
207,223,699591,1,0,0:0:0:0:
207,223,699757,1,8,0:0:0:0:
314,193,699924,1,0,0:0:0:0:
314,193,700007,1,0,0:0:0:0:
314,193,700090,1,8,0:0:0:0:
314,193,700174,1,0,0:0:0:0:
314,193,700257,1,8,0:0:0:0:
295,186,700424,1,0,0:0:0:0:
295,186,700590,1,8,0:0:0:0:
295,186,700673,1,0,0:0:0:0:
295,186,700757,1,8,0:0:0:0:
295,186,700840,1,8,0:0:0:0:
295,186,700923,1,0,0:0:0:0:
295,186,701090,1,8,0:0:0:0:
295,186,701256,1,0,0:0:0:0:
295,186,701423,1,8,0:0:0:0:
292,175,701506,1,0,0:0:0:0:
288,178,701590,1,0,0:0:0:0:
288,178,701756,1,8,0:0:0:0:
288,178,701923,1,8,0:0:0:0:
288,178,702006,1,0,0:0:0:0:
252,89,702089,1,8,0:0:0:0:
195,8,702173,1,8,0:0:0:0:
209,66,702256,1,0,0:0:0:0:
233,87,702422,1,8,0:0:0:0:
233,87,702589,1,8,0:0:0:0:
233,87,702756,1,8,0:0:0:0:
233,87,702839,1,8,0:0:0:0:
233,87,702922,1,8,0:0:0:0:
224,86,703005,1,0,0:0:0:0:
233,87,703089,1,8,0:0:0:0:
233,87,703172,1,8,0:0:0:0:
233,87,703255,1,4,0:0:0:0:
233,87,703422,1,0,0:0:0:0:
219,137,703755,1,8,0:0:0:0:
219,137,703922,1,0,0:0:0:0:
219,137,704005,1,0,0:0:0:0:
219,137,704088,1,8,0:0:0:0:
219,137,704171,1,0,0:0:0:0:
219,137,704255,1,8,0:0:0:0:
219,137,704421,1,0,0:0:0:0:
219,137,704505,1,0,0:0:0:0:
219,137,704588,1,0,0:0:0:0:
219,137,704754,1,8,0:0:0:0:
219,137,704921,1,0,0:0:0:0:
219,137,705088,1,8,0:0:0:0:
219,137,705171,1,0,0:0:0:0:
219,137,705254,1,8,0:0:0:0:
219,137,705337,1,8,0:0:0:0:
219,137,705421,1,0,0:0:0:0:
219,137,705587,1,0,0:0:0:0:
219,137,705754,1,8,0:0:0:0:
219,137,705920,1,0,0:0:0:0:
219,137,706087,1,8,0:0:0:0:
219,137,706170,1,8,0:0:0:0:
219,137,706254,1,8,0:0:0:0:
219,137,706420,1,0,0:0:0:0:
219,137,706503,1,0,0:0:0:0:
219,137,706587,1,8,0:0:0:0:
219,137,706753,1,8,0:0:0:0:
219,137,706920,1,8,0:0:0:0:
219,137,707003,1,0,0:0:0:0:
219,137,707086,1,8,0:0:0:0:
219,137,707253,1,4,0:0:0:0:
219,137,707420,1,4,0:0:0:0:
206,100,707586,1,8,0:0:0:0:
204,83,707753,1,0,0:0:0:0:
204,83,707919,1,0,0:0:0:0:
204,83,708086,1,8,0:0:0:0:
204,83,708169,1,8,0:0:0:0:
204,83,708253,1,0,0:0:0:0:
204,83,708419,1,8,0:0:0:0:
204,83,708586,1,0,0:0:0:0:
204,83,708752,1,8,0:0:0:0:
199,85,708919,1,0,0:0:0:0:
204,83,709002,1,0,0:0:0:0:
204,83,709085,1,8,0:0:0:0:
204,83,709169,1,0,0:0:0:0:
204,83,709252,1,0,0:0:0:0:
204,83,709419,1,8,0:0:0:0:
204,83,709502,1,0,0:0:0:0:
204,83,709585,1,8,0:0:0:0:
204,83,709668,1,8,0:0:0:0:
204,83,709752,1,0,0:0:0:0:
204,82,710085,1,8,0:0:0:0:
204,82,710251,1,0,0:0:0:0:
204,82,710335,1,0,0:0:0:0:
204,82,710418,1,8,0:0:0:0:
204,82,710501,1,8,0:0:0:0:
204,82,710585,1,0,0:0:0:0:
199,65,710751,1,8,0:0:0:0:
199,65,710918,1,8,0:0:0:0:
238,53,711001,1,8,0:0:0:0:
313,99,711084,1,0,0:0:0:0:
313,99,711140,1,0,0:0:0:0:
313,99,711195,1,0,0:0:0:0:
296,86,711251,1,8,0:0:0:0:
293,78,711417,1,0,0:0:0:0:
293,78,711584,1,8,0:0:0:0:
293,78,711917,1,4,0:0:0:0:
315,235,712250,1,0,0:0:0:0:
254,177,712417,1,8,0:0:0:0:
254,177,712500,1,8,0:0:0:0:
246,175,712583,1,0,0:0:0:0:
246,175,712750,1,8,0:0:0:0:
246,175,712833,1,0,0:0:0:0:
246,175,712917,1,0,0:0:0:0:
246,175,713083,1,0,0:0:0:0:
246,175,713166,1,8,0:0:0:0:
246,175,713250,1,0,0:0:0:0:
246,175,713333,1,0,0:0:0:0:
246,175,713416,1,8,0:0:0:0:
246,175,713583,1,0,0:0:0:0:
246,175,713749,1,8,0:0:0:0:
255,188,713916,1,0,0:0:0:0:
246,177,714083,1,0,0:0:0:0:
260,174,714166,1,0,0:0:0:0:
246,177,714249,1,0,0:0:0:0:
246,177,714416,1,8,0:0:0:0:
246,177,714582,1,4,0:0:0:0:
255,185,714915,1,0,0:0:0:0:
255,185,715082,1,8,0:0:0:0:
255,185,715249,1,0,0:0:0:0:
255,185,715582,1,0,0:0:0:0:
255,185,715748,1,12,0:0:0:0:
255,185,716081,1,8,0:0:0:0:
255,185,716248,1,0,0:0:0:0:
255,185,716415,1,0,0:0:0:0:
255,185,716498,1,0,0:0:0:0:
224,129,716581,1,8,0:0:0:0:
224,129,716748,1,0,0:0:0:0:
224,129,716914,1,0,0:0:0:0:
224,129,717248,1,12,0:0:0:0:
216,94,717414,1,0,0:0:0:0:
206,153,717581,1,0,0:0:0:0:
205,135,717747,1,8,0:0:0:0:
205,135,718080,1,8,0:0:0:0:
205,135,718247,1,0,0:0:0:0:
205,135,718414,1,0,0:0:0:0:
205,135,718580,1,8,0:0:0:0:
205,135,718747,1,0,0:0:0:0:
205,135,718913,1,0,0:0:0:0:
205,135,719080,1,0,0:0:0:0:
205,135,719163,1,0,0:0:0:0:
205,135,719246,1,8,0:0:0:0:
205,135,719413,1,8,0:0:0:0:
205,135,719580,1,0,0:0:0:0:
205,135,719746,1,8,0:0:0:0:
205,135,719913,1,0,0:0:0:0:
201,131,720079,1,0,0:0:0:0:
201,131,720163,1,8,0:0:0:0:
201,131,720246,1,0,0:0:0:0:
201,131,720412,1,0,0:0:0:0:
201,131,720579,1,8,0:0:0:0:
201,131,720746,1,0,0:0:0:0:
201,131,720912,1,8,0:0:0:0:
201,131,721079,1,0,0:0:0:0:
201,131,721245,1,0,0:0:0:0:
201,131,721329,1,0,0:0:0:0:
201,131,721412,1,8,0:0:0:0:
201,131,721495,1,0,0:0:0:0:
201,131,721578,1,8,0:0:0:0:
201,131,721745,1,0,0:0:0:0:
201,131,721912,1,8,0:0:0:0:
201,131,721995,1,0,0:0:0:0:
201,131,722078,1,0,0:0:0:0:
201,131,722161,1,0,0:0:0:0:
201,131,722245,5,8,0:0:0:0:
201,131,722411,1,8,0:0:0:0:
201,131,722578,1,0,0:0:0:0:
201,131,722661,1,0,0:0:0:0:
201,131,722744,1,8,0:0:0:0:
201,131,722828,1,0,0:0:0:0:
201,131,722911,1,8,0:0:0:0:
204,133,722994,1,8,0:0:0:0:
201,131,723078,1,0,0:0:0:0:
248,175,723244,1,12,0:0:0:0:
204,204,723576,1,0,0:0:0:0:
204,204,723742,1,0,0:0:0:0:
204,204,723909,1,8,0:0:0:0:
204,204,724075,1,8,0:0:0:0:
204,204,724241,1,0,0:0:0:0:
204,204,724408,1,0,0:0:0:0:
204,204,724491,1,0,0:0:0:0:
204,204,724574,1,8,0:0:0:0:
204,204,724906,1,8,0:0:0:0:
204,204,725073,1,8,0:0:0:0:
204,204,725156,1,8,0:0:0:0:
204,204,725239,1,0,0:0:0:0:
204,204,725405,1,0,0:0:0:0:
204,204,725572,1,8,0:0:0:0:
204,204,725904,1,0,0:0:0:0:
204,204,726071,1,0,0:0:0:0:
204,204,726237,1,8,0:0:0:0:
204,204,726403,1,8,0:0:0:0:
204,204,726486,1,8,0:0:0:0:
204,204,726569,1,0,0:0:0:0:
204,204,726736,1,0,0:0:0:0:
204,204,726902,1,8,0:0:0:0:
204,204,727068,1,0,0:0:0:0:
204,204,727235,1,8,0:0:0:0:
204,204,727567,1,8,0:0:0:0:
204,204,727734,1,8,0:0:0:0:
204,204,727900,1,0,0:0:0:0:
204,204,728066,1,0,0:0:0:0:
204,204,728149,1,0,0:0:0:0:
204,204,728232,1,8,0:0:0:0:
204,204,728399,1,8,0:0:0:0:
204,204,728565,1,4,0:0:0:0:
189,168,728898,1,0,0:0:0:0:
189,168,729064,1,0,0:0:0:0:
189,168,729230,1,8,0:0:0:0:
189,168,729396,1,0,0:0:0:0:
189,168,729480,1,8,0:0:0:0:
189,168,729563,1,0,0:0:0:0:
189,168,729729,1,0,0:0:0:0:
189,168,729895,1,8,0:0:0:0:
185,164,730228,1,8,0:0:0:0:
185,164,730394,1,0,0:0:0:0:
185,164,730477,1,0,0:0:0:0:
185,164,730561,1,8,0:0:0:0:
185,164,730727,1,8,0:0:0:0:
185,164,730893,1,0,0:0:0:0:
185,164,731059,1,8,0:0:0:0:
185,164,731226,1,0,0:0:0:0:
181,161,731558,1,0,0:0:0:0:
181,161,731725,1,0,0:0:0:0:
179,155,731891,1,8,0:0:0:0:
179,155,732057,1,0,0:0:0:0:
179,155,732224,1,8,0:0:0:0:
179,155,732390,1,8,0:0:0:0:
179,155,732556,1,0,0:0:0:0:
179,155,732722,1,8,0:0:0:0:
271,188,732778,1,8,0:0:0:0:
268,183,732833,1,8,0:0:0:0:
275,160,732889,1,0,0:0:0:0:
340,161,733055,1,0,0:0:0:0:
337,169,733221,1,8,0:0:0:0:
291,200,733388,1,0,0:0:0:0:
291,200,733471,1,0,0:0:0:0:
291,200,733554,1,8,0:0:0:0:
291,200,733637,1,8,0:0:0:0:
291,200,733720,1,8,0:0:0:0:
291,200,733803,1,8,0:0:0:0:
291,200,733887,1,4,0:0:0:0:
217,143,734219,1,0,0:0:0:0:
218,152,734385,1,0,0:0:0:0:
218,152,734552,1,8,0:0:0:0:
218,152,734718,1,8,0:0:0:0:
215,146,734801,1,8,0:0:0:0:
215,145,734884,1,0,0:0:0:0:
215,145,735051,1,0,0:0:0:0:
215,145,735217,1,8,0:0:0:0:
215,145,735549,1,0,0:0:0:0:
215,145,735716,1,8,0:0:0:0:
215,145,735882,1,0,0:0:0:0:
215,145,736048,1,0,0:0:0:0:
215,145,736132,1,0,0:0:0:0:
215,145,736215,1,8,0:0:0:0:
215,145,736381,1,8,0:0:0:0:
231,155,736547,1,0,0:0:0:0:
251,156,736714,1,8,0:0:0:0:
251,156,736880,1,0,0:0:0:0:
251,156,737046,1,0,0:0:0:0:
251,156,737129,1,0,0:0:0:0:
251,156,737212,1,8,0:0:0:0:
251,156,737379,1,0,0:0:0:0:
251,156,737545,1,8,0:0:0:0:
206,115,737628,1,8,0:0:0:0:
251,156,737711,1,0,0:0:0:0:
180,55,737794,1,0,0:0:0:0:
196,116,737878,1,8,0:0:0:0:
278,121,738044,1,0,0:0:0:0:
273,113,738210,1,8,0:0:0:0:
273,113,738377,1,8,0:0:0:0:
273,113,738543,1,0,0:0:0:0:
273,113,738709,1,0,0:0:0:0:
273,113,738792,1,0,0:0:0:0:
273,113,738875,1,8,0:0:0:0:
270,111,739208,1,4,0:0:0:0:
270,111,739374,1,0,0:0:0:0:
270,111,739541,1,8,0:0:0:0:
270,111,739707,1,0,0:0:0:0:
270,111,739790,1,0,0:0:0:0:
270,111,739873,1,8,0:0:0:0:
270,111,740040,1,0,0:0:0:0:
270,111,740206,1,8,0:0:0:0:
270,111,740289,1,8,0:0:0:0:
270,111,740372,1,8,0:0:0:0:
270,111,740455,1,8,0:0:0:0:
270,111,740538,1,0,0:0:0:0:
270,111,740705,1,0,0:0:0:0:
270,111,740788,1,0,0:0:0:0:
270,111,740871,1,8,0:0:0:0:
270,111,741037,1,0,0:0:0:0:
270,111,741120,1,8,0:0:0:0:
270,111,741204,1,0,0:0:0:0:
270,111,741370,1,0,0:0:0:0:
270,111,741453,1,0,0:0:0:0:
270,111,741536,1,8,0:0:0:0:
270,111,741619,1,0,0:0:0:0:
270,111,741702,1,8,0:0:0:0:
270,111,741869,1,4,0:0:0:0:
244,98,742035,1,0,0:0:0:0:
244,98,742201,1,0,0:0:0:0:
244,98,742368,1,8,0:0:0:0:
244,98,742451,1,0,0:0:0:0:
244,98,742534,1,0,0:0:0:0:
244,98,742700,1,0,0:0:0:0:
244,98,742867,1,8,0:0:0:0:
226,103,742950,1,8,0:0:0:0:
226,103,743033,1,0,0:0:0:0:
226,103,743199,1,0,0:0:0:0:
226,103,743365,1,8,0:0:0:0:
226,103,743532,1,0,0:0:0:0:
226,103,743615,1,8,0:0:0:0:
226,103,743698,1,0,0:0:0:0:
226,103,743781,1,0,0:0:0:0:
226,103,743864,1,8,0:0:0:0:
240,116,743947,1,8,0:0:0:0:
240,116,744031,1,0,0:0:0:0:
240,116,744114,1,0,0:0:0:0:
240,116,744197,1,8,0:0:0:0:
240,116,744280,1,8,0:0:0:0:
240,116,744363,1,8,0:0:0:0:
240,116,744446,1,8,0:0:0:0:
240,116,744530,1,4,0:0:0:0:
189,252,744862,1,8,0:0:0:0:
189,252,745028,1,0,0:0:0:0:
189,252,745111,1,0,0:0:0:0:
189,252,745194,1,0,0:0:0:0:
189,252,745361,1,0,0:0:0:0:
189,252,745527,1,8,0:0:0:0:
189,252,745693,1,0,0:0:0:0:
189,252,745776,1,8,0:0:0:0:
189,252,745859,1,0,0:0:0:0:
189,252,746025,1,0,0:0:0:0:
187,245,746192,1,8,0:0:0:0:
187,245,746358,1,0,0:0:0:0:
187,245,746524,1,8,0:0:0:0:
220,118,746607,1,0,0:0:0:0:
187,245,746690,1,8,0:0:0:0:
187,245,746856,1,0,0:0:0:0:
187,245,747023,1,0,0:0:0:0:
187,245,747189,1,12,0:0:0:0:
176,42,747355,1,0,0:0:0:0:
189,245,747687,1,8,0:0:0:0:
189,245,747854,1,0,0:0:0:0:
189,245,748020,1,0,0:0:0:0:
189,245,748103,1,0,0:0:0:0:
189,245,748186,1,8,0:0:0:0:
189,245,748352,1,0,0:0:0:0:
189,245,748518,1,8,0:0:0:0:
189,245,748685,1,0,0:0:0:0:
189,245,749017,1,0,0:0:0:0:
189,245,749183,1,8,0:0:0:0:
189,245,749266,1,0,0:0:0:0:
219,207,749349,1,8,0:0:0:0:
219,202,749433,1,8,0:0:0:0:
219,202,749516,1,0,0:0:0:0:
219,202,749682,1,8,0:0:0:0:
219,202,749848,1,4,0:0:0:0:
217,212,750014,1,0,0:0:0:0:
212,107,750347,1,8,0:0:0:0:
212,107,750513,1,0,0:0:0:0:
212,107,750679,1,0,0:0:0:0:
212,107,750762,1,0,0:0:0:0:
212,107,750845,1,8,0:0:0:0:
212,107,751011,1,0,0:0:0:0:
212,107,751178,1,8,0:0:0:0:
212,107,751344,1,0,0:0:0:0:
213,107,751676,1,0,0:0:0:0:
213,107,751843,1,8,0:0:0:0:
213,107,751926,1,0,0:0:0:0:
213,107,752009,1,8,0:0:0:0:
213,107,752175,1,0,0:0:0:0:
213,107,752341,1,0,0:0:0:0:
213,107,752507,1,12,0:0:0:0:
213,107,752674,1,0,0:0:0:0:
213,107,753006,1,8,0:0:0:0:
213,107,753172,1,0,0:0:0:0:
213,107,753255,1,0,0:0:0:0:
213,107,753338,1,0,0:0:0:0:
213,107,753505,1,0,0:0:0:0:
213,107,753671,1,8,0:0:0:0:
213,107,753837,1,0,0:0:0:0:
213,107,754003,1,8,0:0:0:0:
213,107,754336,1,0,0:0:0:0:
213,107,754502,1,8,0:0:0:0:
213,107,754585,1,0,0:0:0:0:
213,107,754668,1,8,0:0:0:0:
213,107,754751,1,8,0:0:0:0:
213,107,754834,1,0,0:0:0:0:
213,107,755000,1,0,0:0:0:0:
213,107,755167,1,12,0:0:0:0:
213,107,755333,1,0,0:0:0:0:
150,105,755665,1,8,0:0:0:0:
150,105,755831,1,0,0:0:0:0:
150,105,755998,1,0,0:0:0:0:
150,105,756081,1,0,0:0:0:0:
150,105,756164,1,8,0:0:0:0:
150,105,756330,1,8,0:0:0:0:
234,153,756496,1,0,0:0:0:0:
234,153,756662,1,8,0:0:0:0:
235,153,756995,1,8,0:0:0:0:
235,153,757161,1,8,0:0:0:0:
235,153,757327,1,0,0:0:0:0:
235,153,757410,1,0,0:0:0:0:
235,153,757493,1,0,0:0:0:0:
235,153,757660,1,8,0:0:0:0:
235,153,757826,1,0,0:0:0:0:
235,153,757992,1,8,0:0:0:0:
235,153,758325,1,8,0:0:0:0:
235,153,758491,1,0,0:0:0:0:
227,153,758657,1,0,0:0:0:0:
227,153,758823,1,8,0:0:0:0:
227,153,758906,1,8,0:0:0:0:
225,147,758989,1,0,0:0:0:0:
225,147,759072,1,0,0:0:0:0:
225,147,759156,1,8,0:0:0:0:
238,143,759322,1,0,0:0:0:0:
238,143,759654,1,0,0:0:0:0:
238,143,759737,1,0,0:0:0:0:
238,143,759820,1,8,0:0:0:0:
241,162,759903,1,0,0:0:0:0:
240,151,759987,1,8,0:0:0:0:
240,150,760070,1,8,0:0:0:0:
240,151,760153,1,0,0:0:0:0:
240,151,760319,1,8,0:0:0:0:
240,151,760485,1,4,0:0:0:0:
240,151,760651,1,8,0:0:0:0:
236,152,760984,1,8,0:0:0:0:
236,152,761150,1,0,0:0:0:0:
236,152,761316,1,0,0:0:0:0:
236,152,761399,1,0,0:0:0:0:
236,152,761482,1,0,0:0:0:0:
236,152,761649,1,8,0:0:0:0:
236,152,761815,1,0,0:0:0:0:
236,152,761981,1,8,0:0:0:0:
236,152,762313,1,0,0:0:0:0:
236,152,762480,1,8,0:0:0:0:
220,131,762563,1,0,0:0:0:0:
220,131,762646,1,8,0:0:0:0:
218,107,762812,1,0,0:0:0:0:
218,107,762978,1,8,0:0:0:0:
217,120,763144,1,4,0:0:0:0:
212,133,763311,1,0,0:0:0:0:
216,126,763643,1,8,0:0:0:0:
216,126,763809,1,0,0:0:0:0:
216,126,763892,1,0,0:0:0:0:
216,126,763975,1,8,0:0:0:0:
216,126,764059,1,0,0:0:0:0:
216,126,764142,1,0,0:0:0:0:
213,112,764308,1,8,0:0:0:0:
213,112,764474,1,0,0:0:0:0:
213,112,764640,1,0,0:0:0:0:
213,112,764723,1,8,0:0:0:0:
213,112,764807,1,0,0:0:0:0:
213,112,764973,1,0,0:0:0:0:
210,95,765056,1,0,0:0:0:0:
211,96,765139,1,8,0:0:0:0:
166,60,765222,1,0,0:0:0:0:
211,96,765305,1,8,0:0:0:0:
211,96,765471,1,8,0:0:0:0:
211,96,765554,1,8,0:0:0:0:
211,96,765638,1,8,0:0:0:0:
211,96,765721,1,8,0:0:0:0:
211,96,765804,1,4,0:0:0:0:
214,101,765970,1,0,0:0:0:0:
211,110,766053,1,0,0:0:0:0:
214,101,766136,1,8,0:0:0:0:
214,101,766302,1,0,0:0:0:0:
216,100,766635,1,0,0:0:0:0:
216,100,766801,1,8,0:0:0:0:
216,100,766967,1,0,0:0:0:0:
216,100,767050,1,8,0:0:0:0:
216,100,767133,1,0,0:0:0:0:
216,100,767300,1,8,0:0:0:0:
216,100,767383,1,0,0:0:0:0:
216,100,767466,1,0,0:0:0:0:
216,100,767632,1,8,0:0:0:0:
155,101,767715,1,0,0:0:0:0:
216,100,767798,1,8,0:0:0:0:
216,100,767964,1,0,0:0:0:0:
216,100,768048,1,0,0:0:0:0:
216,100,768131,1,8,0:0:0:0:
216,100,768214,1,8,0:0:0:0:
216,100,768297,1,8,0:0:0:0:
221,100,768380,1,8,0:0:0:0:
222,103,768463,1,4,0:0:0:0:
222,103,768628,1,0,0:0:0:0:
222,103,768794,1,8,0:0:0:0:
222,103,768960,1,0,0:0:0:0:
222,103,769126,1,0,0:0:0:0:
222,103,769292,1,8,0:0:0:0:
222,103,769375,1,0,0:0:0:0:
222,103,769457,1,0,0:0:0:0:
222,103,769623,1,8,0:0:0:0:
236,97,769706,1,8,0:0:0:0:
233,96,769789,1,0,0:0:0:0:
211,88,769955,1,0,0:0:0:0:
224,117,770121,1,8,0:0:0:0:
224,117,770287,1,0,0:0:0:0:
224,117,770452,1,8,0:0:0:0:
224,117,770535,1,0,0:0:0:0:
224,117,770618,1,8,0:0:0:0:
224,117,770701,1,8,0:0:0:0:
224,117,770784,1,0,0:0:0:0:
224,117,770950,1,0,0:0:0:0:
224,117,771116,5,12,0:0:0:0:
224,117,771281,1,0,0:0:0:0:
245,128,771447,1,8,0:0:0:0:
224,113,771613,1,8,0:0:0:0:
224,113,771696,1,8,0:0:0:0:
224,113,771779,1,0,0:0:0:0:
224,113,771945,1,8,0:0:0:0:
224,113,772111,1,0,0:0:0:0:
224,113,772276,1,0,0:0:0:0:
224,113,772359,1,0,0:0:0:0:
224,113,772442,1,0,0:0:0:0:
224,113,772608,1,0,0:0:0:0:
224,113,772774,1,8,0:0:0:0:
224,113,772940,1,0,0:0:0:0:
224,113,773105,1,8,0:0:0:0:
227,106,773188,1,8,0:0:0:0:
228,118,773271,1,0,0:0:0:0:
228,118,773354,1,0,0:0:0:0:
228,118,773437,1,8,0:0:0:0:
228,118,773603,1,8,0:0:0:0:
228,118,773769,1,4,0:0:0:0:
228,118,773935,1,0,0:0:0:0:
249,169,774100,1,8,0:0:0:0:
249,169,774266,1,0,0:0:0:0:
249,169,774349,1,0,0:0:0:0:
249,159,774432,1,0,0:0:0:0:
248,159,774598,1,8,0:0:0:0:
231,105,774681,1,0,0:0:0:0:
248,159,774764,1,0,0:0:0:0:
256,129,774929,1,0,0:0:0:0:
256,129,775095,1,8,0:0:0:0:
256,129,775261,1,0,0:0:0:0:
208,99,775344,1,8,0:0:0:0:
258,123,775427,1,0,0:0:0:0:
258,123,775593,1,0,0:0:0:0:
258,123,775676,1,0,0:0:0:0:
258,123,775759,1,8,0:0:0:0:
258,123,775841,1,0,0:0:0:0:
258,123,775924,1,8,0:0:0:0:
258,123,776007,1,8,0:0:0:0:
258,123,776090,1,0,0:0:0:0:
258,123,776256,1,0,0:0:0:0:
258,123,776422,1,12,0:0:0:0:
225,142,776753,1,0,0:0:0:0:
225,142,776919,1,8,0:0:0:0:
225,142,777002,1,8,0:0:0:0:
225,142,777085,1,0,0:0:0:0:
235,106,777251,1,8,0:0:0:0:
246,134,777417,1,0,0:0:0:0:
246,134,777500,1,0,0:0:0:0:
246,134,777583,1,8,0:0:0:0:
220,118,777665,1,8,0:0:0:0:
224,122,777748,1,0,0:0:0:0:
224,122,777914,1,0,0:0:0:0:
224,122,778080,1,8,0:0:0:0:
224,122,778246,1,0,0:0:0:0:
224,122,778329,1,0,0:0:0:0:
225,110,778412,1,8,0:0:0:0:
225,110,778577,1,0,0:0:0:0:
225,110,778743,1,8,0:0:0:0:
225,110,778826,1,8,0:0:0:0:
225,110,778909,1,8,0:0:0:0:
225,110,778992,1,8,0:0:0:0:
225,110,779075,1,4,0:0:0:0:
247,127,779241,1,0,0:0:0:0:
247,127,779407,1,8,0:0:0:0:
247,127,779572,1,0,0:0:0:0:
247,127,779655,1,0,0:0:0:0:
247,127,779738,1,0,0:0:0:0:
240,103,779904,1,8,0:0:0:0:
240,103,779987,1,8,0:0:0:0:
240,103,780070,1,0,0:0:0:0:
240,103,780153,1,8,0:0:0:0:
240,103,780236,1,0,0:0:0:0:
233,97,780319,1,0,0:0:0:0:
240,103,780401,1,8,0:0:0:0:
198,91,780567,1,8,0:0:0:0:
198,91,780650,1,8,0:0:0:0:
198,91,780733,1,0,0:0:0:0:
190,85,780899,1,0,0:0:0:0:
184,93,781065,1,8,0:0:0:0:
184,93,781148,1,0,0:0:0:0:
184,93,781231,1,8,0:0:0:0:
198,114,781396,1,0,0:0:0:0:
208,154,781479,1,0,0:0:0:0:
208,154,781562,1,0,0:0:0:0:
208,154,781645,1,0,0:0:0:0:
208,154,781728,1,12,0:0:0:0:
251,183,782060,1,0,0:0:0:0:
251,183,782225,1,8,0:0:0:0:
251,183,782308,1,0,0:0:0:0:
251,183,782391,1,0,0:0:0:0:
251,183,782557,1,8,0:0:0:0:
251,183,782640,1,0,0:0:0:0:
251,183,782723,1,8,0:0:0:0:
251,183,782806,1,8,0:0:0:0:
251,183,782889,1,0,0:0:0:0:
251,183,782972,1,0,0:0:0:0:
251,183,783055,1,8,0:0:0:0:
251,183,783220,1,0,0:0:0:0:
251,183,783386,1,0,0:0:0:0:
251,183,783552,1,8,0:0:0:0:
251,183,783635,1,0,0:0:0:0:
251,183,783718,1,8,0:0:0:0:
251,183,783801,1,0,0:0:0:0:
251,183,783884,1,0,0:0:0:0:
251,183,783967,1,0,0:0:0:0:
246,174,784049,1,8,0:0:0:0:
246,174,784132,1,8,0:0:0:0:
246,160,784215,1,8,0:0:0:0:
246,160,784298,1,8,0:0:0:0:
246,160,784381,1,4,0:0:0:0:
226,161,784713,1,8,0:0:0:0:
228,177,784879,1,0,0:0:0:0:
228,177,784962,1,0,0:0:0:0:
228,177,785044,1,0,0:0:0:0:
228,177,785210,1,8,0:0:0:0:
230,182,785293,1,0,0:0:0:0:
230,182,785376,1,0,0:0:0:0:
230,182,785542,1,8,0:0:0:0:
230,186,785625,1,0,0:0:0:0:
246,159,785708,1,8,0:0:0:0:
192,208,785874,1,8,0:0:0:0:
211,228,786039,1,0,0:0:0:0:
211,228,786205,1,0,0:0:0:0:
258,127,786371,1,8,0:0:0:0:
258,127,786454,1,0,0:0:0:0:
257,120,786537,1,8,0:0:0:0:
259,118,786620,1,8,0:0:0:0:
258,132,786703,1,0,0:0:0:0:
258,132,786786,1,0,0:0:0:0:
258,132,786868,1,0,0:0:0:0:
258,132,786951,1,0,0:0:0:0:
258,132,787034,1,12,0:0:0:0:
258,132,787200,1,0,0:0:0:0:
242,168,787532,1,0,0:0:0:0:
240,161,787615,1,0,0:0:0:0:
242,159,787698,1,8,0:0:0:0:
242,159,787863,1,8,0:0:0:0:
193,110,787946,1,8,0:0:0:0:
242,159,788029,1,0,0:0:0:0:
193,110,788112,1,8,0:0:0:0:
242,159,788195,1,0,0:0:0:0:
217,113,788278,1,0,0:0:0:0:
278,145,788361,1,12,0:0:0:0:
242,195,788692,1,0,0:0:0:0:
242,195,788775,1,0,0:0:0:0:
242,195,788858,1,0,0:0:0:0:
242,195,788941,1,0,0:0:0:0:
242,195,789024,1,8,0:0:0:0:
242,195,789107,1,0,0:0:0:0:
242,195,789190,1,8,0:0:0:0:
242,195,789273,1,8,0:0:0:0:
242,195,789356,1,0,0:0:0:0:
242,195,789439,1,8,0:0:0:0:
242,195,789522,1,8,0:0:0:0:
242,195,789604,1,8,0:0:0:0:
242,195,789687,1,4,0:0:0:0:
242,195,789853,1,0,0:0:0:0:
244,141,790019,1,8,0:0:0:0:
251,147,790185,1,0,0:0:0:0:
251,147,790268,1,0,0:0:0:0:
251,147,790351,1,0,0:0:0:0:
242,112,790516,1,8,0:0:0:0:
242,112,790682,1,0,0:0:0:0:
242,112,790765,1,0,0:0:0:0:
242,112,790848,1,8,0:0:0:0:
242,112,790931,1,8,0:0:0:0:
243,88,791014,1,0,0:0:0:0:
240,107,791180,1,8,0:0:0:0:
209,142,791263,1,8,0:0:0:0:
209,142,791346,1,0,0:0:0:0:
184,89,791511,1,0,0:0:0:0:
187,110,791677,1,8,0:0:0:0:
187,110,791760,1,0,0:0:0:0:
187,110,791843,1,8,0:0:0:0:
187,110,791926,1,8,0:0:0:0:
187,110,792009,1,0,0:0:0:0:
187,110,792175,1,8,0:0:0:0:
187,110,792340,1,4,0:0:0:0:
187,110,792672,1,8,0:0:0:0:
220,160,792838,1,0,0:0:0:0:
220,160,792921,1,8,0:0:0:0:
220,160,793004,1,0,0:0:0:0:
220,160,793170,1,8,0:0:0:0:
220,160,793252,1,8,0:0:0:0:
220,160,793335,1,0,0:0:0:0:
220,160,793418,1,8,0:0:0:0:
220,160,793501,1,0,0:0:0:0:
220,160,793584,1,0,0:0:0:0:
216,155,793667,1,8,0:0:0:0:
216,155,793833,1,8,0:0:0:0:
210,153,793999,1,0,0:0:0:0:
210,153,794164,1,0,0:0:0:0:
207,157,794330,1,8,0:0:0:0:
207,157,794413,1,8,0:0:0:0:
207,157,794496,1,0,0:0:0:0:
207,157,794579,1,0,0:0:0:0:
207,157,794662,1,8,0:0:0:0:
207,157,794745,1,8,0:0:0:0:
207,157,794828,1,8,0:0:0:0:
207,157,794911,1,8,0:0:0:0:
207,157,794994,1,4,0:0:0:0:
207,157,795325,1,8,0:0:0:0:
242,179,795491,1,0,0:0:0:0:
219,143,795574,1,0,0:0:0:0:
219,143,795657,1,0,0:0:0:0:
219,143,795823,1,8,0:0:0:0:
219,143,795906,1,0,0:0:0:0:
219,143,795988,1,8,0:0:0:0:
219,143,796071,1,8,0:0:0:0:
219,143,796154,1,0,0:0:0:0:
219,143,796237,1,0,0:0:0:0:
219,143,796320,1,8,0:0:0:0:
219,143,796486,1,8,0:0:0:0:
219,143,796652,1,0,0:0:0:0:
226,128,796735,1,8,0:0:0:0:
226,128,796818,1,0,0:0:0:0:
226,128,796900,1,0,0:0:0:0:
226,128,796983,1,8,0:0:0:0:
226,128,797066,1,0,0:0:0:0:
226,128,797149,1,8,0:0:0:0:
226,128,797232,1,8,0:0:0:0:
226,128,797315,1,0,0:0:0:0:
216,168,797481,1,0,0:0:0:0:
210,180,797647,1,12,0:0:0:0:
211,188,797978,1,0,0:0:0:0:
239,121,798144,1,8,0:0:0:0:
239,121,798227,1,0,0:0:0:0:
239,121,798310,1,0,0:0:0:0:
239,121,798476,1,8,0:0:0:0:
239,121,798559,1,8,0:0:0:0:
239,121,798642,1,0,0:0:0:0:
234,118,798724,1,0,0:0:0:0:
234,118,798807,1,8,0:0:0:0:
221,102,798890,1,0,0:0:0:0:
214,81,798973,1,8,0:0:0:0:
214,81,799056,1,8,0:0:0:0:
206,70,799139,1,0,0:0:0:0:
206,70,799305,1,8,0:0:0:0:
203,93,799471,1,0,0:0:0:0:
203,93,799554,1,0,0:0:0:0:
203,93,799636,1,8,0:0:0:0:
203,93,799719,1,0,0:0:0:0:
203,93,799802,1,8,0:0:0:0:
203,93,799885,1,0,0:0:0:0:
203,93,799968,1,8,0:0:0:0:
220,81,800051,1,8,0:0:0:0:
225,113,800134,1,8,0:0:0:0:
225,100,800217,1,8,0:0:0:0:
225,99,800300,1,4,0:0:0:0:
225,99,800466,1,0,0:0:0:0:
219,216,800631,1,8,0:0:0:0:
207,220,800797,1,0,0:0:0:0:
207,220,800880,1,0,0:0:0:0:
200,226,800963,1,0,0:0:0:0:
216,147,801129,1,8,0:0:0:0:
216,147,801212,1,8,0:0:0:0:
216,147,801295,1,0,0:0:0:0:
227,159,801378,1,0,0:0:0:0:
225,166,801461,1,8,0:0:0:0:
233,144,801626,1,0,0:0:0:0:
233,144,801709,1,8,0:0:0:0:
233,144,801792,1,0,0:0:0:0:
222,127,801875,1,0,0:0:0:0:
222,128,801958,1,8,0:0:0:0:
222,128,802124,1,0,0:0:0:0:
222,122,802290,1,8,0:0:0:0:
222,122,802373,1,0,0:0:0:0:
222,122,802455,1,8,0:0:0:0:
222,122,802538,1,8,0:0:0:0:
222,122,802621,1,0,0:0:0:0:
222,122,802704,1,8,0:0:0:0:
222,122,802787,1,8,0:0:0:0:
222,122,802870,1,8,0:0:0:0:
222,122,802953,1,4,0:0:0:0:
226,165,803285,1,8,0:0:0:0:
226,165,803450,1,0,0:0:0:0:
226,165,803533,1,0,0:0:0:0:
226,165,803616,1,0,0:0:0:0:
226,165,803782,1,8,0:0:0:0:
226,165,803865,1,0,0:0:0:0:
226,165,803948,1,8,0:0:0:0:
226,165,804031,1,8,0:0:0:0:
226,165,804114,1,0,0:0:0:0:
226,165,804197,1,0,0:0:0:0:
226,165,804279,1,8,0:0:0:0:
226,165,804445,1,0,0:0:0:0:
226,165,804611,1,8,0:0:0:0:
229,161,804694,1,8,0:0:0:0:
229,161,804777,1,0,0:0:0:0:
229,161,804860,1,0,0:0:0:0:
244,153,804943,1,8,0:0:0:0:
227,167,805026,1,0,0:0:0:0:
227,164,805109,1,8,0:0:0:0:
227,167,805191,1,8,0:0:0:0:
227,158,805274,1,0,0:0:0:0:
227,155,805357,1,0,0:0:0:0:
227,158,805440,1,0,0:0:0:0:
227,155,805523,1,0,0:0:0:0:
273,150,805606,1,12,0:0:0:0:
222,176,805772,1,0,0:0:0:0:
194,158,805938,1,8,0:0:0:0:
194,158,806103,1,0,0:0:0:0:
194,158,806186,1,0,0:0:0:0:
194,158,806269,1,0,0:0:0:0:
199,121,806435,1,8,0:0:0:0:
199,121,806518,1,8,0:0:0:0:
199,121,806601,1,0,0:0:0:0:
199,121,806684,1,0,0:0:0:0:
199,121,806767,1,8,0:0:0:0:
199,121,806850,1,0,0:0:0:0:
199,121,806933,1,8,0:0:0:0:
205,110,807098,1,8,0:0:0:0:
205,110,807181,1,8,0:0:0:0:
205,110,807264,1,0,0:0:0:0:
205,110,807430,1,0,0:0:0:0:
205,110,807596,1,8,0:0:0:0:
205,110,807679,1,0,0:0:0:0:
205,110,807762,1,8,0:0:0:0:
205,110,807845,1,8,0:0:0:0:
205,110,807927,1,0,0:0:0:0:
205,110,808093,1,8,0:0:0:0:
205,110,808259,1,4,0:0:0:0:
205,110,808425,1,0,0:0:0:0:
205,110,808508,1,0,0:0:0:0:
205,110,808591,1,8,0:0:0:0:
205,110,808757,1,0,0:0:0:0:
205,110,808922,1,8,0:0:0:0:
205,110,809088,1,8,0:0:0:0:
205,110,809171,1,8,0:0:0:0:
205,110,809254,1,0,0:0:0:0:
205,110,809420,1,0,0:0:0:0:
205,110,809586,1,12,0:0:0:0:
203,109,809917,1,0,0:0:0:0:
203,109,810083,1,0,0:0:0:0:
203,109,810166,1,0,0:0:0:0:
203,109,810249,1,8,0:0:0:0:
203,109,810332,1,0,0:0:0:0:
203,109,810415,1,8,0:0:0:0:
203,109,810498,1,8,0:0:0:0:
203,109,810581,1,0,0:0:0:0:
203,109,810663,1,0,0:0:0:0:
203,109,810746,1,0,0:0:0:0:
203,109,810829,1,0,0:0:0:0:
203,109,810912,1,12,0:0:0:0:
262,124,811239,1,0,0:0:0:0:
256,120,811403,1,8,0:0:0:0:
259,98,811485,1,8,0:0:0:0:
256,120,811567,1,0,0:0:0:0:
259,100,811731,1,0,0:0:0:0:
312,245,811895,1,4,0:0:0:0:
314,246,812223,1,4,0:0:0:0:
316,250,812551,1,4,0:0:0:0:
254,198,812714,1,0,0:0:0:0:
249,200,812796,1,0,0:0:0:0:
233,169,812878,1,8,0:0:0:0:
233,169,812960,1,0,0:0:0:0:
233,169,813041,1,8,0:0:0:0:
233,169,813123,1,8,0:0:0:0:
233,169,813205,1,0,0:0:0:0:
233,161,813369,1,4,0:0:0:0:
203,104,813697,1,0,0:0:0:0:
203,104,813861,1,8,0:0:0:0:
203,104,813943,1,8,0:0:0:0:
203,104,814025,1,0,0:0:0:0:
203,104,814106,1,8,0:0:0:0:
214,101,814188,1,0,0:0:0:0:
214,101,814352,1,0,0:0:0:0:
210,86,814434,1,8,0:0:0:0:
210,86,814516,1,0,0:0:0:0:
210,86,814680,1,0,0:0:0:0:
203,79,814844,1,12,0:0:0:0:
203,79,815008,1,0,0:0:0:0:
204,89,815171,1,0,0:0:0:0:
203,80,815335,1,8,0:0:0:0:
203,80,815499,1,0,0:0:0:0:
203,80,815663,1,0,0:0:0:0:
203,80,815745,1,8,0:0:0:0:
203,80,815827,1,8,0:0:0:0:
200,73,815909,1,0,0:0:0:0:
200,73,815991,1,8,0:0:0:0:
200,73,816073,1,8,0:0:0:0:
200,73,816155,1,0,0:0:0:0:
200,73,816236,1,0,0:0:0:0:
200,73,816318,1,8,0:0:0:0:
200,73,816482,1,0,0:0:0:0:
200,73,816646,1,0,0:0:0:0:
200,73,816728,1,8,0:0:0:0:
200,73,816810,1,0,0:0:0:0:
200,73,816974,1,0,0:0:0:0:
200,70,817056,1,0,0:0:0:0:
200,73,817138,1,0,0:0:0:0:
200,73,817301,1,8,0:0:0:0:
200,73,817465,1,0,0:0:0:0:
200,73,817547,1,0,0:0:0:0:
200,62,817629,1,8,0:0:0:0:
200,73,817711,1,8,0:0:0:0:
200,62,817793,1,0,0:0:0:0:
200,62,817957,1,8,0:0:0:0:
200,62,818121,1,0,0:0:0:0:
200,62,818203,1,0,0:0:0:0:
200,62,818285,1,8,0:0:0:0:
200,62,818366,1,0,0:0:0:0:
198,66,818448,1,8,0:0:0:0:
198,66,818530,1,8,0:0:0:0:
198,66,818612,1,8,0:0:0:0:
198,66,818694,1,8,0:0:0:0:
198,66,818776,1,4,0:0:0:0:
229,111,818940,1,0,0:0:0:0:
229,111,819268,1,0,0:0:0:0:
229,111,819350,1,0,0:0:0:0:
229,111,819431,1,8,0:0:0:0:
229,111,819595,1,0,0:0:0:0:
229,111,819759,1,8,0:0:0:0:
229,111,819923,1,0,0:0:0:0:
229,111,820005,1,0,0:0:0:0:
229,111,820087,1,8,0:0:0:0:
203,65,820169,1,8,0:0:0:0:
229,111,820251,1,0,0:0:0:0:
203,82,820415,1,8,0:0:0:0:
203,82,820578,1,0,0:0:0:0:
203,82,820660,1,0,0:0:0:0:
203,82,820742,1,8,0:0:0:0:
203,105,820906,1,0,0:0:0:0:
203,105,821070,1,8,0:0:0:0:
203,105,821152,1,8,0:0:0:0:
203,105,821234,1,0,0:0:0:0:
203,105,821316,1,0,0:0:0:0:
203,105,821398,1,8,0:0:0:0:
208,128,821561,1,0,0:0:0:0:
205,136,821725,1,8,0:0:0:0:
194,123,821889,1,0,0:0:0:0:
194,123,821971,1,8,0:0:0:0:
194,123,822053,1,0,0:0:0:0:
194,123,822217,1,8,0:0:0:0:
194,123,822299,1,0,0:0:0:0:
194,123,822381,1,8,0:0:0:0:
194,123,822463,1,8,0:0:0:0:
194,123,822544,1,0,0:0:0:0:
194,123,822626,1,0,0:0:0:0:
194,123,822708,1,12,0:0:0:0:
194,123,822872,1,0,0:0:0:0:
194,122,823036,1,0,0:0:0:0:
194,122,823200,1,8,0:0:0:0:
189,115,823528,1,0,0:0:0:0:
189,115,823691,1,8,0:0:0:0:
189,115,823773,1,8,0:0:0:0:
189,115,823855,1,0,0:0:0:0:
189,115,824019,1,8,0:0:0:0:
189,115,824101,1,0,0:0:0:0:
189,115,824183,1,8,0:0:0:0:
189,115,824347,1,0,0:0:0:0:
188,106,824511,1,0,0:0:0:0:
188,106,824593,1,0,0:0:0:0:
188,106,824674,1,8,0:0:0:0:
188,106,824756,1,0,0:0:0:0:
188,106,824838,1,8,0:0:0:0:
188,106,824920,1,8,0:0:0:0:
188,106,825002,1,0,0:0:0:0:
188,106,825166,1,0,0:0:0:0:
188,106,825330,1,8,0:0:0:0:
188,106,825412,1,8,0:0:0:0:
188,106,825494,1,8,0:0:0:0:
188,106,825576,1,8,0:0:0:0:
188,106,825658,1,0,0:0:0:0:
188,106,825740,1,0,0:0:0:0:
188,106,825822,1,0,0:0:0:0:
188,106,825904,1,0,0:0:0:0:
195,85,825985,1,8,0:0:0:0:
195,85,826067,1,0,0:0:0:0:
195,85,826149,1,0,0:0:0:0:
195,85,826231,1,0,0:0:0:0:
195,85,826313,1,8,0:0:0:0:
195,85,826395,1,0,0:0:0:0:
195,85,826477,1,8,0:0:0:0:
189,96,826641,1,4,0:0:0:0:
