osu file format v14

[General]
AudioFilename: audio.mp3
AudioLeadIn: 0
PreviewTime: 72575
Countdown: 0
SampleSet: Soft
StackLeniency: 0.7
Mode: 0
LetterboxInBreaks: 0
WidescreenStoryboard: 0

[Editor]
DistanceSpacing: 1
BeatDivisor: 4
GridSize: 4
TimelineZoom: 1

[Metadata]
Title:First Love Syndrome
TitleUnicode:First Love Syndrome
Artist:Ceui
ArtistUnicode:Ceui
Creator:Little
Version:Easy
Source:初恋*シンドローム
Tags:Hatsukoi Syndrome 恋シロ KoiShiro Short Version Campus eroge japanese video game opening op CloudSplash16
BeatmapID:1891222
BeatmapSetID:906237

[Difficulty]
HPDrainRate:2
CircleSize:3
OverallDifficulty:3
ApproachRate:3
SliderMultiplier:1
SliderTickRate:1

[Events]
//Background and Video events
0,0,"h0.jpg",0,0
Video,4,"hatsukoi_op.avi"
//Break Periods
//Storyboard Layer 0 (Background)
//Storyboard Layer 1 (Fail)
//Storyboard Layer 2 (Pass)
//Storyboard Layer 3 (Foreground)
//Storyboard Sound Samples

[TimingPoints]
61,685.714285714286,4,2,2,60,1,0
2803,-66.6666666666667,4,2,2,60,0,0
13775,342.857142857143,4,2,1,65,1,0
23375,-100,4,2,1,70,0,0
24060,-100,4,2,1,75,0,0
24746,-100,4,2,1,70,0,0
34346,-100,4,2,3,60,0,0
35717,-125,4,2,2,55,0,0
56289,-125,4,2,1,70,0,0
57660,-100,4,2,1,70,0,0
60403,-100,4,2,1,65,0,0
63146,-100,4,2,1,70,0,0
65717,-100,4,2,1,65,0,0
67260,-100,4,2,1,70,0,0
72746,-100,4,2,1,75,0,0
74117,-100,4,2,1,80,0,1
93317,-100,4,2,1,70,0,1
94689,-100,4,2,1,75,0,1
96060,-100,4,2,1,80,0,1
105660,-100,4,2,3,65,0,0
109603,-100,4,2,3,60,0,0

[Colours]
Combo1 : 208,255,255
Combo2 : 206,255,206
Combo3 : 255,255,210
Combo4 : 252,203,210

[HitObjects]
396,40,2803,5,2,0:0:0:0:
108,124,4175,1,2,0:0:0:0:
400,188,5546,5,2,0:0:0:0:
112,272,6918,1,2,0:0:0:0:
238,194,7603,1,0,0:0:0:0:
108,124,8289,5,2,0:0:0:0:
304,352,9661,1,2,0:0:0:0:
402,68,11032,6,0,P|287:156|144:128,1,300.000011444092,2|2,0:0|0:0,0:0:0:0:
144,128,13775,6,0,P|207:201|196:297,1,200,4|8,0:0|0:0,0:0:0:0:
112,352,14803,1,2,0:0:0:0:
20,316,15146,2,0,P|6:267|0:218,1,100,2|2,0:0|0:0,0:0:0:0:
84,168,15832,2,0,P|97:119|104:70,1,100,8|2,0:0|0:0,0:0:0:0:
200,44,16517,6,0,B|248:56|284:96|284:96|328:64|376:60,1,200,2|8,0:0|0:0,0:0:0:0:
456,120,17546,1,2,0:0:0:0:
451,220,17889,2,0,P|371:274|275:253,1,200,2|8,0:0|0:0,0:0:0:0:
196,196,18917,1,2,0:0:0:0:
104,232,19260,6,0,P|73:299|88:371,2,150,4|6|8,0:0|0:0|0:0,0:0:0:0:
196,196,20632,2,0,L|208:96,1,100,2|8,0:0|0:0,0:0:0:0:
308,84,21317,2,0,L|295:183,1,100,8|2,0:0|0:0,0:0:0:0:
356,264,22003,6,0,B|408:288|464:272|464:272|456:320|414:342,1,200,4|4,0:0|0:3,0:0:0:0:
316,356,23032,1,4,0:3:0:0:
224,320,23375,2,0,P|210:271|204:222,1,100,4|4,0:3|0:3,0:0:0:0:
295,183,24060,2,0,P|308:134|314:85,1,100,4|4,0:3|0:3,0:0:0:0:
232,28,24746,6,0,P|165:60|93:47,1,150,12|12,0:0|0:0,0:0:0:0:
78,194,25775,2,0,P|151:193|211:237,2,150,12|12|12,0:0|0:0|0:0,0:0:0:0:
8,264,27146,1,8,0:0:0:0:
56,352,27489,6,0,P|127:371|195:344,2,150,12|12|12,0:0|0:0|0:0,0:0:0:0:
8,264,28860,1,8,0:0:0:0:
78,194,29203,2,0,P|90:145|77:97,1,100,2|2,0:0|0:0,0:0:0:0:
8,28,29889,1,8,0:0:0:0:
8,28,30232,6,0,P|97:63|184:22,1,200,4|8,0:0|0:3,0:0:0:0:
284,36,31260,1,12,0:0:0:0:
284,36,31603,2,0,P|264:134|249:232,1,200,4|8,0:0|0:3,0:0:0:0:
328,296,32632,1,12,0:0:0:0:
424,272,32975,6,0,P|449:202|427:132,2,150,4|12|8,0:0|0:0|0:0,0:0:0:0:
328,296,34346,2,0,B|232:260|232:332|132:296,1,200,4|2,0:0|0:0,0:0:0:0:
133,296,35717,6,0,L|113:137,1,160,2|0,0:0|0:0,0:0:0:0:
236,104,37089,2,0,L|256:263,1,160,2|0,0:0|0:0,0:0:0:0:
368,324,38460,6,0,P|446:328|506:279,1,160,2|0,0:0|0:0,0:0:0:0:
491,150,39832,2,0,P|420:116|345:139,1,160,2|0,0:0|0:0,0:0:0:0:
252,228,41203,6,0,B|196:248|196:248|96:232,1,160,2|0,0:0|0:0,0:0:0:0:
64,108,42575,2,0,B|120:88|120:88|220:104,1,160,2|0,0:0|0:0,0:0:0:0:
344,124,43946,6,0,B|392:112|427:42|427:42|423:120|459:155,1,240,2|0,0:0|0:0,0:0:0:0:
445,254,45317,2,0,P|367:264|305:216,1,160,2|2,0:0|0:3,0:0:0:0:
180,188,46689,6,0,P|100:197|21:211,1,160,4|0,0:0|0:0,0:0:0:0:
60,332,48060,2,0,P|139:322|218:308,1,160,2|0,0:0|0:0,0:0:0:0:
306,217,49432,6,0,B|325:139|325:139|294:65,1,160,2|0,0:0|0:0,0:0:0:0:
168,36,50803,2,0,B|148:113|148:113|179:187,1,160,2|0,0:0|0:0,0:0:0:0:
306,217,52175,6,0,B|370:224|412:174|412:174|448:192,1,160,2|0,0:0|0:0,0:0:0:0:
436,320,53546,2,0,B|371:312|329:362|329:362|293:344,1,160,2|0,0:0|0:0,0:0:0:0:
181,286,54917,5,2,0:0:0:0:
364,208,55603,1,0,0:0:0:0:
204,88,56289,1,4,0:3:0:0:
181,286,56975,1,8,0:0:0:0:
364,208,57660,6,0,P|298:175|225:188,1,150,4|4,0:0|0:0,0:0:0:0:
278,329,58689,2,0,B|337:346|337:346|473:320,1,200,4|2,0:0|0:0,0:0:0:0:
512,228,59717,2,0,P|504:178|492:130,1,100,8|2,0:0|0:0,0:0:0:0:
404,84,60403,6,0,B|356:96|320:136|320:136|276:104|228:100,1,200,4|8,0:0|0:0,0:0:0:0:
136,140,61432,1,0,0:0:0:0:
216,200,61775,2,0,P|227:248|235:297,1,100,2|2,0:0|0:0,0:0:0:0:
144,338,62460,2,0,P|132:289|124:240,1,100,8|2,0:0|0:0,0:0:0:0:
136,139,63146,6,0,P|198:101|269:115,1,150,4|4,0:0|0:0,0:0:0:0:
420,128,64175,2,0,B|450:111|470:77|470:77|454:204,1,200,4|2,0:0|0:0,0:0:0:0:
440,304,65203,1,8,0:0:0:0:
292,336,65717,6,0,P|217:327|143:314,1,150,6|8,0:0|0:0,0:0:0:0:
126,216,66575,2,0,P|175:208|223:196,1,100,2|8,0:0|0:0,0:0:0:0:
312,148,67260,2,0,P|321:98|327:49,1,100,2|8,0:0|0:0,0:0:0:0:
427,45,67946,2,0,P|439:92|449:141,1,100,2|8,0:0|0:0,0:0:0:0:
456,244,68632,6,0,P|376:298|282:276,1,200,4|8,0:0|0:0,0:0:0:0:
224,195,69660,1,2,0:0:0:0:
312,148,70003,2,0,P|321:98|327:49,1,100,2|2,0:0|0:0,0:0:0:0:
228,32,70689,2,0,P|180:48|130:44,1,100,8|8,0:0|0:0,0:0:0:0:
32,24,71375,1,4,0:0:0:0:
32,24,72746,5,4,0:0:0:0:
124,200,73432,1,4,0:0:0:0:
124,200,74117,6,0,P|219:219|300:165,1,200,4|2,0:0|0:0,0:0:0:0:
376,100,75146,1,8,0:0:0:0:
468,140,75489,2,0,B|504:188|488:248|488:248|444:244|404:265,1,200,2|0,0:0|0:0,0:0:0:0:
316,312,76517,1,8,0:0:0:0:
227,358,76860,6,0,L|127:345,1,100,2|8,0:0|0:0,0:0:0:0:
92,252,77546,2,0,L|191:239,1,100,2|8,0:0|0:0,0:0:0:0:
280,192,78232,2,0,P|303:148|302:98,1,100,2|8,0:0|0:0,0:0:0:0:
229,31,78917,2,0,P|205:74|206:124,1,100,0|8,0:0|0:0,0:0:0:0:
280,192,79603,6,0,P|280:288|200:341,1,200,2|2,0:0|0:0,0:0:0:0:
104,312,80632,1,8,0:0:0:0:
80,216,80975,2,0,P|85:166|96:117,1,100,2|8,0:0|0:0,0:0:0:0:
188,76,81660,2,0,P|236:86|286:92,1,100,0|8,0:0|0:0,0:0:0:0:
384,115,82346,6,0,P|438:66|511:68,2,150,2|0|8,0:0|0:0|0:0,0:0:0:0:
473,160,83717,2,0,P|507:249|455:330,1,200,2|0,0:0|0:0,0:0:0:0:
360,364,84746,1,8,0:0:0:0:
264,336,85089,6,0,B|205:319|205:319|69:345,1,200,4|0,0:0|0:0,0:0:0:0:
0,272,86117,1,8,0:0:0:0:
72,204,86460,2,0,P|121:200|168:216,1,100,4|2,0:0|0:0,0:0:0:0:
268,204,87146,2,0,P|295:162|304:113,1,100,0|8,0:0|0:0,0:0:0:0:
404,96,87832,6,0,L|428:294,1,200,4|2,0:0|0:0,0:0:0:0:
348,352,88860,1,8,0:0:0:0:
260,308,89203,2,0,B|164:272|164:344|64:308,1,200,2|2,0:0|0:0,0:0:0:0:
0,232,90232,1,8,0:0:0:0:
60,152,90575,6,0,P|132:136|199:167,2,150,4|6|8,0:0|0:0|0:0,0:0:0:0:
0,232,91946,2,0,P|5:282|16:331,1,100,2|8,0:0|0:0,0:0:0:0:
112,356,92632,2,0,P|160:345|210:340,1,100,8|2,0:0|0:0,0:0:0:0:
308,356,93317,6,0,P|389:305|392:209,1,200,4|4,0:0|0:3,0:0:0:0:
316,144,94346,1,4,0:3:0:0:
220,176,94689,2,0,L|120:163,1,100,4|4,0:3|0:3,0:0:0:0:
140,64,95375,2,0,L|239:76,1,100,4|4,0:3|0:3,0:0:0:0:
316,144,96060,6,0,B|411:116|411:116|461:126,1,150,12|12,0:0|0:0,0:0:0:0:
428,272,97089,2,0,B|332:299|332:299|282:289,2,150,12|12|12,0:0|0:0|0:0,0:0:0:0:
509,213,98460,1,8,0:0:0:0:
461,126,98803,6,0,B|411:116|411:116|316:144,2,150,12|12|12,0:0|0:0|0:0,0:0:0:0:
509,213,100175,1,8,0:0:0:0:
428,272,100517,2,0,P|378:275|331:259,1,100,2|2,0:0|0:0,0:0:0:0:
244,212,101203,1,8,0:0:0:0:
244,212,101546,6,0,P|153:177|66:220,1,200,4|8,0:0|0:3,0:0:0:0:
64,320,102575,1,12,0:0:0:0:
64,320,102917,2,0,B|160:356|160:284|260:320,1,200,4|8,0:0|0:3,0:0:0:0:
352,356,103946,1,12,0:0:0:0:
444,320,104289,6,0,P|474:253|458:181,2,150,4|12|8,0:0|0:0|0:0,0:0:0:0:
352,356,105660,1,4,0:0:0:0:
184,248,106346,1,2,0:0:0:0:
361,156,107032,1,4,0:0:0:0:
256,192,107203,12,4,109603,0:0:0:0:
