osu file format v14

[General]
AudioFilename: audio.mp3
AudioLeadIn: 0
PreviewTime: 143438
Countdown: 0
SampleSet: Soft
StackLeniency: 0.2
Mode: 0
LetterboxInBreaks: 0
WidescreenStoryboard: 0

[Editor]
Bookmarks: 2266,138724,245009,246209,246381
DistanceSpacing: 1.2
BeatDivisor: 4
GridSize: 4
TimelineZoom: 2.5

[Metadata]
Title:First Love Syndrome
TitleUnicode:First Love Syndrome
Artist:Ceui
ArtistUnicode:Ceui
Creator:Bellicose
Version:papple's Insane
Source:初恋*シンドローム
Tags:Hatsukoi Syndrome 恋シロ KoiShiro Full Version Campus visual novel eroge japanese video game opening op jpop misure papple104 pappl_e_104 koiyuki minakami yuki mtbbsben
BeatmapID:2386416
BeatmapSetID:1119845

[Difficulty]
HPDrainRate:5.2
CircleSize:4.2
OverallDifficulty:7.7
ApproachRate:8.6
SliderMultiplier:2
SliderTickRate:1

[Events]
//Background and Video events
0,0,"bg3.jpg",0,0
//Break Periods
2,190358,199752
//Storyboard Layer 0 (Background)
//Storyboard Layer 1 (Fail)
//Storyboard Layer 2 (Pass)
//Storyboard Layer 3 (Foreground)
//Storyboard Layer 4 (Overlay)
//Storyboard Sound Samples

[TimingPoints]
2273,342.857142857143,4,2,1,50,1,0
2273,-166.666666666667,4,2,1,50,0,0
13244,-166.666666666667,4,2,1,65,0,0
18730,-125,4,2,1,65,0,0
23530,-125,4,2,1,70,0,0
29701,-125,4,2,1,65,0,0
33815,-125,4,2,1,60,0,0
34330,-166.666666666667,4,2,1,60,0,0
34501,-166.666666666667,4,2,1,50,0,0
35187,-166.666666666667,4,2,1,40,0,0
46158,-166.666666666667,4,2,1,50,0,0
55758,-166.666666666667,4,2,1,60,0,0
57130,-125,4,2,1,70,0,0
58158,-166.666666666667,4,2,1,70,0,0
58844,-166.666666666667,4,2,1,60,0,0
62615,-125,4,2,1,70,0,0
63644,-166.666666666667,4,2,1,70,0,0
64330,-166.666666666667,4,2,1,60,0,0
64673,-125,4,2,1,60,0,0
65187,-125,4,2,1,65,0,0
72215,-125,4,2,1,50,0,0
72901,-125,4,2,1,60,0,0
73587,-125,4,2,1,70,0,1
84558,-125,4,2,1,75,0,1
85415,-125,4,2,1,70,0,1
95530,-125,4,2,1,60,0,0
105130,-166.666666666667,4,2,1,60,0,0
106501,-166.666666666667,4,2,1,50,0,0
117473,-125,4,2,1,60,0,0
128444,-125,4,2,1,70,0,0
129473,-166.666666666667,4,2,1,70,0,0
130158,-166.666666666667,4,2,1,60,0,0
133930,-125,4,2,1,70,0,0
134958,-166.666666666667,4,2,1,70,0,0
135644,-166.666666666667,4,2,1,60,0,0
135987,-125,4,2,1,60,0,0
136501,-125,4,2,1,65,0,0
143530,-125,4,2,1,50,0,0
144215,-125,4,2,1,60,0,0
144901,-125,4,2,1,70,0,1
155873,-125,4,2,1,75,0,1
156730,-125,4,2,1,70,0,1
166844,-125,4,2,1,60,0,0
186730,-166.666666666667,4,2,1,60,0,0
187415,-125,4,2,1,60,0,0
190073,-125,4,2,1,5,0,0
190158,-125,4,2,1,50,0,0
201130,-166.666666666667,4,2,1,65,0,0
206615,-125,4,2,1,65,0,0
209358,-125,4,2,1,60,0,0
210044,-125,4,2,1,65,0,0
211415,-125,4,2,1,70,0,0
212101,-125,4,2,1,60,0,0
212273,-125,4,2,1,65,0,0
212615,-125,4,2,1,70,0,1
223073,-125,4,2,1,75,0,1
223930,-125,4,2,1,70,0,1
233358,-125,4,2,1,75,0,1
239530,-125,4,2,1,70,0,0
243644,-125,4,2,1,60,0,0
244158,-166.666666666667,4,2,1,60,0,0
244330,-166.666666666667,4,2,1,50,0,0
253244,-125,4,2,1,5,0,0

[Colours]
Combo1 : 191,226,139
Combo2 : 151,219,249
Combo3 : 250,200,255
Combo4 : 242,224,138

[HitObjects]
34,35,2272,5,2,0:0:0:0:
84,172,2615,1,0,0:0:0:0:
99,89,2786,1,2,0:0:0:0:
380,374,3644,6,0,L|358:255,1,119.999996337891,2|0,0:0|0:0,0:0:0:0:
346,173,4158,1,2,0:0:0:0:
21,310,5015,2,0,P|73:282|132:287,1,119.999996337891,2|0,0:0|0:0,0:0:0:0:
192,347,5530,2,0,L|377:313,1,179.999994506836,2|0,0:0|0:0,0:0:0:0:
428,157,6387,1,2,0:0:0:0:
297,241,6730,1,0,0:0:0:0:
346,173,7073,1,2,0:0:0:0:
300,102,7415,1,0,0:0:0:0:
369,314,7758,5,2,0:0:0:0:
170,177,8444,2,0,P|111:171|58:199,1,119.999996337891,2|0,0:0|0:0,0:0:0:0:
198,23,9130,1,2,0:0:0:0:
170,177,9473,1,0,0:0:0:0:
214,105,9815,1,2,0:0:0:0:
297,96,10158,1,0,0:0:0:0:
478,130,10501,2,0,B|487:201|432:252|363:247|363:247|325:244|280:228|195:241|146:290,1,419.999987182618,2|0,0:0|0:0,0:0:0:0:
110,367,11873,1,2,0:0:0:0:
8,161,12558,6,0,P|45:206|103:215,1,119.999996337891,2|2,0:0|0:0,0:0:0:0:
144,53,13244,6,0,P|191:19|249:25,1,119.999996337891,6|2,1:2|3:2,0:0:0:0:
297,96,13758,1,2,1:2:0:0:
374,62,13930,2,0,L|385:121,1,59.9999981689454,8|0,0:0|0:0,0:0:0:0:
448,219,14273,2,0,L|458:159,1,59.9999981689454,0|0,3:0|1:0,0:0:0:0:
389,278,14615,6,0,P|360:268|330:266,2,59.9999981689454,2|8|0,0:0|0:0|1:0,0:0:0:0:
435,348,15130,1,2,1:2:0:0:
266,321,15301,2,0,L|206:311,1,59.9999981689454,8|0,0:0|0:0,0:0:0:0:
131,238,15644,2,0,L|191:228,1,59.9999981689454,2|0,3:2|3:0,0:0:0:0:
306,110,15987,2,0,P|257:143|198:141,1,119.999996337891,2|0,1:2|3:0,0:0:0:0:
134,87,16501,1,0,1:0:0:0:
66,185,16673,1,8,0:0:0:0:
51,102,16844,1,0,3:0:0:0:
131,238,17015,2,0,L|121:298,1,59.9999981689454,0|0,3:0|1:0,0:0:0:0:
230,372,17358,6,0,P|201:363|171:363,1,59.9999981689454,2|8,3:2|0:0,0:0:0:0:
269,250,17701,1,2,1:2:0:0:
302,328,17873,2,0,L|362:338,1,59.9999981689454,2|8,1:2|0:0,0:0:0:0:
425,284,18215,1,8,0:0:0:0:
428,281,18387,2,0,P|437:252|437:222,1,59.9999981689454,2|0,1:2|3:0,0:0:0:0:
391,152,18730,6,0,L|385:112,2,40,6|8|0,1:2|0:0|1:0,0:0:0:0:
302,328,19244,2,0,P|276:255|201:241,1,160,0|0,1:0|1:0,0:0:0:0:
61,329,19758,2,0,L|139:315,1,80,12|0,0:1|3:0,0:0:0:0:
13,245,20101,5,0,1:0:0:0:
94,193,20273,2,0,L|172:207,1,80,0|0,1:0|0:0,0:0:0:0:
198,237,20530,1,8,0:0:0:0:
201,240,20615,1,0,1:0:0:0:
275,132,20787,2,0,L|269:92,2,40,8|0|0,0:3|3:0|1:0,0:0:0:0:
293,258,21130,1,0,1:0:0:0:
172,207,21301,1,8,0:3:0:0:
269,92,21473,6,0,P|345:70|422:87,1,160,6|0,1:2|1:0,0:0:0:0:
467,172,21987,2,0,L|481:250,1,80,2|0,1:2|1:0,0:0:0:0:
417,370,22330,1,0,1:0:0:0:
345,307,22501,2,0,L|359:229,1,80,2|0,1:2|1:0,0:0:0:0:
249,322,22844,6,0,L|210:329,1,40,2|0,1:2|0:0,0:0:0:0:
170,337,23015,1,0,1:0:0:0:
167,340,23186,1,0,1:0:0:0:
164,343,23358,1,0,1:0:0:0:
253,222,23530,1,10,1:2:0:0:
256,225,23701,1,8,1:2:0:0:
259,228,23873,1,8,1:2:0:0:
262,231,24044,1,8,1:2:0:0:
127,61,24215,6,0,P|50:73|8:138,1,160,6|0,1:2|1:0,0:0:0:0:
95,232,24730,2,0,P|105:193|104:153,2,80,12|0|0,0:0|0:0|1:0,0:0:0:0:
18,350,25244,2,0,B|45:321|45:321|163:342,1,160,12|0,0:1|1:0,0:0:0:0:
242,239,25758,2,0,L|256:317,1,80,12|0,0:0|0:0,0:0:0:0:
391,300,26101,1,0,1:0:0:0:
394,303,26273,2,0,L|380:381,1,80,12|0,0:1|3:0,0:0:0:0:
333,223,26615,6,0,P|368:205|408:205,1,80,14|0,0:0|3:0,0:0:0:0:
275,145,26958,2,0,P|199:127|165:57,1,160,14|0,0:0|1:0,0:0:0:0:
337,31,27473,2,0,P|301:48|262:49,1,80,12|0,0:1|0:0,0:0:0:0:
100,158,27815,1,0,1:0:0:0:
97,155,27987,2,0,P|61:138|22:137,1,80,12|0,0:0|3:0,0:0:0:0:
143,254,28330,6,0,L|221:240,1,80,12|0,0:0|1:0,0:0:0:0:
265,259,28587,1,8,0:0:0:0:
268,262,28673,1,8,0:3:0:0:
141,353,28844,2,0,L|63:339,2,80,4|0|0,1:1|0:0|1:0,0:0:0:0:
285,371,29358,5,8,0:0:0:0:
304,366,29444,1,0,3:0:0:0:
322,358,29530,1,2,1:2:0:0:
339,346,29615,1,2,0:0:0:0:
353,332,29701,1,6,1:2:0:0:
326,186,29873,2,0,L|319:146,2,40,8|0|0,0:3|0:0|1:0,0:0:0:0:
398,248,30215,2,0,L|476:262,1,80,6|0,1:1|0:0,0:0:0:0:
413,128,30558,1,0,1:0:0:0:
318,146,30730,2,0,L|240:160,1,80,8|2,0:0|3:2,0:0:0:0:
50,191,31073,5,8,3:2:0:0:
169,94,31244,1,0,1:0:0:0:
194,245,31415,1,0,1:0:0:0:
77,68,31587,2,0,P|126:8|204:4,1,160,10|0,0:0|1:0,0:0:0:0:
318,146,32101,5,10,0:0:0:0:
314,165,32187,1,2,0:0:0:0:
310,185,32273,1,2,3:2:0:0:
307,205,32358,1,2,0:0:0:0:
303,224,32444,1,14,0:0:0:0:
226,345,32615,2,0,L|233:384,2,40,8|0|0,0:3|0:0|1:0,0:0:0:0:
63,258,32958,2,0,B|90:229|90:229|208:250,1,160,6|0,1:1|1:0,0:0:0:0:
320,318,33473,2,0,L|398:304,1,80,10|0,0:0|3:0,0:0:0:0:
464,234,33815,5,6,1:2:0:0:
484,346,34330,2,0,L|478:375,2,29.9999990844727,2|2|2,0:3|0:3|0:3,0:0:0:0:
484,51,35187,5,2,0:0:0:0:
484,51,35873,6,0,P|429:74|370:67,1,119.999996337891,2|2,0:0|0:0,0:0:0:0:
244,159,36558,1,2,0:0:0:0:
114,72,36901,1,0,0:0:0:0:
111,75,37073,2,0,L|89:193,1,119.999996337891,2|2,0:0|0:0,0:0:0:0:
74,270,37587,1,0,0:0:0:0:
285,326,37930,6,0,P|308:271|301:212,1,119.999996337891,2|0,0:0|0:0,0:0:0:0:
244,159,38444,1,2,0:0:0:0:
153,311,38787,2,0,P|181:300|211:299,1,59.9999981689454,2|0,0:0|0:0,0:0:0:0:
285,326,39130,1,2,0:0:0:0:
288,329,39301,2,0,L|406:307,1,119.999996337891,2|0,0:0|0:0,0:0:0:0:
478,336,39815,1,2,0:0:0:0:
444,183,40158,1,2,0:0:0:0:
441,186,40330,6,0,P|412:196|382:197,1,59.9999981689454,2|2,0:0|0:0,0:0:0:0:
321,245,40673,2,0,L|202:223,1,119.999996337891,2|0,0:0|0:0,0:0:0:0:
126,208,41187,1,2,0:0:0:0:
100,54,41530,2,0,P|129:50|159:55,1,59.9999981689454,2|0,0:0|0:0,0:0:0:0:
221,103,41873,1,0,0:0:0:0:
224,106,42044,2,0,L|202:224,1,119.999996337891,2|0,0:0|0:0,0:0:0:0:
280,238,42558,2,0,L|301:356,1,119.999996337891,2|2,0:0|0:0,0:0:0:0:
374,320,43073,6,0,L|384:260,1,59.9999981689454,2|2,0:0|0:0,0:0:0:0:
399,184,43415,1,2,0:0:0:0:
293,69,43758,1,2,0:0:0:0:
296,66,43930,2,0,P|347:36|406:27,1,119.999996337891,2|2,0:0|0:0,0:0:0:0:
482,52,44444,1,0,0:0:0:0:
399,184,44787,6,0,L|280:205,1,119.999996337891,2|0,0:0|0:0,0:0:0:0:
232,266,45301,1,0,3:0:0:0:
229,269,45473,1,2,3:2:0:0:
43,254,45815,2,0,P|85:243|122:266,1,89.9999972534181,0|0,0:0|0:0,0:0:0:0:
128,290,46158,6,0,L|149:171,1,119.999996337891,6|0,1:2|0:0,0:0:0:0:
133,83,46673,1,0,0:0:0:0:
135,85,46844,2,0,P|163:94|193:94,1,59.9999981689454,2|0,0:0|0:0,0:0:0:0:
263,60,47187,1,2,0:0:0:0:
343,194,47530,2,0,L|322:313,1,119.999996337891,2|10,1:2|0:0,0:0:0:0:
270,371,48044,1,2,0:0:0:0:
166,253,48387,2,0,L|176:313,1,59.9999981689454,2|0,0:0|0:0,0:0:0:0:
233,167,48901,6,0,P|178:144|119:154,1,119.999996337891,2|8,1:2|0:0,0:0:0:0:
66,212,49415,1,0,0:0:0:0:
55,368,49758,2,0,P|84:372|114:367,1,59.9999981689454,2|2,0:0|0:0,0:0:0:0:
173,315,50101,1,2,0:0:0:0:
176,312,50273,2,0,L|295:333,1,119.999996337891,2|8,1:2|0:0,0:0:0:0:
360,375,50787,2,0,P|370:317|338:268,1,119.999996337891,0|0,0:0|0:0,0:0:0:0:
263,250,51301,6,0,L|253:190,1,59.9999981689454,2|2,0:0|0:0,0:0:0:0:
360,150,51644,2,0,L|339:269,1,119.999996337891,2|10,1:2|0:0,0:0:0:0:
295,333,52158,1,2,0:0:0:0:
211,124,52501,2,0,P|238:113|268:113,1,59.9999981689454,2|0,0:0|0:0,0:0:0:0:
320,55,52844,1,2,0:0:0:0:
323,52,53015,2,0,L|442:73,1,119.999996337891,0|8,1:0|0:0,0:0:0:0:
505,27,53530,1,0,0:0:0:0:
439,168,53873,1,0,0:0:0:0:
436,171,54044,6,0,L|446:231,1,59.9999981689454,2|2,0:0|0:0,0:0:0:0:
478,335,54387,2,0,P|422:306|367:317,1,119.999996337891,2|8,1:2|0:0,0:0:0:0:
322,380,54901,1,0,0:0:0:0:
252,345,55073,2,0,L|133:366,1,119.999996337891,2|2,0:0|0:0,0:0:0:0:
19,185,55758,2,0,P|77:175|129:203,1,119.999996337891,2|0,1:2|0:0,0:0:0:0:
152,279,56273,5,0,1:0:0:0:
149,282,56358,1,8,0:0:0:0:
146,285,56444,1,8,0:3:0:0:
230,270,56615,1,8,0:3:0:0:
307,256,56787,1,4,0:3:0:0:
472,146,57130,6,0,P|393:134|323:169,1,160,6|8,1:2|0:0,0:0:0:0:
274,87,57644,2,0,P|195:98|125:63,1,160,6|8,1:1|0:0,0:0:0:0:
11,106,58158,2,0,P|73:148|55:266,1,179.999994506836,6|0,1:2|0:0,0:0:0:0:
29,356,58844,2,0,P|55:343|85:337,1,59.9999981689454,0|0,1:0|0:0,0:0:0:0:
201,366,59187,5,10,0:0:0:0:
159,285,59359,1,8,0:3:0:0:
240,243,59530,2,0,P|269:248|296:261,1,59.9999981689454,0|4,1:0|0:3,0:0:0:0:
376,343,59873,2,0,L|397:224,1,119.999996337891,6|0,1:2|0:0,0:0:0:0:
314,111,60387,2,0,L|324:171,1,59.9999981689454,0|8,1:0|0:0,0:0:0:0:
391,64,60730,5,0,0:0:0:0:
314,111,60901,1,0,3:0:0:0:
267,34,61073,1,2,1:2:0:0:
391,64,61244,2,0,P|403:91|403:121,1,59.9999981689454,2|8,3:2|0:0,0:0:0:0:
314,231,61587,2,0,L|324:171,1,59.9999981689454,0|4,1:0|0:3,0:0:0:0:
452,268,61930,2,0,L|462:328,1,59.9999981689454,10|0,0:0|0:0,0:0:0:0:
366,303,62273,1,2,1:2:0:0:
150,376,62615,6,0,P|210:328|285:347,1,160,6|0,1:2|1:0,0:0:0:0:
217,232,63130,2,0,P|199:157|253:102,1,160,6|0,1:1|1:0,0:0:0:0:
408,67,63644,2,0,L|366:303,1,239.999992675781,6|0,1:2|1:0,0:0:0:0:
217,232,64673,6,0,L|139:246,1,80,10|8,0:0|0:3,0:0:0:0:
203,137,65015,1,4,0:3:0:0:
292,171,65187,2,0,B|321:198|321:198|300:316,1,160,6|0,1:1|1:0,0:0:0:0:
165,362,65701,2,0,P|129:343|90:339,1,80,8|8,0:0|0:3,0:0:0:0:
52,351,65958,1,8,0:3:0:0:
49,354,66044,1,0,1:0:0:0:
10,173,66215,6,0,L|88:187,1,80,4|12,1:3|0:0,0:0:0:0:
134,102,66558,1,0,1:0:0:0:
220,147,66730,2,0,L|234:225,1,80,2|0,3:2|1:0,0:0:0:0:
306,361,67073,2,0,L|320:283,1,80,8|8,0:0|0:3,0:0:0:0:
328,243,67330,1,8,0:3:0:0:
331,240,67415,2,0,P|369:228|408:231,1,80,0|4,1:0|1:3,0:0:0:0:
505,145,67758,2,0,P|466:148|428:137,1,80,10|0,0:0|0:0,0:0:0:0:
303,83,68101,6,0,L|331:240,1,160,6|0,1:1|1:0,0:0:0:0:
349,335,68615,1,0,1:0:0:0:
236,257,68787,1,8,0:0:0:0:
236,257,69130,5,2,1:2:0:0:
254,351,69301,1,2,1:2:0:0:
145,286,69473,2,0,P|140:246|153:208,1,80,2|8,0:0|0:0,0:0:0:0:
135,114,69815,2,0,L|213:100,1,80,2|0,1:2|1:0,0:0:0:0:
300,58,70158,5,10,0:0:0:0:
303,77,70244,1,8,0:0:0:0:
307,97,70330,1,8,0:0:0:0:
402,97,70501,1,8,0:3:0:0:
405,116,70587,1,8,0:3:0:0:
409,136,70673,1,8,0:3:0:0:
474,34,70844,5,6,1:2:0:0:
474,34,72215,6,0,P|444:107|444:187,1,160,6|2,1:2|0:0,0:0:0:0:
309,173,72901,2,0,P|324:209|327:249,1,80,4|0,1:1|0:0,0:0:0:0:
421,343,73244,1,2,1:2:0:0:
424,346,73330,1,8,0:1:0:0:
427,349,73415,1,8,0:1:0:0:
430,352,73501,1,8,0:3:0:0:
433,355,73587,6,0,L|355:341,1,80,4|0,1:2|3:0,0:0:0:0:
233,230,73930,1,10,0:0:0:0:
140,347,74101,2,0,L|218:333,1,80,2|8,0:0|0:3,0:0:0:0:
258,325,74358,1,0,3:0:0:0:
261,322,74444,1,0,1:0:0:0:
89,195,74615,2,0,P|76:232|79:272,1,80,8|0,0:0|1:0,0:0:0:0:
176,153,74958,6,0,L|162:75,1,80,2|0,3:2|1:0,0:0:0:0:
234,230,75301,1,10,0:0:0:0:
89,195,75473,1,2,0:0:0:0:
272,142,75644,2,0,P|303:165|324:199,1,80,0|0,3:0|1:0,0:0:0:0:
210,305,75987,2,0,P|214:265|233:230,1,80,8|0,3:2|3:0,0:0:0:0:
348,367,76330,6,0,L|270:381,1,80,2|0,1:2|0:0,0:0:0:0:
78,324,76673,1,10,0:0:0:0:
125,241,76844,2,0,P|121:201|102:166,1,80,2|0,3:2|0:0,0:0:0:0:
68,145,77101,1,0,3:0:0:0:
65,142,77187,1,0,1:0:0:0:
228,210,77358,1,10,0:0:0:0:
210,305,77530,1,0,1:0:0:0:
192,121,77701,2,0,P|231:114|269:123,1,80,2|0,3:2|1:0,0:0:0:0:
311,281,78044,6,0,L|325:203,1,80,10|0,0:0|3:0,0:0:0:0:
397,82,78387,2,0,L|411:160,1,80,2|0,0:0|1:0,0:0:0:0:
492,271,78730,2,0,L|414:257,1,80,10|0,0:0|3:0,0:0:0:0:
286,210,79073,5,0,1:0:0:0:
305,207,79159,1,0,3:0:0:0:
325,203,79245,1,0,3:0:0:0:
218,277,79415,2,0,P|208:315|215:354,1,80,8|0,0:0|3:0,0:0:0:0:
263,115,79758,1,2,3:2:0:0:
260,96,79844,1,0,3:0:0:0:
256,76,79930,1,0,1:0:0:0:
113,176,80101,2,0,P|151:185|190:178,1,80,8|0,0:0|1:0,0:0:0:0:
363,125,80444,6,0,P|347:160|347:200,1,80,2|0,3:2|1:0,0:0:0:0:
443,329,80787,2,0,P|443:289|428:253,1,80,10|0,0:0|3:0,0:0:0:0:
290,278,81130,2,0,L|212:292,1,80,8|0,0:3|1:0,0:0:0:0:
112,164,81473,2,0,L|190:178,1,80,10|0,0:0|3:0,0:0:0:0:
70,317,81815,6,0,P|54:282|54:242,1,80,2|0,1:2|0:0,0:0:0:0:
105,70,82158,1,8,0:0:0:0:
190,178,82330,2,0,P|190:217|174:253,1,80,0|0,3:0|0:0,0:0:0:0:
15,153,82673,1,0,1:0:0:0:
105,70,82844,2,0,L|183:84,1,80,8|0,0:0|1:0,0:0:0:0:
321,228,83187,6,0,P|304:191|304:152,1,80,4|8,1:1|0:3,0:0:0:0:
392,31,83530,1,0,3:0:0:0:
399,171,83701,1,4,1:2:0:0:
259,67,83873,6,0,P|219:67|183:83,1,80,2|0,0:0|1:0,0:0:0:0:
15,153,84215,2,0,P|54:153|90:169,1,80,10|0,0:0|0:0,0:0:0:0:
79,337,84558,2,0,B|106:308|106:308|224:329,1,160,6|10,1:2|0:0,0:0:0:0:
333,341,85073,2,0,P|316:304|316:265,1,80,6|0,1:1|0:0,0:0:0:0:
378,192,85415,1,0,1:0:0:0:
333,341,85587,1,12,0:0:0:0:
480,289,85758,1,0,3:0:0:0:
283,175,85929,6,0,L|205:189,1,80,14|8,0:0|0:1,0:0:0:0:
177,219,86187,1,8,0:1:0:0:
174,222,86273,1,8,1:1:0:0:
77,91,86444,2,0,P|116:91|152:107,1,80,6|0,1:1|0:0,0:0:0:0:
204,189,86787,1,0,1:0:0:0:
82,264,86958,2,0,L|96:186,1,80,10|0,0:0|3:0,0:0:0:0:
259,43,87301,6,0,L|273:121,1,80,6|0,1:2|0:0,0:0:0:0:
309,294,87644,1,8,0:0:0:0:
204,189,87815,1,0,3:0:0:0:
336,202,87987,1,0,3:0:0:0:
177,281,88158,1,0,1:0:0:0:
273,121,88330,2,0,P|308:102|348:100,1,80,8|0,0:0|3:0,0:0:0:0:
481,285,88673,6,0,L|403:271,1,80,2|0,1:2|1:0,0:0:0:0:
204,189,89015,1,10,0:0:0:0:
268,261,89187,2,0,P|267:300|251:336,1,80,2|0,0:0|3:0,0:0:0:0:
223,365,89444,1,8,0:0:0:0:
220,368,89530,1,0,1:0:0:0:
38,262,89701,2,0,L|116:248,1,80,10|8,0:0|0:0,0:0:0:0:
151,268,89958,1,8,0:0:0:0:
154,271,90044,6,0,L|147:309,2,40,6|8|8,1:2|0:0|0:3,0:0:0:0:
310,41,90558,2,0,L|338:198,1,160,4|0,1:2|1:0,0:0:0:0:
478,288,91073,2,0,P|441:271|402:270,1,80,12|0,0:1|3:0,0:0:0:0:
261,314,91415,5,0,1:0:0:0:
243,219,91587,2,0,L|229:141,1,80,0|0,1:0|0:0,0:0:0:0:
220,100,91844,1,8,0:0:0:0:
217,97,91930,1,0,1:0:0:0:
146,209,92101,1,8,3:2:0:0:
142,229,92187,1,8,0:0:0:0:
139,248,92273,1,8,3:2:0:0:
106,96,92444,2,0,P|142:79|181:78,1,80,0|0,1:0|0:0,0:0:0:0:
217,97,92701,1,0,3:0:0:0:
220,100,92787,6,0,L|298:86,1,80,12|0,0:0|3:0,0:0:0:0:
393,67,93130,1,0,1:0:0:0:
282,187,93301,2,0,L|360:173,1,80,12|0,0:1|0:0,0:0:0:0:
455,154,93644,1,0,1:0:0:0:
344,274,93815,2,0,L|422:260,1,80,12|0,0:0|3:0,0:0:0:0:
284,350,94158,6,0,L|206:336,1,80,8|4,0:0|1:1,0:0:0:0:
160,354,94415,1,8,0:0:0:0:
157,357,94501,1,8,0:3:0:0:
46,255,94673,2,0,P|62:291|63:330,2,80,4|0|0,1:2|0:0|1:0,0:0:0:0:
138,128,95187,1,8,0:1:0:0:
134,148,95273,1,8,0:1:0:0:
131,167,95358,2,0,L|123:206,1,40,0|0,1:0|0:0,0:0:0:0:
63,330,95530,6,0,P|114:300|172:310,1,120,4|0,1:1|3:0,0:0:0:0:
198,339,95873,2,0,L|276:325,1,80,0|0,1:0|0:0,0:0:0:0:
400,289,96215,1,2,1:2:0:0:
397,286,96301,2,0,L|358:278,1,40,0|0,3:0|3:0,0:0:0:0:
438,199,96558,2,0,L|360:185,1,80,0|0,1:0|3:0,0:0:0:0:
328,160,96815,1,0,3:0:0:0:
325,157,96901,6,0,L|247:171,1,80,2|0,1:2|0:0,0:0:0:0:
198,254,97244,2,0,L|206:293,2,40,0|0|0,1:0|3:0|3:0,0:0:0:0:
119,199,97587,2,0,P|103:141|122:85,1,120,2|0,1:2|0:0,0:0:0:0:
164,61,97930,2,0,L|242:75,1,80,0|0,1:0|3:0,0:0:0:0:
380,57,98273,5,2,1:2:0:0:
462,106,98444,2,0,L|501:98,2,40,0|0|0,3:0|3:0|1:0,0:0:0:0:
356,150,98787,1,0,3:0:0:0:
438,199,98958,2,0,L|446:238,2,40,0|0|0,1:0|3:0|3:0,0:0:0:0:
356,150,99301,2,0,P|316:150|280:167,1,80,0|0,1:0|3:0,0:0:0:0:
253,207,99558,1,0,3:0:0:0:
250,210,99644,6,0,L|264:288,1,80,2|0,1:2|3:0,0:0:0:0:
182,339,99987,2,0,L|174:378,2,40,0|0|0,1:0|3:0|3:0,0:0:0:0:
160,245,100330,2,0,P|103:228|51:254,1,120,2|0,1:2|3:0,0:0:0:0:
39,293,100673,2,0,L|53:371,1,80,0|0,1:0|3:0,0:0:0:0:
160,245,101015,6,0,L|278:266,1,120,2|0,1:2|3:0,0:0:0:0:
308,291,101358,2,0,P|343:274|383:273,1,80,0|0,1:0|3:0,0:0:0:0:
454,207,101701,1,0,1:0:0:0:
457,204,101787,2,0,L|449:165,1,40,0|0,3:0|3:0,0:0:0:0:
353,173,102044,2,0,L|339:95,1,80,0|0,1:0|3:0,0:0:0:0:
308,68,102301,1,0,3:0:0:0:
305,65,102387,6,0,L|227:79,1,80,2|0,1:2|3:0,0:0:0:0:
136,44,102730,2,0,L|128:5,2,40,0|0|0,1:0|3:0|3:0,0:0:0:0:
59,102,103073,2,0,P|43:160|62:216,1,120,2|0,1:2|3:0,0:0:0:0:
104,240,103416,2,0,L|182:226,1,80,0|0,1:0|3:0,0:0:0:0:
353,173,103758,5,2,1:2:0:0:
444,204,103930,2,0,L|483:196,2,40,0|0|0,3:0|3:0|1:0,0:0:0:0:
370,266,104273,1,0,3:0:0:0:
279,235,104444,2,0,L|271:196,2,40,0|0|0,1:0|3:0|3:0,0:0:0:0:
205,297,104787,1,0,1:0:0:0:
263,37,105130,6,0,P|369:64|358:174,1,239.999992675781,6|0,1:1|0:0,0:0:0:0:
271,196,105987,1,0,1:0:0:0:
370,266,106158,1,8,1:2:0:0:
263,37,106501,6,0,L|144:58,1,119.999996337891,4|8,1:2|0:0,0:0:0:0:
76,149,107015,1,0,1:0:0:0:
79,146,107187,6,0,P|137:138|191:163,1,119.999996337891,2|2,0:0|0:0,0:0:0:0:
228,335,107873,2,0,L|249:216,1,119.999996337891,2|10,1:2|0:0,0:0:0:0:
265,140,108387,1,2,1:2:0:0:
333,306,108730,2,0,L|323:246,1,59.9999981689454,2|0,0:0|0:0,0:0:0:0:
483,201,109244,6,0,P|490:259|465:313,1,119.999996337891,2|8,1:2|0:0,0:0:0:0:
397,351,109758,1,2,1:2:0:0:
249,216,110101,2,0,L|189:226,1,59.9999981689454,2|0,0:0|0:0,0:0:0:0:
99,272,110444,1,2,0:0:0:0:
102,269,110615,6,0,P|109:211|84:157,1,119.999996337891,0|8,1:0|0:0,0:0:0:0:
10,129,111130,2,0,P|50:86|108:82,1,119.999996337891,0|2,1:0|0:0,0:0:0:0:
180,28,111644,6,0,L|190:88,1,59.9999981689454,2|2,0:0|0:0,0:0:0:0:
270,97,111987,2,0,L|249:216,1,119.999996337891,2|8,1:2|0:0,0:0:0:0:
233,291,112501,1,2,1:2:0:0:
102,269,112844,1,2,0:0:0:0:
159,322,113015,2,0,P|166:350|163:380,1,59.9999981689454,2|0,0:0|0:0,0:0:0:0:
233,291,113358,6,0,L|352:312,1,119.999996337891,0|8,1:0|0:0,0:0:0:0:
437,324,113873,2,0,L|416:205,1,119.999996337891,0|2,1:0|0:0,0:0:0:0:
367,92,114387,6,0,L|357:152,1,59.9999981689454,2|2,0:0|0:0,0:0:0:0:
341,228,114730,1,2,1:2:0:0:
434,49,115073,1,10,0:0:0:0:
431,46,115244,2,0,P|381:15|323:26,1,119.999996337891,2|2,1:2|0:0,0:0:0:0:
284,94,115758,1,2,0:0:0:0:
131,63,116101,6,0,L|12:42,2,119.999996337891,0|0|0,3:0|3:0|3:0,0:0:0:0:
195,127,116958,1,0,1:0:0:0:
198,130,117130,1,4,1:3:0:0:
30,340,117473,6,0,P|19:301|23:262,1,80,4|0,1:1|0:0,0:0:0:0:
114,293,117815,2,0,P|124:331|119:371,1,80,0|0,1:0|3:0,0:0:0:0:
184,227,118158,2,0,L|341:255,1,160,2|2,1:2|1:2,0:0:0:0:
476,117,118844,2,0,B|449:88|449:88|331:109,1,160,2|2,1:2|1:2,0:0:0:0:
229,67,119358,2,0,P|239:105|234:145,1,80,2|0,0:0|1:0,0:0:0:0:
184,227,119701,1,0,3:0:0:0:
216,318,119873,1,0,1:0:0:0:
37,194,120215,6,0,P|115:187|183:227,1,160,2|0,1:2|1:0,0:0:0:0:
216,318,120730,2,0,L|138:332,1,80,2|0,0:0|1:0,0:0:0:0:
278,244,121073,2,0,L|356:258,1,80,2|0,0:0|1:0,0:0:0:0:
442,299,121415,1,2,0:0:0:0:
395,170,121587,2,0,P|327:130|252:151,1,160,0|0,1:0|1:0,0:0:0:0:
278,244,122101,2,0,P|265:281|239:311,1,80,0|0,3:0|1:0,0:0:0:0:
144,331,122444,1,0,3:0:0:0:
6,270,122615,6,0,L|84:256,1,80,2|2,1:2|0:0,0:0:0:0:
61,152,122958,2,0,L|218:180,1,160,2|0,1:2|1:0,0:0:0:0:
263,94,123473,2,0,P|293:119|311:154,1,80,2|0,0:0|1:0,0:0:0:0:
319,296,123815,1,2,0:0:0:0:
379,221,123987,2,0,P|418:216|456:229,1,80,2|2,1:2|0:0,0:0:0:0:
319,296,124330,2,0,P|283:226|311:153,1,160,0|0,1:0|1:0,0:0:0:0:
256,75,124844,2,0,P|292:60|332:60,1,80,0|0,3:0|1:0,0:0:0:0:
426,37,125187,1,0,3:0:0:0:
470,151,125358,6,0,L|456:229,1,80,2|2,1:2|0:0,0:0:0:0:
473,325,125701,2,0,B|436:331|396:308|396:308|361:288|319:295,1,160,2|0,1:2|1:0,0:0:0:0:
191,336,126215,1,2,0:0:0:0:
234,250,126387,2,0,P|234:210|219:173,1,80,2|0,1:2|0:0,0:0:0:0:
137,95,126730,2,0,P|121:131|122:171,1,80,2|0,1:2|3:0,0:0:0:0:
77,278,127073,2,0,L|234:250,1,160,6|8,1:2|0:0,0:0:0:0:
298,167,127587,5,8,1:2:0:0:
295,170,127672,1,8,0:0:0:0:
292,173,127758,1,8,0:3:0:0:
329,262,127930,1,8,0:3:0:0:
366,351,128101,1,4,0:3:0:0:
312,79,128444,6,0,P|235:95|196:162,1,160,6|8,1:2|0:0,0:0:0:0:
102,143,128958,2,0,P|118:219|185:258,1,160,6|8,1:1|0:0,0:0:0:0:
166,353,129473,2,0,B|213:362|251:331|251:331|288:300|333:307,1,179.999994506836,6|0,1:2|0:0,0:0:0:0:
438,331,130158,2,0,P|415:350|398:375,1,59.9999981689454,0|0,1:0|0:0,0:0:0:0:
401,248,130501,5,10,0:0:0:0:
438,331,130673,1,8,0:3:0:0:
490,258,130844,2,0,P|488:228|478:200,1,59.9999981689454,0|4,1:0|0:3,0:0:0:0:
499,104,131187,2,0,L|380:125,1,119.999996337891,6|0,1:2|0:0,0:0:0:0:
256,51,131701,2,0,L|316:61,1,59.9999981689454,0|8,1:0|0:0,0:0:0:0:
167,61,132044,5,0,0:0:0:0:
256,51,132216,1,0,3:0:0:0:
266,140,132387,1,2,1:2:0:0:
167,61,132558,2,0,P|169:31|179:3,1,59.9999981689454,2|8,3:2|0:0,0:0:0:0:
177,150,132901,2,0,L|117:160,1,59.9999981689454,0|4,1:0|0:3,0:0:0:0:
18,264,133244,2,0,L|78:274,1,59.9999981689454,10|0,0:0|0:0,0:0:0:0:
163,246,133587,1,2,1:2:0:0:
351,361,133930,6,0,P|304:299|228:306,1,160,6|0,1:2|1:0,0:0:0:0:
86,231,134444,2,0,P|162:237|208:176,1,160,6|0,1:1|1:0,0:0:0:0:
288,82,134958,2,0,L|330:318,1,239.999992675781,6|0,1:2|1:0,0:0:0:0:
404,185,135987,6,0,L|418:107,1,80,10|8,0:0|0:3,0:0:0:0:
503,171,136330,1,4,0:3:0:0:
466,259,136501,2,0,B|439:288|439:288|321:267,1,160,6|0,1:1|1:0,0:0:0:0:
202,225,137015,2,0,P|221:261|225:300,1,80,8|8,0:0|0:3,0:0:0:0:
213,338,137272,1,8,0:3:0:0:
210,341,137358,1,0,1:0:0:0:
118,178,137530,6,0,L|132:100,1,80,4|12,1:3|0:0,0:0:0:0:
223,131,137873,1,0,1:0:0:0:
273,49,138044,2,0,P|310:36|350:39,1,80,2|0,3:2|1:0,0:0:0:0:
487,127,138387,2,0,P|447:130|409:117,1,80,8|8,0:0|0:3,0:0:0:0:
376,139,138644,1,8,0:3:0:0:
373,142,138730,2,0,L|387:220,1,80,0|4,1:0|1:3,0:0:0:0:
224,304,139073,2,0,L|238:226,1,80,10|0,0:0|0:0,0:0:0:0:
273,49,139415,6,0,L|116:77,1,160,6|0,1:1|1:0,0:0:0:0:
21,97,139930,1,0,1:0:0:0:
135,172,140101,1,8,0:0:0:0:
135,172,140444,5,2,1:2:0:0:
41,191,140615,1,2,1:2:0:0:
154,266,140787,2,0,P|190:251|217:222,1,80,2|8,0:0|0:0,0:0:0:0:
296,277,141130,2,0,L|310:355,1,80,2|0,1:2|1:0,0:0:0:0:
392,268,141473,5,10,0:0:0:0:
396,248,141559,1,8,0:0:0:0:
399,229,141645,1,8,0:0:0:0:
478,310,141815,1,8,0:3:0:0:
482,290,141901,1,8,0:3:0:0:
485,271,141987,1,8,0:3:0:0:
398,363,142158,5,6,1:2:0:0:
398,363,143530,6,0,P|398:283|368:209,1,160,6|2,1:2|0:0,0:0:0:0:
471,120,144215,2,0,P|473:80|488:43,1,80,6|0,1:1|0:0,0:0:0:0:
375,101,144558,1,2,1:2:0:0:
372,104,144644,1,8,0:1:0:0:
369,107,144730,1,8,0:1:0:0:
366,110,144815,1,8,0:3:0:0:
363,113,144901,6,0,L|285:99,1,80,4|0,1:2|3:0,0:0:0:0:
169,173,145244,1,10,0:0:0:0:
101,45,145415,2,0,L|179:31,1,80,2|8,0:0|0:3,0:0:0:0:
219,23,145673,1,0,3:0:0:0:
222,26,145758,1,0,1:0:0:0:
263,192,145930,2,0,L|249:270,1,80,8|0,0:0|1:0,0:0:0:0:
79,292,146273,6,0,P|119:289|157:302,1,80,2|0,3:2|1:0,0:0:0:0:
310,345,146615,1,10,0:0:0:0:
263,192,146787,1,2,0:0:0:0:
157,302,146958,2,0,P|153:341|166:379,1,80,0|0,3:0|1:0,0:0:0:0:
167,206,147301,2,0,P|134:182|95:175,1,80,8|0,3:2|3:0,0:0:0:0:
263,192,147644,6,0,L|341:206,1,80,2|0,1:2|0:0,0:0:0:0:
496,172,147987,1,10,0:0:0:0:
431,242,148158,2,0,P|424:281|433:320,1,80,2|0,3:2|0:0,0:0:0:0:
461,349,148415,1,0,3:0:0:0:
463,353,148501,1,0,1:0:0:0:
329,301,148673,1,10,0:0:0:0:
236,325,148844,1,0,1:0:0:0:
263,192,149015,6,0,L|277:114,1,80,2|0,3:2|1:0,0:0:0:0:
357,13,149358,2,0,L|371:91,1,80,10|0,0:0|3:0,0:0:0:0:
220,35,149701,2,0,P|182:22|142:25,1,80,2|0,0:0|1:0,0:0:0:0:
10,113,150044,2,0,P|49:116|87:103,1,80,10|0,0:0|3:0,0:0:0:0:
171,222,150387,5,0,1:0:0:0:
167,242,150473,1,0,3:0:0:0:
164,261,150558,1,0,3:0:0:0:
270,367,150730,2,0,L|256:289,1,80,8|0,0:0|3:0,0:0:0:0:
403,133,151073,1,2,3:2:0:0:
423,129,151158,1,0,3:0:0:0:
442,126,151244,1,0,1:0:0:0:
341,206,151416,2,0,L|263:192,1,80,8|0,0:0|1:0,0:0:0:0:
176,51,151758,6,0,L|190:129,1,80,2|0,3:2|1:0,0:0:0:0:
55,193,152101,2,0,L|133:207,1,80,10|0,0:0|3:0,0:0:0:0:
261,190,152444,2,0,P|248:228|253:268,1,80,8|0,0:3|1:0,0:0:0:0:
396,328,152787,2,0,P|358:341|318:337,1,80,10|0,0:0|3:0,0:0:0:0:
147,374,153130,6,0,L|225:360,1,80,2|0,1:2|0:0,0:0:0:0:
345,239,153473,1,8,0:0:0:0:
262,191,153644,2,0,L|276:113,1,80,0|0,3:0|0:0,0:0:0:0:
477,153,153987,1,0,1:0:0:0:
422,231,154158,2,0,P|384:243|344:239,1,80,8|0,0:0|1:0,0:0:0:0:
181,243,154501,6,0,P|193:280|189:320,1,80,4|8,1:1|0:3,0:0:0:0:
72,153,154844,1,0,3:0:0:0:
98,291,155015,1,4,1:2:0:0:
198,127,155187,6,0,L|276:113,1,80,2|0,0:0|1:0,0:0:0:0:
413,50,155530,2,0,L|335:36,1,80,10|0,0:0|0:0,0:0:0:0:
358,164,155873,2,0,P|380:239|358:315,1,160,6|10,1:2|0:0,0:0:0:0:
284,377,156387,2,0,L|206:363,1,80,6|0,1:1|0:0,0:0:0:0:
141,291,156730,1,0,1:0:0:0:
278,225,156901,1,12,0:0:0:0:
284,377,157072,1,0,3:0:0:0:
184,205,157244,6,0,L|198:127,1,80,14|8,0:0|0:1,0:0:0:0:
206,87,157501,1,8,0:1:0:0:
209,84,157587,1,8,1:1:0:0:
278,225,157758,2,0,P|262:261|232:287,1,80,6|0,1:1|0:0,0:0:0:0:
184,205,158101,1,0,1:0:0:0:
292,132,158273,2,0,L|370:146,1,80,10|0,0:0|3:0,0:0:0:0:
472,342,158615,6,0,L|394:356,1,80,6|0,1:2|0:0,0:0:0:0:
254,382,158958,1,8,0:0:0:0:
372,262,159130,1,0,3:0:0:0:
232,288,159301,1,0,3:0:0:0:
394,356,159473,1,0,1:0:0:0:
290,212,159644,2,0,P|285:172|297:134,1,80,8|0,0:0|3:0,0:0:0:0:
491,14,159987,6,0,L|505:92,1,80,2|0,1:2|1:0,0:0:0:0:
382,182,160330,1,10,0:0:0:0:
298,135,160501,2,0,L|220:149,1,80,2|0,0:0|3:0,0:0:0:0:
180,157,160758,1,8,0:0:0:0:
177,160,160844,1,0,1:0:0:0:
127,315,161015,2,0,P|132:275|120:237,1,80,10|8,0:0|0:0,0:0:0:0:
88,212,161273,1,8,0:0:0:0:
85,209,161358,6,0,L|47:216,2,40,6|8|8,1:2|0:0|0:3,0:0:0:0:
330,44,161873,2,0,L|173:16,1,160,4|0,1:2|1:0,0:0:0:0:
25,75,162387,2,0,P|64:69|102:81,1,80,12|0,0:1|3:0,0:0:0:0:
120,237,162730,5,0,1:0:0:0:
177,160,162901,2,0,L|255:174,1,80,0|0,1:0|0:0,0:0:0:0:
295,182,163158,1,0,3:0:0:0:
298,185,163244,1,0,1:0:0:0:
208,313,163415,1,8,3:2:0:0:
188,317,163501,1,8,0:0:0:0:
169,320,163587,1,8,3:2:0:0:
315,295,163758,2,0,P|326:257|321:217,1,80,0|0,1:0|0:0,0:0:0:0:
298,185,164015,1,0,3:0:0:0:
295,182,164101,6,0,L|217:196,1,80,12|0,0:0|3:0,0:0:0:0:
122,215,164444,1,0,1:0:0:0:
187,78,164615,2,0,L|265:92,1,80,12|0,0:1|0:0,0:0:0:0:
360,111,164958,1,0,1:0:0:0:
111,138,165130,2,0,P|108:177|121:214,1,80,12|0,0:0|3:0,0:0:0:0:
228,293,165473,2,0,P|189:290|152:304,1,80,8|4,0:0|1:1,0:0:0:0:
124,333,165730,1,8,0:0:0:0:
121,336,165815,1,8,0:3:0:0:
43,201,165987,6,0,L|121:215,1,80,4|0,1:2|0:0,0:0:0:0:
187,78,166330,5,0,1:0:0:0:
191,97,166415,1,8,0:1:0:0:
195,117,166501,1,8,0:1:0:0:
198,137,166587,1,8,0:1:0:0:
202,156,166673,2,0,L|209:194,1,40,8|0,1:3|1:0,0:0:0:0:
228,293,166844,5,4,1:1:0:0:
397,313,167187,2,0,L|319:327,1,80,0|0,1:0|0:0,0:0:0:0:
228,293,167530,1,2,1:2:0:0:
59,273,167873,2,0,L|137:259,1,80,0|0,1:0|0:0,0:0:0:0:
228,293,168216,1,0,1:0:0:0:
248,124,168558,2,0,L|262:202,1,80,0|0,1:0|0:0,0:0:0:0:
228,293,168901,1,0,1:0:0:0:
162,166,169073,6,0,P|153:127|159:87,1,80,2|2,0:0|1:2,0:0:0:0:
234,28,169415,1,0,3:0:0:0:
378,90,169587,2,0,L|350:247,1,160,2|2,1:2|1:2,0:0:0:0:
331,342,170101,1,2,0:0:0:0:
228,293,170273,2,0,P|188:290|150:303,1,80,0|0,1:0|3:0,0:0:0:0:
13,219,170615,2,0,P|50:231|90:229,1,80,0|0,1:0|3:0,0:0:0:0:
200,136,170958,2,0,L|228:293,1,160,0|0,1:0|1:0,0:0:0:0:
104,134,171644,5,2,1:2:0:0:
106,114,171730,1,0,3:0:0:0:
113,95,171815,1,0,3:0:0:0:
123,78,171901,1,0,3:0:0:0:
137,63,171987,2,0,L|175:56,3,40,2|0|0|0,1:2|3:0|3:0|3:0,0:0:0:0:
212,37,172330,6,0,L|290:51,1,80,4|0,1:2|0:0,0:0:0:0:
330,60,172587,1,0,3:0:0:0:
333,63,172673,2,0,P|345:100|343:140,1,80,0|2,1:0|0:0,0:0:0:0:
438,227,173015,2,0,L|398:219,1,40,0|0,1:0|3:0,0:0:0:0:
316,270,173273,2,0,L|276:262,1,40,0|0,3:0|1:0,0:0:0:0:
209,194,173530,1,2,0:0:0:0:
127,244,173701,6,0,P|106:299|116:357,2,120,2|0|0,1:2|0:0|3:0,0:0:0:0:
159,112,174387,2,0,P|196:99|236:102,1,80,2|0,1:2|0:0,0:0:0:0:
272,122,174644,1,2,3:2:0:0:
275,125,174730,2,0,L|353:139,1,80,0|2,1:0|3:2,0:0:0:0:
451,225,175073,2,0,P|373:235|329:298,2,160,2|0|0,1:2|1:0|1:0,0:0:0:0:
424,317,175930,5,2,0:0:0:0:
427,320,176015,1,2,0:0:0:0:
430,323,176101,2,0,L|422:363,2,40,2|2|2,1:2|0:0|0:0,0:0:0:0:
451,225,176444,1,0,1:2:0:0:
454,222,176529,1,2,0:0:0:0:
457,219,176615,2,0,L|449:179,2,40,2|2|2,0:0|0:0|1:2,0:0:0:0:
369,258,176958,6,0,L|329:250,1,40,2|2,0:0|0:0,0:0:0:0:
290,261,177130,2,0,L|212:247,1,80,2|0,1:2|3:0,0:0:0:0:
333,166,177473,2,0,P|370:153|410:156,1,80,2|2,1:2|0:0,0:0:0:0:
446,176,177730,1,2,0:0:0:0:
449,179,177815,2,0,L|421:22,1,160,6|0,1:2|1:0,0:0:0:0:
332,60,178330,5,2,0:0:0:0:
329,63,178415,1,2,0:0:0:0:
326,66,178501,2,0,L|248:52,1,80,2|0,1:2|0:0,0:0:0:0:
208,61,178758,2,0,L|168:53,1,40,2|0,0:0|1:0,0:0:0:0:
75,32,179015,1,2,0:0:0:0:
8,101,179187,2,0,P|4:140|17:178,1,80,2|0,1:2|0:0,0:0:0:0:
32,274,179530,1,0,1:0:0:0:
107,213,179701,6,0,L|147:221,1,40,2|0,0:0|0:0,0:0:0:0:
186,212,179873,1,0,1:0:0:0:
259,334,180044,2,0,P|249:256|186:212,1,160,2|0,0:0|3:0,0:0:0:0:
89,320,180558,6,0,L|167:306,1,80,2|0,1:2|0:0,0:0:0:0:
259,334,180901,2,0,L|337:348,1,80,0|0,1:0|0:0,0:0:0:0:
433,363,181244,2,0,P|482:303|471:226,1,160,0|0,1:0|1:0,0:0:0:0:
488,120,181758,2,0,P|450:132|410:129,1,80,0|2,3:0|1:2,0:0:0:0:
337,67,182101,1,0,3:0:0:0:
276,142,182273,2,0,L|304:299,1,160,0|2,1:0|1:2,0:0:0:0:
189,189,182958,2,0,P|151:177|111:180,1,80,0|0,1:0|3:0,0:0:0:0:
21,125,183301,6,0,L|35:47,2,80,6|0|0,1:2|3:0|1:0,0:0:0:0:
3,220,183815,1,0,3:0:0:0:
111,180,183987,2,0,L|125:102,2,80,0|0|0,1:0|3:0|1:0,0:0:0:0:
93,275,184501,1,2,0:0:0:0:
208,186,184673,2,0,P|247:183|285:195,1,80,2|0,1:2|3:0,0:0:0:0:
330,279,185015,2,0,P|369:281|407:269,1,80,2|2,1:2|0:0,0:0:0:0:
478,205,185358,6,0,B|492:125|492:125|466:96,2,120,0|2|2,1:0|0:0|3:2,0:0:0:0:
452,355,186044,1,2,1:2:0:0:
452,355,186730,6,0,P|366:327|277:332,1,179.999994506836,2|2,0:0|0:0,0:0:0:0:
194,379,187415,2,0,P|164:352|147:316,1,80,6|0,1:2|0:0,0:0:0:0:
76,252,187758,2,0,P|84:213|106:180,1,80,2|0,0:0|1:0,0:0:0:0:
126,86,188101,2,0,P|163:74|203:76,2,53.3333333333333,2|0|0,0:0|0:0|0:0,0:0:0:0:
245,43,188444,2,0,P|274:69|291:105,2,53.3333333333333,2|0|0,0:0|0:0|0:0,0:0:0:0:
256,192,188787,12,6,190158,0:1:0:0:
144,53,201130,6,0,P|191:19|249:25,1,119.999996337891,6|2,1:2|3:2,0:0:0:0:
297,96,201644,1,2,1:2:0:0:
374,62,201816,2,0,L|385:121,1,59.9999981689454,8|0,0:0|0:0,0:0:0:0:
448,219,202158,2,0,L|458:159,1,59.9999981689454,0|0,3:0|1:0,0:0:0:0:
489,286,202501,6,0,P|486:315|476:344,2,59.9999981689454,2|8|0,0:0|0:0|1:0,0:0:0:0:
448,219,203016,1,2,1:2:0:0:
398,343,203187,2,0,L|338:353,1,59.9999981689454,8|0,0:0|0:0,0:0:0:0:
244,272,203530,2,0,L|304:282,1,59.9999981689454,2|0,3:2|3:0,0:0:0:0:
198,335,203873,2,0,P|168:284|180:227,1,119.999996337891,2|0,1:2|3:0,0:0:0:0:
252,195,204387,1,0,1:0:0:0:
149,157,204558,1,8,0:0:0:0:
220,124,204730,1,0,3:0:0:0:
117,86,204901,2,0,L|57:96,1,59.9999981689454,0|0,3:0|1:0,0:0:0:0:
178,38,205244,6,0,P|207:38|236:47,1,59.9999981689454,2|8,3:2|0:0,0:0:0:0:
294,100,205587,1,2,1:2:0:0:
367,57,205758,2,0,L|377:117,1,59.9999981689454,2|8,1:2|0:0,0:0:0:0:
346,188,206101,1,8,0:0:0:0:
343,191,206273,2,0,P|314:199|284:200,1,59.9999981689454,2|0,1:2|3:0,0:0:0:0:
230,144,206616,6,0,L|190:138,2,40,6|8|0,1:2|0:0|1:0,0:0:0:0:
25,122,207130,2,0,P|51:195|126:209,1,160,0|0,1:0|1:0,0:0:0:0:
230,318,207644,2,0,L|216:240,1,80,12|0,0:1|3:0,0:0:0:0:
287,92,207987,5,0,1:0:0:0:
350,163,208158,2,0,L|336:241,1,80,0|0,1:0|0:0,0:0:0:0:
330,281,208415,1,8,0:0:0:0:
327,284,208501,1,0,1:0:0:0:
216,240,208673,2,0,L|176:246,2,40,8|0|0,0:3|3:0|1:0,0:0:0:0:
350,163,209015,1,0,1:0:0:0:
207,145,209187,1,8,0:3:0:0:
330,281,209358,6,0,P|283:341|206:338,1,160,6|2,1:2|0:0,0:0:0:0:
1,152,210044,2,0,P|77:148|125:208,1,160,6|2,1:1|0:0,0:0:0:0:
375,90,210730,5,2,1:2:0:0:
378,93,210901,1,0,1:0:0:0:
306,157,211073,1,2,1:2:0:0:
309,160,211244,1,0,1:0:0:0:
239,88,211415,1,10,1:2:0:0:
242,91,211587,1,8,1:2:0:0:
308,21,211758,1,10,1:2:0:0:
311,24,211930,1,8,1:2:0:0:
306,157,212101,6,0,P|272:178|232:182,1,80,2|8,0:0|0:3,0:0:0:0:
194,172,212358,1,8,0:3:0:0:
191,169,212444,1,10,0:0:0:0:
23,251,212615,6,0,P|100:238|168:277,1,160,6|2,1:2|1:2,0:0:0:0:
254,349,213130,2,0,P|258:309|279:275,1,80,14|0,0:1|1:0,0:0:0:0:
443,247,213473,2,0,L|365:233,1,80,2|0,3:2|1:0,0:0:0:0:
338,88,213815,1,10,0:0:0:0:
269,155,213987,2,0,L|191:169,1,80,2|0,0:0|3:0,0:0:0:0:
104,126,214330,1,0,1:0:0:0:
170,263,214501,1,8,3:2:0:0:
17,251,214673,1,0,3:0:0:0:
191,169,214844,6,0,P|227:184|253:214,1,80,2|0,1:2|0:0,0:0:0:0:
174,360,215187,1,10,0:0:0:0:
256,311,215358,2,0,L|334:325,1,80,2|0,3:2|0:0,0:0:0:0:
361,356,215615,1,0,3:0:0:0:
364,359,215701,1,0,1:0:0:0:
483,229,215873,1,10,0:0:0:0:
389,246,216044,1,0,1:0:0:0:
246,168,216215,6,0,P|285:164|322:177,1,80,2|0,3:2|1:0,0:0:0:0:
402,76,216558,2,0,L|416:154,1,80,10|0,0:0|3:0,0:0:0:0:
309,256,216901,2,0,L|323:178,1,80,2|0,0:0|1:0,0:0:0:0:
402,76,217244,2,0,P|364:88|325:84,1,80,10|0,0:0|3:0,0:0:0:0:
176,57,217587,5,0,1:0:0:0:
179,76,217673,1,0,3:0:0:0:
183,96,217758,1,0,3:0:0:0:
99,231,217930,2,0,P|95:191|107:154,1,80,8|0,0:0|3:0,0:0:0:0:
270,323,218273,1,2,3:2:0:0:
251,320,218358,1,0,3:0:0:0:
231,316,218444,1,0,1:0:0:0:
99,231,218615,2,0,P|138:226|176:238,1,80,8|0,0:0|1:0,0:0:0:0:
258,151,218958,6,0,L|272:229,1,80,2|0,3:2|1:0,0:0:0:0:
349,338,219301,2,0,L|363:260,1,80,10|0,0:0|3:0,0:0:0:0:
396,83,219644,2,0,P|358:70|318:75,1,80,8|0,0:3|1:0,0:0:0:0:
181,158,219987,2,0,P|220:162|258:150,1,80,10|0,0:0|3:0,0:0:0:0:
98,12,220330,6,0,L|112:90,1,80,2|0,1:2|0:0,0:0:0:0:
145,247,220673,1,8,0:0:0:0:
54,277,220844,2,0,P|49:237|61:199,1,80,0|0,3:0|0:0,0:0:0:0:
181,158,221187,1,0,1:0:0:0:
266,202,221358,2,0,L|344:188,1,80,8|0,0:0|1:0,0:0:0:0:
440,90,221701,6,0,P|430:128|437:167,1,80,4|8,1:1|0:3,0:0:0:0:
503,18,222044,1,0,3:0:0:0:
352,52,222215,1,4,1:2:0:0:
439,169,222387,6,0,P|439:208|424:245,1,80,2|0,0:0|1:0,0:0:0:0:
305,324,222730,2,0,P|345:319|383:332,1,80,10|0,0:0|0:0,0:0:0:0:
344,188,223073,2,0,B|317:159|317:159|199:180,1,160,6|10,1:2|0:0,0:0:0:0:
88,163,223587,2,0,P|105:200|105:239,1,80,6|0,1:1|0:0,0:0:0:0:
43,312,223930,1,0,1:0:0:0:
193,278,224101,1,12,0:0:0:0:
88,163,224273,1,0,3:0:0:0:
131,352,224444,6,0,P|166:370|205:373,1,80,14|8,0:0|0:1,0:0:0:0:
243,360,224701,1,8,0:1:0:0:
246,357,224787,1,8,1:1:0:0:
366,245,224958,2,0,L|288:259,1,80,6|0,1:1|0:0,0:0:0:0:
193,278,225301,1,0,1:0:0:0:
203,112,225473,2,0,P|221:147|224:186,1,80,10|0,0:0|3:0,0:0:0:0:
51,77,225815,6,0,P|53:37|72:2,1,80,6|0,1:2|0:0,0:0:0:0:
114,149,226158,1,8,0:0:0:0:
194,17,226330,1,0,3:0:0:0:
51,77,226501,1,0,3:0:0:0:
203,112,226673,1,0,1:0:0:0:
42,212,226844,2,0,P|44:251|63:286,1,80,8|0,0:0|3:0,0:0:0:0:
305,353,227187,6,0,L|227:367,1,80,2|0,1:2|1:0,0:0:0:0:
114,149,227530,1,10,0:0:0:0:
179,229,227701,2,0,P|177:268|158:303,1,80,2|0,0:0|3:0,0:0:0:0:
127,329,227958,1,8,0:0:0:0:
124,332,228044,1,0,1:0:0:0:
282,261,228215,2,0,L|360:275,1,80,10|8,0:0|0:0,0:0:0:0:
396,248,228473,1,8,0:0:0:0:
399,245,228558,6,0,L|392:207,2,40,6|8|8,1:2|0:0|0:3,0:0:0:0:
179,229,229073,2,0,L|207:72,1,160,4|0,1:2|1:0,0:0:0:0:
372,88,229587,2,0,P|337:107|297:109,1,80,12|0,0:1|3:0,0:0:0:0:
145,8,229930,5,0,1:0:0:0:
64,59,230101,2,0,L|78:137,1,80,0|0,1:0|0:0,0:0:0:0:
85,177,230358,1,8,0:0:0:0:
88,180,230444,1,0,1:0:0:0:
172,268,230615,1,8,3:2:0:0:
176,248,230701,1,8,0:0:0:0:
179,229,230787,1,8,3:2:0:0:
9,285,230958,2,0,P|43:304|83:306,1,80,0|0,1:0|3:0,0:0:0:0:
215,354,231301,6,0,P|288:324|367:330,1,160,6|0,1:2|1:0,0:0:0:0:
452,286,231815,2,0,L|466:208,1,80,2|0,1:2|1:0,0:0:0:0:
385,71,232158,1,0,1:0:0:0:
327,148,232330,2,0,L|341:226,1,80,2|0,1:2|1:0,0:0:0:0:
243,98,232673,6,0,L|205:91,1,40,2|0,1:2|0:0,0:0:0:0:
164,83,232844,1,0,1:0:0:0:
161,80,233015,1,0,1:0:0:0:
158,77,233187,1,0,1:0:0:0:
46,139,233358,5,10,1:2:0:0:
43,142,233530,1,8,1:2:0:0:
40,145,233701,1,8,1:2:0:0:
37,148,233873,1,8,1:2:0:0:
247,244,234044,6,0,P|227:319|158:354,1,160,6|0,1:2|1:0,0:0:0:0:
78,237,234558,2,0,P|112:256|152:257,2,80,12|0|0,0:0|0:0|1:0,0:0:0:0:
45,110,235073,2,0,B|72:139|72:139|190:118,1,160,12|0,0:1|1:0,0:0:0:0:
303,14,235587,2,0,P|301:53|282:88,1,80,12|0,0:0|0:0,0:0:0:0:
395,156,235930,1,0,1:0:0:0:
392,159,236101,2,0,P|356:177|317:178,1,80,12|0,0:1|3:0,0:0:0:0:
190,118,236444,6,0,P|209:152|210:192,1,80,14|0,0:0|3:0,0:0:0:0:
131,296,236787,2,0,P|209:288|278:325,1,160,14|0,0:0|1:0,0:0:0:0:
435,355,237301,2,0,P|396:356|361:375,1,80,12|0,0:1|0:0,0:0:0:0:
379,188,237644,1,0,1:0:0:0:
376,191,237815,2,0,P|357:226|356:266,1,80,12|0,0:0|3:0,0:0:0:0:
477,170,238158,6,0,L|463:92,1,80,12|0,0:0|1:0,0:0:0:0:
456,52,238415,1,8,0:0:0:0:
453,49,238501,1,8,0:3:0:0:
376,191,238673,2,0,L|362:269,2,80,4|0|0,1:1|0:0|1:0,0:0:0:0:
358,64,239187,5,8,0:0:0:0:
341,52,239273,1,0,3:0:0:0:
323,44,239358,1,2,1:2:0:0:
303,42,239444,1,2,0:0:0:0:
283,44,239530,1,6,1:2:0:0:
275,193,239701,2,0,L|282:231,2,40,8|0|0,0:3|0:0|1:0,0:0:0:0:
219,115,240044,2,0,L|141:129,1,80,6|0,1:1|0:0,0:0:0:0:
16,205,240387,1,0,1:0:0:0:
111,223,240559,2,0,L|189:237,1,80,8|2,0:0|3:2,0:0:0:0:
364,315,240901,5,8,3:2:0:0:
275,193,241073,1,0,1:0:0:0:
214,330,241244,1,0,1:0:0:0:
367,219,241415,2,0,P|437:251|459:325,1,160,10|0,0:0|1:0,0:0:0:0:
290,271,241930,5,10,0:0:0:0:
286,252,242015,1,2,0:0:0:0:
283,232,242101,1,2,3:2:0:0:
279,212,242187,1,2,0:0:0:0:
275,193,242273,1,14,0:0:0:0:
219,115,242444,2,0,L|226:76,2,40,8|0|0,0:3|0:0|1:0,0:0:0:0:
37,196,242787,2,0,B|64:225|64:225|182:204,1,160,6|0,1:1|1:0,0:0:0:0:
315,109,243301,2,0,L|393:123,1,80,10|0,0:0|3:0,0:0:0:0:
476,171,243644,5,6,1:2:0:0:
449,44,244158,2,0,L|443:15,2,29.9999990844727,2|2|2,0:3|0:3|0:3,0:0:0:0:
453,376,245015,6,0,B|398:326|322:313|254:333|254:333|227:344|175:357|103:317|127:222|175:196|224:204,1,479.999985351563,6|2,1:2|0:0,0:0:0:0:
292,244,246558,6,0,L|321:238,2,29.9999990844727,2|2|2,0:0|0:0|0:0,0:0:0:0:
225,204,246901,1,2,0:0:0:0:
265,137,247073,2,0,P|293:129|323:129,1,59.9999981689454,2|0,0:0|0:0,0:0:0:0:
378,185,247415,1,0,3:0:0:0:
366,64,247587,5,6,1:1:0:0:
256,192,247673,12,0,253244,0:0:0:0:
