osu file format v14

[General]
AudioFilename: audio.mp3
AudioLeadIn: 0
PreviewTime: 143438
Countdown: 0
SampleSet: Soft
StackLeniency: 0.6
Mode: 0
LetterboxInBreaks: 0
WidescreenStoryboard: 0

[Editor]
DistanceSpacing: 0.3
BeatDivisor: 4
GridSize: 4
TimelineZoom: 1.5

[Metadata]
Title:First Love Syndrome
TitleUnicode:First Love Syndrome
Artist:Ceui
ArtistUnicode:Ceui
Creator:Bellicose
Version:Tricolour Blossom
Source:初恋*シンドローム
Tags:Hatsukoi Syndrome 恋シロ KoiShiro Full Version Campus visual novel eroge japanese video game opening op jpop misure papple104 pappl_e_104 koiyuki minakami yuki mtbbsben
BeatmapID:2339719
BeatmapSetID:1119845

[Difficulty]
HPDrainRate:5.5
CircleSize:4
OverallDifficulty:9
ApproachRate:9
SliderMultiplier:1.6
SliderTickRate:0.5

[Events]
//Background and Video events
0,0,"bg.jpg",0,0
//Break Periods
//Storyboard Layer 0 (Background)
//Storyboard Layer 1 (Fail)
//Storyboard Layer 2 (Pass)
//Storyboard Layer 3 (Foreground)
//Storyboard Layer 4 (Overlay)
//Storyboard Sound Samples

[TimingPoints]
2273,342.857142857143,4,2,1,50,1,0
2273,-125,4,2,1,50,0,0
13244,-83.3333333333333,4,2,1,65,0,0
23530,-83.3333333333333,4,2,1,70,0,0
24730,-76.9230769230769,4,2,1,70,0,0
25073,-83.3333333333333,4,2,1,70,0,0
25758,-76.9230769230769,4,2,1,70,0,0
26101,-83.3333333333333,4,2,1,70,0,0
26958,-76.9230769230769,4,2,1,70,0,0
27473,-71.4285714285714,4,2,1,70,0,0
27815,-76.9230769230769,4,2,1,70,0,0
29701,-83.3333333333333,4,2,1,65,0,0
33815,-83.3333333333333,4,2,1,60,0,0
34501,-125,4,2,1,50,0,0
35187,-125,4,2,1,40,0,0
46158,-111.111111111111,4,2,1,50,0,0
55758,-111.111111111111,4,2,1,60,0,0
57130,-83.3333333333333,4,2,1,70,0,0
58844,-100,4,2,1,60,0,0
62615,-83.3333333333333,4,2,1,70,0,0
64330,-83.3333333333333,4,2,1,60,0,0
65187,-83.3333333333333,4,2,1,65,0,0
68101,-76.9230769230769,4,2,1,65,0,0
68444,-83.3333333333333,4,2,1,65,0,0
72215,-125,4,2,1,50,0,0
72901,-100,4,2,1,60,0,0
73587,-83.3333333333333,4,2,1,70,0,1
84558,-76.9230769230769,4,2,1,75,0,1
85073,-71.4285714285714,4,2,1,75,0,1
85415,-76.9230769230769,4,2,1,70,0,1
95530,-100,4,2,1,60,0,0
106501,-125,4,2,1,50,0,0
117473,-100,4,2,1,60,0,0
128444,-83.3333333333333,4,2,1,70,0,0
130158,-100,4,2,1,60,0,0
133930,-83.3333333333333,4,2,1,70,0,0
135644,-83.3333333333333,4,2,1,60,0,0
136501,-83.3333333333333,4,2,1,65,0,0
139415,-76.9230769230769,4,2,1,65,0,0
139758,-83.3333333333333,4,2,1,65,0,0
143530,-125,4,2,1,50,0,0
144215,-100,4,2,1,60,0,0
144901,-83.3333333333333,4,2,1,70,0,1
155873,-76.9230769230769,4,2,1,75,0,1
156387,-71.4285714285714,4,2,1,75,0,1
156730,-76.9230769230769,4,2,1,70,0,1
166844,-100,4,2,1,60,0,0
190073,-100,4,2,1,5,0,0
190158,-125,4,2,1,50,0,0
201130,-83.3333333333333,4,2,1,65,0,0
209358,-100,4,2,1,60,0,0
210044,-83.3333333333333,4,2,1,65,0,0
211415,-83.3333333333333,4,2,1,70,0,0
212101,-125,4,2,1,60,0,0
212273,-83.3333333333333,4,2,1,65,0,0
212615,-66.6666666666667,4,2,1,70,0,1
213473,-76.9230769230769,4,2,1,70,0,1
223073,-71.4285714285714,4,2,1,75,0,1
223587,-66.6666666666667,4,2,1,75,0,1
223930,-71.4285714285714,4,2,1,70,0,1
233358,-71.4285714285714,4,2,1,75,0,1
234558,-66.6666666666667,4,2,1,75,0,1
234901,-71.4285714285714,4,2,1,75,0,1
235587,-66.6666666666667,4,2,1,75,0,1
235930,-71.4285714285714,4,2,1,75,0,1
236787,-66.6666666666667,4,2,1,75,0,1
237301,-62.5,4,2,1,75,0,1
237644,-66.6666666666667,4,2,1,75,0,1
239530,-71.4285714285714,4,2,1,70,0,0
243644,-83.3333333333333,4,2,1,60,0,0
244330,-125,4,2,1,50,0,0
253244,-125,4,2,1,5,0,0

[Colours]
Combo1 : 201,172,253
Combo2 : 247,227,153
Combo3 : 254,203,226
Combo4 : 162,222,244

[HitObjects]
137,283,2273,5,2,0:0:0:0:
137,283,2358,2,0,P|188:321|238:302,1,96,0|0,0:0|0:0,0:0:0:0:
368,193,2787,2,0,P|323:242|372:367,1,192,2|0,0:0|0:0,0:0:0:0:
472,37,3644,5,2,0:0:0:0:
472,37,3730,2,0,P|421:53|385:36,1,96,0|0,0:0|0:0,0:0:0:0:
166,15,4158,2,0,P|223:34|253:155,1,192,2|0,0:0|0:0,0:0:0:0:
135,372,5015,6,0,P|196:371|246:312,1,128,2|0,0:0|0:0,0:0:0:0:
33,172,5530,2,0,P|56:216|185:226,1,192,2|0,0:0|0:0,0:0:0:0:
311,56,6301,1,0,0:0:0:0:
311,56,6387,6,0,P|288:93|314:174,1,128,2|0,0:0|0:0,0:0:0:0:
506,311,7073,2,0,P|480:357|400:354,1,128,2|0,0:0|0:0,0:0:0:0:
101,306,7758,5,2,0:0:0:0:
101,306,7844,2,0,P|175:297|223:363,1,160,0|0,0:0|0:0,0:0:0:0:
376,217,8444,2,0,P|461:221|501:118,1,192,2|0,0:0|0:0,0:0:0:0:
335,14,9130,5,2,0:0:0:0:
335,14,9215,2,0,P|365:51|415:51,1,96,0|0,0:0|0:0,0:0:0:0:
193,280,9815,2,0,P|213:256|325:260,1,128,2|0,0:0|0:0,0:0:0:0:
36,30,10501,5,2,0:0:0:0:
36,30,10587,2,0,P|172:35|82:220,1,416,0|0,0:0|0:0,0:0:0:0:
292,146,11873,5,2,0:0:0:0:
292,146,11958,2,0,P|197:181|98:97,1,224,0|2,0:0|0:0,0:0:0:0:
117,41,12901,1,2,0:0:0:0:
0,33,13244,6,0,P|60:118|7:206,1,191.999994140625,6|2,1:2|3:2,0:0:0:0:
249,288,13758,1,2,1:2:0:0:
108,375,13930,2,0,P|99:270|182:260,1,191.999994140625,8|0,0:0|3:0,0:0:0:0:
319,352,14444,1,0,1:0:0:0:
480,164,14615,6,0,P|421:230|325:177,1,191.999994140625,2|0,0:0|1:0,0:0:0:0:
151,65,15130,1,2,1:2:0:0:
275,0,15301,2,0,L|244:215,1,191.999994140625,8|2,0:0|3:2,0:0:0:0:
246,199,15815,1,0,3:0:0:0:
32,265,15987,6,0,P|43:335|170:355,1,191.999994140625,2|0,1:2|3:0,0:0:0:0:
292,320,16501,1,0,1:0:0:0:
205,53,16673,2,0,P|180:95|186:160,1,95.9999970703126,8|0,0:0|3:0,0:0:0:0:
378,277,17015,2,0,P|420:302|485:296,1,95.9999970703126,0|0,3:0|1:0,0:0:0:0:
484,18,17358,6,0,P|454:43|385:33,1,95.9999970703126,2|8,3:2|0:0,0:0:0:0:
191,25,17701,1,2,1:2:0:0:
244,314,17873,2,0,P|296:235|253:128,1,191.999994140625,2|8,1:2|0:0,0:0:0:0:
17,105,18387,2,0,P|74:104|117:157,1,95.9999970703126,2|0,1:2|3:0,0:0:0:0:
12,375,18730,5,6,1:2:0:0:
12,375,18815,1,8,0:0:0:0:
12,375,18901,2,0,P|51:303|171:313,2,191.999994140625,0|0|0,1:0|1:0|1:0,0:0:0:0:
278,165,19758,2,0,P|235:192|163:171,1,95.9999970703126,12|0,0:1|3:0,0:0:0:0:
9,24,20101,5,0,1:0:0:0:
78,251,20273,2,0,L|110:24,1,191.999994140625,0|0,1:0|1:0,0:0:0:0:
246,9,20787,1,8,0:3:0:0:
278,44,20873,1,0,3:0:0:0:
325,49,20958,1,0,1:0:0:0:
486,182,21130,2,0,P|449:154|369:166,1,95.9999970703126,0|8,1:0|0:3,0:0:0:0:
78,251,21473,6,0,P|117:319|250:314,1,191.999994140625,6|0,1:2|1:0,0:0:0:0:
305,162,21987,1,2,1:2:0:0:
129,16,22158,1,0,1:0:0:0:
157,54,22244,1,0,3:0:0:0:
161,101,22330,1,0,1:0:0:0:
0,283,22501,2,0,P|7:205|42:172,1,95.9999970703126,2|0,1:2|1:0,0:0:0:0:
389,291,22844,5,2,1:2:0:0:
250,377,23015,1,0,1:0:0:0:
86,317,23187,1,0,1:0:0:0:
225,231,23358,1,0,1:0:0:0:
487,116,23530,5,10,1:2:0:0:
338,23,23701,1,8,1:2:0:0:
162,88,23873,1,8,1:2:0:0:
311,180,24044,1,8,1:2:0:0:
398,107,24215,6,0,P|448:139|420:271,1,191.999994140625,6|0,1:2|1:0,0:0:0:0:
72,39,24730,2,0,P|156:73|251:-28,1,207.999990478516,12|0,0:0|1:0,0:0:0:0:
290,268,25244,2,0,P|299:193|337:162,1,95.9999970703126,12|0,0:1|3:0,0:0:0:0:
328,369,25587,5,0,1:0:0:0:
29,355,25758,2,0,P|113:288|217:336,1,207.999990478516,12|0,0:0|1:0,0:0:0:0:
307,103,26273,2,0,P|272:151|229:156,1,95.9999970703126,12|0,0:1|3:0,0:0:0:0:
0,4,26615,2,0,P|43:44|109:26,1,95.9999970703126,14|0,0:0|3:0,0:0:0:0:
114,366,26958,6,0,P|135:303|33:215,1,207.999990478516,14|0,0:0|1:0,0:0:0:0:
352,172,27473,2,0,P|383:95|520:96,1,223.999993164063,12|0,0:1|1:0,0:0:0:0:
416,353,27987,2,0,P|380:297|338:291,1,103.999995239258,12|0,0:0|3:0,0:0:0:0:
102,121,28330,5,12,0:0:0:0:
199,359,28501,1,0,1:0:0:0:
225,314,28587,1,8,0:0:0:0:
214,262,28673,1,8,0:3:0:0:
336,21,28844,2,0,P|262:107|325:192,1,207.999990478516,4|0,1:1|1:0,0:0:0:0:
70,235,29358,2,0,P|101:222|146:234,1,51.999997619629,8|0,0:0|0:0,0:0:0:0:
249,358,29530,2,0,P|280:371|325:359,1,51.999997619629,2|2,1:2|0:0,0:0:0:0:
509,170,29701,5,6,1:2:0:0:
466,353,29873,2,0,P|416:353|372:311,1,95.9999970703126,8|0,0:3|1:0,0:0:0:0:
434,11,30215,2,0,P|479:38|465:186,1,191.999994140625,6|0,1:1|1:0,0:0:0:0:
351,217,30730,1,8,0:0:0:0:
148,109,30901,1,2,3:2:0:0:
253,3,31073,5,8,3:2:0:0:
284,39,31158,1,0,3:0:0:0:
284,87,31244,1,0,1:0:0:0:
145,24,31415,1,0,1:0:0:0:
0,270,31587,2,0,P|56:346|159:330,1,191.999994140625,10|0,0:0|1:0,0:0:0:0:
437,267,32101,2,0,P|388:248|358:263,1,47.9999985351563,10|2,0:0|0:0,0:0:0:0:
306,358,32273,2,0,P|257:377|227:362,1,47.9999985351563,2|2,3:2|0:0,0:0:0:0:
47,183,32444,5,14,0:0:0:0:
226,282,32615,2,0,P|243:230|229:181,1,95.9999970703126,8|0,0:3|1:0,0:0:0:0:
3,32,32958,2,0,P|56:6|190:46,1,191.999994140625,6|0,1:1|1:0,0:0:0:0:
457,22,33473,2,0,P|429:71|429:126,1,95.9999970703126,10|0,0:0|3:0,0:0:0:0:
207,369,33815,6,0,P|284:308|195:160,1,287.999991210938,6|2,1:2|0:3,0:0:0:0:
196,165,34415,1,2,0:3:0:0:
184,173,34501,2,0,P|299:244|401:179,1,256,2|2,0:3|0:0,0:0:0:0:
502,15,35873,6,0,P|463:33|382:-10,1,128,2|2,0:0|0:0,0:0:0:0:
200,82,36558,2,0,L|357:106,1,128,2|0,0:0|0:0,0:0:0:0:
405,115,37073,2,0,P|440:163|390:219,1,128,2|2,0:0|0:0,0:0:0:0:
333,241,37587,1,0,0:0:0:0:
71,339,37930,6,0,P|100:361|203:337,1,128,2|0,0:0|0:0,0:0:0:0:
237,292,38444,2,0,L|223:143,1,128,2|2,0:0|0:0,0:0:0:0:
219,89,38958,2,0,P|174:78|148:94,1,64,0|2,0:0|0:0,0:0:0:0:
105,12,39301,6,0,P|50:24|17:95,1,128,2|0,0:0|0:0,0:0:0:0:
4,160,39815,2,0,L|33:299,1,128,2|2,0:0|0:0,0:0:0:0:
53,362,40330,2,0,P|96:359|120:321,1,64,2|2,0:0|0:0,0:0:0:0:
267,286,40673,6,0,P|219:258|142:296,1,128,2|0,0:0|0:0,0:0:0:0:
110,346,41187,1,2,0:0:0:0:
167,96,41530,2,0,P|194:143|280:149,1,128,2|0,0:0|0:0,0:0:0:0:
342,107,42044,6,0,L|358:256,1,128,2|0,0:0|0:0,0:0:0:0:
362,312,42558,2,0,P|326:339|242:308,1,128,2|2,0:0|0:0,0:0:0:0:
177,353,43073,2,0,P|152:312|159:270,1,64,2|2,0:0|0:0,0:0:0:0:
184,219,43415,5,2,0:0:0:0:
29,32,43758,1,2,0:0:0:0:
78,95,43930,2,0,P|106:153|74:216,1,128,2|2,0:0|0:0,0:0:0:0:
30,267,44444,1,0,0:0:0:0:
324,332,44787,6,0,P|249:369|173:296,1,192,2|0,0:0|3:0,0:0:0:0:
162,226,45473,2,0,L|205:83,1,128,2|0,3:2|0:0,0:0:0:0:
316,8,46158,6,0,P|398:6|458:118,1,215.999993408203,6|0,1:2|0:0,0:0:0:0:
414,213,46844,2,0,P|396:134|457:82,1,143.999995605469,2|2,0:0|0:0,0:0:0:0:
495,359,47530,2,0,L|322:346,1,143.999995605469,2|10,1:2|0:0,0:0:0:0:
240,326,48044,2,0,P|292:329|341:249,1,143.999995605469,2|2,0:0|0:0,0:0:0:0:
65,54,48901,6,0,P|118:84|106:170,1,143.999995605469,2|8,1:2|0:0,0:0:0:0:
22,265,49415,2,0,L|180:251,1,143.999995605469,0|2,0:0|0:0,0:0:0:0:
285,242,49930,2,0,P|291:193|269:160,1,71.9999978027344,2|2,0:0|0:0,0:0:0:0:
380,58,50273,6,0,P|329:10|235:15,1,143.999995605469,2|8,1:2|0:0,0:0:0:0:
138,23,50787,2,0,L|157:178,1,143.999995605469,0|0,0:0|0:0,0:0:0:0:
100,274,51301,2,0,P|60:279|16:244,1,71.9999978027344,2|2,0:0|0:0,0:0:0:0:
198,363,51644,6,0,P|266:378|334:315,1,143.999995605469,2|10,1:2|0:0,0:0:0:0:
378,238,52158,1,2,0:0:0:0:
264,8,52501,2,0,P|238:53|252:99,1,71.9999978027344,2|0,0:0|0:0,0:0:0:0:
292,167,52844,1,2,0:0:0:0:
292,167,53015,6,0,P|349:129|433:147,1,143.999995605469,0|8,1:0|0:0,0:0:0:0:
497,240,53530,2,0,L|480:395,1,143.999995605469,0|0,0:0|0:0,0:0:0:0:
370,310,54044,2,0,P|340:327|292:316,1,71.9999978027344,2|2,0:0|0:0,0:0:0:0:
44,274,54387,6,0,P|54:326|157:357,1,143.999995605469,2|8,1:2|0:0,0:0:0:0:
205,275,54901,1,0,0:0:0:0:
205,275,55073,2,0,L|193:103,1,143.999995605469,2|2,0:0|0:0,0:0:0:0:
3,27,55758,6,0,P|44:0|146:32,1,143.999995605469,2|0,1:2|0:0,0:0:0:0:
73,186,56273,1,0,1:0:0:0:
93,156,56358,1,8,0:0:0:0:
95,119,56444,1,8,0:3:0:0:
220,68,56615,1,8,0:3:0:0:
386,190,56787,1,4,0:3:0:0:
470,12,57130,6,0,L|480:232,1,191.999994140625,6|8,1:2|0:0,0:0:0:0:
262,291,57644,2,0,P|320:361|446:323,1,191.999994140625,6|8,1:1|0:0,0:0:0:0:
339,85,58158,2,0,P|283:34|50:157,1,383.99998828125,6|0,1:2|1:0,0:0:0:0:
112,361,59187,5,10,0:0:0:0:
53,308,59358,1,8,0:3:0:0:
124,275,59530,1,0,1:0:0:0:
184,328,59701,1,4,0:3:0:0:
389,324,59873,6,0,P|333:343|248:278,1,160,6|0,1:2|0:0,0:0:0:0:
299,184,60387,1,0,1:0:0:0:
109,115,60558,2,0,L|124:284,1,160,8|0,0:0|3:0,0:0:0:0:
31,373,61073,1,2,1:2:0:0:
0,187,61244,5,2,3:2:0:0:
157,207,61415,1,8,0:0:0:0:
257,59,61587,1,0,1:0:0:0:
269,38,61758,1,4,0:3:0:0:
39,19,61930,2,0,P|104:14|166:113,1,160,10|2,0:0|1:2,0:0:0:0:
15,369,62615,6,0,L|212:343,1,191.999994140625,6|0,1:2|1:0,0:0:0:0:
41,126,63130,2,0,P|-1:156|41:282,1,191.999994140625,6|0,1:1|1:0,0:0:0:0:
244,68,63644,2,0,P|347:10|506:200,1,383.99998828125,6|0,1:2|1:0,0:0:0:0:
408,364,64673,5,10,0:0:0:0:
474,319,64844,1,8,0:3:0:0:
404,286,65015,1,4,0:3:0:0:
240,337,65187,6,0,L|437:323,1,191.999994140625,6|0,1:1|1:0,0:0:0:0:
425,145,65701,1,8,0:0:0:0:
306,48,65873,1,8,0:3:0:0:
330,89,65958,1,8,0:3:0:0:
324,136,66044,1,0,1:0:0:0:
284,217,66215,1,4,1:3:0:0:
151,150,66387,1,12,0:0:0:0:
289,248,66558,1,0,1:0:0:0:
196,375,66730,6,0,P|145:357|123:307,1,95.9999970703126,2|0,3:2|1:0,0:0:0:0:
183,145,67073,1,8,0:0:0:0:
96,220,67244,1,8,0:3:0:0:
53,242,67330,1,8,0:3:0:0:
7,226,67415,1,0,1:0:0:0:
196,261,67587,1,4,1:3:0:0:
410,79,67758,2,0,P|344:84|310:119,1,95.9999970703126,10|0,0:0|0:0,0:0:0:0:
21,20,68101,6,0,P|112:31|186:134,1,207.999990478516,6|0,1:1|1:0,0:0:0:0:
196,261,68615,1,0,1:0:0:0:
7,226,68787,1,8,0:0:0:0:
11,217,68873,1,0,3:0:0:0:
198,376,69130,1,2,1:2:0:0:
311,342,69301,1,2,1:2:0:0:
175,294,69473,6,0,P|112:292|78:250,1,95.9999970703126,2|8,0:0|0:0,0:0:0:0:
321,167,69815,2,0,P|281:140|234:145,1,95.9999970703126,2|0,1:2|1:0,0:0:0:0:
433,359,70158,1,10,0:0:0:0:
421,312,70244,1,8,0:0:0:0:
445,269,70330,1,8,0:0:0:0:
495,59,70501,1,8,0:3:0:0:
444,75,70587,1,8,0:3:0:0:
398,47,70673,1,8,0:3:0:0:
256,192,70844,5,6,1:2:0:0:
103,21,72215,6,0,P|137:59|227:54,1,128,6|2,1:2|0:0,0:0:0:0:
282,44,72901,2,0,P|212:23|152:106,1,160,4|2,1:1|1:2,0:0:0:0:
157,89,73330,1,8,0:1:0:0:
160,100,73415,1,8,0:1:0:0:
163,111,73501,1,8,0:3:0:0:
89,145,73587,6,0,P|85:186|119:240,1,95.9999970703126,4|0,1:2|3:0,0:0:0:0:
386,353,73930,2,0,P|345:377|297:374,1,95.9999970703126,10|2,0:0|0:0,0:0:0:0:
157,336,74273,1,8,0:3:0:0:
277,239,74444,1,0,1:0:0:0:
459,305,74615,1,8,0:1:0:0:
478,283,74787,1,8,1:1:0:0:
469,71,74958,6,0,P|428:106|365:88,1,95.9999970703126,2|0,3:2|1:0,0:0:0:0:
159,249,75301,2,0,P|124:208|142:145,1,95.9999970703126,10|2,0:0|0:0,0:0:0:0:
263,83,75644,1,0,3:0:0:0:
109,17,75815,1,0,1:0:0:0:
26,216,75987,1,8,3:1:0:0:
32,243,76158,1,8,3:1:0:0:
233,330,76330,6,0,P|177:336|148:389,1,95.9999970703126,2|0,1:2|0:0,0:0:0:0:
333,285,76673,1,10,0:0:0:0:
203,94,76844,2,0,P|229:166|359:176,1,191.999994140625,2|0,3:2|1:0,0:0:0:0:
482,113,77358,2,0,P|439:101|378:133,1,95.9999970703126,10|0,0:0|1:0,0:0:0:0:
343,373,77701,6,0,P|412:357|427:310,1,95.9999970703126,2|0,3:2|1:0,0:0:0:0:
159,271,78044,2,0,P|192:303|192:350,1,95.9999970703126,10|0,0:0|3:0,0:0:0:0:
376,212,78387,2,0,L|398:81,1,95.9999970703126,2|0,0:0|1:0,0:0:0:0:
212,13,78730,2,0,L|227:107,1,95.9999970703126,10|0,0:0|3:0,0:0:0:0:
159,271,79073,5,0,1:0:0:0:
110,272,79159,1,0,3:0:0:0:
77,237,79244,1,0,3:0:0:0:
28,377,79415,2,0,P|80:352|87:289,1,95.9999970703126,8|0,0:0|3:0,0:0:0:0:
41,49,79758,1,2,3:2:0:0:
6,82,79843,1,0,3:0:0:0:
7,131,79929,1,0,1:0:0:0:
196,243,80101,1,8,0:0:0:0:
311,197,80273,1,0,1:0:0:0:
164,150,80444,6,0,P|112:145|79:91,1,95.9999970703126,2|0,3:2|1:0,0:0:0:0:
288,293,80787,2,0,P|254:325|252:372,1,95.9999970703126,10|0,0:0|3:0,0:0:0:0:
498,253,81130,2,0,L|369:236,1,95.9999970703126,8|0,0:3|1:0,0:0:0:0:
198,38,81473,2,0,L|327:21,1,95.9999970703126,10|0,0:0|3:0,0:0:0:0:
440,321,81815,6,0,P|485:264|430:159,1,191.999994140625,2|8,1:2|0:0,0:0:0:0:
98,93,82330,2,0,P|128:173|247:179,1,191.999994140625,0|0,3:0|1:0,0:0:0:0:
309,157,82758,1,0,3:0:0:0:
356,166,82844,1,8,0:0:0:0:
440,321,83015,1,0,1:0:0:0:
201,384,83187,5,4,1:1:0:0:
349,331,83358,2,0,L|118:357,1,191.999994140625,8|4,0:3|1:2,0:0:0:0:
46,180,83873,2,0,P|17:225|37:289,1,95.9999970703126,2|0,0:0|1:0,0:0:0:0:
255,140,84215,2,0,P|252:86|301:41,1,95.9999970703126,10|0,0:0|0:0,0:0:0:0:
0,58,84558,6,0,L|235:84,1,207.999990478516,6|10,1:2|0:0,0:0:0:0:
512,2,85073,2,0,P|436:65|327:-15,1,223.999993164063,6|0,1:1|1:0,0:0:0:0:
213,268,85587,1,12,0:0:0:0:
218,298,85758,1,0,3:0:0:0:
303,144,85930,5,14,0:0:0:0:
124,204,86101,1,8,0:1:0:0:
71,203,86187,1,8,0:1:0:0:
37,163,86273,1,8,1:1:0:0:
166,371,86444,2,0,P|231:323|362:374,1,207.999990478516,6|0,1:1|1:0,0:0:0:0:
492,187,86958,2,0,P|468:241|487:291,1,103.999995239258,10|0,0:0|3:0,0:0:0:0:
278,6,87301,6,0,P|339:30|338:180,1,207.999990478516,6|8,1:2|0:0,0:0:0:0:
87,213,87815,2,0,L|339:240,1,207.999990478516,0|0,3:0|1:0,0:0:0:0:
452,355,88330,1,8,0:1:0:0:
437,382,88501,1,8,3:1:0:0:
218,342,88673,6,0,P|155:366|119:339,1,103.999995239258,2|0,1:2|1:0,0:0:0:0:
52,68,89015,1,10,0:0:0:0:
239,7,89187,2,0,P|278:61|261:103,1,103.999995239258,2|0,0:0|3:0,0:0:0:0:
206,164,89444,1,8,0:0:0:0:
155,152,89530,1,0,1:0:0:0:
19,232,89701,1,10,0:0:0:0:
33,381,89873,2,0,P|58:377|80:363,1,51.999997619629,8|8,0:0|0:0,0:0:0:0:
290,218,90044,5,6,1:2:0:0:
290,218,90130,1,8,0:0:0:0:
290,218,90215,2,0,P|200:238|130:130,2,207.999990478516,8|4|0,0:3|1:2|1:0,0:0:0:0:
457,4,91073,2,0,P|503:31|506:97,1,103.999995239258,12|0,0:1|3:0,0:0:0:0:
282,121,91415,5,0,1:0:0:0:
416,284,91587,2,0,L|391:61,1,207.999990478516,0|0,1:0|1:0,0:0:0:0:
244,16,92101,2,0,P|211:35|175:30,1,51.999997619629,8|8,3:2|0:0,0:0:0:0:
17,87,92273,2,0,P|42:91|63:106,1,51.999997619629,8|8,3:2|0:0,0:0:0:0:
282,121,92444,2,0,P|232:173|231:225,1,103.999995239258,0|0,1:0|3:0,0:0:0:0:
0,333,92787,6,0,P|41:374|126:353,1,103.999995239258,12|0,0:0|3:0,0:0:0:0:
0,224,93130,1,0,1:0:0:0:
139,19,93301,2,0,P|233:27|273:155,1,207.999990478516,12|0,0:1|1:0,0:0:0:0:
416,319,93815,2,0,P|424:258|457:233,1,103.999995239258,12|0,0:0|3:0,0:0:0:0:
364,63,94158,5,8,0:0:0:0:
196,167,94330,1,4,1:1:0:0:
225,209,94415,1,8,0:0:0:0:
223,261,94501,1,8,0:3:0:0:
281,120,94673,2,0,L|56:159,1,207.999990478516,4|0,1:2|1:0,0:0:0:0:
24,356,95187,1,8,0:1:0:0:
69,330,95273,1,8,0:1:0:0:
116,348,95358,1,0,1:0:0:0:
330,334,95530,6,0,P|270:338|222:261,1,160,4|0,1:1|1:0,0:0:0:0:
470,192,96215,5,2,1:2:0:0:
470,192,96301,2,0,L|461:321,1,120,0|0,3:0|1:0,0:0:0:0:
391,129,96901,5,2,1:2:0:0:
391,129,96987,2,0,L|382:258,1,120,0|0,3:0|1:0,0:0:0:0:
307,69,97587,5,2,1:2:0:0:
307,69,97673,2,0,L|298:198,1,120,0|0,3:0|1:0,0:0:0:0:
161,305,98101,1,0,3:0:0:0:
161,305,98187,1,0,3:0:0:0:
161,305,98273,6,0,P|240:287|298:354,2,160,2|0|0,1:2|1:0|1:0,0:0:0:0:
95,374,99130,1,0,3:0:0:0:
2,348,99301,1,0,1:0:0:0:
71,280,99473,1,0,3:0:0:0:
71,280,99558,1,0,3:0:0:0:
71,280,99644,6,0,P|89:198|25:144,1,160,2|0,1:2|1:0,0:0:0:0:
188,21,100330,1,2,1:2:0:0:
34,25,100501,1,0,3:0:0:0:
34,25,100587,1,0,3:0:0:0:
34,25,100673,2,0,P|70:52|117:43,1,80,0|0,1:0|3:0,0:0:0:0:
172,107,100930,1,0,3:0:0:0:
172,107,101015,6,0,L|153:275,1,160,2|0,1:2|1:0,0:0:0:0:
76,334,101530,2,0,P|158:317|215:374,1,160,0|0,3:0|3:0,0:0:0:0:
310,330,102044,1,0,1:0:0:0:
127,178,102387,5,2,1:2:0:0:
127,178,102473,2,0,L|-14:157,1,120,0|0,3:0|1:0,0:0:0:0:
224,101,103073,5,2,1:2:0:0:
224,101,103159,2,0,L|83:80,1,120,0|0,3:0|1:0,0:0:0:0:
315,18,103758,5,2,1:2:0:0:
315,18,103844,2,0,L|174:-3,1,120,0|0,3:0|1:0,0:0:0:0:
390,187,104444,5,0,1:0:0:0:
390,187,104530,1,0,3:0:0:0:
390,187,104615,2,0,P|399:132|377:95,1,80,0|0,3:0|1:0,0:0:0:0:
178,200,105044,1,0,3:0:0:0:
178,200,105130,6,0,P|271:286|389:110,1,400,6|0,1:1|1:0,0:0:0:0:
256,8,106158,1,8,1:2:0:0:
66,65,106501,6,0,P|140:60|177:107,1,128,4|8,1:2|0:0,0:0:0:0:
184,173,107015,2,0,L|141:297,1,128,0|2,1:0|0:0,0:0:0:0:
118,367,107530,1,0,0:0:0:0:
275,300,107873,6,0,P|308:347|384:343,1,128,0|8,1:0|0:0,0:0:0:0:
453,346,108387,2,0,L|441:203,1,128,0|2,1:0|0:0,0:0:0:0:
434,141,108901,1,0,0:0:0:0:
200,0,109244,6,0,P|161:46|193:118,1,128,0|8,1:0|0:0,0:0:0:0:
228,167,109758,2,0,L|356:153,1,128,0|2,1:0|0:0,0:0:0:0:
434,141,110273,1,0,0:0:0:0:
256,334,110615,6,0,P|295:288|263:216,1,128,0|8,1:0|0:0,0:0:0:0:
228,167,111130,2,0,L|100:181,1,128,0|2,1:0|0:0,0:0:0:0:
22,193,111644,1,0,0:0:0:0:
66,14,111987,6,0,P|102:55|187:37,1,128,0|8,1:0|0:0,0:0:0:0:
242,15,112501,2,0,L|263:167,1,128,0|2,1:0|0:0,0:0:0:0:
270,217,113015,1,0,0:0:0:0:
58,259,113358,6,0,P|144:258|170:301,1,128,0|8,1:0|0:0,0:0:0:0:
167,363,113873,2,0,L|297:350,1,128,0|2,1:0|0:0,0:0:0:0:
370,344,114387,1,0,0:0:0:0:
492,188,114730,6,0,P|406:189|380:146,1,128,0|8,1:0|0:0,0:0:0:0:
383,84,115245,2,0,L|253:97,1,128,0|2,1:0|0:0,0:0:0:0:
180,103,115759,1,0,0:0:0:0:
79,348,116101,5,0,3:0:0:0:
76,335,116444,1,0,3:0:0:0:
73,322,116787,1,0,3:0:0:0:
50,215,116958,1,0,1:0:0:0:
31,107,117130,1,4,1:3:0:0:
194,8,117473,6,0,L|175:191,1,160,4|0,1:1|1:0,0:0:0:0:
175,183,117987,1,0,3:0:0:0:
210,302,118158,2,0,P|276:295|291:204,1,160,2|2,1:2|1:2,0:0:0:0:
288,199,118673,1,0,3:0:0:0:
315,323,118844,6,0,P|356:370|456:344,1,160,2|2,1:2|1:2,0:0:0:0:
512,270,119358,2,0,L|500:105,1,160,2|0,0:0|3:0,0:0:0:0:
492,0,119873,1,0,1:0:0:0:
286,95,120215,6,0,P|351:111|364:197,1,160,2|0,1:2|1:0,0:0:0:0:
276,264,120730,2,0,L|189:256,1,80,2|0,0:0|1:0,0:0:0:0:
108,187,121073,2,0,L|21:179,1,80,2|0,0:0|1:0,0:0:0:0:
12,178,121415,1,2,0:0:0:0:
0,357,121587,6,0,P|77:362|113:282,1,160,0|0,1:0|1:0,0:0:0:0:
139,188,122101,2,0,L|128:16,1,160,0|0,3:0|3:0,0:0:0:0:
6,91,122615,1,2,1:2:0:0:
52,184,122787,1,2,0:0:0:0:
180,102,122958,6,0,P|251:81|317:127,1,160,2|0,1:2|1:0,0:0:0:0:
349,233,123473,2,0,L|330:333,1,80,2|0,0:0|1:0,0:0:0:0:
227,381,123815,1,2,0:0:0:0:
125,299,123987,1,2,1:2:0:0:
235,232,124158,1,2,0:0:0:0:
206,307,124330,6,0,L|184:127,1,160,0|0,1:0|1:0,0:0:0:0:
168,32,124844,2,0,P|82:21|28:107,1,160,0|0,3:0|3:0,0:0:0:0:
55,210,125358,1,2,1:2:0:0:
179,184,125530,1,2,0:0:0:0:
256,110,125701,6,0,L|80:148,1,160,2|0,1:2|1:0,0:0:0:0:
7,285,126215,1,2,0:0:0:0:
196,363,126387,2,0,P|274:368|305:289,1,160,2|2,1:2|1:2,0:0:0:0:
305,287,126901,1,0,3:0:0:0:
372,75,127073,6,0,L|394:256,1,160,6|8,1:2|0:0,0:0:0:0:
451,380,127587,1,8,1:2:0:0:
459,340,127673,1,8,0:0:0:0:
487,311,127758,1,8,0:3:0:0:
347,380,127930,1,8,0:3:0:0:
172,254,128101,1,4,0:3:0:0:
23,380,128444,6,0,L|49:181,1,191.999994140625,6|8,1:2|0:0,0:0:0:0:
214,75,128958,2,0,P|123:92|59:9,1,191.999994140625,6|8,1:1|0:0,0:0:0:0:
217,274,129473,2,0,P|345:202|456:376,1,383.99998828125,6|0,1:2|1:0,0:0:0:0:
458,23,130501,5,10,0:0:0:0:
394,67,130673,1,8,0:3:0:0:
423,138,130844,1,0,1:0:0:0:
487,94,131015,1,4,0:3:0:0:
198,69,131187,6,0,P|234:111|331:105,1,160,6|0,1:2|0:0,0:0:0:0:
138,136,131701,1,0,1:0:0:0:
229,349,131873,2,0,L|208:160,1,160,8|0,0:0|3:0,0:0:0:0:
161,37,132387,1,2,1:2:0:0:
51,219,132558,5,2,3:2:0:0:
219,165,132730,1,8,0:0:0:0:
355,285,132901,1,0,1:0:0:0:
355,309,133073,1,4,0:3:0:0:
143,373,133244,2,0,P|217:379|268:294,1,160,10|2,0:0|1:2,0:0:0:0:
0,46,133930,6,0,L|214:23,1,191.999994140625,6|0,1:2|1:0,0:0:0:0:
339,170,134444,2,0,P|451:175|488:83,1,191.999994140625,6|0,1:1|1:0,0:0:0:0:
274,368,134958,2,0,P|209:242|3:307,1,383.99998828125,6|0,1:2|1:0,0:0:0:0:
93,20,135987,5,10,0:0:0:0:
87,94,136158,1,8,0:3:0:0:
24,53,136330,1,4,0:3:0:0:
260,76,136501,6,0,L|65:57,1,191.999994140625,6|0,1:1|1:0,0:0:0:0:
1,239,137015,1,8,0:0:0:0:
108,355,137187,1,8,0:3:0:0:
113,307,137273,1,8,0:3:0:0:
145,272,137358,1,0,1:0:0:0:
271,236,137530,1,4,1:3:0:0:
379,356,137701,1,12,0:0:0:0:
230,229,137873,1,0,1:0:0:0:
377,114,138044,6,0,P|322:145|272:126,1,95.9999970703126,2|0,3:2|1:0,0:0:0:0:
76,40,138387,1,8,0:0:0:0:
186,46,138558,1,8,0:3:0:0:
215,84,138644,1,8,0:3:0:0:
211,132,138730,1,0,1:0:0:0:
265,3,138901,1,4,1:3:0:0:
25,167,139073,2,0,P|57:221|109:229,1,95.9999970703126,10|0,0:0|0:0,0:0:0:0:
447,306,139415,6,0,P|406:367|270:347,1,207.999990478516,6|0,1:1|1:0,0:0:0:0:
211,255,139930,1,0,1:0:0:0:
374,134,140101,1,8,0:0:0:0:
378,142,140187,1,0,3:0:0:0:
478,370,140444,1,2,1:2:0:0:
351,314,140615,1,2,1:2:0:0:
475,191,140787,6,0,P|451:247|474:308,1,95.9999970703126,2|8,0:0|0:0,0:0:0:0:
324,34,141130,2,0,P|348:90|325:151,1,95.9999970703126,2|0,1:2|1:0,0:0:0:0:
68,66,141473,1,10,0:0:0:0:
111,46,141558,1,8,0:0:0:0:
157,59,141644,1,8,0:0:0:0:
219,355,141815,1,8,0:3:0:0:
170,375,141900,1,8,0:3:0:0:
119,357,141986,1,8,0:3:0:0:
256,192,142158,5,6,1:2:0:0:
332,281,143530,6,0,P|396:269|451:322,1,128,6|2,1:2|0:0,0:0:0:0:
434,379,144215,2,0,P|402:319|461:231,1,160,6|2,1:1|1:2,0:0:0:0:
451,238,144644,1,8,0:1:0:0:
462,235,144730,1,8,0:1:0:0:
473,232,144815,1,8,0:3:0:0:
486,151,144901,6,0,P|433:154|394:93,1,95.9999970703126,4|0,1:2|3:0,0:0:0:0:
105,79,145244,2,0,P|152:55|155:-17,1,95.9999970703126,10|2,0:0|0:0,0:0:0:0:
307,39,145587,1,8,0:3:0:0:
345,196,145758,1,0,1:0:0:0:
127,272,145930,1,8,0:1:0:0:
123,243,146101,1,8,1:1:0:0:
313,337,146273,6,0,P|356:370|415:353,1,95.9999970703126,2|0,3:2|1:0,0:0:0:0:
465,62,146615,2,0,P|498:105|481:164,1,95.9999970703126,10|2,0:0|0:0,0:0:0:0:
378,236,146958,1,0,3:0:0:0:
206,178,147130,1,0,1:0:0:0:
336,17,147301,1,8,3:1:0:0:
352,41,147473,1,8,3:1:0:0:
156,92,147644,6,0,P|104:91|73:55,1,95.9999970703126,2|0,1:2|0:0,0:0:0:0:
269,114,147987,1,10,0:0:0:0:
60,261,148158,2,0,P|150:241|226:328,1,191.999994140625,2|0,3:2|1:0,0:0:0:0:
411,342,148673,2,0,P|364:372|318:367,1,95.9999970703126,10|0,0:0|1:0,0:0:0:0:
405,115,149015,6,0,P|373:157|391:215,1,95.9999970703126,2|0,3:2|1:0,0:0:0:0:
161,367,149358,2,0,P|203:346|218:302,1,95.9999970703126,10|0,0:0|3:0,0:0:0:0:
37,114,149701,2,0,L|58:240,1,95.9999970703126,2|0,0:0|1:0,0:0:0:0:
251,64,150044,2,0,L|230:190,1,95.9999970703126,10|0,0:0|3:0,0:0:0:0:
111,72,150387,5,0,1:0:0:0:
62,71,150473,1,0,3:0:0:0:
31,34,150558,1,0,3:0:0:0:
131,156,150730,2,0,P|162:194|146:261,1,95.9999970703126,8|0,0:0|3:0,0:0:0:0:
377,115,151073,1,2,3:2:0:0:
370,68,151159,1,0,3:0:0:0:
398,30,151244,1,0,1:0:0:0:
505,229,151415,1,8,0:0:0:0:
445,330,151587,1,0,1:0:0:0:
336,211,151758,6,0,P|379:253|426:250,1,95.9999970703126,2|0,3:2|1:0,0:0:0:0:
165,383,152101,2,0,P|208:341|255:344,1,95.9999970703126,10|0,0:0|3:0,0:0:0:0:
11,205,152444,2,0,L|134:222,1,95.9999970703126,8|0,0:3|1:0,0:0:0:0:
384,53,152787,2,0,L|261:70,1,95.9999970703126,10|0,0:0|3:0,0:0:0:0:
64,289,153130,6,0,P|27:241|111:138,1,191.999994140625,2|8,1:2|0:0,0:0:0:0:
443,344,153644,2,0,P|427:292|280:255,1,191.999994140625,0|0,3:0|1:0,0:0:0:0:
229,314,154073,1,0,3:0:0:0:
182,304,154158,1,8,0:0:0:0:
11,205,154330,1,0,1:0:0:0:
212,73,154501,5,4,1:1:0:0:
352,140,154673,2,0,L|138:116,1,191.999994140625,8|4,0:3|1:2,0:0:0:0:
0,4,155187,2,0,P|39:39|109:1,1,95.9999970703126,2|0,0:0|1:0,0:0:0:0:
182,304,155530,2,0,P|213:250|278:239,1,95.9999970703126,10|0,0:0|0:0,0:0:0:0:
6,367,155873,6,0,L|247:339,1,207.999990478516,6|10,1:2|0:0,0:0:0:0:
508,369,156387,2,0,P|388:366|361:259,1,223.999993164063,6|0,1:1|1:0,0:0:0:0:
484,28,156901,1,12,0:0:0:0:
491,58,157073,1,0,3:0:0:0:
319,70,157244,5,14,0:0:0:0:
480,276,157415,1,8,0:1:0:0:
491,225,157501,1,8,0:1:0:0:
470,177,157587,1,8,1:1:0:0:
226,292,157758,2,0,P|291:216|411:268,1,207.999990478516,6|0,1:1|1:0,0:0:0:0:
144,51,158273,2,0,P|183:89|246:87,1,103.999995239258,10|0,0:0|3:0,0:0:0:0:
26,320,158615,6,0,P|112:301|104:171,1,207.999990478516,6|8,1:2|0:0,0:0:0:0:
349,18,159130,2,0,L|112:55,1,207.999990478516,0|0,3:0|1:0,0:0:0:0:
11,212,159644,1,8,0:1:0:0:
21,241,159815,1,8,3:1:0:0:
194,353,159987,6,0,P|245:386|293:375,1,103.999995239258,2|0,1:2|1:0,0:0:0:0:
456,114,160330,1,10,0:0:0:0:
309,15,160501,2,0,P|260:78|285:120,1,103.999995239258,2|0,0:0|3:0,0:0:0:0:
316,170,160758,1,8,0:0:0:0:
367,163,160844,1,0,1:0:0:0:
499,228,161015,1,10,0:0:0:0:
417,373,161187,2,0,P|408:331|377:303,1,51.999997619629,8|8,0:0|0:0,0:0:0:0:
169,188,161358,5,6,1:2:0:0:
169,188,161444,1,8,0:0:0:0:
169,188,161530,2,0,P|238:179|313:307,2,207.999990478516,8|4|0,0:3|1:2|1:0,0:0:0:0:
17,11,162387,2,0,P|80:46|134:12,1,103.999995239258,12|0,0:1|3:0,0:0:0:0:
251,215,162730,5,0,1:0:0:0:
94,355,162901,2,0,L|54:148,1,207.999990478516,0|0,1:0|1:0,0:0:0:0:
267,110,163415,2,0,P|243:113|219:132,1,51.999997619629,8|8,3:2|0:0,0:0:0:0:
195,301,163587,2,0,P|215:316|240:320,1,51.999997619629,8|8,3:2|0:0,0:0:0:0:
458,352,163758,2,0,P|392:384|349:370,1,103.999995239258,0|0,1:0|3:0,0:0:0:0:
137,146,164101,6,0,P|178:206|222:216,1,103.999995239258,12|0,0:0|3:0,0:0:0:0:
352,270,164444,1,0,1:0:0:0:
503,9,164615,2,0,P|460:63|310:36,1,207.999990478516,12|0,0:1|1:0,0:0:0:0:
468,257,165130,2,0,P|474:186|509:159,1,103.999995239258,12|0,0:0|3:0,0:0:0:0:
274,145,165473,5,8,0:0:0:0:
210,317,165644,1,4,1:1:0:0:
259,332,165730,1,8,0:0:0:0:
290,373,165815,1,8,0:3:0:0:
143,264,165987,2,0,L|373:298,1,207.999990478516,4|0,1:2|1:0,0:0:0:0:
298,307,166415,1,8,0:1:0:0:
246,315,166501,1,8,0:1:0:0:
194,323,166587,1,8,0:1:0:0:
142,332,166673,1,8,1:3:0:0:
91,341,166758,1,0,1:0:0:0:
39,351,166844,5,4,1:1:0:0:
145,96,167187,1,0,1:0:0:0:
129,26,167444,1,2,0:0:0:0:
129,26,167530,2,0,P|82:57|11:-7,2,160,2|0|0,1:2|1:0|1:0,0:0:0:0:
235,82,168387,1,0,3:0:0:0:
165,191,168558,2,0,P|153:132|61:101,1,160,0|0,1:0|1:0,0:0:0:0:
19,308,169073,2,0,P|38:285|42:246,1,40,2|0,0:0|0:0,0:0:0:0:
9,177,169244,1,2,1:2:0:0:
132,314,169415,1,0,3:0:0:0:
67,374,169587,6,0,L|235:356,1,160,2|2,1:2|1:2,0:0:0:0:
359,328,170101,2,0,P|300:339|240:253,1,160,2|0,0:0|3:0,0:0:0:0:
283,166,170615,1,0,1:0:0:0:
158,235,170787,1,0,3:0:0:0:
158,235,170873,1,0,3:0:0:0:
158,235,170958,6,0,P|217:224|277:310,1,160,0|0,1:0|1:0,0:0:0:0:
278,309,171473,1,0,3:0:0:0:
478,343,171644,5,2,1:2:0:0:
471,314,171730,1,0,3:0:0:0:
466,285,171815,1,0,3:0:0:0:
460,256,171901,1,0,3:0:0:0:
386,221,171987,5,2,1:2:0:0:
378,263,172073,1,0,3:0:0:0:
372,305,172158,1,0,3:0:0:0:
363,347,172244,1,0,3:0:0:0:
387,313,172330,6,0,L|356:124,1,160,4|0,1:2|1:0,0:0:0:0:
442,42,172844,2,0,L|473:231,1,160,2|2,0:0|0:0,0:0:0:0:
286,155,173358,2,0,P|330:131|369:146,1,80,0|2,1:0|0:0,0:0:0:0:
187,95,173701,5,0,1:0:0:0:
187,95,173787,2,0,P|222:152|290:152,1,120,2|0,0:0|1:0,0:0:0:0:
286,155,174215,1,0,3:0:0:0:
452,45,174387,5,2,1:2:0:0:
420,306,174615,1,2,3:2:0:0:
158,269,174844,1,2,3:2:0:0:
62,321,175073,5,0,1:0:0:0:
62,321,175158,2,0,P|135:261|31:152,1,280,2|0,0:0|1:0,0:0:0:0:
132,22,175873,6,0,L|123:81,2,53.3333333333333,2|2|2,0:0|0:0|1:2,0:0:0:0:
34,151,176215,1,2,0:0:0:0:
95,195,176330,1,2,0:0:0:0:
164,168,176444,2,0,L|177:226,2,40,0|2|2,1:2|0:0|0:0,0:0:0:0:
2,256,176787,5,2,1:2:0:0:
22,268,176873,1,2,0:0:0:0:
41,281,176958,2,0,L|28:339,1,40,2|2,0:0|0:0,0:0:0:0:
151,368,177130,5,2,1:2:0:0:
165,348,177215,1,0,3:0:0:0:
184,334,177301,1,0,3:0:0:0:
207,328,177387,1,0,3:0:0:0:
231,329,177473,1,2,1:2:0:0:
273,340,177558,1,2,0:0:0:0:
322,313,177644,1,2,0:0:0:0:
333,249,177730,1,2,0:0:0:0:
287,186,177815,6,0,P|358:236|426:209,1,160,6|0,1:2|1:0,0:0:0:0:
511,147,178330,1,2,0:0:0:0:
508,135,178415,1,2,0:0:0:0:
506,123,178501,1,2,1:2:0:0:
240,12,178758,1,2,0:0:0:0:
116,272,179015,2,0,P|148:301|170:301,1,40,2|0,0:0|0:0,0:0:0:0:
200,232,179187,6,0,L|23:268,1,160,2|0,1:2|1:0,0:0:0:0:
1,36,179701,2,0,P|42:28|92:143,1,160,2|2,0:0|0:0,0:0:0:0:
43,263,180215,2,0,P|17:206|38:175,1,80,2|0,1:2|3:0,0:0:0:0:
190,63,180558,6,0,P|168:107|113:101,2,80,2|2|2,1:2|0:0|1:2,0:0:0:0:
15,116,181073,2,0,L|265:144,1,240,2|0,0:0|1:0,0:0:0:0:
288,278,181758,1,0,3:0:0:0:
288,278,181844,1,0,3:0:0:0:
288,278,181930,6,0,P|357:282|397:373,1,160,2|0,1:2|1:0,0:0:0:0:
397,370,182444,1,0,3:0:0:0:
456,204,182615,2,0,P|419:288|273:257,1,240,2|0,1:2|3:0,0:0:0:0:
30,380,183301,6,0,L|220:351,1,160,6|0,1:2|1:0,0:0:0:0:
204,353,183815,1,0,3:0:0:0:
92,214,183987,1,0,1:0:0:0:
92,214,184073,1,0,3:0:0:0:
92,214,184158,2,0,P|130:239|135:287,1,80,0|0,3:0|1:0,0:0:0:0:
332,145,184501,1,2,0:0:0:0:
316,142,184587,1,2,0:0:0:0:
300,140,184673,6,0,P|242:184|242:277,1,160,2|2,1:2|1:2,0:0:0:0:
251,286,185101,1,2,0:0:0:0:
272,300,185187,2,0,P|234:259|127:281,1,160,2|0,0:0|0:0,0:0:0:0:
126,354,185615,2,0,L|8:375,1,120,2|2,0:0|3:2,0:0:0:0:
212,160,186044,5,2,1:2:0:0:
184,86,186730,2,0,P|158:94|128:87,1,40,2|0,0:0|0:0,0:0:0:0:
0,155,186901,2,0,P|41:182|96:167,1,80,2|2,0:0|0:0,0:0:0:0:
110,180,187158,1,2,0:0:0:0:
115,169,187244,1,2,0:0:0:0:
72,109,187330,1,2,0:0:0:0:
66,85,187416,5,6,1:2:0:0:
397,38,187758,1,2,0:0:0:0:
366,204,187930,1,0,1:0:0:0:
360,165,188016,1,8,0:3:0:0:
339,132,188101,1,8,0:3:0:0:
470,98,188273,1,0,1:0:0:0:
449,281,188444,5,2,0:3:0:0:
424,328,188558,5,2,0:3:0:0:
440,379,188673,5,2,0:3:0:0:
256,192,188787,12,0,190073,0:0:0:0:
363,328,190158,5,6,0:1:0:0:
363,328,190244,2,0,P|323:353|264:337,1,96,0|0,0:0|0:0,0:0:0:0:
348,178,190673,2,0,P|390:163|482:276,1,192,2|0,0:0|0:0,0:0:0:0:
152,202,191530,5,2,0:0:0:0:
152,202,191616,2,0,P|192:227|251:211,1,96,0|0,0:0|0:0,0:0:0:0:
167,52,192045,2,0,P|125:37|33:150,1,192,2|0,0:0|0:0,0:0:0:0:
210,342,192901,5,2,0:0:0:0:
210,342,192987,2,0,P|152:369|110:350,1,96,0|0,0:0|0:0,0:0:0:0:
268,213,193415,2,0,P|328:256|315:363,1,192,2|0,0:0|0:0,0:0:0:0:
142,238,194187,1,0,0:0:0:0:
142,238,194273,6,0,P|70:255|17:215,1,128,2|0,0:0|0:0,0:0:0:0:
245,92,194958,2,0,P|300:120|360:101,1,128,2|0,0:0|0:0,0:0:0:0:
79,14,195644,5,2,0:0:0:0:
79,14,195730,2,0,P|21:46|31:137,1,160,0|0,0:0|0:0,0:0:0:0:
166,262,196330,2,0,P|128:225|-2:260,1,192,2|0,0:0|0:0,0:0:0:0:
174,366,197015,5,2,0:0:0:0:
174,366,197101,2,0,P|241:368|272:344,1,96,0|0,0:0|0:0,0:0:0:0:
479,242,197701,2,0,P|458:301|482:358,1,128,2|0,0:0|0:0,0:0:0:0:
423,72,198387,5,2,0:0:0:0:
423,72,198473,2,0,P|302:8|288:213,1,416,0|0,0:0|0:0,0:0:0:0:
143,44,199759,5,2,0:0:0:0:
143,44,199844,2,0,P|207:121|335:98,1,224,0|2,0:0|0:0,0:0:0:0:
365,45,200787,1,2,0:0:0:0:
502,38,201130,6,0,P|436:77|475:187,1,191.999994140625,6|2,1:2|3:2,0:0:0:0:
244,259,201644,1,2,1:2:0:0:
389,374,201815,2,0,P|429:311|327:238,1,191.999994140625,8|0,0:0|3:0,0:0:0:0:
222,342,202330,1,0,1:0:0:0:
35,125,202501,6,0,P|69:193|187:186,1,191.999994140625,2|0,0:0|1:0,0:0:0:0:
387,78,203015,1,2,1:2:0:0:
252,19,203187,2,0,L|271:222,1,191.999994140625,8|2,0:0|3:2,0:0:0:0:
271,219,203701,1,0,3:0:0:0:
444,370,203873,6,0,P|473:336|391:229,1,191.999994140625,2|0,1:2|3:0,0:0:0:0:
289,355,204387,1,0,1:0:0:0:
23,160,204558,2,0,P|5:97|33:49,1,95.9999970703126,8|0,0:0|3:0,0:0:0:0:
175,331,204901,2,0,P|112:349|64:321,1,95.9999970703126,0|0,3:0|1:0,0:0:0:0:
288,18,205244,6,0,P|351:33|379:82,1,95.9999970703126,2|8,3:2|0:0,0:0:0:0:
203,147,205587,1,2,1:2:0:0:
420,376,205758,2,0,P|493:325|471:206,1,191.999994140625,2|8,1:2|0:0,0:0:0:0:
175,331,206273,2,0,P|221:336|256:368,1,95.9999970703126,2|0,1:2|3:0,0:0:0:0:
344,173,206615,5,6,1:2:0:0:
344,173,206701,1,8,0:0:0:0:
344,173,206787,2,0,P|335:102|351:73,1,95.9999970703126,0|8,1:0|0:3,0:0:0:0:
497,326,207130,2,0,P|430:361|327:277,1,191.999994140625,0|0,1:0|1:0,0:0:0:0:
67,125,207644,2,0,P|112:162|175:136,1,95.9999970703126,12|0,0:1|3:0,0:0:0:0:
363,219,207987,5,0,1:0:0:0:
237,67,208158,2,0,L|259:294,1,191.999994140625,0|0,1:0|1:0,0:0:0:0:
140,370,208673,1,8,0:3:0:0:
122,325,208758,1,0,3:0:0:0:
136,279,208844,1,0,1:0:0:0:
31,174,209015,2,0,P|42:118|7:58,1,95.9999970703126,0|8,1:0|0:3,0:0:0:0:
268,177,209358,6,0,P|204:129|104:157,1,160,6|2,1:2|0:0,0:0:0:0:
512,9,210044,6,0,P|452:74|336:47,1,191.999994140625,6|2,1:1|0:0,0:0:0:0:
349,47,210730,5,2,1:2:0:0:
428,155,210901,1,0,1:0:0:0:
409,287,211073,1,2,1:2:0:0:
301,367,211244,1,0,1:0:0:0:
22,272,211415,5,10,1:2:0:0:
171,167,211587,1,8,1:2:0:0:
351,200,211758,1,10,1:2:0:0:
454,351,211930,1,8,1:2:0:0:
459,367,212101,6,0,P|471:336|463:300,1,64,2|8,0:0|0:3,0:0:0:0:
431,232,212358,1,8,0:3:0:0:
465,157,212444,1,10,0:0:0:0:
397,21,212615,6,0,P|355:59|276:39,1,120.000004577637,6|0,1:2|0:0,0:0:0:0:
195,114,212873,1,0,3:0:0:0:
148,87,212958,1,2,1:2:0:0:
0,351,213130,2,0,P|58:345|101:384,1,120.000004577637,14|0,0:1|1:0,0:0:0:0:
365,184,213473,5,2,3:2:0:0:
228,309,213644,1,0,1:0:0:0:
35,147,213815,2,0,P|8:97|17:47,1,103.999995239258,10|2,0:0|0:0,0:0:0:0:
169,0,214158,1,0,3:0:0:0:
280,175,214330,1,0,1:0:0:0:
46,252,214501,1,8,3:1:0:0:
26,227,214673,1,8,3:1:0:0:
271,203,214844,6,0,P|210:207|180:243,1,103.999995239258,2|0,1:2|0:0,0:0:0:0:
361,119,215187,1,10,0:0:0:0:
471,352,215358,2,0,P|399:375|308:263,1,207.999990478516,2|0,3:2|1:0,0:0:0:0:
469,164,215873,2,0,P|508:208|505:274,1,103.999995239258,10|0,0:0|1:0,0:0:0:0:
300,33,216215,6,0,P|357:67|410:44,1,103.999995239258,2|0,3:2|1:0,0:0:0:0:
217,221,216558,2,0,P|159:253|152:310,1,103.999995239258,10|0,0:0|3:0,0:0:0:0:
65,95,216901,2,0,L|167:111,1,103.999995239258,2|0,0:0|1:0,0:0:0:0:
391,295,217244,2,0,L|288:311,1,103.999995239258,10|0,0:0|3:0,0:0:0:0:
38,327,217587,5,0,1:0:0:0:
73,365,217673,1,0,3:0:0:0:
124,369,217758,1,0,3:0:0:0:
217,221,217930,2,0,P|188:276|205:323,1,103.999995239258,8|0,0:0|3:0,0:0:0:0:
44,73,218273,1,2,3:2:0:0:
66,119,218358,1,0,3:0:0:0:
51,169,218444,1,0,1:0:0:0:
259,135,218615,1,8,0:0:0:0:
339,221,218787,1,0,1:0:0:0:
344,41,218958,6,0,P|291:38|257:0,1,103.999995239258,2|0,3:2|1:0,0:0:0:0:
71,277,219301,2,0,P|99:232|149:222,1,103.999995239258,10|0,0:0|3:0,0:0:0:0:
455,243,219644,2,0,L|471:135,1,103.999995239258,8|0,0:3|1:0,0:0:0:0:
248,378,219987,2,0,L|232:270,1,103.999995239258,10|0,0:0|3:0,0:0:0:0:
43,14,220330,6,0,P|58:66|215:63,1,207.999990478516,2|8,1:2|0:0,0:0:0:0:
405,306,220844,2,0,P|373:224|230:207,1,207.999990478516,0|0,3:0|1:0,0:0:0:0:
169,217,221273,1,0,3:0:0:0:
118,205,221358,1,8,0:0:0:0:
11,351,221530,1,0,1:0:0:0:
286,363,221701,5,4,1:1:0:0:
97,339,221873,2,0,L|331:306,1,207.999990478516,8|4,0:3|1:2,0:0:0:0:
510,384,222387,2,0,P|482:329|501:278,1,103.999995239258,2|0,0:0|1:0,0:0:0:0:
240,179,222730,2,0,P|235:128|198:93,1,103.999995239258,10|0,0:0|0:0,0:0:0:0:
512,11,223073,6,0,L|289:45,1,223.999993164063,6|10,1:2|0:0,0:0:0:0:
90,330,223587,2,0,P|196:373|282:278,1,240.000009155274,6|0,1:1|1:0,0:0:0:0:
87,54,224101,1,12,0:0:0:0:
80,87,224273,1,0,3:0:0:0:
237,150,224444,5,14,0:0:0:0:
10,209,224615,1,8,0:1:0:0:
50,247,224701,1,8,0:1:0:0:
106,244,224787,1,8,1:1:0:0:
413,115,224958,2,0,P|340:187|235:147,1,223.999993164063,6|0,1:1|1:0,0:0:0:0:
23,5,225473,2,0,P|70:34|53:126,1,111.999996582031,10|0,0:0|3:0,0:0:0:0:
15,379,225815,6,0,P|83:305|227:352,1,223.999993164063,6|8,1:2|0:0,0:0:0:0:
489,278,226330,2,0,L|263:244,1,223.999993164063,0|0,3:0|1:0,0:0:0:0:
55,192,226844,1,8,0:1:0:0:
47,159,227015,1,8,3:1:0:0:
183,24,227187,6,0,P|242:8|298:58,1,111.999996582031,2|0,1:2|1:0,0:0:0:0:
379,280,227530,1,10,0:0:0:0:
227,383,227701,2,0,P|177:345|185:272,1,111.999996582031,2|0,0:0|3:0,0:0:0:0:
238,217,227958,1,8,0:0:0:0:
293,227,228044,1,0,1:0:0:0:
454,178,228215,1,10,0:0:0:0:
390,18,228387,2,0,P|407:47|408:88,1,55.9999982910157,8|8,0:0|0:0,0:0:0:0:
161,152,228558,5,6,1:2:0:0:
161,152,228644,1,8,0:0:0:0:
161,152,228730,2,0,P|201:224|337:197,2,223.999993164063,8|4|0,0:3|1:2|1:0,0:0:0:0:
17,361,229587,2,0,P|64:323|147:332,1,111.999996582031,12|0,0:1|3:0,0:0:0:0:
22,105,229930,5,0,1:0:0:0:
253,154,230101,2,0,L|30:203,1,223.999993164063,0|0,1:0|1:0,0:0:0:0:
128,38,230615,2,0,P|165:25|192:32,1,55.9999982910157,8|8,3:2|0:0,0:0:0:0:
373,84,230787,2,0,P|347:72|320:73,1,55.9999982910157,8|8,3:2|0:0,0:0:0:0:
192,247,230958,2,0,P|153:189|175:137,1,111.999996582031,0|0,1:0|3:0,0:0:0:0:
471,300,231301,6,0,P|417:368|267:352,1,223.999993164063,6|0,1:2|1:0,0:0:0:0:
81,270,231815,1,2,1:2:0:0:
341,168,231987,1,0,1:0:0:0:
367,217,232073,1,0,3:0:0:0:
353,270,232158,1,0,1:0:0:0:
128,38,232330,2,0,P|78:100|94:151,1,111.999996582031,2|0,1:2|1:0,0:0:0:0:
487,88,232673,5,2,1:2:0:0:
299,36,232844,1,0,1:0:0:0:
249,224,233015,1,0,1:0:0:0:
435,274,233187,1,0,1:0:0:0:
16,170,233358,5,10,1:2:0:0:
222,112,233529,1,8,1:2:0:0:
277,319,233700,1,8,1:2:0:0:
73,374,233872,1,8,1:2:0:0:
147,239,234044,6,0,P|233:303|340:265,1,223.999993164063,6|0,1:2|1:0,0:0:0:0:
54,50,234558,2,0,P|90:153|-3:230,1,240.000009155274,12|0,0:0|1:0,0:0:0:0:
222,382,235073,2,0,P|217:317|253:272,1,111.999996582031,12|0,0:1|3:0,0:0:0:0:
424,242,235415,5,0,1:0:0:0:
195,115,235587,2,0,P|254:179|396:128,1,240.000009155274,12|0,0:0|1:0,0:0:0:0:
469,382,236101,2,0,P|474:317|438:272,1,111.999996582031,12|0,0:1|3:0,0:0:0:0:
370,25,236444,2,0,P|435:30|480:-6,1,111.999996582031,14|0,0:0|3:0,0:0:0:0:
156,168,236787,6,0,P|264:150|347:270,1,240.000009155274,14|0,0:0|1:0,0:0:0:0:
61,82,237301,2,0,P|-11:223|55:321,1,256,12|0,0:1|1:0,0:0:0:0:
288,349,237815,2,0,P|216:359|166:307,1,120.000004577637,12|0,0:0|3:0,0:0:0:0:
364,83,238158,5,12,0:0:0:0:
173,139,238330,1,0,1:0:0:0:
156,81,238416,1,8,0:0:0:0:
183,28,238501,1,8,0:3:0:0:
288,349,238673,2,0,P|345:299|267:162,1,240.000009155274,4|0,1:1|1:0,0:0:0:0:
35,110,239187,2,0,P|72:134|104:134,1,60.0000022888184,8|0,0:0|0:0,0:0:0:0:
242,87,239358,2,0,P|270:79|293:61,1,60.0000022888184,2|2,1:2|0:0,0:0:0:0:
467,244,239530,5,6,1:2:0:0:
289,166,239701,2,0,P|230:183|201:241,1,111.999996582031,8|0,0:3|1:0,0:0:0:0:
482,383,240044,2,0,P|517:336|433:175,1,223.999993164063,6|0,1:1|1:0,0:0:0:0:
348,318,240558,1,8,0:0:0:0:
121,258,240730,1,2,3:2:0:0:
263,117,240901,5,8,3:2:0:0:
289,166,240987,1,0,3:0:0:0:
278,221,241073,1,0,1:0:0:0:
202,321,241244,1,0,1:0:0:0:
19,71,241415,2,0,P|71:7|221:33,1,223.999993164063,10|0,0:0|1:0,0:0:0:0:
43,258,241930,2,0,P|24:227|27:185,1,55.9999982910157,10|2,0:0|0:0,0:0:0:0:
155,151,242101,2,0,P|172:119|210:100,1,55.9999982910157,2|2,3:2|0:0,0:0:0:0:
454,225,242273,5,14,0:0:0:0:
297,384,242444,2,0,P|299:310|265:262,1,111.999996582031,8|0,0:3|1:0,0:0:0:0:
468,35,242787,2,0,P|410:127|470:235,1,223.999993164063,6|0,1:1|1:0,0:0:0:0:
242,26,243301,2,0,P|293:60|340:49,1,111.999996582031,10|0,0:0|3:0,0:0:0:0:
57,244,243644,6,0,P|124:211|266:337,1,287.999991210938,6|2,1:2|0:3,0:0:0:0:
261,346,244244,1,2,0:3:0:0:
256,359,244330,2,0,P|203:292|277:180,1,224,2|0,0:3|0:0,0:0:0:0:
339,162,245015,5,6,1:2:0:0:
256,192,245101,12,0,247415,0:0:0:0:
256,192,247587,5,6,1:1:0:0:
256,192,247673,12,0,253244,0:0:0:0:
