osu file format v14

[General]
AudioFilename: audio.mp3
AudioLeadIn: 0
PreviewTime: 72575
Countdown: 0
SampleSet: None
StackLeniency: 0.7
Mode: 2
LetterboxInBreaks: 0
WidescreenStoryboard: 1

[Editor]
DistanceSpacing: 1.9
BeatDivisor: 4
GridSize: 8
TimelineZoom: 1.6

[Metadata]
Title:First Love Syndrome
TitleUnicode:First Love Syndrome
Artist:Ceui
ArtistUnicode:Ceui
Creator:-Luminate
Version:Rain
Source:初恋*シンドローム
Tags:Syndrome 恋シロ KoiShiro Short Version Campus eroge video game opening op Lets start my first love with you again
BeatmapID:2130925
BeatmapSetID:1018200

[Difficulty]
HPDrainRate:6
CircleSize:4
OverallDifficulty:9
ApproachRate:9
SliderMultiplier:1.7
SliderTickRate:2

[Events]
//Background and Video events
0,0,"yes.jpg",0,0
//Break Periods
//Storyboard Layer 0 (Background)
//Storyboard Layer 1 (Fail)
//Storyboard Layer 2 (Pass)
//Storyboard Layer 3 (Foreground)
//Storyboard Layer 4 (Overlay)
//Storyboard Sound Samples

[TimingPoints]
61,685.714285714286,4,2,1,50,1,0
1432,-55.5555555555556,4,2,1,60,0,0
13775,342.857142857143,4,2,1,70,1,0
14632,-100,4,2,2,55,0,0
14803,-100,4,2,1,70,0,0
15317,-100,4,2,2,55,0,0
15488,-100,4,2,1,70,0,0
16689,-100,4,2,2,55,0,0
16860,-100,4,2,1,70,0,0
17375,-100,4,2,2,55,0,0
17546,-100,4,2,1,70,0,0
19260,-100,4,2,1,75,0,0
24746,-83.3333333333333,4,2,1,80,0,0
34517,-83.3333333333333,4,2,1,60,0,0
36060,-100,4,2,1,55,0,0
46260,-100,4,2,1,5,0,0
46346,-100,4,2,1,55,0,0
46689,-100,4,2,4,55,0,0
57660,-100,4,2,1,70,0,0
68632,-90.9090909090909,4,2,1,70,0,0
71375,-90.9090909090909,4,2,1,100,0,0
72746,-90.9090909090909,4,2,1,75,0,0
74117,-83.3333333333333,4,2,1,80,0,1
105660,-100,4,2,1,50,0,0
107203,-100,4,2,69,5,0,0
107375,-100,4,2,3,50,0,0
107546,-100,4,2,3,50,0,0
107717,-100,4,2,69,5,0,0
107889,-100,4,2,3,50,0,0
108060,-100,4,2,3,50,0,0
108232,-100,4,2,3,50,0,0
108403,-100,4,2,69,5,0,0
108575,-100,4,2,3,50,0,0
108746,-100,4,2,3,50,0,0
108917,-100,4,2,69,5,0,0
109089,-100,4,2,3,50,0,0
109260,-100,4,2,69,5,0,0
109432,-100,4,2,3,50,0,0
109603,-100,4,2,3,60,0,0
109775,-100,4,2,3,30,0,0
111146,-100,4,2,3,20,0,0
112517,-100,4,2,3,10,0,0

[Colours]
Combo1 : 201,112,90
Combo2 : 254,226,114
Combo3 : 252,158,221

[HitObjects]
152,296,1432,6,0,P|112:216|176:168,1,152.999995330811,0|0,0:0|0:0,0:0:0:0:
352,216,2118,2,0,P|392:160|312:96,1,152.999995330811,0|0,0:0|0:0,0:0:0:0:
112,272,2803,6,0,P|72:256|48:144,1,152.999995330811,2|0,0:3|0:0,0:0:0:0:
184,160,3318,2,0,P|320:112|352:32,1,229.499992996216,2|0,0:0|0:0,0:0:0:0:
120,302,4175,2,0,P|72:296|32:192,1,152.999995330811,2|0,0:3|0:0,0:0:0:0:
184,208,4690,2,0,P|328:144|344:64,1,229.499992996216,2|0,0:0|0:0,0:0:0:0:
128,304,5546,6,0,L|304:288,1,152.999995330811,2|0,0:3|0:0,0:0:0:0:
440,264,6061,2,0,P|400:184|264:144,1,229.499992996216,2|0,0:0|0:0,0:0:0:0:
48,144,6918,2,0,L|216:144,2,152.999995330811,2|0|2,0:3|0:0|0:0,0:0:0:0:
216,224,7946,1,0,0:0:0:0:
504,272,8289,5,2,0:3:0:0:
272,336,8975,2,0,P|144:280|128:152,1,242.999992584229,2|0,0:0|0:0,0:0:0:0:
280,160,9661,2,0,L|464:96,2,152.999995330811,2|0|2,0:3|0:0|0:0,0:0:0:0:
72,160,10689,1,0,0:0:0:0:
352,384,11032,6,0,P|520:152|272:16,1,611.999981323243,2|2,0:3|0:3,0:0:0:0:
40,288,13089,2,0,P|24:224|40:136,1,152.999995330811,2|2,0:0|0:0,0:0:0:0:
440,128,13775,6,0,L|448:248,1,85,4|2,0:0|0:0,0:0:0:0:
304,264,14117,1,8,0:0:0:0:
296,168,14289,1,8,0:0:0:0:
464,304,14460,2,0,P|512:240|432:192,1,170,8|0,0:1|0:0,0:0:0:0:
320,184,14974,1,8,0:0:0:0:
144,176,15146,6,0,P|104:80|152:56,1,170,8|0,0:3|0:0,0:0:0:0:
264,56,15660,1,8,0:0:0:0:
144,304,15832,2,0,L|136:208,1,85,8|0,0:1|0:0,0:0:0:0:
264,208,16175,2,0,L|352:208,1,85,8|0,0:0|0:0,0:0:0:0:
80,256,16517,6,0,P|32:184|96:136,1,170,4|0,0:3|0:0,0:0:0:0:
192,136,17032,1,8,0:0:0:0:
336,136,17203,2,0,P|408:152|448:240,1,170,8|8,0:1|0:0,0:0:0:0:
328,256,17717,1,8,0:0:0:0:
72,344,17889,6,0,L|64:232,1,85,8|10,0:3|0:1,0:0:0:0:
184,224,18232,1,8,0:0:0:0:
64,176,18403,1,8,0:0:0:0:
296,96,18575,2,0,L|384:96,1,85,8|2,0:1|0:0,0:0:0:0:
256,168,18917,2,0,L|160:168,1,85,8|0,0:0|0:0,0:0:0:0:
408,288,19260,5,12,0:1:0:0:
464,248,19346,1,8,0:3:0:0:
408,216,19432,1,8,0:3:0:0:
248,216,19603,1,8,0:0:0:0:
400,64,19775,2,0,L|408:160,1,85,2|0,0:0|0:0,0:0:0:0:
288,152,20117,1,8,0:0:0:0:
32,232,20289,2,0,L|128:232,1,85,12|0,0:1|0:0,0:0:0:0:
376,224,20632,6,0,L|384:120,1,85,8|8,0:0|0:1,0:0:0:0:
200,120,21060,2,0,L|192:64,1,42.5,8|8,0:0|0:0,0:0:0:0:
328,64,21317,2,0,L|424:64,1,85,8|8,0:1|0:0,0:0:0:0:
296,136,21660,1,4,0:3:0:0:
416,160,21832,1,4,0:3:0:0:
152,296,22003,6,0,P|88:272|32:168,1,170,4|8,0:1|0:0,0:0:0:0:
136,152,22517,1,8,0:0:0:0:
232,96,22689,1,8,0:0:0:0:
136,48,22860,1,8,0:0:0:0:
280,232,23032,1,8,0:0:0:0:
392,216,23203,1,8,0:0:0:0:
144,320,23375,5,4,0:3:0:0:
32,272,23546,1,8,0:0:0:0:
144,232,23718,1,8,0:0:0:0:
264,200,23889,1,8,0:0:0:0:
32,160,24061,1,4,0:3:0:0:
144,136,24232,1,8,0:0:0:0:
264,104,24404,1,4,0:3:0:0:
144,56,24575,1,4,0:3:0:0:
376,320,24746,6,0,L|488:320,1,101.999996887207,12|0,0:1|0:0,0:0:0:0:
352,232,25089,1,8,0:0:0:0:
96,224,25260,2,0,L|88:112,1,101.999996887207,12|0,0:1|0:0,0:0:0:0:
208,120,25603,1,8,0:0:0:0:
488,168,25775,2,0,L|368:168,1,101.999996887207,12|0,0:1|0:0,0:0:0:0:
496,72,26117,5,8,0:0:0:0:
240,336,26289,2,0,L|232:208,1,101.999996887207,12|0,0:1|0:0,0:0:0:0:
352,224,26632,1,8,0:0:0:0:
104,176,26803,2,0,L|96:72,1,101.999996887207,12|0,0:1|0:0,0:0:0:0:
240,64,27146,2,0,L|352:64,1,101.999996887207,12|0,0:1|0:0,0:0:0:0:
112,256,27489,6,0,L|8:256,2,101.999996887207,12|2|8,0:1|0:0|0:0,0:0:0:0:
368,240,28003,2,0,P|416:144|328:112,1,203.999993774414,12|8,0:1|0:0,0:0:0:0:
208,104,28517,2,0,L|104:104,1,101.999996887207,12|0,0:1|0:0,0:0:0:0:
360,144,28860,5,8,0:1:0:0:
472,240,29032,1,8,0:3:0:0:
472,192,29117,1,8,0:3:0:0:
424,192,29203,1,4,0:3:0:0:
184,200,29375,2,0,L|48:200,1,101.999996887207,12|0,0:1|0:0,0:0:0:0:
224,280,29717,1,8,0:0:0:0:
80,336,29889,2,8,L|24:328,1,50.9999984436036,12|8,0:1|0:3,0:0:0:0:
32,288,30060,2,4,L|88:272,1,50.9999984436036,4|4,0:3|0:3,0:0:0:0:
288,264,30232,5,12,0:3:0:0:
408,208,30403,1,8,0:0:0:0:
288,160,30575,1,4,0:3:0:0:
56,184,30746,2,0,P|0:120|88:64,1,203.999993774414,12|8,0:1|0:0,0:0:0:0:
200,56,31260,1,12,0:1:0:0:
72,120,31432,1,2,0:0:0:0:
352,200,31603,5,12,0:3:0:0:
232,152,31775,1,8,0:0:0:0:
360,104,31946,1,4,0:3:0:0:
104,304,32117,2,0,P|48:240|144:184,1,203.999993774414,12|0,0:1|0:0,0:0:0:0:
280,176,32632,2,0,L|360:168,1,50.9999984436036,12|8,0:1|0:3,0:0:0:0:
368,144,32803,2,0,L|376:80,1,50.9999984436036,4|4,0:3|0:3,0:0:0:0:
160,168,32975,5,12,0:3:0:0:
48,112,33146,1,8,0:0:0:0:
160,72,33317,1,4,0:3:0:0:
432,312,33489,2,0,P|424:232|288:192,1,203.999993774414,12|8,0:1|0:0,0:0:0:0:
160,184,34003,2,0,L|152:72,1,101.999996887207,12|0,0:1|0:0,0:0:0:0:
384,296,34346,6,0,B|472:272|496:168|496:168|456:56|296:80,2,407.999987548829,4|2|2,0:0|0:0|0:3,0:0:0:0:
168,320,36060,1,2,0:0:0:0:
152,224,36232,1,0,0:0:0:0:
352,216,36575,1,2,0:0:0:0:
360,112,36746,1,0,0:0:0:0:
80,120,37089,5,2,0:3:0:0:
248,272,37432,1,2,0:0:0:0:
256,176,37603,1,0,0:0:0:0:
88,216,37946,1,2,0:0:0:0:
80,120,38117,1,0,0:0:0:0:
352,312,38460,6,0,P|456:256|472:192,1,170,2|0,0:3|0:0,0:0:0:0:
376,192,38975,1,2,0:0:0:0:
184,216,39317,1,2,0:0:0:0:
408,288,39660,1,0,0:0:0:0:
488,192,39832,6,0,P|440:144|328:112,1,170,2|0,0:3|0:0,0:0:0:0:
248,96,40346,1,2,0:0:0:0:
416,48,40689,2,0,L|496:88,2,85,2|0|0,0:0|0:0|0:0,0:0:0:0:
240,208,41203,6,0,L|72:160,1,170,2|0,0:3|0:0,0:0:0:0:
8,144,41717,1,2,0:0:0:0:
168,40,42060,1,0,0:0:0:0:
256,80,42232,1,2,0:0:0:0:
256,160,42403,1,0,0:0:0:0:
104,312,42575,6,0,P|56:280|112:208,1,170,2|0,0:3|0:0,0:0:0:0:
216,208,43089,1,2,0:0:0:0:
432,208,43432,2,0,P|480:152|400:88,1,170,2|0,0:0|0:0,0:0:0:0:
272,312,43946,6,0,P|176:264|144:200,1,170,2|0,0:3|0:0,0:0:0:0:
240,208,44460,1,2,0:0:0:0:
472,80,44803,2,0,L|368:72,1,85,0|2,0:0|0:0,0:0:0:0:
56,320,45317,6,0,L|328:320,1,255,2|0,0:3|0:0,0:0:0:0:
312,224,46003,2,0,L|200:224,1,85,2|0,0:0|0:0,0:0:0:0:
344,128,46346,1,4,0:3:0:0:
80,64,46689,6,0,L|72:160,1,85,6|0,0:1|0:0,0:0:0:0:
192,152,47032,1,8,0:1:0:0:
352,176,47203,2,0,P|400:240|344:288,1,170,8|0,0:0|0:0,0:0:0:0:
200,304,47717,2,0,L|112:304,1,85,2|0,0:0|0:0,0:0:0:0:
312,312,48060,6,0,P|416:272|448:200,1,170,8|8,0:0|0:1,0:0:0:0:
304,184,48575,2,0,P|216:144|184:72,1,170,8|0,0:0|0:0,0:0:0:0:
312,32,49089,2,0,L|424:32,1,85,2|0,0:0|0:0,0:0:0:0:
232,272,49432,6,0,P|184:208|248:160,1,170,8|8,0:0|0:1,0:0:0:0:
368,160,49946,2,0,P|408:88|344:40,1,170,8|0,0:0|0:0,0:0:0:0:
240,40,50460,2,0,L|152:40,1,85,2|0,0:0|0:0,0:0:0:0:
336,264,50803,6,0,P|418:232|456:152,1,170,8|8,0:0|0:1,0:0:0:0:
312,144,51317,2,0,L|136:144,1,170,8|8,0:0|0:0,0:0:0:0:
256,208,51832,2,0,L|360:208,1,85,0|2,0:0|0:0,0:0:0:0:
176,344,52175,6,0,P|128:288|181:226,1,170,8|8,0:0|0:1,0:0:0:0:
320,208,52689,2,0,P|272:136|176:120,1,170,8|0,0:0|0:0,0:0:0:0:
328,112,53203,1,2,0:0:0:0:
344,0,53375,1,0,0:0:0:0:
176,336,53546,6,0,P|88:304|56:232,1,170,8|8,0:0|0:1,0:0:0:0:
192,216,54060,2,0,P|280:192|312:120,1,170,8|8,0:0|0:0,0:0:0:0:
176,64,54575,2,0,L|272:64,1,85,0|2,0:0|0:0,0:0:0:0:
424,80,54917,6,0,P|464:112|416:200,1,170,8|8,0:0|0:1,0:0:0:0:
304,200,55432,1,0,0:0:0:0:
160,224,55603,2,0,L|168:312,1,85,8|0,0:0|0:0,0:0:0:0:
296,328,55946,2,0,L|384:328,1,85,2|0,0:1|0:0,0:0:0:0:
144,328,56289,6,0,P|49:284|33:212,1,170,8|8,0:0|0:1,0:0:0:0:
152,208,56803,1,2,0:0:0:0:
272,136,56975,2,0,L|152:136,1,85,8|0,0:3|0:0,0:0:0:0:
32,136,57317,1,4,0:3:0:0:
432,320,57660,6,0,P|496:264|504:176,1,170,4|8,0:0|0:3,0:0:0:0:
368,176,58175,2,0,L|168:176,1,170,4|4,0:0|0:3,0:0:0:0:
448,338,58689,6,0,P|512:264|388:172,1,255,12|2,0:0|0:0,0:0:0:0:
280,168,59375,2,0,L|176:168,1,85,8|0,0:0|0:0,0:0:0:0:
336,104,59717,1,8,0:1:0:0:
424,56,59889,1,2,0:0:0:0:
336,16,60060,1,8,0:0:0:0:
176,16,60232,1,4,0:3:0:0:
474,153,60403,6,0,P|410:73|336:56,1,170,4|0,0:0|0:0,0:0:0:0:
208,88,60917,1,8,0:0:0:0:
344,264,61089,2,0,L|352:160,1,85,8|0,0:1|0:0,0:0:0:0:
208,152,61432,1,8,0:0:0:0:
352,120,61603,1,2,0:0:0:0:
56,336,61775,6,0,L|48:232,1,85,8|8,0:0|0:1,0:0:0:0:
184,224,62117,2,0,L|296:224,1,85,8|8,0:0|0:0,0:0:0:0:
104,80,62460,2,0,L|192:80,1,85,8|0,0:1|0:0,0:0:0:0:
328,112,62803,2,0,L|336:24,1,85,2|0,0:0|0:0,0:0:0:0:
32,328,63146,6,0,P|104:232|168:232,1,170,4|8,0:0|0:3,0:0:0:0:
272,192,63660,2,0,L|88:184,1,170,12|4,0:1|0:3,0:0:0:0:
384,272,64175,6,0,P|464:192|360:136,1,255,12|2,0:1|0:0,0:0:0:0:
224,144,64860,2,0,L|216:48,1,85,8|0,0:0|0:0,0:0:0:0:
368,216,65203,1,8,0:1:0:0:
480,264,65375,1,8,0:0:0:0:
360,304,65546,1,8,0:3:0:0:
80,304,65717,6,0,P|32:256|96:184,1,170,4|8,0:0|0:0,0:0:0:0:
232,176,66232,1,8,0:1:0:0:
352,112,66403,1,4,0:3:0:0:
408,136,66489,1,4,0:3:0:0:
352,168,66575,1,4,0:3:0:0:
176,112,66746,1,4,0:3:0:0:
72,64,66917,1,8,0:1:0:0:
176,24,67089,1,2,0:0:0:0:
424,288,67260,6,0,L|432:184,1,85,4|0,0:3|0:0,0:0:0:0:
288,192,67603,2,0,L|280:72,1,85,8|4,0:1|0:3,0:0:0:0:
352,104,67860,1,4,0:3:0:0:
408,72,67946,2,0,L|296:72,1,85,4|4,0:3|0:3,0:0:0:0:
176,64,68289,2,0,L|80:64,1,85,8|0,0:1|0:0,0:0:0:0:
328,288,68632,6,0,L|464:288,1,93.5000028533936,4|0,0:0|0:0,0:0:0:0:
296,232,68975,1,8,0:0:0:0:
288,128,69146,1,8,0:0:0:0:
432,72,69317,2,0,L|224:72,1,187.000005706787,8|2,0:1|0:0,0:0:0:0:
376,128,69832,1,8,0:1:0:0:
144,176,70003,6,0,L|136:288,1,93.5000028533936,10|8,0:0|0:1,0:0:0:0:
288,224,70346,2,0,L|296:336,1,93.5000028533936,10|8,0:0|0:0,0:0:0:0:
128,336,70689,2,0,L|80:336,2,46.7500014266968,8|8|8,0:1|0:0|0:0,0:0:0:0:
288,336,71032,2,0,L|344:336,2,46.7500014266968,8|8|8,0:3|0:0|0:0,0:0:0:0:
32,176,71375,5,4,0:3:0:0:
336,296,72746,6,0,L|344:184,1,93.5000028533936,4|0,0:1|0:0,0:0:0:0:
200,200,73089,2,0,L|104:200,1,93.5000028533936,2|0,0:1|0:0,0:0:0:0:
336,72,73432,2,0,L|464:72,1,93.5000028533936,4|0,0:1|0:0,0:0:0:0:
144,336,73775,2,0,L|72:320,1,46.7500014266968,8|8,0:1|0:1,0:0:0:0:
96,264,73946,2,0,L|160:256,1,46.7500014266968,8|8,0:3|0:3,0:0:0:0:
416,224,74117,6,0,L|424:96,1,101.999996887207,4|0,0:0|0:0,0:0:0:0:
296,112,74460,1,8,0:1:0:0:
152,272,74632,2,0,L|368:272,1,203.999993774414,2|2,0:0|0:0,0:0:0:0:
240,192,75146,1,8,0:1:0:0:
360,144,75317,1,8,0:0:0:0:
88,56,75489,6,0,L|80:168,1,101.999996887207,4|2,0:3|0:0,0:0:0:0:
216,192,75832,1,8,0:1:0:0:
72,288,76003,2,0,L|288:288,1,203.999993774414,2|2,0:0|0:0,0:0:0:0:
144,208,76517,2,0,L|24:208,1,101.999996887207,8|0,0:1|0:0,0:0:0:0:
312,176,76860,6,0,L|320:72,1,101.999996887207,4|0,0:3|0:0,0:0:0:0:
184,64,77203,1,8,0:1:0:0:
328,328,77375,2,0,P|424:296|464:208,1,203.999993774414,2|2,0:0|0:0,0:0:0:0:
336,160,77889,2,0,L|218:160,1,101.999996887207,8|0,0:1|0:0,0:0:0:0:
464,32,78232,6,0,L|472:152,1,101.999996887207,4|0,0:3|0:0,0:0:0:0:
328,192,78575,2,0,L|440:192,1,101.999996887207,8|0,0:1|0:0,0:0:0:0:
272,328,78917,2,0,L|264:216,1,101.999996887207,8|8,0:0|0:0,0:0:0:0:
408,112,79260,2,0,L|504:152,1,101.999996887207,8|0,0:1|0:0,0:0:0:0:
240,184,79603,6,0,L|120:184,1,101.999996887207,6|8,0:3|0:0,0:0:0:0:
264,264,79946,1,8,0:1:0:0:
136,312,80117,1,8,0:0:0:0:
376,304,80289,2,0,L|488:304,1,101.999996887207,8|8,0:0|0:0,0:0:0:0:
344,208,80632,2,0,L|232:208,1,101.999996887207,8|0,0:1|0:0,0:0:0:0:
480,40,80975,6,0,L|376:40,1,101.999996887207,6|0,0:3|0:0,0:0:0:0:
240,128,81317,2,0,L|360:128,1,101.999996887207,8|0,0:1|0:0,0:0:0:0:
184,288,81660,2,0,L|176:168,1,101.999996887207,8|8,0:0|0:0,0:0:0:0:
432,128,82003,2,0,L|440:256,1,101.999996887207,8|0,0:1|0:0,0:0:0:0:
184,280,82346,6,0,L|64:280,1,101.999996887207,6|0,0:3|0:0,0:0:0:0:
208,168,82689,1,8,0:1:0:0:
80,96,82860,2,0,L|288:96,1,203.999993774414,8|8,0:0|0:0,0:0:0:0:
144,224,83375,2,0,L|40:224,1,101.999996887207,8|0,0:1|0:0,0:0:0:0:
320,320,83717,5,12,0:0:0:0:
192,312,83889,1,8,0:1:0:0:
144,296,83975,1,8,0:3:0:0:
144,248,84060,1,4,0:3:0:0:
392,176,84232,1,4,0:0:0:0:
488,80,84403,2,0,L|361:81,1,101.999996887207,8|0,0:3|0:0,0:0:0:0:
144,272,84746,2,0,L|248:272,1,101.999996887207,8|8,0:1|0:0,0:0:0:0:
480,248,85089,6,0,L|488:136,1,101.999996887207,4|0,0:0|0:0,0:0:0:0:
352,144,85432,1,8,0:1:0:0:
112,320,85603,2,0,P|56:224|136:176,1,203.999993774414,4|8,0:0|0:0,0:0:0:0:
272,168,86117,2,0,L|280:64,1,101.999996887207,8|0,0:1|0:0,0:0:0:0:
32,56,86460,5,4,0:0:0:0:
168,80,86632,1,8,0:3:0:0:
176,136,86717,1,8,0:3:0:0:
184,184,86803,1,8,0:1:0:0:
32,280,86975,2,0,L|144:280,1,101.999996887207,4|0,0:0|0:0,0:0:0:0:
280,280,87317,1,8,0:0:0:0:
24,136,87489,2,0,L|136:136,1,101.999996887207,10|0,0:1|0:0,0:0:0:0:
368,272,87832,6,0,L|376:136,1,101.999996887207,4|0,0:0|0:0,0:0:0:0:
232,160,88175,1,8,0:1:0:0:
376,112,88346,2,0,L|152:112,1,203.999993774414,8|8,0:0|0:0,0:0:0:0:
304,48,88860,2,0,L|408:48,1,101.999996887207,8|0,0:1|0:0,0:0:0:0:
152,336,89203,6,0,L|144:208,1,101.999996887207,6|0,0:3|0:0,0:0:0:0:
288,224,89546,1,8,0:1:0:0:
144,160,89717,2,0,L|32:160,1,101.999996887207,8|8,0:0|0:0,0:0:0:0:
88,136,89975,1,8,0:1:0:0:
144,120,90060,1,8,0:0:0:0:
392,120,90232,2,0,L|496:120,1,101.999996887207,8|8,0:1|0:0,0:0:0:0:
256,200,90575,6,0,L|192:200,2,50.9999984436036,12|8|4,0:1|0:3|0:3,0:0:0:0:
392,200,90917,1,8,0:1:0:0:
96,336,91089,2,0,L|88:224,1,101.999996887207,6|0,0:1|0:0,0:0:0:0:
224,232,91432,1,8,0:0:0:0:
456,216,91603,2,0,L|462:107,1,101.999996887207,12|0,0:1|0:0,0:0:0:0:
328,96,91946,5,8,0:1:0:0:
464,72,92117,1,8,0:3:0:0:
288,32,92375,2,0,L|224:32,1,50.9999984436036,4|4,0:3|0:3,0:0:0:0:
360,248,92632,2,0,L|256:248,1,101.999996887207,8|4,0:1|0:3,0:0:0:0:
128,192,92975,1,8,0:0:0:0:
264,144,93146,1,4,0:3:0:0:
32,336,93317,5,4,0:1:0:0:
48,232,93489,1,8,0:0:0:0:
168,216,93660,1,8,0:0:0:0:
320,208,93832,1,8,0:0:0:0:
264,112,94003,1,8,0:0:0:0:
136,80,94175,1,8,0:0:0:0:
376,56,94346,1,8,0:0:0:0:
496,32,94517,1,8,0:0:0:0:
264,328,94689,5,4,0:3:0:0:
144,264,94860,1,8,0:0:0:0:
264,216,95032,1,8,0:0:0:0:
392,176,95203,1,8,0:0:0:0:
144,160,95375,1,4,0:3:0:0:
16,120,95546,1,8,0:0:0:0:
144,56,95717,1,4,0:3:0:0:
8,24,95889,1,4,0:3:0:0:
248,336,96060,6,0,L|360:336,1,101.999996887207,12|0,0:1|0:0,0:0:0:0:
448,224,96403,1,8,0:0:0:0:
200,192,96574,2,0,L|64:192,1,101.999996887207,12|0,0:1|0:0,0:0:0:0:
32,80,96917,1,8,0:0:0:0:
264,136,97089,2,0,L|376:104,1,101.999996887207,12|0,0:1|0:0,0:0:0:0:
248,40,97431,5,8,0:0:0:0:
480,320,97603,2,0,L|472:208,1,101.999996887207,12|0,0:1|0:0,0:0:0:0:
344,208,97946,1,8,0:0:0:0:
200,184,98117,2,0,L|192:72,1,101.999996887207,12|0,0:1|0:0,0:0:0:0:
448,72,98460,2,0,L|456:184,1,101.999996887207,12|0,0:1|0:0,0:0:0:0:
200,240,98803,6,0,L|96:240,2,101.999996887207,12|2|8,0:1|0:0|0:0,0:0:0:0:
432,328,99317,2,0,P|488:272|416:176,1,203.999993774414,12|0,0:1|0:0,0:0:0:0:
296,176,99831,2,0,L|184:176,1,101.999996887207,12|0,0:1|0:0,0:0:0:0:
432,96,100175,5,12,0:1:0:0:
296,152,100346,1,4,0:3:0:0:
352,144,100432,1,4,0:3:0:0:
408,136,100517,1,4,0:3:0:0:
168,312,100689,2,0,P|120:272|192:176,1,203.999993774414,12|8,0:1|0:0,0:0:0:0:
328,168,101203,2,0,L|320:96,1,50.9999984436036,8|8,0:1|0:3,0:0:0:0:
264,104,101375,2,0,L|192:104,1,50.9999984436036,8|4,0:3|0:3,0:0:0:0:
40,248,101546,5,4,0:3:0:0:
32,136,101717,1,8,0:0:0:0:
152,112,101889,1,4,0:3:0:0:
432,328,102060,2,0,L|440:208,1,101.999996887207,12|0,0:1|0:0,0:0:0:0:
296,192,102403,1,8,0:0:0:0:
176,128,102575,1,8,0:1:0:0:
312,96,102746,1,2,0:0:0:0:
56,280,102917,5,12,0:3:0:0:
184,208,103089,1,8,0:0:0:0:
48,160,103260,1,4,0:3:0:0:
304,328,103432,2,0,L|416:328,1,101.999996887207,12|0,0:1|0:0,0:0:0:0:
272,256,103775,1,8,0:0:0:0:
136,208,103946,2,0,L|72:176,1,50.9999984436036,8|8,0:1|0:3,0:0:0:0:
96,128,104117,2,0,L|160:112,1,50.9999984436036,4|4,0:3|0:3,0:0:0:0:
352,304,104289,5,12,0:3:0:0:
472,232,104460,1,8,0:0:0:0:
352,168,104632,1,4,0:3:0:0:
96,176,104803,2,0,L|320:176,1,203.999993774414,12|8,0:1|0:0,0:0:0:0:
168,112,105317,2,0,L|24:112,1,101.999996887207,8|0,0:1|0:0,0:0:0:0:
352,40,105660,5,4,0:0:0:0:
208,304,106175,2,0,L|200:256,1,42.5,0|0,0:0|0:0,0:0:0:0:
280,256,106346,2,0,P|368:200|264:128,1,255,2|0,0:0|0:0,0:0:0:0:
48,80,107032,6,0,B|-16:152|56:272|136:232|232:184|232:184|256:96|328:144|360:48|288:-8|232:40|232:40|184:-8|104:48|144:144|216:96|232:184|232:184|392:240|336:400|128:384|144:288,1,1190,4|0,0:0|0:0,0:0:0:0:
408,296,109603,5,4,0:0:0:0:
256,192,109775,12,0,113889,0:0:0:0:
