osu file format v14

[General]
AudioFilename: audio.mp3
AudioLeadIn: 0
PreviewTime: 63166
Countdown: 0
SampleSet: Soft
StackLeniency: 0.4
Mode: 0
LetterboxInBreaks: 0
WidescreenStoryboard: 1

[Editor]
Bookmarks: 439,19529,30439,41348,52257,63166,74075,84984,95893,106802,117711,128620,139529,150439,161348,172257,183166,194075,204984,221348
DistanceSpacing: 1
BeatDivisor: 4
GridSize: 32
TimelineZoom: 4.299998

[Metadata]
Title:Finest Sky
TitleUnicode:Finest Sky
Artist:Ceui
ArtistUnicode:Ceui
Creator:Shizuku-
Version:Silzuku's Insane
Source:見上げてごらん、夜空の星を FINE DAYS
Tags:silky kanau mamayu fuyuyu- kowari pulltop miagete goran yozora no hoshi o opening eroge visual novel full version video game japanese miazora
BeatmapID:2229845
BeatmapSetID:1048854

[Difficulty]
HPDrainRate:6
CircleSize:3.8
OverallDifficulty:7.5
ApproachRate:9
SliderMultiplier:1.6
SliderTickRate:1

[Events]
//Background and Video events
0,0,"SAY_FD_04L_1_08.jpg",0,0
//Break Periods
2,60639,61543
2,137002,137907
//Storyboard Layer 0 (Background)
//Storyboard Layer 1 (Fail)
//Storyboard Layer 2 (Pass)
//Storyboard Layer 3 (Foreground)
//Storyboard Layer 4 (Overlay)
//Storyboard Sound Samples

[TimingPoints]
439,340.909090909091,4,2,1,60,1,0
439,-125,4,2,1,60,0,0
2143,-125,4,2,2,60,0,0
2484,-125,4,2,3,60,0,0
2654,-100,4,2,3,60,0,0
5807,-100,4,2,3,5,0,0
5893,-100,4,2,4,60,0,0
6234,-100,4,2,4,60,0,0
8620,-100,4,2,3,60,0,0
11348,-100,4,2,4,60,0,0
11689,-100,4,2,4,60,0,0
12711,-100,4,2,3,60,0,0
14075,-111.111111111111,4,2,1,60,0,0
14416,-111.111111111111,4,2,5,60,0,0
14586,-111.111111111111,4,2,2,60,0,0
14757,-111.111111111111,4,2,5,60,0,0
14926,-111.111111111111,4,2,2,60,0,0
15098,-111.111111111111,4,2,3,60,0,0
15439,-111.111111111111,4,2,5,60,0,0
15609,-111.111111111111,4,2,1,60,0,0
15779,-111.111111111111,4,2,5,60,0,0
16120,-111.111111111111,4,2,2,60,0,0
16461,-111.111111111111,4,2,2,60,0,0
16632,-111.111111111111,4,2,2,60,0,0
16802,-111.111111111111,4,2,1,60,0,0
17143,-111.111111111111,4,2,5,60,0,0
17314,-111.111111111111,4,2,2,60,0,0
17484,-111.111111111111,4,2,5,60,0,0
17825,-111.111111111111,4,2,3,60,0,0
18166,-111.111111111111,4,2,5,60,0,0
18336,-111.111111111111,4,2,1,60,0,0
18507,-111.111111111111,4,2,5,60,0,0
19529,-100,4,2,5,60,0,0
22257,-100,4,2,6,60,0,0
22427,-100,4,2,5,60,0,0
24473,-100,4,2,7,60,0,0
24814,-100,4,2,3,60,0,0
24984,-100,4,2,5,60,0,0
27711,-100,4,2,6,60,0,0
27882,-100,4,2,5,60,0,0
28052,-100,4,2,5,60,0,0
33166,-100,4,2,6,60,0,0
33336,-100,4,2,5,60,0,0
35382,-100,4,2,7,60,0,0
35723,-100,4,2,3,60,0,0
35893,-100,4,2,5,60,0,0
38620,-100,4,2,6,60,0,0
38875,-100,4,2,6,5,0,0
38961,-100,4,2,3,60,0,0
40325,-83.3333333333333,4,2,3,60,0,0
40580,-83.3333333333333,4,2,3,5,0,0
40581,-83.3333333333333,4,2,3,5,0,0
40666,-83.3333333333333,4,2,3,60,0,0
41348,-125,4,2,3,60,0,0
41859,-125,4,2,1,60,0,0
42029,-125,4,2,5,60,0,0
42200,-125,4,2,1,60,0,0
43393,-125,4,2,3,60,0,0
43564,-125,4,2,2,60,0,0
44075,-125,4,2,5,60,0,0
49529,-125,4,2,1,60,0,0
50041,-125,4,2,2,60,0,0
50552,-125,4,2,4,60,0,0
52257,-100,4,2,3,60,0,0
62143,-83.3333333333333,4,2,3,60,0,0
63166,-90.9090909090909,4,2,3,60,0,1
64444,-90.9090909090909,4,2,3,5,0,1
64529,-90.9090909090909,4,2,3,60,0,1
65893,-90.9090909090909,4,2,4,60,0,1
66234,-90.9090909090909,4,2,4,60,0,1
68620,-90.9090909090909,4,2,3,60,0,1
68875,-90.9090909090909,4,2,3,5,0,1
68961,-90.9090909090909,4,2,3,60,0,1
69898,-90.9090909090909,4,2,3,5,0,1
69984,-90.9090909090909,4,2,3,60,0,1
71348,-90.9090909090909,4,2,4,60,0,1
71689,-90.9090909090909,4,2,4,60,0,1
72711,-90.9090909090909,4,2,3,60,0,1
76716,-90.9090909090909,4,2,3,5,0,1
76802,-90.9090909090909,4,2,4,60,0,1
77143,-90.9090909090909,4,2,4,60,0,1
77484,-90.9090909090909,4,2,3,60,0,1
78080,-90.9090909090909,4,2,3,5,0,1
78166,-90.9090909090909,4,2,4,60,0,1
78507,-90.9090909090909,4,2,4,60,0,1
79529,-90.9090909090909,4,2,3,60,0,1
82257,-90.9090909090909,4,2,4,60,0,1
82598,-90.9090909090909,4,2,4,60,0,1
83620,-111.111111111111,4,2,3,60,0,1
84984,-100,4,2,3,60,0,0
86262,-100,4,2,3,5,0,0
86348,-100,4,2,3,60,0,0
87711,-100,4,2,4,60,0,0
88052,-100,4,2,4,60,0,0
88989,-100,4,2,4,5,0,0
89075,-100,4,2,4,60,0,0
90439,-100,4,2,3,60,0,0
93166,-100,4,2,4,60,0,0
93507,-100,4,2,4,60,0,0
94444,-100,4,2,4,5,0,0
94529,-100,4,2,3,60,0,0
95893,-100,4,2,5,60,0,0
98620,-100,4,2,6,60,0,0
98791,-100,4,2,5,60,0,0
100836,-100,4,2,7,60,0,0
101177,-100,4,2,3,60,0,0
101348,-100,4,2,5,60,0,0
104075,-100,4,2,6,60,0,0
104245,-100,4,2,5,60,0,0
104416,-100,4,2,5,60,0,0
105353,-100,4,2,5,5,0,0
105439,-100,4,2,5,60,0,0
109529,-100,4,2,6,60,0,0
109700,-100,4,2,5,60,0,0
111745,-100,4,2,7,60,0,0
112086,-100,4,2,3,60,0,0
112257,-100,4,2,5,60,0,0
114984,-100,4,2,6,60,0,0
115239,-100,4,2,6,5,0,0
115325,-100,4,2,3,60,0,0
116689,-83.3333333333333,4,2,3,60,0,0
116944,-83.3333333333333,4,2,3,5,0,0
117029,-83.3333333333333,4,2,3,60,0,0
117711,-125,4,2,3,60,0,0
118223,-125,4,2,1,60,0,0
118393,-125,4,2,5,60,0,0
118564,-125,4,2,1,60,0,0
119757,-125,4,2,3,60,0,0
119927,-125,4,2,2,60,0,0
120439,-125,4,2,5,60,0,0
125893,-125,4,2,1,60,0,0
126404,-125,4,2,2,60,0,0
126916,-125,4,2,4,60,0,0
128620,-100,4,2,3,60,0,0
138506,-66.6666666666667,4,2,3,60,0,0
139018,-83.3333333333333,4,2,3,60,0,0
139529,-90.9090909090909,4,2,3,60,0,1
140807,-90.9090909090909,4,2,3,5,0,1
140893,-90.9090909090909,4,2,3,60,0,1
142257,-90.9090909090909,4,2,4,60,0,1
142598,-90.9090909090909,4,2,4,60,0,1
144984,-90.9090909090909,4,2,3,60,0,1
145239,-90.9090909090909,4,2,3,5,0,1
145325,-90.9090909090909,4,2,3,60,0,1
146262,-90.9090909090909,4,2,3,5,0,1
146348,-90.9090909090909,4,2,3,60,0,1
147711,-90.9090909090909,4,2,4,60,0,1
148052,-90.9090909090909,4,2,4,60,0,1
149075,-90.9090909090909,4,2,3,60,0,1
150694,-90.9090909090909,4,2,3,5,0,1
150779,-90.9090909090909,4,2,3,60,0,1
153080,-90.9090909090909,4,2,3,5,0,1
153166,-90.9090909090909,4,2,4,60,0,1
153507,-90.9090909090909,4,2,4,60,0,1
153762,-90.9090909090909,4,2,4,5,0,1
153848,-90.9090909090909,4,2,3,60,0,1
154529,-90.9090909090909,4,2,4,60,0,1
154870,-90.9090909090909,4,2,4,60,0,1
155893,-90.9090909090909,4,2,3,60,0,1
158620,-90.9090909090909,4,2,4,60,0,1
158961,-90.9090909090909,4,2,4,60,0,1
159984,-111.111111111111,4,2,3,60,0,1
161348,-100,4,2,8,60,0,0
164075,-100,4,2,9,60,0,0
164416,-100,4,2,8,60,0,0
169444,-100,4,2,8,5,0,0
169529,-100,4,2,9,60,0,0
169870,-100,4,2,8,60,0,0
170807,-100,4,2,8,5,0,0
170893,-100,4,2,8,60,0,0
171148,-100,4,2,8,5,0,0
171234,-100,4,2,8,60,0,0
172257,-100,4,2,3,60,0,0
173534,-100,4,2,3,5,0,0
173620,-100,4,2,3,60,0,0
174984,-100,4,2,4,60,0,0
175666,-100,4,2,3,60,0,0
175750,-100,4,2,4,5,0,0
175836,-100,4,2,3,60,0,0
176348,-100,4,2,4,60,0,0
176944,-100,4,2,4,5,0,0
177029,-100,4,2,4,60,0,0
177711,-100,4,2,3,60,0,0
180439,-83.3333333333333,4,2,4,60,0,0
181802,-83.3333333333333,4,2,3,60,0,0
182057,-83.3333333333333,4,2,3,5,0,0
182143,-83.3333333333333,4,2,3,60,0,0
182484,-100,4,2,3,60,0,0
183166,-90.9090909090909,4,2,3,60,0,1
185807,-90.9090909090909,4,2,3,5,0,1
185893,-90.9090909090909,4,2,4,60,0,1
186234,-90.9090909090909,4,2,4,60,0,1
188620,-90.9090909090909,4,2,3,60,0,1
188876,-90.9090909090909,4,2,3,5,0,1
188960,-90.9090909090909,4,2,3,60,0,1
188962,-90.9090909090909,4,2,3,60,0,1
189898,-90.9090909090909,4,2,3,5,0,1
189984,-90.9090909090909,4,2,3,60,0,1
191348,-90.9090909090909,4,2,4,60,0,1
191689,-90.9090909090909,4,2,4,60,0,1
192711,-90.9090909090909,4,2,3,60,0,1
194330,-90.9090909090909,4,2,3,5,0,1
194416,-90.9090909090909,4,2,3,60,0,1
196716,-90.9090909090909,4,2,3,5,0,1
196802,-90.9090909090909,4,2,4,60,0,1
197143,-90.9090909090909,4,2,4,60,0,1
197398,-90.9090909090909,4,2,4,5,0,1
197484,-90.9090909090909,4,2,3,60,0,1
198166,-90.9090909090909,4,2,4,60,0,1
198507,-90.9090909090909,4,2,4,60,0,1
199529,-90.9090909090909,4,2,3,60,0,1
202257,-90.9090909090909,4,2,4,60,0,1
202598,-90.9090909090909,4,2,4,60,0,1
203620,-111.111111111111,4,2,3,60,0,1
204984,-100,4,2,3,60,0,0
206262,-100,4,2,3,5,0,0
206348,-100,4,2,3,60,0,0
207711,-100,4,2,4,60,0,0
208052,-100,4,2,4,60,0,0
208990,-100,4,2,4,5,0,0
209075,-100,4,2,4,60,0,0
210439,-100,4,2,3,60,0,0
211716,-100,4,2,3,5,0,0
211802,-100,4,2,3,60,0,0
213166,-100,4,2,4,60,0,0
213507,-100,4,2,4,60,0,0
214444,-100,4,2,4,5,0,0
214529,-100,4,2,3,60,0,0
215893,-166.666666666667,4,2,3,60,0,0
221347,-166.666666666667,4,2,3,5,0,0

[Colours]
Combo1 : 97,182,233
Combo2 : 255,193,109
Combo3 : 43,176,248
Combo4 : 247,186,6

[HitObjects]
414,146,439,5,0,0:0:0:0:
414,146,609,1,0,0:0:0:0:
397,0,779,2,0,P|379:26|372:57,1,64,0|0,0:0|0:0,0:0:0:0:
334,214,1120,5,0,0:0:0:0:
414,146,1291,2,0,L|288:119,1,128,0|0,0:0|0:0,0:0:0:0:
62,162,1802,5,0,0:0:0:0:
121,45,1973,1,2,0:2:0:0:
62,162,2143,2,0,P|66:193|70:225,1,64,2|0,0:2|0:0,0:0:0:0:
201,307,2484,5,8,0:2:0:0:
271,214,2654,1,8,0:2:0:0:
271,214,2740,1,8,0:2:0:0:
271,214,2825,2,0,P|273:194|276:174,1,40,8|8,0:2|0:2,0:0:0:0:
168,139,2995,2,0,P|170:158|172:178,1,40,8|8,0:2|0:2,0:0:0:0:
201,307,3166,6,0,B|283:289|261:354|353:324,1,160,6|10,3:2|0:2,0:0:0:0:
300,172,3677,1,0,3:0:0:0:
300,172,3762,1,0,3:0:0:0:
300,172,3848,2,0,P|306:212|312:252,1,80,2|0,3:2|3:0,0:0:0:0:
425,66,4189,2,0,P|419:106|413:146,1,80,10|0,0:2|3:0,0:0:0:0:
257,5,4529,6,0,P|198:55|121:45,1,160,2|10,3:2|0:2,0:0:0:0:
69,224,5041,1,0,3:0:0:0:
69,224,5126,1,0,0:0:0:0:
69,224,5211,2,0,P|57:185|49:146,1,80,2|0,3:2|3:0,0:0:0:0:
56,360,5552,2,0,P|101:322|159:323,1,120,10|0,0:2|2:0,0:0:0:0:
213,384,5893,6,0,P|222:304|235:225,1,160,6|10,3:2|0:2,0:0:0:0:
120,44,6404,1,0,3:0:0:0:
120,44,6490,1,0,3:0:0:0:
120,44,6575,2,0,P|126:83|131:123,1,80,2|0,3:2|3:0,0:0:0:0:
234,225,6916,2,0,P|239:185|247:146,1,80,10|0,0:2|3:0,0:0:0:0:
220,108,7171,1,0,0:0:0:0:
220,108,7257,6,0,B|307:131|283:61|371:84,1,160,2|10,3:2|0:2,0:0:0:0:
355,241,7768,1,0,3:0:0:0:
355,241,7853,1,0,0:0:0:0:
355,241,7939,2,0,P|346:201|341:162,1,80,2|0,3:2|3:0,0:0:0:0:
269,323,8279,2,0,P|230:329|191:337,1,80,10|0,0:2|3:0,0:0:0:0:
112,384,8535,1,0,3:0:0:0:
112,383,8620,6,0,P|149:314|128:238,1,160,6|10,3:2|0:2,0:0:0:0:
53,141,9132,1,0,3:0:0:0:
53,141,9217,1,0,3:0:0:0:
53,141,9302,2,0,P|91:130|130:122,1,80,2|0,3:2|3:0,0:0:0:0:
334,23,9643,2,0,P|295:12|256:4,1,80,10|0,0:2|3:0,0:0:0:0:
248,164,9984,6,0,P|258:243|268:322,1,160,2|10,3:2|0:2,0:0:0:0:
418,185,10495,1,0,3:0:0:0:
418,185,10581,1,0,0:0:0:0:
418,185,10666,2,0,P|378:178|341:163,1,80,2|0,3:2|3:0,0:0:0:0:
256,4,11007,2,0,P|249:43|243:82,1,80,10|0,0:2|3:0,0:0:0:0:
249,165,11262,1,0,3:0:0:0:
249,165,11348,6,0,P|198:106|121:111,1,160,6|10,3:2|0:2,0:0:0:0:
151,266,11859,1,0,3:0:0:0:
151,266,11944,1,0,3:0:0:0:
151,264,12029,2,0,P|158:225|163:185,1,80,2|0,3:2|3:0,0:0:0:0:
347,334,12370,2,0,P|307:326|267:321,1,80,10|0,0:2|3:0,0:0:0:0:
166,384,12711,5,6,3:2:0:0:
239,246,12882,1,0,0:0:0:0:
358,345,13052,2,0,P|365:305|372:266,1,80,14|0,0:2|3:0,0:0:0:0:
378,235,13308,1,0,3:0:0:0:
378,235,13393,1,2,3:2:0:0:
362,96,13564,1,0,3:0:0:0:
362,96,13649,1,8,0:2:0:0:
361,96,13734,2,0,P|354:114|348:133,1,40,8|8,0:2|0:2,0:0:0:0:
290,26,13904,2,0,P|272:33|253:39,1,40,8|8,0:2|0:2,0:0:0:0:
176,139,14075,6,0,P|170:103|165:67,1,71.9999978027344,10|0,0:3|0:0,0:0:0:0:
268,151,14416,1,2,0:2:0:0:
151,264,14586,2,0,P|95:220|25:228,1,143.999995605469,8|0,0:3|0:0,0:0:0:0:
133,365,15098,2,0,P|167:355|203:348,1,71.9999978027344,10|0,0:3|0:0,0:0:0:0:
243,240,15439,5,2,0:2:0:0:
358,345,15609,2,0,P|324:335|288:328,1,71.9999978027344,8|2,0:3|0:2,0:0:0:0:
403,177,15950,2,0,P|368:187|333:193,1,71.9999978027344,0|10,0:0|0:3,0:0:0:0:
172,77,16291,5,4,0:0:0:0:
151,264,16461,1,4,0:0:0:0:
8,145,16632,1,4,0:0:0:0:
191,87,16802,6,0,P|259:100|317:59,1,143.999995605469,10|2,0:3|0:2,0:0:0:0:
403,177,17314,2,0,P|397:141|395:105,1,71.9999978027344,8|2,0:3|0:2,0:0:0:0:
468,331,17654,2,0,P|473:295|475:259,1,71.9999978027344,0|10,0:0|0:3,0:0:0:0:
332,189,17995,6,0,P|367:182|402:176,1,71.9999978027344,0|2,0:0|0:2,0:0:0:0:
243,248,18336,2,0,P|230:281|218:315,1,71.9999978027344,8|2,0:3|0:2,0:0:0:0:
237,141,18677,2,0,P|213:113|190:86,1,71.9999978027344,8|2,0:2|0:2,0:0:0:0:
35,224,19018,1,8,0:2:0:0:
35,224,19103,1,8,0:2:0:0:
35,224,19189,2,0,P|17:221|0:217,1,35.9999989013672,8|8,0:2|0:2,0:0:0:0:
98,112,19359,2,0,P|101:129|104:147,1,35.9999989013672,8|8,0:2|0:2,0:0:0:0:
0,312,19529,6,0,P|53:255|132:269,1,160,6|10,3:2|0:2,0:0:0:0:
270,383,20041,1,2,3:2:0:0:
270,383,20126,1,0,3:0:0:0:
270,383,20211,2,0,P|229:380|195:357,1,80,2|2,3:2|3:2,0:0:0:0:
284,238,20552,1,10,0:2:0:0:
440,317,20723,6,0,P|449:267|459:228,1,80,2|0,3:2|0:0,0:0:0:0:
349,92,21064,2,0,P|357:131|365:170,1,80,2|10,0:2|0:2,0:0:0:0:
257,63,21404,1,2,3:2:0:0:
389,2,21575,1,2,3:2:0:0:
271,169,21745,2,0,P|234:150|185:151,1,80,2|10,3:2|0:2,0:0:0:0:
72,224,22086,1,2,3:2:0:0:
145,78,22257,6,0,P|157:141|181:271,1,160,6|10,3:2|0:2,0:0:0:0:
47,333,22768,1,2,3:2:0:0:
47,333,22853,1,0,3:0:0:0:
47,333,22939,2,0,P|55:293|70:232,1,80,2|2,3:2|3:2,0:0:0:0:
179,380,23279,1,10,0:2:0:0:
336,288,23450,6,0,P|299:264|260:263,1,80,2|2,3:2|3:2,0:0:0:0:
420,382,23791,2,0,P|454:372|515:361,1,80,2|10,0:2|0:2,0:0:0:0:
456,167,24132,2,0,P|446:205|435:257,1,80,2|2,3:2|3:2,0:0:0:0:
309,94,24473,5,10,0:2:0:0:
445,27,24643,1,0,0:0:0:0:
341,207,24814,1,10,0:2:0:0:
193,108,24984,1,6,3:2:0:0:
193,108,25325,6,0,P|230:92|285:101,1,80,10|2,0:2|3:2,0:0:0:0:
289,110,25581,1,0,3:0:0:0:
289,110,25666,1,2,3:2:0:0:
100,203,25836,2,0,P|59:194|14:186,1,80,2|10,3:2|0:2,0:0:0:0:
96,70,26177,1,2,3:2:0:0:
213,261,26348,6,0,P|254:252|299:244,1,80,2|0,3:2|0:0,0:0:0:0:
442,343,26689,1,10,0:2:0:0:
415,169,26859,2,0,L|392:270,1,80,2|2,3:2|3:2,0:0:0:0:
227,122,27200,1,2,3:2:0:0:
377,53,27370,1,10,0:2:0:0:
377,53,27711,6,0,P|335:42|286:30,1,80,6|0,3:2|0:0,0:0:0:0:
96,174,28052,2,0,P|137:163|187:151,1,80,10|2,0:2|3:2,0:0:0:0:
209,163,28308,1,0,3:0:0:0:
209,163,28393,2,0,L|192:72,1,80,2|2,3:2|3:2,0:0:0:0:
284,317,28734,2,0,P|253:285|177:287,1,120,10|0,0:2|0:0,0:0:0:0:
156,309,29075,6,0,P|118:331|76:328,1,80,6|2,3:2|0:2,0:0:0:0:
318,206,29416,2,0,P|356:215|408:227,1,80,14|2,0:2|3:2,0:0:0:0:
283,34,29757,1,2,3:2:0:0:
311,218,29927,1,2,3:2:0:0:
448,118,30098,1,10,0:2:0:0:
266,10,30268,1,10,0:2:0:0:
266,10,30353,1,8,0:2:0:0:
266,10,30439,6,0,P|206:61|129:53,1,160,6|10,3:2|0:2,0:0:0:0:
311,218,30950,1,2,3:2:0:0:
311,218,31035,1,0,3:0:0:0:
311,218,31120,2,0,P|318:178|324:139,1,80,2|2,3:2|3:2,0:0:0:0:
204,215,31461,1,10,0:2:0:0:
328,341,31632,6,0,P|288:347|249:354,1,80,2|0,3:2|0:0,0:0:0:0:
411,229,31973,2,0,P|417:268|424:307,1,80,2|10,0:2|0:2,0:0:0:0:
450,131,32314,5,2,3:2:0:0:
311,218,32484,1,2,3:2:0:0:
327,19,32654,2,0,P|333:58|340:97,1,80,2|10,3:2|0:2,0:0:0:0:
311,218,32995,1,2,3:2:0:0:
64,104,33166,6,0,B|155:122|127:63|217:79,1,160,6|10,3:2|0:2,0:0:0:0:
201,242,33677,1,2,3:2:0:0:
201,242,33762,1,0,3:0:0:0:
201,241,33848,2,0,P|194:201|188:161,1,80,2|2,3:2|3:2,0:0:0:0:
125,311,34189,1,10,0:2:0:0:
318,383,34359,6,0,P|324:343|330:303,1,80,2|2,3:2|3:2,0:0:0:0:
225,340,34700,1,2,0:2:0:0:
292,195,34870,1,10,0:2:0:0:
482,339,35041,2,0,P|442:345|402:351,1,80,2|2,3:2|3:2,0:0:0:0:
292,195,35382,2,0,P|294:176|299:153,2,40,10|0|0,0:2|0:0|0:0,0:0:0:0:
429,75,35723,1,10,0:2:0:0:
429,75,35808,1,0,0:0:0:0:
429,75,35893,6,0,P|389:83|350:88,1,80,6|0,3:2|0:0,0:0:0:0:
242,20,36234,1,10,0:2:0:0:
277,229,36404,1,2,3:2:0:0:
277,229,36490,1,0,3:0:0:0:
277,228,36575,2,0,P|297:194|297:154,1,80,2|2,3:2|3:2,0:0:0:0:
361,274,36916,1,10,0:2:0:0:
207,169,37086,6,0,P|128:183|49:198,1,160,2|2,3:2|0:2,0:0:0:0:
174,83,37598,1,10,0:2:0:0:
42,11,37768,2,0,P|34:50|27:89,1,80,2|0,3:2|0:0,0:0:0:0:
49,197,38109,1,2,3:2:0:0:
174,83,38279,1,10,0:2:0:0:
279,232,38449,1,2,3:2:0:0:
279,232,38535,1,0,3:0:0:0:
279,232,38620,6,0,P|219:240|159:247,1,120,6|0,3:2|2:0,0:0:0:0:
164,162,38961,2,0,P|168:122|174:83,1,80,10|0,0:2|3:0,0:0:0:0:
126,26,39217,1,0,3:0:0:0:
126,26,39302,2,0,P|165:27|202:12,1,80,0|0,3:0|3:0,0:0:0:0:
279,232,39643,2,0,P|282:192|288:152,1,80,10|0,0:2|3:0,0:0:0:0:
376,72,39984,5,6,3:2:0:0:
164,162,40154,1,0,0:0:0:0:
325,314,40325,2,0,P|372:262|367:192,1,143.999995605469,14|0,0:2|3:0,0:0:0:0:
367,192,40666,5,2,3:2:0:0:
167,295,40836,1,0,3:0:0:0:
167,295,40921,1,8,0:2:0:0:
167,295,41007,2,0,P|162:271|159:247,1,47.9999985351563,10|8,0:2|0:2,0:0:0:0:
288,152,41177,2,0,P|283:175|280:199,1,47.9999985351563,8|8,0:2|0:2,0:0:0:0:
210,371,41348,6,0,P|157:337|94:341,1,128,4|8,0:2|0:2,0:0:0:0:
0,238,41859,2,0,P|56:239|103:190,1,128,8|8,0:3|0:3,0:0:0:0:
255,115,42370,2,0,B|194:142|205:200|205:200|244:215|257:262,1,192,4|8,0:2|0:3,0:0:0:0:
248,289,42967,5,8,0:3:0:0:
248,289,43052,1,8,0:3:0:0:
389,175,43223,1,8,0:3:0:0:
442,347,43393,1,8,0:3:0:0:
344,281,43564,6,0,P|370:274|429:263,1,64,4|4,0:2|0:2,0:0:0:0:
493,252,43904,1,4,0:2:0:0:
346,69,44075,6,0,P|395:131|378:195,1,128,4|8,0:2|0:2,0:0:0:0:
228,74,44586,2,0,P|235:41|244:5,1,64,0|8,3:0|0:2,0:0:0:0:
294,154,44927,1,0,3:0:0:0:
120,107,45098,2,0,P|50:120|22:167,1,128,4|0,0:2|0:0,0:0:0:0:
189,300,45609,5,8,0:2:0:0:
189,300,45694,1,8,0:2:0:0:
189,300,45779,2,0,P|181:257|176:228,1,64,8|0,0:2|3:0,0:0:0:0:
37,356,46120,2,0,P|67:361|109:369,1,64,2|0,0:2|3:0,0:0:0:0:
251,186,46461,1,2,0:2:0:0:
91,267,46632,1,0,3:0:0:0:
282,347,46802,6,0,P|289:304|295:275,1,64,4|8,0:2|3:2,0:0:0:0:
189,300,47143,1,8,0:2:0:0:
385,341,47314,2,0,P|443:326|533:309,1,128,8|0,0:2|3:0,0:0:0:0:
419,112,47825,2,0,B|391:240|391:240|376:210|343:189,1,192,12|0,0:2|3:0,0:0:0:0:
326,182,48421,5,0,0:0:0:0:
326,182,48507,1,8,0:2:0:0:
216,62,48677,2,0,P|243:45|294:52,1,64,0|8,0:0|0:2,0:0:0:0:
146,150,49018,6,0,P|105:141|81:138,1,64,4|4,0:2|0:2,0:0:0:0:
0,125,49359,1,4,0:2:0:0:
92,244,49529,5,8,0:3:0:0:
241,177,49700,2,0,L|233:138,2,32,8|8|8,0:3|0:3|0:3,0:0:0:0:
130,351,50041,2,0,P|89:341|57:335,1,64,8|8,0:3|0:3,0:0:0:0:
36,336,50296,1,8,0:3:0:0:
36,336,50382,1,8,0:3:0:0:
182,252,50552,1,8,0:3:0:0:
295,375,50723,2,0,L|303:336,2,32,8|8|8,0:3|0:3|0:3,0:0:0:0:
388,192,51064,6,0,P|393:216|404:264,1,64,4|4,0:2|0:2,0:0:0:0:
417,340,51404,1,4,0:2:0:0:
484,174,51575,5,8,0:3:0:0:
299,249,51745,1,8,0:3:0:0:
299,249,51831,1,8,0:3:0:0:
299,249,51916,2,0,P|264:241|224:235,1,64,8|0,0:2|0:0,0:0:0:0:
62,273,52257,6,0,P|60:253|56:233,5,40,12|0|0|0|0|0,0:2|3:0|3:0|3:0|3:0|3:0,0:0:0:0:
137,133,52768,2,0,P|132:152|130:172,5,40,8|0|0|0|0|0,0:2|3:0|3:0|3:0|3:0|3:0,0:0:0:0:
43,85,53279,2,0,P|40:65|36:45,5,40,8|0|0|0|0|0,0:2|3:0|3:0|3:0|3:0|3:0,0:0:0:0:
130,172,53791,5,8,0:2:0:0:
154,181,53876,1,0,3:0:0:0:
181,183,53961,1,0,3:0:0:0:
207,178,54046,1,0,3:0:0:0:
230,165,54131,1,0,3:0:0:0:
248,146,54217,1,0,3:0:0:0:
261,122,54302,6,0,P|263:102|267:82,3,40,8|0|0|0,0:2|3:0|3:0|3:0,0:0:0:0:
358,50,54643,2,0,P|355:30|351:10,3,40,8|0|0|0,0:2|3:0|3:0|3:0,0:0:0:0:
472,99,54984,6,0,P|452:103|432:105,5,40,8|0|0|0|0|0,0:2|3:0|3:0|3:0|3:0|3:0,0:0:0:0:
375,177,55495,2,0,P|377:196|381:216,5,40,8|0|0|0|0|0,0:2|3:0|3:0|3:0|3:0|3:0,0:0:0:0:
458,276,56007,2,0,P|453:295|451:315,5,40,8|0|0|0|0|0,0:2|3:0|3:0|3:0|3:0|3:0,0:0:0:0:
361,374,56518,5,8,0:2:0:0:
344,353,56603,1,0,3:0:0:0:
322,337,56688,1,0,3:0:0:0:
297,328,56773,1,0,3:0:0:0:
271,327,56858,1,0,3:0:0:0:
245,332,56944,1,0,3:0:0:0:
222,345,57029,6,0,P|219:325|215:305,1,40,8|0,0:2|3:0,0:0:0:0:
161,233,57200,2,0,P|141:235|121:239,1,40,0|0,3:0|3:0,0:0:0:0:
53,293,57370,2,0,P|33:291|13:287,3,40,8|0|0|0,0:2|3:0|3:0|3:0,0:0:0:0:
161,233,57711,5,12,0:2:0:0:
177,212,57796,1,0,3:0:0:0:
188,187,57881,1,0,3:0:0:0:
191,161,57966,1,0,3:0:0:0:
187,135,58051,1,0,3:0:0:0:
176,110,58137,1,0,3:0:0:0:
159,90,58223,6,0,P|139:95|120:102,5,40,8|0|0|0|0|0,0:2|3:0|3:0|3:0|3:0|3:0,0:0:0:0:
250,36,58734,2,0,P|238:19|225:3,5,40,8|0|0|0|0|0,0:2|3:0|3:0|3:0|3:0|3:0,0:0:0:0:
329,105,59245,2,0,P|341:89|352:72,5,40,8|0|0|0|0|0,0:2|3:0|3:0|3:0|3:0|3:0,0:0:0:0:
287,202,59757,5,8,0:2:0:0:
287,202,59842,1,0,3:0:0:0:
287,202,59927,2,0,P|306:208|326:214,1,40,0|0,3:0|3:0,0:0:0:0:
182,192,60098,5,8,0:2:0:0:
182,192,60183,1,8,0:2:0:0:
182,192,60268,2,0,P|181:211|182:232,1,40,8|8,0:2|0:2,0:0:0:0:
222,345,60439,5,8,0:2:0:0:
222,345,62143,6,0,P|274:298|344:302,1,143.999995605469,4|8,3:2|0:2,0:0:0:0:
391,366,62484,2,0,L|409:271,1,95.9999970703126,8|0,0:2|3:0,0:0:0:0:
326,161,62740,1,8,0:2:0:0:
326,161,62825,2,0,P|331:184|334:208,1,47.9999985351563,8|0,0:2|0:0,0:0:0:0:
241,83,62995,2,0,P|243:59|249:35,1,47.9999985351563,0|8,3:0|0:2,0:0:0:0:
225,202,63166,6,0,B|194:161|141:173|141:173|118:212|73:214,1,176.000005371094,6|10,3:2|0:2,0:0:0:0:
114,0,63677,1,0,3:0:0:0:
114,0,63762,1,0,3:0:0:0:
114,0,63848,2,0,P|143:41|129:96,1,88.000002685547,2|0,3:2|3:0,0:0:0:0:
0,251,64189,2,0,P|71:245|120:298,1,132.00000402832,10|0,0:2|2:0,0:0:0:0:
109,365,64529,6,0,P|152:356|195:347,1,88.000002685547,2|0,3:2|0:0,0:0:0:0:
293,240,64870,2,0,L|425:269,1,132.00000402832,10|0,0:2|3:0,0:0:0:0:
455,276,65211,1,2,3:2:0:0:
313,368,65382,1,0,3:0:0:0:
187,204,65552,2,0,P|192:236|204:300,1,88.000002685547,10|0,0:2|3:0,0:0:0:0:
417,176,65893,6,0,P|465:129|441:30,1,176.000005371094,6|10,3:2|0:2,0:0:0:0:
219,107,66404,1,0,3:0:0:0:
219,107,66490,1,0,3:0:0:0:
219,107,66575,2,0,P|260:117|331:135,1,88.000002685547,2|0,3:2|3:0,0:0:0:0:
421,268,66916,2,0,P|379:278|309:296,1,88.000002685547,10|0,0:2|3:0,0:0:0:0:
131,226,67257,5,2,3:2:0:0:
304,128,67427,1,0,0:0:0:0:
252,343,67598,2,0,P|241:288|233:244,1,88.000002685547,10|0,0:2|3:0,0:0:0:0:
155,107,67939,2,0,P|146:150|138:193,1,88.000002685547,2|0,3:2|3:0,0:0:0:0:
7,323,68279,2,0,P|44:298|102:310,1,88.000002685547,10|0,0:2|3:0,0:0:0:0:
147,359,68535,5,8,0:2:0:0:
147,359,68620,2,0,P|232:345|324:335,1,176.000005371094,6|10,3:2|0:2,0:0:0:0:
490,256,69132,1,0,3:0:0:0:
490,256,69217,1,0,0:0:0:0:
490,256,69302,2,0,P|443:257|405:222,1,88.000002685547,2|0,3:2|3:0,0:0:0:0:
301,32,69643,2,0,P|337:68|324:147,1,132.00000402832,10|0,0:2|2:0,0:0:0:0:
272,198,69984,6,0,P|227:188|184:180,1,88.000002685547,2|0,3:2|0:0,0:0:0:0:
2,83,70325,2,0,P|45:45|124:60,1,132.00000402832,10|0,0:2|3:0,0:0:0:0:
137,75,70666,1,2,3:2:0:0:
15,214,70836,1,0,3:0:0:0:
177,263,71007,2,0,P|193:212|179:168,1,88.000002685547,10|0,0:2|3:0,0:0:0:0:
1,336,71348,6,0,P|86:324|147:394,1,176.000005371094,6|10,3:2|0:2,0:0:0:0:
338,300,71859,1,0,3:0:0:0:
338,300,71944,1,0,3:0:0:0:
338,300,72029,2,0,L|247:316,1,88.000002685547,2|0,3:2|3:0,0:0:0:0:
150,180,72370,2,0,P|137:111|183:58,1,132.00000402832,10|0,0:2|0:0,0:0:0:0:
203,49,72711,5,6,3:2:0:0:
342,185,72882,1,8,0:2:0:0:
399,12,73052,1,14,0:2:0:0:
237,161,73223,1,0,3:0:0:0:
237,161,73308,1,0,3:0:0:0:
237,161,73393,1,2,3:2:0:0:
432,249,73564,1,0,3:0:0:0:
432,249,73649,1,8,0:2:0:0:
432,249,73734,2,0,P|437:222|443:193,1,44.0000013427735,8|8,0:2|0:2,0:0:0:0:
297,58,73904,2,0,P|302:85|308:114,1,44.0000013427735,8|8,0:2|0:2,0:0:0:0:
273,242,74075,6,0,P|188:238|144:166,1,176.000005371094,6|10,3:2|0:2,0:0:0:0:
37,342,74586,1,0,0:0:0:0:
37,342,74671,1,0,3:0:0:0:
37,341,74757,2,0,P|66:309|108:297,1,88.000002685547,2|0,3:2|3:0,0:0:0:0:
279,372,75098,1,10,0:2:0:0:
237,161,75268,6,0,P|216:246|195:331,1,176.000005371094,0|0,3:0|0:0,0:0:0:0:
126,175,75779,1,10,0:2:0:0:
354,175,75950,1,0,3:0:0:0:
354,175,76035,1,0,3:0:0:0:
354,175,76120,2,0,P|343:132|333:89,1,88.000002685547,2|0,3:2|3:0,0:0:0:0:
512,315,76461,2,0,P|459:276|395:284,1,132.00000402832,10|0,0:2|2:0,0:0:0:0:
369,355,76802,6,0,P|281:341|194:331,1,176.000005371094,6|10,3:2|0:2,0:0:0:0:
89,218,77314,1,0,3:0:0:0:
8,339,77484,5,6,3:2:0:0:
187,241,77654,1,0,3:0:0:0:
44,61,77825,2,0,P|0:107|16:168,1,132.00000402832,10|0,0:2|2:0,0:0:0:0:
89,218,78166,6,0,P|174:197|260:177,1,176.000005371094,6|10,3:2|0:2,0:0:0:0:
390,224,78677,1,0,3:0:0:0:
390,224,78762,1,0,0:0:0:0:
390,224,78848,1,2,3:2:0:0:
393,39,79018,1,0,3:0:0:0:
393,39,79103,1,8,0:2:0:0:
393,39,79189,2,0,P|371:44|350:50,1,44.0000013427735,10|8,0:2|0:2,0:0:0:0:
454,148,79359,2,0,P|459:126|465:105,1,44.0000013427735,8|8,0:2|0:2,0:0:0:0:
260,177,79529,6,0,P|268:220|278:263,1,88.000002685547,6|0,0:2|0:0,0:0:0:0:
438,367,79870,2,0,P|447:324|456:280,1,88.000002685547,10|0,0:2|3:0,0:0:0:0:
328,120,80211,5,10,3:2:0:0:
169,260,80382,1,0,3:0:0:0:
359,309,80552,5,10,0:2:0:0:
170,166,80723,1,0,3:0:0:0:
135,365,80893,6,0,P|177:353|219:341,1,88.000002685547,14|0,3:2|0:0,0:0:0:0:
384,195,81234,5,10,0:2:0:0:
306,383,81404,1,0,3:0:0:0:
169,260,81575,6,0,P|126:248|84:236,1,88.000002685547,10|0,3:2|3:0,0:0:0:0:
204,70,81916,1,10,0:2:0:0:
278,263,82086,1,0,3:0:0:0:
434,127,82257,6,0,B|394:94|345:114|345:114|322:149|274:145,1,176.000005371094,14|10,3:2|0:2,0:0:0:0:
369,296,82768,2,0,P|376:252|385:209,1,88.000002685547,0|10,3:0|3:2,0:0:0:0:
219,340,83109,5,0,3:0:0:0:
135,140,83279,1,10,0:2:0:0:
41,299,83450,1,0,3:0:0:0:
41,299,83535,1,0,0:0:0:0:
41,299,83620,6,0,P|97:256|168:260,2,143.999995605469,14|2|6,3:2|3:2|3:2,0:0:0:0:
214,376,84473,1,0,3:0:0:0:
214,376,84558,1,8,0:2:0:0:
214,375,84643,2,0,P|215:358|218:340,1,35.9999989013672,8|8,0:2|0:2,0:0:0:0:
273,227,84814,2,0,P|274:244|277:262,1,35.9999989013672,8|8,0:2|0:2,0:0:0:0:
178,177,84984,6,0,P|234:120|310:130,1,160,6|10,3:2|0:2,0:0:0:0:
454,262,85495,1,0,3:0:0:0:
454,262,85581,1,0,3:0:0:0:
454,262,85666,2,0,P|413:252|359:240,1,80,2|0,3:2|3:0,0:0:0:0:
218,339,86007,2,0,P|148:353|82:367,1,120,10|0,0:2|2:0,0:0:0:0:
69,345,86348,6,0,P|78:296|86:254,1,80,2|0,3:2|0:0,0:0:0:0:
0,91,86689,2,0,P|7:130|14:169,1,80,10|0,0:2|3:0,0:0:0:0:
188,52,87029,1,2,3:2:0:0:
74,2,87200,1,0,3:0:0:0:
166,165,87370,2,0,P|204:156|267:144,1,80,10|0,0:2|3:0,0:0:0:0:
469,195,87711,6,0,P|429:248|327:229,1,160,6|10,3:2|0:2,0:0:0:0:
365,65,88223,1,0,3:0:0:0:
365,65,88308,1,0,3:0:0:0:
365,65,88393,2,0,P|372:98|387:179,1,80,2|0,3:2|3:0,0:0:0:0:
307,332,88734,2,0,P|259:298|186:307,1,120,10|0,0:2|2:0,0:0:0:0:
182,329,89075,6,0,P|141:336|91:349,1,80,2|0,3:2|0:0,0:0:0:0:
0,206,89416,2,0,P|40:213|91:226,1,80,10|0,0:2|3:0,0:0:0:0:
194,36,89757,1,2,3:2:0:0:
53,111,89927,1,0,3:0:0:0:
177,224,90098,2,0,P|166:178|158:137,1,80,10|0,0:2|3:0,0:0:0:0:
316,16,90439,6,0,P|301:89|286:181,1,160,6|10,3:2|0:2,0:0:0:0:
448,235,90950,1,0,3:0:0:0:
448,235,91035,1,0,3:0:0:0:
448,235,91120,2,0,P|447:194|425:160,1,80,2|0,3:2|3:0,0:0:0:0:
373,352,91461,2,0,P|410:360|458:373,1,80,10|0,0:2|3:0,0:0:0:0:
275,269,91802,6,0,P|237:277|190:290,1,80,2|0,3:2|0:0,0:0:0:0:
43,381,92143,2,0,P|21:342|24:303,1,80,10|0,0:2|3:0,0:0:0:0:
128,159,92484,1,2,3:2:0:0:
184,305,92654,1,0,3:0:0:0:
14,220,92825,1,10,0:2:0:0:
178,69,92995,1,0,3:0:0:0:
178,69,93081,1,8,0:2:0:0:
178,69,93166,6,0,P|236:131|218:206,1,160,6|10,3:2|0:2,0:0:0:0:
50,178,93677,1,0,3:0:0:0:
50,178,93762,1,0,3:0:0:0:
50,178,93848,2,0,L|138:156,1,80,2|0,3:2|3:0,0:0:0:0:
236,330,94189,2,0,P|196:296|121:303,1,120,10|0,0:2|2:0,0:0:0:0:
101,316,94529,5,6,3:2:0:0:
223,198,94700,1,0,0:0:0:0:
30,100,94870,2,0,P|38:130|51:186,1,80,14|0,0:2|3:0,0:0:0:0:
56,208,95126,1,0,3:0:0:0:
56,208,95211,1,2,3:2:0:0:
172,123,95382,1,0,3:0:0:0:
172,123,95467,1,8,0:2:0:0:
172,123,95553,2,0,P|152:119|132:115,1,40,8|8,0:2|0:2,0:0:0:0:
251,13,95723,2,0,P|254:32|258:52,1,40,8|8,0:2|0:2,0:0:0:0:
310,144,95893,6,0,B|393:131|371:196|460:178,1,160,6|10,3:2|0:2,0:0:0:0:
444,19,96404,1,2,3:2:0:0:
444,19,96490,1,0,3:0:0:0:
443,20,96575,2,0,P|425:55|430:94,1,80,2|2,3:2|3:2,0:0:0:0:
327,229,96916,1,10,0:2:0:0:
507,349,97086,6,0,P|449:298|372:308,1,160,2|2,3:2|0:2,0:0:0:0:
244,224,97598,1,10,0:2:0:0:
266,384,97768,2,0,P|272:344|278:305,1,80,2|2,3:2|3:2,0:0:0:0:
128,185,98109,1,2,3:2:0:0:
178,360,98279,1,10,0:2:0:0:
244,224,98450,1,2,3:2:0:0:
99,99,98620,6,0,P|42:151|48:229,1,160,6|10,3:2|0:2,0:0:0:0:
212,125,99132,1,2,3:2:0:0:
212,125,99217,1,0,3:0:0:0:
212,124,99302,2,0,P|205:84|199:45,1,80,2|2,3:2|3:2,0:0:0:0:
333,179,99643,1,10,0:2:0:0:
140,263,99814,6,0,P|133:223|127:184,1,80,2|2,3:2|3:2,0:0:0:0:
273,298,100154,2,0,P|266:337|260:376,1,80,2|10,0:2|0:2,0:0:0:0:
409,188,100495,2,0,P|369:192|332:178,1,80,2|2,3:2|3:2,0:0:0:0:
385,21,100836,5,10,0:2:0:0:
212,124,101007,1,0,0:0:0:0:
358,275,101177,1,10,0:2:0:0:
379,107,101348,1,6,3:2:0:0:
378,106,101689,6,0,P|347:83|308:76,1,80,10|2,0:2|3:2,0:0:0:0:
287,90,101944,1,0,3:0:0:0:
287,90,102029,1,2,3:2:0:0:
124,22,102200,2,0,P|129:61|134:101,1,80,2|10,3:2|0:2,0:0:0:0:
47,228,102541,6,0,B|130:213|106:283|196:262,1,160,2|0,3:2|0:0,0:0:0:0:
306,231,103052,1,10,0:2:0:0:
258,383,103223,2,0,P|225:360|186:353,1,80,2|2,3:2|3:2,0:0:0:0:
234,187,103564,1,2,3:2:0:0:
386,296,103734,1,10,0:2:0:0:
386,296,104075,6,0,P|347:306|308:317,1,80,6|0,3:2|0:0,0:0:0:0:
287,115,104416,2,0,P|325:125|364:136,1,80,10|2,0:2|3:2,0:0:0:0:
392,155,104671,1,0,3:0:0:0:
392,155,104757,2,0,P|404:117|401:77,1,80,2|2,3:2|3:2,0:0:0:0:
134,148,105098,2,0,P|192:146|234:187,1,120,10|0,0:2|2:0,0:0:0:0:
254,229,105439,6,0,P|293:230|330:214,1,80,6|2,3:2|0:2,0:0:0:0:
145,69,105779,2,0,P|139:108|133:148,1,80,14|2,0:2|3:2,0:0:0:0:
107,335,106120,5,2,3:2:0:0:
234,187,106291,1,2,3:2:0:0:
34,275,106461,1,10,0:2:0:0:
196,373,106632,1,10,0:2:0:0:
196,373,106717,1,8,0:2:0:0:
196,373,106802,6,0,P|275:377|329:318,1,160,6|10,3:2|0:2,0:0:0:0:
487,233,107314,1,2,3:2:0:0:
487,233,107399,1,0,3:0:0:0:
487,233,107484,2,0,L|403:216,1,80,2|2,3:2|3:2,0:0:0:0:
290,100,107825,1,10,0:2:0:0:
392,26,107995,6,0,P|401:62|410:111,1,80,2|0,3:2|0:0,0:0:0:0:
263,210,108336,2,0,P|271:169|280:131,1,80,2|10,0:2|0:2,0:0:0:0:
133,9,108677,1,2,3:2:0:0:
172,158,108848,1,2,3:2:0:0:
13,116,109018,6,0,L|95:95,1,80,2|10,3:2|0:2,0:0:0:0:
215,66,109359,1,2,3:2:0:0:
196,273,109529,6,0,B|161:236|111:245|111:245|90:279|40:291,1,160,6|10,3:2|0:2,0:0:0:0:
259,365,110041,1,2,3:2:0:0:
259,365,110126,1,0,3:0:0:0:
259,365,110211,2,0,P|301:357|343:352,1,80,2|2,3:2|3:2,0:0:0:0:
457,236,110552,1,10,0:2:0:0:
338,159,110723,6,0,P|329:194|317:248,1,80,2|0,3:2|0:0,0:0:0:0:
191,85,111064,1,2,0:2:0:0:
91,252,111234,1,10,0:2:0:0:
235,199,111404,2,0,P|192:189|150:181,1,80,2|2,3:2|3:2,0:0:0:0:
53,116,111745,6,0,L|42:63,2,40,10|0|0,0:2|0:0|0:0,0:0:0:0:
7,303,112086,1,10,0:2:0:0:
7,303,112171,1,0,0:0:0:0:
7,303,112257,6,0,P|77:287|140:354,1,160,6|10,3:2|0:2,0:0:0:0:
300,224,112768,1,2,3:2:0:0:
300,224,112853,1,0,3:0:0:0:
300,224,112939,2,0,P|259:233|205:246,1,80,2|2,3:2|3:2,0:0:0:0:
352,123,113279,1,10,0:2:0:0:
431,292,113450,6,0,P|440:253|451:214,1,80,2|2,3:2|3:2,0:0:0:0:
237,307,113791,1,0,0:0:0:0:
339,218,113961,1,10,0:2:0:0:
213,108,114132,2,0,P|223:146|233:185,1,80,2|2,3:2|3:2,0:0:0:0:
291,22,114473,1,2,3:2:0:0:
116,152,114643,2,0,P|73:143|25:135,1,80,10|2,0:2|3:2,0:0:0:0:
7,132,114899,5,0,3:0:0:0:
7,132,114984,2,0,P|44:207|18:257,1,120,6|0,3:2|2:0,0:0:0:0:
8,321,115325,2,0,L|94:304,1,80,10|0,0:2|3:0,0:0:0:0:
145,369,115581,1,0,3:0:0:0:
145,369,115666,2,0,L|223:384,1,80,0|0,3:0|3:0,0:0:0:0:
309,275,116007,2,0,P|358:240|430:263,1,120,10|0,0:2|0:0,0:0:0:0:
441,275,116348,5,6,3:2:0:0:
299,73,116518,1,0,0:0:0:0:
444,40,116689,2,0,P|492:104|464:180,1,143.999995605469,14|0,0:2|2:0,0:0:0:0:
479,162,117029,1,2,3:2:0:0:
298,72,117200,1,0,3:0:0:0:
298,72,117285,1,8,0:2:0:0:
298,72,117370,6,0,P|274:72|250:78,1,47.9999985351563,10|8,0:2|0:2,0:0:0:0:
363,187,117541,2,0,P|370:164|382:143,1,47.9999985351563,8|8,0:2|0:2,0:0:0:0:
260,245,117711,6,0,P|214:201|152:196,1,128,4|8,0:2|0:2,0:0:0:0:
10,117,118223,2,0,P|72:112|117:68,1,128,8|8,0:3|0:3,0:0:0:0:
265,68,118734,2,0,B|234:55|224:27|224:27|235:159,1,192,4|8,0:2|0:3,0:0:0:0:
243,204,119331,5,8,0:3:0:0:
243,204,119416,1,8,0:3:0:0:
383,144,119586,1,8,0:3:0:0:
461,312,119757,1,8,0:3:0:0:
331,260,119927,6,0,P|361:250|392:242,1,64,4|4,0:2|0:2,0:0:0:0:
492,218,120268,1,4,0:2:0:0:
337,36,120439,6,0,P|380:80|382:143,1,128,4|8,0:2|0:2,0:0:0:0:
243,204,120950,1,0,3:0:0:0:
263,87,121120,2,0,P|231:82|199:76,1,64,8|0,0:2|3:0,0:0:0:0:
55,257,121461,2,0,P|103:218|110:155,1,128,4|0,0:2|0:0,0:0:0:0:
31,44,121973,5,8,0:2:0:0:
31,44,122058,1,8,0:2:0:0:
31,44,122143,2,0,P|36:75|39:107,1,64,8|0,0:2|3:0,0:0:0:0:
55,257,122484,2,0,P|116:238|179:226,1,128,2|2,0:2|0:2,0:0:0:0:
338,304,122995,1,0,3:0:0:0:
306,168,123166,6,0,P|295:198|285:228,1,64,4|8,0:2|3:2,0:0:0:0:
229,137,123507,1,8,0:2:0:0:
389,204,123677,2,0,P|450:187|511:167,1,128,8|0,0:2|3:0,0:0:0:0:
334,1,124189,2,0,B|279:28|294:85|294:85|325:124|306:168,1,192,12|0,0:2|3:0,0:0:0:0:
165,144,124870,6,0,P|196:141|228:136,1,64,8|0,0:2|0:0,0:0:0:0:
103,80,125211,1,8,0:2:0:0:
21,257,125382,2,0,P|16:225|13:193,1,64,4|4,0:2|0:2,0:0:0:0:
159,280,125723,1,4,0:2:0:0:
74,366,125893,5,8,0:3:0:0:
97,219,126064,2,0,L|93:187,2,32,8|8|8,0:3|0:3|0:3,0:0:0:0:
219,299,126404,6,0,P|188:288|158:279,1,64,8|8,0:3|0:3,0:0:0:0:
158,279,126660,1,8,0:3:0:0:
158,279,126745,1,8,0:3:0:0:
273,200,126916,5,8,0:3:0:0:
309,357,127086,2,0,P|312:341|316:325,2,32,8|8|8,0:3|0:3|0:3,0:0:0:0:
418,168,127427,6,0,P|386:173|355:179,1,64,4|4,0:2|0:2,0:0:0:0:
273,200,127768,1,4,0:2:0:0:
457,256,127939,5,8,0:3:0:0:
479,82,128109,1,8,0:3:0:0:
479,82,128194,1,8,0:3:0:0:
479,82,128279,2,0,P|447:77|416:71,1,64,8|0,0:2|0:0,0:0:0:0:
273,200,128620,6,0,P|266:172|262:154,5,40,12|0|0|0|0|0,0:2|3:0|3:0|3:0|3:0|3:0,0:0:0:0:
163,234,129132,2,0,P|158:253|154:273,5,40,8|0|0|0|0|0,0:2|3:0|3:0|3:0|3:0|3:0,0:0:0:0:
267,342,129643,2,0,P|262:322|257:303,5,40,8|0|0|0|0|0,0:2|3:0|3:0|3:0|3:0|3:0,0:0:0:0:
163,367,130154,5,8,0:2:0:0:
139,375,130239,1,0,3:0:0:0:
112,376,130325,1,0,3:0:0:0:
86,370,130410,1,0,3:0:0:0:
62,358,130495,1,0,3:0:0:0:
42,341,130580,1,0,3:0:0:0:
27,318,130666,6,0,P|40:313|75:301,3,40,8|0|0|0,0:2|3:0|3:0|3:0,0:0:0:0:
163,235,131007,2,0,P|144:228|125:221,3,40,8|0|0|0,0:2|3:0|3:0|3:0,0:0:0:0:
47,136,131348,6,0,L|37:93,5,40,8|0|0|0|0|0,0:2|3:0|3:0|3:0|3:0|3:0,0:0:0:0:
143,17,131859,2,0,L|133:55,5,40,8|0|0|0|0|0,0:2|3:0|3:0|3:0|3:0|3:0,0:0:0:0:
203,157,132370,2,0,L|212:118,5,40,8|0|0|0|0|0,0:2|3:0|3:0|3:0|3:0|3:0,0:0:0:0:
301,64,132882,5,8,0:2:0:0:
305,90,132967,1,0,3:0:0:0:
310,116,133052,1,0,3:0:0:0:
315,142,133137,1,0,3:0:0:0:
320,168,133222,1,0,3:0:0:0:
324,195,133308,1,0,3:0:0:0:
330,221,133393,6,0,L|319:275,1,40,8|0,0:2|3:0,0:0:0:0:
227,315,133564,2,0,P|210:310|182:304,1,40,0|0,3:0|3:0,0:0:0:0:
319,366,133734,2,0,P|335:361|364:355,3,40,8|0|0|0,0:2|3:0|3:0|3:0,0:0:0:0:
459,293,134075,5,12,0:2:0:0:
473,270,134160,1,0,3:0:0:0:
481,245,134246,1,0,3:0:0:0:
480,218,134331,1,0,3:0:0:0:
472,193,134416,1,0,3:0:0:0:
457,171,134501,1,0,3:0:0:0:
436,155,134586,6,0,L|389:141,5,40,8|0|0|0|0|0,0:2|3:0|3:0|3:0|3:0|3:0,0:0:0:0:
282,69,135098,2,0,L|329:55,5,40,8|0|0|0|0|0,0:2|3:0|3:0|3:0|3:0|3:0,0:0:0:0:
254,197,135609,2,0,L|207:183,5,40,8|0|0|0|0|0,0:2|3:0|3:0|3:0|3:0|3:0,0:0:0:0:
112,169,136120,5,8,0:2:0:0:
112,169,136206,1,0,3:0:0:0:
112,169,136291,2,0,L|120:208,1,40,0|0,3:0|3:0,0:0:0:0:
207,329,136461,5,8,0:2:0:0:
207,329,136547,1,8,0:2:0:0:
207,329,136632,2,0,L|215:289,1,40,8|8,0:2|0:2,0:0:0:0:
71,333,136802,5,8,0:2:0:0:
71,333,138507,6,0,B|130:316|176:303|176:303|213:330|199:369,1,180.000006866455,4|8,3:2|0:2,0:0:0:0:
200,364,138848,1,8,0:2:0:0:
373,254,139018,1,0,3:0:0:0:
373,254,139103,1,8,0:2:0:0:
373,254,139189,2,0,P|346:247|309:238,1,47.9999985351563,8|0,0:2|0:0,0:0:0:0:
251,97,139359,2,0,P|246:116|237:161,1,47.9999985351563,0|8,3:0|0:2,0:0:0:0:
200,364,139529,6,0,B|231:319|283:319|283:319|311:346|355:338,1,176.000005371094,6|10,3:2|0:2,0:0:0:0:
376,140,140041,1,0,3:0:0:0:
376,140,140126,1,0,3:0:0:0:
375,140,140211,2,0,P|340:165|325:206,1,88.000002685547,2|0,3:2|3:0,0:0:0:0:
200,364,140552,6,0,L|175:234,1,132.00000402832,10|0,0:2|2:0,0:0:0:0:
184,205,140893,2,0,P|142:215|106:193,1,88.000002685547,2|0,3:2|0:0,0:0:0:0:
181,27,141234,2,0,P|245:13|310:0,1,132.00000402832,10|0,0:2|3:0,0:0:0:0:
341,7,141575,1,2,3:2:0:0:
207,120,141745,1,0,3:0:0:0:
379,178,141916,2,0,P|397:138|397:94,1,88.000002685547,10|0,0:2|3:0,0:0:0:0:
474,281,142257,6,0,P|409:226|326:241,1,176.000005371094,6|10,3:2|0:2,0:0:0:0:
270,357,142768,1,0,3:0:0:0:
184,205,142939,2,0,P|141:216|99:229,1,88.000002685547,2|0,3:2|3:0,0:0:0:0:
181,27,143279,2,0,P|223:39|265:51,1,88.000002685547,10|0,0:2|3:0,0:0:0:0:
325,241,143620,5,2,3:2:0:0:
190,117,143791,1,0,0:0:0:0:
399,55,143961,2,0,P|387:97|374:139,1,88.000002685547,10|0,0:2|3:0,0:0:0:0:
456,372,144302,2,0,P|481:337|481:294,1,88.000002685547,2|0,3:2|3:0,0:0:0:0:
325,241,144643,2,0,P|281:249|238:258,1,88.000002685547,10|0,0:2|3:0,0:0:0:0:
175,305,144899,5,8,0:2:0:0:
175,305,144984,2,0,B|196:249|196:249|180:200|180:200|198:138,1,176.000005371094,6|10,3:2|0:2,0:0:0:0:
76,10,145495,1,0,3:0:0:0:
76,10,145581,1,0,0:0:0:0:
76,10,145666,2,0,P|112:31|122:73,1,88.000002685547,2|0,3:2|3:0,0:0:0:0:
280,158,146007,2,0,P|345:147|410:139,1,132.00000402832,10|0,0:2|2:0,0:0:0:0:
437,150,146348,5,2,3:2:0:0:
310,66,146518,1,0,0:0:0:0:
235,239,146689,2,0,P|190:192|191:127,1,132.00000402832,10|0,0:2|3:0,0:0:0:0:
122,73,147029,2,0,P|78:82|35:90,1,88.000002685547,2|0,3:2|3:0,0:0:0:0:
73,294,147370,2,0,P|82:250|90:207,1,88.000002685547,10|0,0:2|3:0,0:0:0:0:
317,355,147711,6,0,P|258:293|174:304,1,176.000005371094,6|10,3:2|0:2,0:0:0:0:
345,239,148223,1,0,3:0:0:0:
345,239,148308,1,0,3:0:0:0:
345,238,148393,2,0,P|352:194|357:150,1,88.000002685547,2|0,3:2|3:0,0:0:0:0:
235,35,148734,2,0,P|185:76|121:72,1,132.00000402832,10|0,0:2|0:0,0:0:0:0:
93,55,149075,5,6,3:2:0:0:
283,139,149245,1,8,0:2:0:0:
93,185,149416,1,14,0:2:0:0:
235,35,149586,1,0,3:0:0:0:
235,35,149671,1,0,3:0:0:0:
235,35,149757,1,2,3:2:0:0:
210,250,149927,1,0,3:0:0:0:
210,250,150012,1,8,0:2:0:0:
210,250,150098,2,0,P|206:228|202:206,1,44.0000013427735,8|8,0:2|0:2,0:0:0:0:
304,336,150268,2,0,P|301:357|297:379,1,44.0000013427735,8|8,0:2|0:2,0:0:0:0:
316,211,150439,6,0,P|367:252|428:239,1,132.00000402832,6|0,3:2|2:0,0:0:0:0:
456,217,150779,2,0,P|445:169|436:126,1,88.000002685547,10|0,0:2|0:0,0:0:0:0:
326,7,151120,2,0,P|316:49|307:92,1,88.000002685547,2|0,3:2|3:0,0:0:0:0:
467,34,151461,1,10,0:2:0:0:
316,211,151632,6,0,B|277:167|219:180|219:180|198:213|155:222,1,176.000005371094,0|0,3:0|0:0,0:0:0:0:
27,313,152143,2,0,P|65:312|105:340,1,88.000002685547,10|0,0:2|3:0,0:0:0:0:
84,124,152484,2,0,P|53:172|61:223,1,88.000002685547,2|0,3:2|3:0,0:0:0:0:
209,358,152825,2,0,P|253:322|329:329,1,132.00000402832,10|0,0:2|2:0,0:0:0:0:
398,365,153166,6,0,L|422:259,1,88.000002685547,6|0,3:2|0:0,0:0:0:0:
287,56,153507,2,0,L|315:201,1,132.00000402832,10|0,0:2|2:0,0:0:0:0:
319,217,153848,1,6,3:2:0:0:
381,43,154018,1,0,3:0:0:0:
207,141,154189,2,0,L|121:124,1,88.000002685547,10|0,0:2|3:0,0:0:0:0:
0,286,154529,6,0,L|86:269,1,88.000002685547,6|0,3:2|0:0,0:0:0:0:
213,284,154870,1,10,0:2:0:0:
26,178,155041,1,0,3:0:0:0:
26,178,155126,1,0,0:0:0:0:
26,178,155211,1,2,3:2:0:0:
92,370,155382,1,0,3:0:0:0:
240,263,155552,2,0,L|229:206,3,44.0000013427735,10|8|8|8,0:2|0:2|0:2|0:2,0:0:0:0:
213,284,155893,6,0,L|299:301,1,88.000002685547,6|0,0:2|0:0,0:0:0:0:
483,146,156234,2,0,L|397:163,1,88.000002685547,10|0,0:2|3:0,0:0:0:0:
286,95,156575,5,10,3:2:0:0:
414,263,156745,1,0,3:0:0:0:
440,28,156916,5,10,0:2:0:0:
286,206,157086,1,0,3:0:0:0:
140,50,157257,6,0,P|177:27|245:35,1,88.000002685547,14|0,3:2|0:0,0:0:0:0:
96,183,157598,1,10,0:2:0:0:
22,29,157768,1,0,3:0:0:0:
204,148,157939,6,0,P|196:189|185:254,1,88.000002685547,10|0,3:2|3:0,0:0:0:0:
0,326,158279,1,10,0:2:0:0:
96,183,158450,1,0,3:0:0:0:
232,338,158620,6,0,P|149:347|91:283,1,176.000005371094,14|10,3:2|0:2,0:0:0:0:
323,274,159132,2,0,P|331:311|344:377,1,88.000002685547,0|10,3:0|3:2,0:0:0:0:
412,174,159473,1,0,3:0:0:0:
508,311,159643,2,0,P|472:289|428:289,1,88.000002685547,10|0,0:2|3:0,0:0:0:0:
331,134,159984,6,0,P|402:138|456:85,2,143.999995605469,14|2|6,3:2|3:2|3:2,0:0:0:0:
419,324,160836,1,0,3:0:0:0:
419,324,160921,1,8,0:2:0:0:
418,324,161007,2,0,P|421:306|426:289,1,35.9999989013672,8|8,0:2|0:2,0:0:0:0:
232,338,161177,2,0,P|236:355|240:372,1,35.9999989013672,8|8,0:2|0:2,0:0:0:0:
277,259,161348,6,0,B|244:231|198:247|198:247|179:278|132:278,1,160,6|10,3:2|0:2,0:0:0:0:
144,99,161859,1,0,3:0:0:0:
144,99,161944,1,0,3:0:0:0:
144,99,162029,2,0,P|172:126|182:164,1,80,2|0,3:2|3:0,0:0:0:0:
276,258,162370,2,0,P|286:220|295:181,1,80,10|0,0:2|3:0,0:0:0:0:
483,377,162711,6,0,P|426:324|348:331,1,160,2|10,3:2|0:2,0:0:0:0:
470,178,163223,1,0,3:0:0:0:
470,178,163308,1,0,3:0:0:0:
469,178,163393,2,0,P|476:217|480:257,1,80,2|0,3:2|3:0,0:0:0:0:
288,97,163734,1,10,0:2:0:0:
385,209,163904,1,0,3:0:0:0:
512,81,164075,6,0,P|434:71|373:120,1,160,6|10,3:2|0:2,0:0:0:0:
298,17,164586,1,0,3:0:0:0:
298,17,164671,1,0,3:0:0:0:
298,17,164757,2,0,P|292:56|287:96,1,80,2|0,3:2|3:0,0:0:0:0:
143,191,165098,1,10,0:2:0:0:
64,65,165268,1,0,3:0:0:0:
243,184,165439,6,0,P|232:263|222:342,1,160,2|10,3:2|0:2,0:0:0:0:
74,215,165950,1,0,3:0:0:0:
74,215,166035,1,0,3:0:0:0:
74,214,166120,2,0,P|103:188|142:190,1,80,2|0,3:2|3:0,0:0:0:0:
321,274,166461,2,0,L|438:250,1,120,10|8,0:2|0:2,0:0:0:0:
469,269,166802,6,0,P|509:202|492:126,1,160,6|10,3:2|0:2,0:0:0:0:
345,65,167314,1,0,3:0:0:0:
345,65,167399,1,0,3:0:0:0:
345,65,167484,2,0,P|383:53|421:41,1,80,2|0,3:2|3:0,0:0:0:0:
385,209,167825,2,0,P|346:197|308:185,1,80,10|0,0:2|3:0,0:0:0:0:
243,80,168166,5,2,3:2:0:0:
177,227,168336,1,0,0:0:0:0:
31,140,168507,2,0,P|70:131|109:125,1,80,10|0,0:2|3:0,0:0:0:0:
137,376,168848,2,0,P|114:343|111:304,1,80,2|0,3:2|3:0,0:0:0:0:
267,256,169189,2,0,P|324:274|381:291,1,120,10|0,0:2|2:0,0:0:0:0:
397,306,169529,6,0,P|427:235|386:169,1,160,6|10,3:2|0:2,0:0:0:0:
488,32,170041,1,0,3:0:0:0:
488,32,170126,1,0,3:0:0:0:
487,32,170211,2,0,P|480:71|478:111,1,80,2|0,3:2|3:0,0:0:0:0:
311,30,170552,2,0,P|265:66|206:64,1,120,10|0,0:2|2:0,0:0:0:0:
184,42,170893,5,6,3:2:0:0:
213,214,171064,1,0,0:0:0:0:
8,153,171234,2,0,P|44:136|84:133,1,80,14|0,0:2|3:0,0:0:0:0:
181,305,171575,1,2,3:2:0:0:
337,204,171745,1,0,3:0:0:0:
337,204,171831,1,8,0:2:0:0:
337,204,171916,2,0,L|326:152,1,40,8|8,0:2|0:2,0:0:0:0:
223,73,172086,2,0,L|214:112,1,40,8|8,0:2|0:2,0:0:0:0:
181,305,172257,6,0,B|213:297|243:287|243:287|275:317|275:317|304:321|333:328,2,160,6|10|2,3:2|0:2|3:2,0:0:0:0:
8,153,173109,1,0,3:0:0:0:
179,212,173279,1,10,0:2:0:0:
57,316,173450,1,0,0:0:0:0:
84,95,173620,6,0,L|100:189,1,80,2|0,3:2|0:0,0:0:0:0:
219,14,173961,1,10,0:2:0:0:
348,149,174132,2,0,P|275:134|180:116,1,160,0|0,3:0|3:0,0:0:0:0:
287,295,174643,2,0,P|343:260|406:276,1,120,10|0,0:2|0:0,0:0:0:0:
456,327,174984,6,0,P|499:281|473:183,1,160,6|10,3:2|0:2,0:0:0:0:
364,70,175495,1,0,3:0:0:0:
364,70,175581,1,0,3:0:0:0:
364,70,175666,2,0,P|359:91|344:167,1,80,2|0,0:0|3:0,0:0:0:0:
175,36,176007,2,0,L|264:18,1,80,10|0,0:2|3:0,0:0:0:0:
194,174,176348,5,6,3:2:0:0:
27,66,176518,1,0,0:0:0:0:
73,258,176689,2,0,P|60:200|104:137,1,120,10|0,0:2|2:0,0:0:0:0:
113,130,177029,1,2,3:2:0:0:
238,283,177200,5,0,3:0:0:0:
238,283,177285,1,8,0:2:0:0:
238,283,177370,1,10,0:2:0:0:
238,283,177456,1,8,0:2:0:0:
238,283,177541,1,8,0:2:0:0:
238,283,177626,1,8,0:2:0:0:
238,283,177711,6,0,L|227:336,3,40,6|0|0|0,0:2|0:0|0:0|0:0,0:0:0:0:
330,372,178052,2,0,L|321:332,3,40,10|0|0|0,0:2|0:0|3:0|3:0,0:0:0:0:
378,255,178393,2,0,L|369:215,3,40,10|0|0|0,3:2|0:0|3:0|0:0,0:0:0:0:
426,134,178734,6,0,L|470:144,1,40,10|0,0:2|0:0,0:0:0:0:
345,62,178904,2,0,L|301:72,1,40,4|0,3:2|0:0,0:0:0:0:
198,123,179075,6,0,L|209:71,3,40,10|0|0|0,3:2|0:0|0:0|0:0,0:0:0:0:
109,58,179416,2,0,L|98:6,3,40,10|0|0|0,0:2|0:0|3:0|3:0,0:0:0:0:
36,131,179757,2,0,L|44:170,3,40,10|0|0|0,3:2|0:0|3:0|0:0,0:0:0:0:
12,271,180098,6,0,P|30:275|56:281,1,40,10|0,0:2|0:0,0:0:0:0:
182,207,180268,2,0,P|164:211|138:217,1,40,0|0,3:0|0:0,0:0:0:0:
240,330,180439,6,0,B|283:390|368:378|368:378|406:332,1,191.999994140625,14|10,3:2|0:2,0:0:0:0:
490,193,180950,1,0,3:0:0:0:
490,193,181035,1,0,3:0:0:0:
490,193,181120,2,0,P|443:202|385:216,1,95.9999970703126,10|0,3:2|3:0,0:0:0:0:
212,50,181461,2,0,P|259:59|317:73,1,95.9999970703126,10|0,0:2|3:0,0:0:0:0:
176,298,181802,6,0,P|104:317|42:260,1,143.999995605469,14|0,3:2|2:0,0:0:0:0:
4,214,182143,2,0,P|12:169|24:109,1,95.9999970703126,2|0,3:2|0:0,0:0:0:0:
214,53,182484,6,0,P|210:26|208:0,2,53.3333333333333,6|0|0,3:2|0:0|0:0,0:0:0:0:
305,116,182825,2,0,P|308:89|310:62,2,53.3333333333333,8|8|8,0:2|0:2|0:2,0:0:0:0:
259,202,183166,6,0,P|323:146|407:161,1,176.000005371094,14|10,3:2|0:2,0:0:0:0:
469,320,183677,1,0,3:0:0:0:
469,320,183762,1,0,3:0:0:0:
469,320,183848,2,0,P|477:276|486:233,1,88.000002685547,2|0,3:2|3:0,0:0:0:0:
275,296,184189,2,0,P|283:339|292:382,1,88.000002685547,10|0,0:2|3:0,0:0:0:0:
168,177,184529,6,0,B|74:159|100:232|2:213,1,176.000005371094,2|10,3:2|0:2,0:0:0:0:
147,375,185041,1,0,3:0:0:0:
147,375,185126,1,0,3:0:0:0:
146,375,185211,2,0,P|154:331|163:288,1,88.000002685547,2|0,3:2|3:0,0:0:0:0:
50,150,185552,2,0,P|103:185|167:176,1,132.00000402832,10|0,0:2|2:0,0:0:0:0:
213,97,185893,6,0,P|227:187|238:271,1,176.000005371094,6|10,3:2|0:2,0:0:0:0:
406,345,186404,1,0,3:0:0:0:
406,345,186490,1,0,3:0:0:0:
406,345,186575,2,0,P|380:312|338:299,1,88.000002685547,2|0,3:2|3:0,0:0:0:0:
423,151,186916,2,0,P|428:194|435:238,1,88.000002685547,10|0,0:2|3:0,0:0:0:0:
489,83,187257,5,2,3:2:0:0:
318,193,187427,1,0,0:0:0:0:
315,23,187598,2,0,P|340:58|345:101,1,88.000002685547,10|0,0:2|3:0,0:0:0:0:
230,173,187939,2,0,P|186:182|144:193,1,88.000002685547,2|0,3:2|3:0,0:0:0:0:
247,384,188279,2,0,P|272:348|277:305,1,88.000002685547,10|0,0:2|3:0,0:0:0:0:
213,265,188535,1,8,0:2:0:0:
213,265,188620,6,0,P|298:244|384:223,1,176.000005371094,6|10,3:2|0:2,0:0:0:0:
369,21,189132,1,0,3:0:0:0:
369,21,189217,1,0,0:0:0:0:
368,22,189302,2,0,P|343:57|345:100,1,88.000002685547,2|0,3:2|3:0,0:0:0:0:
230,173,189643,2,0,P|167:163|100:150,1,132.00000402832,10|0,0:2|2:0,0:0:0:0:
64,169,189984,5,2,3:2:0:0:
248,87,190154,1,0,0:0:0:0:
277,305,190325,2,0,P|214:295|147:282,1,132.00000402832,10|0,0:2|3:0,0:0:0:0:
108,290,190666,5,2,3:2:0:0:
230,173,190836,1,0,3:0:0:0:
349,371,191007,2,0,P|370:333|370:289,1,88.000002685547,10|0,0:2|3:0,0:0:0:0:
345,100,191348,6,0,P|418:145|504:133,1,176.000005371094,6|10,3:2|0:2,0:0:0:0:
277,305,191859,1,0,3:0:0:0:
277,305,191944,1,0,3:0:0:0:
277,304,192029,2,0,P|270:260|262:217,1,88.000002685547,2|0,3:2|3:0,0:0:0:0:
198,44,192370,2,0,P|146:82|82:77,1,132.00000402832,10|0,0:2|0:0,0:0:0:0:
49,51,192711,5,6,3:2:0:0:
173,197,192882,1,8,0:2:0:0:
198,44,193052,1,14,0:2:0:0:
32,181,193223,1,0,3:0:0:0:
32,181,193308,1,0,3:0:0:0:
32,181,193393,1,2,3:2:0:0:
191,272,193564,1,0,3:0:0:0:
191,272,193649,1,8,0:2:0:0:
191,272,193734,2,0,L|180:218,1,44.0000013427735,8|8,0:2|0:2,0:0:0:0:
302,153,193904,2,0,L|293:196,1,44.0000013427735,8|8,0:2|0:2,0:0:0:0:
240,356,194075,6,0,P|186:322|121:335,1,132.00000402832,6|0,3:2|2:0,0:0:0:0:
101,358,194416,2,0,P|55:347|11:338,1,88.000002685547,10|0,0:2|0:0,0:0:0:0:
122,132,194757,2,0,P|147:173|137:231,1,88.000002685547,2|0,3:2|3:0,0:0:0:0:
13,146,195098,1,10,0:2:0:0:
175,32,195268,6,0,P|269:20|319:92,1,176.000005371094,0|0,3:0|0:0,0:0:0:0:
442,172,195779,2,0,P|457:126|471:81,1,88.000002685547,10|0,0:2|3:0,0:0:0:0:
233,171,196120,2,0,P|268:198|327:198,1,88.000002685547,2|0,3:2|3:0,0:0:0:0:
466,296,196461,2,0,P|403:285|344:330,1,132.00000402832,10|0,0:2|2:0,0:0:0:0:
283,372,196802,6,0,P|236:361|191:352,1,88.000002685547,6|0,3:2|0:0,0:0:0:0:
16,240,197143,2,0,P|73:227|153:210,1,132.00000402832,10|0,0:2|2:0,0:0:0:0:
177,205,197484,1,6,3:2:0:0:
29,120,197654,1,0,3:0:0:0:
175,20,197825,2,0,L|147:125,1,88.000002685547,10|0,0:2|3:0,0:0:0:0:
291,228,198166,6,0,P|294:184|271:141,1,88.000002685547,6|0,3:2|0:0,0:0:0:0:
179,296,198507,1,10,0:2:0:0:
334,363,198677,1,0,3:0:0:0:
334,363,198762,1,0,0:0:0:0:
334,363,198848,1,2,3:2:0:0:
428,190,199018,1,0,3:0:0:0:
428,190,199103,1,8,0:2:0:0:
428,190,199189,2,0,L|413:127,1,44.0000013427735,10|8,0:2|0:2,0:0:0:0:
422,296,199359,2,0,L|488:316,1,44.0000013427735,8|8,0:2|0:2,0:0:0:0:
334,363,199529,6,0,P|277:373|228:384,1,88.000002685547,6|0,0:2|0:0,0:0:0:0:
70,251,199870,2,0,P|126:261|176:272,1,88.000002685547,10|0,0:2|3:0,0:0:0:0:
264,136,200211,5,10,3:2:0:0:
422,296,200382,1,0,3:0:0:0:
386,82,200552,5,10,0:2:0:0:
267,259,200723,1,0,3:0:0:0:
483,147,200893,6,0,P|492:98|504:50,1,88.000002685547,14|0,3:2|0:0,0:0:0:0:
352,228,201234,1,10,0:2:0:0:
292,19,201404,1,0,3:0:0:0:
150,163,201575,6,0,P|183:154|237:142,1,88.000002685547,10|0,3:2|3:0,0:0:0:0:
386,341,201916,1,10,0:2:0:0:
221,250,202086,1,0,3:0:0:0:
413,103,202257,6,0,P|470:166|446:253,1,176.000005371094,14|10,3:2|0:2,0:0:0:0:
290,367,202768,2,0,P|299:317|308:275,1,88.000002685547,0|10,3:0|3:2,0:0:0:0:
150,163,203109,1,0,3:0:0:0:
57,355,203279,1,10,0:2:0:0:
203,302,203450,1,0,3:0:0:0:
203,302,203535,1,0,0:0:0:0:
203,302,203620,6,0,P|156:262|66:273,2,143.999995605469,14|2|6,3:2|3:2|3:2,0:0:0:0:
311,186,204473,1,0,3:0:0:0:
311,186,204558,1,8,0:2:0:0:
311,186,204643,2,0,P|309:168|308:150,1,35.9999989013672,8|8,0:2|0:2,0:0:0:0:
205,51,204814,2,0,P|203:68|202:86,1,35.9999989013672,8|8,0:2|0:2,0:0:0:0:
311,186,204984,6,0,P|371:136|447:149,1,160,6|10,3:2|0:2,0:0:0:0:
426,332,205495,1,0,3:0:0:0:
426,332,205581,1,0,3:0:0:0:
426,332,205666,2,0,P|386:325|346:319,1,80,2|0,3:2|3:0,0:0:0:0:
195,247,206007,2,0,P|135:256|76:265,1,120,10|0,0:2|2:0,0:0:0:0:
49,281,206348,6,0,P|31:245|37:206,1,80,2|0,3:2|0:0,0:0:0:0:
84,29,206689,2,0,P|90:68|98:107,1,80,10|0,0:2|3:0,0:0:0:0:
314,142,207029,1,2,3:2:0:0:
218,46,207200,1,0,3:0:0:0:
195,247,207370,2,0,P|234:239|273:232,1,80,10|0,0:2|3:0,0:0:0:0:
472,366,207711,6,0,P|416:313|339:317,1,160,6|10,3:2|0:2,0:0:0:0:
465,156,208223,1,0,3:0:0:0:
465,156,208308,1,0,3:0:0:0:
465,156,208393,2,0,P|456:195|449:234,1,80,2|0,3:2|3:0,0:0:0:0:
308,53,208734,2,0,P|260:88|202:86,1,120,10|0,0:2|0:0,0:0:0:0:
174,112,209075,6,0,P|168:72|162:32,1,80,2|0,3:2|0:0,0:0:0:0:
0,177,209416,2,0,P|39:182|79:188,1,80,10|0,0:2|3:0,0:0:0:0:
302,264,209757,1,2,3:2:0:0:
141,320,209927,1,0,3:0:0:0:
174,112,210098,2,0,P|179:151|185:191,1,80,10|0,0:2|3:0,0:0:0:0:
333,346,210439,6,0,P|344:266|355:187,1,160,6|10,3:2|0:2,0:0:0:0:
245,55,210950,1,0,3:0:0:0:
245,55,211035,1,0,3:0:0:0:
245,55,211120,2,0,P|281:70|320:64,1,80,2|0,3:2|3:0,0:0:0:0:
473,170,211461,2,0,P|413:178|354:187,1,120,10|0,0:2|2:0,0:0:0:0:
333,167,211802,6,0,P|304:194|265:199,1,80,2|0,3:2|0:0,0:0:0:0:
135,352,212143,2,0,P|127:312|119:273,1,80,10|0,0:2|3:0,0:0:0:0:
174,112,212484,1,2,3:2:0:0:
218,294,212654,1,0,3:0:0:0:
27,226,212825,1,10,0:2:0:0:
199,27,212995,1,0,3:0:0:0:
199,27,213081,1,8,0:0:0:0:
199,27,213166,6,0,P|257:77|254:155,1,160,6|10,3:2|0:2,0:0:0:0:
48,84,213677,1,0,3:0:0:0:
120,293,213848,2,0,P|127:253|134:214,1,80,2|0,3:2|3:0,0:0:0:0:
391,350,214189,2,0,P|347:312|288:312,1,120,10|0,0:2|2:0,0:0:0:0:
257,338,214529,5,6,3:2:0:0:
439,253,214700,1,0,0:0:0:0:
220,147,214870,2,0,P|227:186|234:225,1,80,14|0,0:2|3:0,0:0:0:0:
234,225,215126,1,0,3:0:0:0:
234,225,215211,1,2,3:2:0:0:
438,138,215382,1,0,3:0:0:0:
438,138,215467,1,8,0:2:0:0:
438,138,215552,2,0,P|418:141|398:145,1,40,8|8,0:2|0:2,0:0:0:0:
315,16,215723,2,0,P|311:35|308:55,1,40,8|8,0:2|0:2,0:0:0:0:
234,225,215893,6,0,B|196:163|248:87|318:119|318:119|350:70|487:46|512:263|380:211|366:316|366:316|317:246|250:239|195:271|174:334|174:334|119:194|-25:294|-81:82|67:14|143:94|143:94|176:15|281:14|335:85|304:171,1,1535.999953125,4|0,3:2|0:0,0:0:0:0:
