osu file format v14

[General]
AudioFilename: audio.mp3
AudioLeadIn: 0
PreviewTime: 62837
Countdown: 1
SampleSet: Soft
StackLeniency: 0.7
Mode: 0
LetterboxInBreaks: 0
WidescreenStoryboard: 0

[Editor]
Bookmarks: 20085,41904,52813,63722,85540,96449,118267,129176,140085,161904,183722,205625
DistanceSpacing: 1.9
BeatDivisor: 4
GridSize: 4
TimelineZoom: 1.8

[Metadata]
Title:Finest Sky
TitleUnicode:Finest Sky
Artist:Ceui
ArtistUnicode:Ceui
Creator:Oooodriiin
Version:ok
Source:
Tags:
BeatmapID:1945144
BeatmapSetID:931582

[Difficulty]
HPDrainRate:6
CircleSize:4
OverallDifficulty:7
ApproachRate:9
SliderMultiplier:1.8
SliderTickRate:1

[Events]
//Background and Video events
0,0,"OVTle.jpg",0,0
//Break Periods
//Storyboard Layer 0 (Background)
//Storyboard Layer 1 (Fail)
//Storyboard Layer 2 (Pass)
//Storyboard Layer 3 (Foreground)
//Storyboard Layer 4 (Overlay)
//Storyboard Sound Samples

[TimingPoints]
110,340.909090909091,4,2,1,50,1,0
110,-142.857142857143,4,2,1,50,0,0
2837,-125,4,2,1,50,0,0
13746,-142.857142857143,4,2,1,50,0,0
19200,-125,4,2,1,50,0,0
62837,-100,4,2,1,75,0,1
73725,-100,4,2,1,75,0,0
73746,-83.3333333333333,4,2,1,85,0,1
73831,-100,4,2,1,75,0,1
95564,-125,4,2,1,60,0,0

[HitObjects]
356,156,110,5,0,2:0:0:0:
275,279,280,2,0,L|363:285,2,62.9999980773926,0|0|0,2:0|2:0|2:0,2:0:0:0:
415,356,791,2,0,P|421:323|436:293,1,62.9999980773926,0|0,2:0|2:0,2:0:0:0:
323,222,1132,2,0,P|334:256|337:292,1,62.9999980773926,0|0,2:0|2:0,2:0:0:0:
421,211,1473,5,0,2:0:0:0:
358,111,1644,1,0,2:0:0:0:
436,195,1814,2,0,L|456:117,1,62.9999980773926,0|0,2:0|2:0,2:0:0:0:
474,49,2155,1,8,2:0:0:0:
300,184,2325,1,8,2:0:0:0:
300,184,2411,1,8,2:0:0:0:
300,184,2496,2,8,P|306:205|321:234,1,31.4999990386963,8|8,2:0|2:0,2:0:0:0:
367,83,2666,2,8,L|381:36,1,31.4999990386963,8|8,2:0|2:0,2:0:0:0:
230,84,2837,6,0,P|150:60|65:66,1,144,0|8,2:0|2:0,2:0:0:0:
268,230,3348,1,0,2:0:0:0:
268,230,3433,1,0,2:0:0:0:
268,230,3519,2,0,P|311:210|356:206,1,72,0|0,2:0|2:0,2:0:0:0:
179,167,3860,2,0,P|146:152|94:152,1,72,8|0,2:0|2:0,2:0:0:0:
198,321,4200,5,0,2:0:0:0:
121,228,4371,1,0,2:0:0:0:
222,344,4541,2,0,L|325:330,1,72,8|0,2:0|2:0,2:0:0:0:
87,365,4882,1,0,2:0:0:0:
130,195,5053,2,0,L|37:187,1,72,0|8,2:0|2:0,2:0:0:0:
240,206,5394,1,0,2:0:0:0:
130,110,5564,6,0,B|115:157|115:157|146:261,1,144,0|8,2:0|2:0,2:0:0:0:
232,97,6075,1,0,2:0:0:0:
232,97,6161,1,0,2:0:0:0:
232,97,6246,2,0,P|217:45|189:10,1,72,0|0,2:0|2:0,2:0:0:0:
296,204,6587,2,0,P|298:174|324:122,1,72,8|0,2:0|2:0,2:0:0:0:
343,108,6842,1,0,2:0:0:0:
342,107,6928,6,0,P|385:102|424:105,1,72,0|0,2:0|2:0,2:0:0:0:
144,100,7269,2,0,P|99:103|61:90,1,72,8|0,2:0|2:0,2:0:0:0:
212,178,7610,1,0,2:0:0:0:
113,310,7780,2,0,P|123:267|131:212,1,72,0|8,2:0|2:0,2:0:0:0:
211,337,8121,1,8,2:0:0:0:
211,337,8206,1,8,2:0:0:0:
211,337,8291,6,0,P|301:335|374:349,1,144,0|0,2:0|2:0,2:0:0:0:
422,205,8803,1,0,2:0:0:0:
422,205,8888,1,0,2:0:0:0:
422,205,8973,2,0,P|380:216|331:213,1,72,0|0,2:0|2:0,2:0:0:0:
194,248,9314,2,0,P|238:254|274:273,1,72,0|0,2:0|2:0,2:0:0:0:
281,106,9655,5,0,2:0:0:0:
156,148,9825,1,0,2:0:0:0:
262,265,9996,2,0,L|273:171,1,72,0|0,2:0|2:0,2:0:0:0:
281,106,10337,1,0,2:0:0:0:
156,148,10507,1,0,2:0:0:0:
270,193,10678,1,0,2:0:0:0:
290,24,10848,1,0,2:0:0:0:
129,78,11019,6,0,P|148:148|149:253,1,144,4|0,2:0|2:0,2:0:0:0:
69,280,11530,2,0,P|45:264|28:259,2,36,0|0|0,2:0|2:0|2:0,2:0:0:0:
163,346,11871,1,0,2:0:0:0:
173,151,12041,2,0,P|155:191|152:228,1,72,0|0,2:0|2:0,2:0:0:0:
261,63,12382,6,0,P|212:47|176:23,1,72,0|0,2:0|2:0,2:0:0:0:
412,62,12723,1,0,2:0:0:0:
297,152,12894,2,0,P|279:156|238:157,2,36,0|0|0,2:0|2:0|2:0,2:0:0:0:
462,134,13235,1,0,2:0:0:0:
446,149,13320,1,0,2:0:0:0:
437,169,13405,1,0,2:0:0:0:
435,191,13490,1,0,2:0:0:0:
437,213,13575,1,0,2:0:0:0:
443,234,13661,1,0,2:0:0:0:
451,251,13746,6,0,B|368:243|407:291|318:284,1,125.999996154785,0|0,2:0|2:0,2:0:0:0:
93,328,14257,2,0,P|134:319|231:352,1,125.999996154785,0|0,2:0|2:0,2:0:0:0:
320,144,14769,2,0,P|328:191|270:174,1,125.999996154785,0|0,2:0|2:0,2:0:0:0:
424,68,15280,2,0,P|455:158|447:263,1,188.999994232178,0|0,2:0|2:0,2:0:0:0:
377,295,15962,1,0,2:0:0:0:
241,367,16132,1,0,2:0:0:0:
388,212,16303,1,0,2:0:0:0:
229,373,16473,6,0,L|209:291,1,62.9999980773926,0|0,2:0|2:0,2:0:0:0:
214,311,16729,1,0,2:0:0:0:
214,311,16814,1,0,2:0:0:0:
388,212,17155,1,0,2:0:0:0:
325,259,17325,2,0,B|337:206|337:206|329:179|329:179|339:124,1,125.999996154785,0|0,2:0|2:0,2:0:0:0:
453,110,17837,6,0,B|448:127|456:164|456:164|406:171|389:131|389:131|366:142|331:136,1,188.999994232178,0|0,2:0|2:0,2:0:0:0:
225,113,18519,1,0,2:0:0:0:
360,15,18689,1,0,2:0:0:0:
360,15,18774,1,0,2:0:0:0:
360,15,18860,1,0,2:0:0:0:
363,49,18945,1,0,2:0:0:0:
368,83,19030,1,0,2:0:0:0:
372,117,19115,1,0,2:0:0:0:
376,156,19200,6,0,P|444:187|492:125,1,144,0|0,2:0|2:0,2:0:0:0:
364,345,19712,2,0,P|339:345|312:334,1,36,0|0,2:0|2:0,2:0:0:0:
234,291,19882,2,0,L|330:305,1,72,0|0,2:0|2:0,2:0:0:0:
378,186,20223,1,0,2:0:0:0:
364,345,20394,6,0,P|341:310|327:258,1,72,0|0,2:0|2:0,2:0:0:0:
212,181,20735,2,0,P|209:218|192:254,1,72,0|0,2:0|2:0,2:0:0:0:
71,355,21075,2,0,L|151:350,1,72,0|0,2:0|2:0,2:0:0:0:
56,241,21416,1,0,2:0:0:0:
231,346,21587,1,0,2:0:0:0:
170,259,21757,1,0,2:0:0:0:
71,354,21928,6,0,L|92:186,1,144,0|0,2:0|2:0,2:0:0:0:
218,101,22439,2,0,L|210:161,1,36,0|0,2:0|2:0,2:0:0:0:
203,221,22610,2,0,L|169:120,1,80.9999975280763,0|0,2:0|2:0,2:0:0:0:
53,36,22950,1,0,2:0:0:0:
64,168,23121,1,0,2:0:0:0:
151,5,23291,6,0,L|130:96,1,72,0|0,2:0|2:0,2:0:0:0:
44,206,23632,2,0,P|74:226|136:217,1,72,0|0,2:0|2:0,2:0:0:0:
287,158,23973,1,0,2:0:0:0:
189,122,24144,1,0,2:0:0:0:
261,275,24314,1,0,2:0:0:0:
230,100,24485,1,0,2:0:0:0:
172,256,24655,6,0,P|145:267|25:234,1,144,0|0,2:0|2:0,2:0:0:0:
151,142,25166,2,0,P|171:143|196:153,1,36,0|0,2:0|2:0,2:0:0:0:
267,216,25337,2,0,L|277:119,1,72,0|0,2:0|2:0,2:0:0:0:
235,31,25678,1,0,2:0:0:0:
381,102,25848,6,0,L|371:192,1,72,0|0,2:0|2:0,2:0:0:0:
267,216,26189,1,0,2:0:0:0:
341,345,26360,2,0,L|333:273,1,72,0|0,2:0|2:0,2:0:0:0:
447,197,26700,1,0,2:0:0:0:
423,316,26871,1,0,2:0:0:0:
267,216,27041,2,0,L|170:207,1,72,0|0,2:0|2:0,2:0:0:0:
83,285,27382,6,0,P|105:312|147:331,1,72,0|0,2:0|2:0,2:0:0:0:
195,209,27723,1,0,2:0:0:0:
78,79,27894,2,0,L|87:122,1,36,0|0,2:0|2:0,2:0:0:0:
104,193,28064,1,0,2:0:0:0:
83,285,28235,1,0,2:0:0:0:
215,348,28405,2,0,P|172:350|136:365,1,72,0|0,2:0|2:0,2:0:0:0:
83,285,28661,1,0,2:0:0:0:
83,285,28746,6,0,L|64:196,1,72,0|0,2:0|2:0,2:0:0:0:
268,253,29087,5,0,2:0:0:0:
192,228,29257,1,0,2:0:0:0:
326,338,29428,5,0,2:0:0:0:
207,371,29598,1,0,2:0:0:0:
358,308,29769,1,0,2:0:0:0:
192,228,29939,1,0,2:0:0:0:
192,228,30024,1,0,2:0:0:0:
192,228,30110,6,0,P|273:204|354:210,1,144,0|0,2:0|2:0,2:0:0:0:
437,125,30621,2,0,P|415:131|393:144,1,36,0|0,2:0|2:0,2:0:0:0:
331,205,30791,2,0,L|310:108,1,72,0|0,2:0|2:0,2:0:0:0:
390,35,31132,1,0,2:0:0:0:
484,208,31303,6,0,P|448:214|399:257,1,72,0|0,2:0|2:0,2:0:0:0:
318,297,31644,2,0,P|351:320|381:330,1,72,0|0,2:0|2:0,2:0:0:0:
470,283,31985,1,0,2:0:0:0:
310,197,32155,1,0,2:0:0:0:
412,170,32325,1,0,2:0:0:0:
351,301,32496,1,0,2:0:0:0:
380,126,32666,1,0,2:0:0:0:
382,329,32837,6,0,P|315:346|232:330,1,144,0|0,2:0|2:0,2:0:0:0:
163,218,33348,2,0,L|185:277,1,36,0|0,2:0|2:0,2:0:0:0:
139,338,33519,2,0,P|144:284|162:255,1,72,0|0,2:0|2:0,2:0:0:0:
63,173,33860,1,0,2:0:0:0:
180,65,34030,6,0,P|135:63|102:71,1,72,0|0,2:0|2:0,2:0:0:0:
236,165,34371,2,0,L|315:151,1,72,0|0,2:0|2:0,2:0:0:0:
250,53,34712,2,0,L|167:67,1,72,0|0,2:0|2:0,2:0:0:0:
392,140,35053,2,0,L|381:88,1,36,0|0,2:0|2:0,2:0:0:0:
363,22,35223,1,0,2:0:0:0:
504,170,35394,2,0,L|495:205,1,36,0|0,2:0|2:0,2:0:0:0:
448,290,35564,6,0,P|379:311|300:267,1,144,0|0,2:0|2:0,2:0:0:0:
237,220,36075,2,0,P|221:218|181:228,1,36,0|0,2:0|2:0,2:0:0:0:
126,314,36246,2,0,P|178:319|221:307,1,72,0|0,2:0|2:0,2:0:0:0:
51,180,36587,1,0,2:0:0:0:
33,312,36757,1,0,2:0:0:0:
144,207,36928,6,0,L|232:193,1,72,0|0,2:0|2:0,2:0:0:0:
55,70,37269,1,0,2:0:0:0:
147,110,37439,2,0,L|234:97,1,72,0|0,2:0|2:0,2:0:0:0:
341,35,37780,1,0,2:0:0:0:
321,205,37950,1,0,2:0:0:0:
422,171,38121,2,0,L|414:122,1,36,0|0,2:0|2:0,2:0:0:0:
392,50,38291,6,0,P|313:38|239:50,1,144,0|0,2:0|2:0,2:0:0:0:
218,143,38803,2,0,P|196:142|160:133,1,36,0|0,2:0|2:0,2:0:0:0:
110,73,38973,2,0,L|29:80,1,72,0|0,2:0|2:0,2:0:0:0:
250,46,39314,1,0,2:0:0:0:
218,143,39485,2,0,P|196:144|161:157,1,36,0|0,2:0|2:0,2:0:0:0:
38,204,39655,6,0,L|115:217,1,72,0|0,2:0|2:0,2:0:0:0:
324,309,39996,2,0,L|233:325,1,72,0|0,2:0|2:0,2:0:0:0:
148,325,40337,2,0,P|134:277|135:235,1,72,0|0,2:0|2:0,2:0:0:0:
108,215,40592,2,0,P|118:174|114:113,1,72,0|0,2:0|2:0,2:0:0:0:
123,50,40848,1,0,2:0:0:0:
123,50,40933,1,0,2:0:0:0:
123,50,41019,6,0,B|174:37|206:68|206:68|247:51|249:8,1,144,0|0,2:0|2:0,2:0:0:0:
316,167,41530,2,0,B|306:187|286:192|286:192|276:175|277:152,1,72,0|0,2:0|2:0,2:0:0:0:
312,79,41871,1,0,2:0:0:0:
494,203,42041,6,0,B|466:243|431:246|431:246|410:224|405:177,1,144,0|0,2:0|2:0,2:0:0:0:
473,88,42553,1,0,2:0:0:0:
473,88,42638,1,0,2:0:0:0:
473,88,42723,1,0,2:0:0:0:
378,86,42894,1,0,2:0:0:0:
311,30,43064,1,0,2:0:0:0:
347,224,43235,1,0,2:0:0:0:
378,86,43405,1,0,2:0:0:0:
236,170,43575,1,0,2:0:0:0:
370,243,43746,6,0,P|425:239|456:223,1,72,0|0,2:0|2:0,2:0:0:0:
201,182,44087,1,0,2:0:0:0:
187,281,44257,2,0,P|241:283|286:190,1,144,0|0,2:0|2:0,2:0:0:0:
156,70,44769,6,0,B|91:58|91:58|71:40|71:40|-6:27,1,144,0|0,2:0|2:0,2:0:0:0:
71,177,45280,2,0,L|117:170,1,36,0|0,2:0|2:0,2:0:0:0:
220,154,45450,1,0,2:0:0:0:
102,282,45621,1,0,2:0:0:0:
232,253,45791,5,0,2:0:0:0:
230,281,45962,1,0,2:0:0:0:
201,290,46132,1,0,2:0:0:0:
180,267,46303,1,0,2:0:0:0:
259,116,46473,6,0,L|359:99,1,72,0|0,2:0|2:0,2:0:0:0:
382,259,46814,1,0,2:0:0:0:
504,166,46985,2,0,L|406:150,1,72,0|0,2:0|2:0,2:0:0:0:
382,259,47325,1,0,2:0:0:0:
317,46,47496,6,0,P|285:140|319:198,1,144,0|0,2:0|2:0,2:0:0:0:
382,259,48007,1,0,2:0:0:0:
268,384,48178,1,0,2:0:0:0:
277,280,48348,1,0,2:0:0:0:
427,358,48519,5,0,2:0:0:0:
314,208,48689,1,0,2:0:0:0:
268,384,48860,1,0,2:0:0:0:
148,243,49030,1,0,2:0:0:0:
91,355,49200,6,0,P|61:357|18:349,1,72,0|0,2:0|2:0,2:0:0:0:
20,350,49456,1,0,2:0:0:0:
20,350,49541,1,0,2:0:0:0:
148,243,49712,2,0,P|109:241|55:215,1,72,0|0,2:0|2:0,2:0:0:0:
78,230,49967,1,0,2:0:0:0:
78,230,50053,1,0,2:0:0:0:
1,135,50223,2,0,P|34:136|98:117,1,72,0|0,2:0|2:0,2:0:0:0:
72,128,50479,1,0,2:0:0:0:
72,128,50564,5,0,2:0:0:0:
49,35,50735,1,0,2:0:0:0:
107,229,50905,1,0,2:0:0:0:
192,72,51075,1,0,2:0:0:0:
260,144,51246,1,0,2:0:0:0:
161,166,51416,1,0,2:0:0:0:
161,166,51502,1,0,2:0:0:0:
161,166,51587,2,0,P|184:197|183:274,1,108,0|0,2:0|2:0,2:0:0:0:
165,292,51928,6,0,L|213:326,5,36,0|0|0|0|0|0,2:0|2:0|2:0|2:0|2:0|2:0,2:0:0:0:
343,319,52439,2,0,L|295:335,5,36,0|0|0|0|0|0,2:0|2:0|2:0|2:0|2:0|2:0,2:0:0:0:
238,241,52950,2,0,L|191:207,5,36,0|0|0|0|0|0,2:0|2:0|2:0|2:0|2:0|2:0,2:0:0:0:
244,137,53462,6,0,L|295:170,1,36,0|0,2:0|2:0,2:0:0:0:
361,197,53632,2,0,L|371:253,3,36,0|0|0|0,2:0|2:0|2:0|2:0,2:0:0:0:
444,306,53973,2,0,L|454:272,3,36,0|0|0|0,2:0|2:0|2:0|2:0,2:0:0:0:
453,104,54314,2,0,L|436:140,3,36,0|0|0|0,2:0|2:0|2:0|2:0,2:0:0:0:
361,197,54655,6,0,L|301:179,3,36,0|0|0|0,2:0|2:0|2:0|2:0,2:0:0:0:
296,301,54996,2,0,L|251:307,1,36,0|0,2:0|2:0,2:0:0:0:
182,201,55166,2,0,L|242:220,3,36,0|0|0|0,2:0|2:0|2:0|2:0,2:0:0:0:
307,332,55507,2,0,L|259:338,1,36,0|0,2:0|2:0,2:0:0:0:
172,229,55678,2,0,L|226:248,5,36,0|0|0|0|0|0,2:0|2:0|2:0|2:0|2:0|2:0,2:0:0:0:
311,260,56189,6,0,L|323:214,1,36,0|0,2:0|2:0,2:0:0:0:
243,113,56360,2,0,L|232:148,3,36,0|0|0|0,2:0|2:0|2:0|2:0,2:0:0:0:
109,215,56700,2,0,L|121:253,3,36,0|0|0|0,2:0|2:0|2:0|2:0,2:0:0:0:
180,356,57041,2,0,L|191:322,3,36,0|0|0|0,2:0|2:0|2:0|2:0,2:0:0:0:
15,200,57382,6,0,L|2:151,3,36,0|0|0|0,2:0|2:0|2:0|2:0,2:0:0:0:
66,91,57723,2,0,L|125:77,1,36,0|0,2:0|2:0,2:0:0:0:
155,168,57894,2,0,L|208:153,5,36,0|0|0|0|0|0,2:0|2:0|2:0|2:0|2:0|2:0,2:0:0:0:
315,217,58405,2,0,L|276:194,3,36,0|0|0|0,2:0|2:0|2:0|2:0,2:0:0:0:
331,127,58746,2,0,L|363:148,1,36,0|0,2:0|2:0,2:0:0:0:
482,298,58916,6,0,P|450:313|377:290,1,108,0|0,2:0|2:0,2:0:0:0:
368,276,59257,2,0,L|315:267,1,36,0|0,2:0|2:0,2:0:0:0:
272,358,59428,2,0,L|311:365,1,36,0|0,2:0|2:0,2:0:0:0:
176,192,59598,1,0,2:0:0:0:
154,220,59683,1,0,2:0:0:0:
143,254,59769,1,0,2:0:0:0:
145,289,59854,1,0,2:0:0:0:
160,321,59939,1,0,2:0:0:0:
160,321,61814,6,0,P|224:326|261:288,1,108,0|0,2:0|2:0,2:0:0:0:
263,266,62155,2,0,L|293:361,1,72,0|0,2:0|2:0,2:0:0:0:
364,279,62411,5,0,2:0:0:0:
364,279,62496,2,0,L|381:231,1,36,0|0,2:0|2:0,2:0:0:0:
283,149,62666,2,0,L|303:202,1,36,0|0,2:0|2:0,2:0:0:0:
398,94,62837,6,0,B|356:48|356:48|236:33,1,180,0|0,2:0|2:0,2:0:0:0:
152,146,63348,1,0,2:0:0:0:
152,146,63433,1,0,2:0:0:0:
152,146,63519,2,0,P|178:189|180:241,1,90,0|0,2:0|2:0,2:0:0:0:
42,306,63860,1,0,2:0:0:0:
95,223,64030,1,0,2:0:0:0:
85,384,64200,6,0,L|49:192,1,180,0|0,2:0|2:0,2:0:0:0:
24,123,64712,1,0,2:0:0:0:
165,252,64882,1,0,2:0:0:0:
51,207,65053,1,0,2:0:0:0:
213,153,65223,1,0,2:0:0:0:
165,252,65394,1,0,2:0:0:0:
252,52,65564,6,0,B|357:34|312:118|415:102,1,180,0|0,2:0|2:0,2:0:0:0:
510,144,66075,2,0,P|493:163|483:193,1,45,0|0,2:0|2:0,2:0:0:0:
414,294,66246,2,0,P|407:249|383:183,1,90,0|0,2:0|2:0,2:0:0:0:
487,384,66587,1,0,2:0:0:0:
487,384,66757,1,0,2:0:0:0:
393,207,66928,6,0,B|422:165|422:165|414:303,1,180,0|0,2:0|2:0,2:0:0:0:
275,349,67439,1,0,2:0:0:0:
265,261,67610,2,0,B|273:239|294:226|294:226|313:245|318:287,1,90,0|0,2:0|2:0,2:0:0:0:
159,354,67950,1,0,2:0:0:0:
142,183,68121,1,0,2:0:0:0:
142,183,68206,1,0,2:0:0:0:
142,183,68291,6,0,B|114:146|63:145|63:145|32:190|48:239,1,180,0|8,2:0|2:0,2:0:0:0:
71,322,68803,1,0,2:0:0:0:
80,317,68888,1,0,2:0:0:0:
89,312,68973,2,0,L|195:332,1,90,0|0,2:0|2:0,2:0:0:0:
273,154,69314,1,0,2:0:0:0:
224,245,69485,1,0,2:0:0:0:
361,366,69655,5,0,2:0:0:0:
331,248,69825,1,0,2:0:0:0:
427,344,69996,2,0,L|331:333,1,90,0|0,2:0|2:0,2:0:0:0:
224,245,70337,1,0,2:0:0:0:
273,154,70507,1,0,2:0:0:0:
286,326,70678,1,0,2:0:0:0:
152,380,70848,1,0,2:0:0:0:
224,245,71019,6,0,L|326:231,1,90,0|0,2:0|2:0,2:0:0:0:
128,157,71360,1,0,2:0:0:0:
243,42,71530,2,0,L|253:89,1,45,0|0,2:0|2:0,2:0:0:0:
142,134,71700,2,0,L|40:116,1,90,0|0,2:0|2:0,2:0:0:0:
260,20,72041,1,0,2:0:0:0:
324,150,72212,1,0,2:0:0:0:
332,158,72297,1,0,2:0:0:0:
332,158,72382,5,0,2:0:0:0:
301,259,72553,1,0,2:0:0:0:
388,360,72723,2,0,B|407:374|430:374|430:374|436:352|421:317,1,90,0|0,2:0|2:0,2:0:0:0:
425,329,72979,1,0,2:0:0:0:
425,329,73064,1,0,2:0:0:0:
392,192,73235,1,0,2:0:0:0:
392,192,73320,1,0,2:0:0:0:
392,192,73405,2,0,L|366:130,1,45,0|0,2:0|2:0,2:0:0:0:
301,259,73575,2,0,L|322:306,1,45,0|0,2:0|2:0,2:0:0:0:
477,129,73746,6,0,B|383:107|383:107|341:118|341:118|237:91,1,215.999993408203,10|0,2:0|2:0,2:0:0:0:
157,131,74257,2,0,L|84:141,1,45,0|0,2:0|2:0,2:0:0:0:
164,37,74428,2,0,L|266:22,1,90,0|0,2:0|2:0,2:0:0:0:
49,57,74769,1,0,2:0:0:0:
172,224,74939,2,0,P|117:248|19:187,1,180,0|0,2:0|2:0,2:0:0:0:
241,154,75450,2,0,P|262:211|259:274,1,90,0|0,2:0|2:0,2:0:0:0:
75,336,75791,2,0,P|75:303|93:219,1,90,0|0,2:0|2:0,2:0:0:0:
154,116,76132,1,0,2:0:0:0:
172,224,76303,1,0,2:0:0:0:
41,117,76473,6,0,P|40:57|19:-8,1,90,0|0,2:0|2:0,2:0:0:0:
172,224,76814,1,0,2:0:0:0:
84,246,76985,2,0,L|19:257,1,45,0|0,2:0|2:0,2:0:0:0:
157,332,77155,2,0,P|200:337|246:298,1,90,0|0,2:0|2:0,2:0:0:0:
154,116,77496,1,0,2:0:0:0:
172,224,77666,1,0,2:0:0:0:
130,9,77837,6,0,P|76:17|27:7,1,90,0|0,2:0|2:0,2:0:0:0:
251,134,78178,2,0,P|296:145|365:125,1,90,0|0,2:0|2:0,2:0:0:0:
338,138,78433,1,0,2:0:0:0:
338,138,78519,1,0,2:0:0:0:
272,34,78689,2,0,P|248:33|205:47,1,45,0|0,2:0|2:0,2:0:0:0:
154,116,78860,1,0,2:0:0:0:
171,156,78945,1,0,2:0:0:0:
180,196,79030,1,0,2:0:0:0:
177,240,79115,1,0,2:0:0:0:
153,278,79200,6,0,P|102:291|46:269,1,90,0|0,2:0|2:0,2:0:0:0:
248,253,79541,1,0,2:0:0:0:
231,367,79712,1,0,2:0:0:0:
262,157,79882,2,0,P|313:144|367:169,1,90,0|0,2:0|2:0,2:0:0:0:
248,253,80223,1,0,2:0:0:0:
99,205,80394,1,0,2:0:0:0:
273,68,80564,6,0,L|260:176,1,90,0|0,2:0|2:0,2:0:0:0:
99,205,80905,2,0,L|72:102,1,90,0|0,2:0|2:0,2:0:0:0:
273,68,81246,1,0,2:0:0:0:
262,157,81416,1,0,2:0:0:0:
127,21,81587,1,0,2:0:0:0:
176,189,81757,1,0,2:0:0:0:
273,68,81928,6,0,L|386:55,1,90,0|0,2:0|2:0,2:0:0:0:
434,229,82269,2,0,L|335:206,1,90,0|0,2:0|2:0,2:0:0:0:
473,44,82610,1,0,2:0:0:0:
394,127,82780,1,0,2:0:0:0:
444,316,82950,1,0,2:0:0:0:
355,382,83121,1,0,2:0:0:0:
355,382,83206,1,0,2:0:0:0:
355,382,83291,6,0,P|256:356|159:356,1,180,0|0,2:0|2:0,2:0:0:0:
40,251,83973,2,0,P|74:266|142:232,1,90,0|0,2:0|2:0,2:0:0:0:
153,220,84229,1,0,2:0:0:0:
153,220,84314,2,0,L|142:142,1,45,0|0,2:0|2:0,2:0:0:0:
69,118,84485,2,0,L|76:61,1,45,0|0,2:0|2:0,2:0:0:0:
241,109,84655,6,0,P|225:190|136:143,1,180,0|0,2:0|2:0,2:0:0:0:
195,38,85166,1,0,2:0:0:0:
195,38,85252,1,0,2:0:0:0:
195,38,85337,2,0,P|239:25|289:36,1,90,0|0,2:0|2:0,2:0:0:0:
483,91,85678,2,0,P|448:95|396:138,1,90,0|0,2:0|2:0,2:0:0:0:
241,109,86019,6,0,P|275:191|286:292,1,180,0|0,2:0|2:0,2:0:0:0:
394,372,86530,1,0,2:0:0:0:
378,233,86700,1,0,2:0:0:0:
359,345,86871,1,0,2:0:0:0:
435,161,87041,2,0,P|393:142|330:156,1,90,0|0,2:0|2:0,2:0:0:0:
190,322,87382,6,0,P|276:307|376:363,1,180,0|0,2:0|2:0,2:0:0:0:
304,186,87894,2,0,P|288:173|256:160,1,45,0|0,2:0|2:0,2:0:0:0:
123,227,88064,2,0,P|161:233|220:214,1,90,0|0,2:0|2:0,2:0:0:0:
252,65,88405,1,0,2:0:0:0:
252,65,88575,1,0,2:0:0:0:
102,139,88746,6,0,P|113:170|123:240,1,90,0|0,2:0|2:0,2:0:0:0:
53,295,89087,1,0,2:0:0:0:
188,376,89257,2,0,P|154:376|124:367,1,45,0|0,2:0|2:0,2:0:0:0:
57,316,89428,2,0,P|105:299|161:293,1,90,0|0,2:0|2:0,2:0:0:0:
240,168,89769,1,0,2:0:0:0:
143,210,89939,1,0,2:0:0:0:
342,118,90110,6,0,B|367:179|367:179|356:312,1,180,0|0,2:0|2:0,2:0:0:0:
241,363,90621,1,0,2:0:0:0:
241,363,90706,1,0,2:0:0:0:
241,363,90791,2,0,L|259:240,1,90,0|0,2:0|2:0,2:0:0:0:
461,221,91132,1,0,2:0:0:0:
361,298,91303,1,0,2:0:0:0:
443,359,91473,5,0,2:0:0:0:
342,200,91644,1,0,2:0:0:0:
317,384,91814,1,0,2:0:0:0:
441,247,91985,1,0,2:0:0:0:
268,285,92155,1,0,2:0:0:0:
361,298,92325,1,0,2:0:0:0:
249,187,92496,1,0,2:0:0:0:
186,337,92666,1,0,2:0:0:0:
186,337,92752,1,0,2:0:0:0:
186,337,92837,6,0,P|136:331|75:331,1,90,0|0,2:0|2:0,2:0:0:0:
249,187,93178,2,0,P|296:179|349:176,1,90,0|0,2:0|2:0,2:0:0:0:
338,176,93433,1,0,2:0:0:0:
338,176,93519,1,0,2:0:0:0:
313,82,93689,1,0,2:0:0:0:
420,14,93860,1,0,2:0:0:0:
410,108,94030,1,0,2:0:0:0:
313,82,94200,6,0,P|270:77|216:76,1,90,0|0,2:0|2:0,2:0:0:0:
430,221,94541,2,0,P|475:211|506:167,1,90,0|0,2:0|2:0,2:0:0:0:
502,178,94797,1,0,2:0:0:0:
502,178,94882,1,0,2:0:0:0:
309,188,95053,1,0,2:0:0:0:
309,188,95138,1,0,2:0:0:0:
309,188,95223,2,0,L|321:243,3,45,0|0|0|0,2:0|2:0|2:0|2:0,2:0:0:0:
357,319,95564,6,0,B|376:310|382:292|382:292|329:260|274:313,1,144,0|0,2:0|2:0,2:0:0:0:
