osu file format v14

[General]
AudioFilename: audio.mp3
AudioLeadIn: 0
PreviewTime: 63853
Countdown: 0
SampleSet: Soft
StackLeniency: 0.7
Mode: 0
LetterboxInBreaks: 0
WidescreenStoryboard: 0

[Editor]
DistanceSpacing: 0.9
BeatDivisor: 2
GridSize: 4
TimelineZoom: 1.6

[Metadata]
Title:Finest Sky
TitleUnicode:Finest Sky
Artist:Ceui
ArtistUnicode:Ceui
Creator:BeatofIke
Version:Normal
Source:見上げてごらん、夜空の星を FINE DAYS
Tags:pulltop opening eroge visual novel vn miagete goran yozora no hoshi o night sky full of stars vicksen twofive yow bekotarou yashima takahiro motoi ayumu taguchi makoto konno asuta takashima eiji hanai taro shiozawa yoshinori minao ohse ookuma kenichi momochikun kocari
BeatmapID:936034
BeatmapSetID:433506

[Difficulty]
HPDrainRate:4
CircleSize:3.5
OverallDifficulty:5
ApproachRate:5
SliderMultiplier:1.1
SliderTickRate:1

[Events]
//Background and Video events
Video,0,"Video.avi"
0,0,"BG.jpg",0,0
//Break Periods
2,17689,19016
//Storyboard Layer 0 (Background)
//Storyboard Layer 1 (Fail)
//Storyboard Layer 2 (Pass)
//Storyboard Layer 3 (Foreground)
//Storyboard Sound Samples

[TimingPoints]
1126,340.909090909091,4,2,2,60,1,0
46126,-100,4,2,1,60,0,0
46296,-100,4,2,2,60,0,0
54819,-100,4,2,1,60,0,0
54989,-100,4,2,2,60,0,0
57546,-100,4,2,1,60,0,0
57716,-100,4,2,1,60,0,0
63853,-100,4,2,2,75,0,1
85671,-100,4,2,2,60,0,0
96580,-100,4,2,2,5,0,0

[Colours]
Combo1 : 212,212,212
Combo2 : 85,0,170
Combo3 : 0,0,170
Combo4 : 255,0,128

[HitObjects]
80,320,3853,6,0,P|132:336|184:320,1,110,6|8,0:0|0:0,0:0:0:0:
256,252,4535,2,0,L|312:244,1,55,2|0,0:0|0:0,0:0:0:0:
360,236,4876,1,8,0:0:0:0:
444,288,5216,2,0,P|460:236|444:184,1,110,2|8,0:0|0:0,0:0:0:0:
360,132,5898,2,0,L|304:124,1,55,2|0,0:0|0:0,0:0:0:0:
256,116,6239,1,8,0:0:0:0:
192,40,6580,6,0,P|144:16|88:24,1,110,6|8,0:0|0:0,0:0:0:0:
52,116,7262,2,0,L|0:132,2,55,2|0|8,0:0|0:0|0:0,0:0:0:0:
136,168,7944,2,0,L|160:276,1,110,2|8,0:0|0:0,0:0:0:0:
92,348,8626,2,0,P|112:364|140:372,1,55,2|0,0:0|0:0,0:0:0:0:
188,368,8966,1,8,0:0:0:0:
256,296,9307,6,0,B|297:296|297:296|320:316|320:316|360:316,1,110,6|8,0:0|0:0,0:0:0:0:
456,316,9989,2,0,P|452:344|440:368,2,55,2|0|8,0:0|0:0|0:0,0:0:0:0:
404,232,10671,2,0,P|404:180|444:136,1,110,2|8,0:0|0:0,0:0:0:0:
412,44,11353,2,0,L|356:36,1,55,2|0,0:0|0:0,0:0:0:0:
320,68,11694,1,8,0:0:0:0:
232,116,12035,6,0,P|176:124|128:100,1,110,6|8,0:0|0:0,0:0:0:0:
48,44,12716,2,0,L|16:88,1,55,2|0,0:0|0:0,0:0:0:0:
28,136,13057,1,8,0:0:0:0:
104,200,13398,2,0,P|120:244|104:304,1,110,2|8,0:0|0:0,0:0:0:0:
80,344,13910,1,0,0:0:0:0:
80,344,14080,2,0,L|136:344,1,55,2|0,0:0|3:2,0:0:0:0:
176,368,14421,2,0,L|232:368,2,55,0|0|6,3:2|3:2|0:0,0:0:0:0:
256,192,14932,12,2,17489,0:0:0:0:
308,158,20216,5,6,0:0:0:0:
364,76,20557,2,0,P|406:109|460:108,1,110,8|0,0:0|0:0,0:0:0:0:
460,208,21239,1,8,0:0:0:0:
460,208,21410,2,0,P|404:208|364:240,1,110,2|0,0:0|0:0,0:0:0:0:
344,288,21921,1,8,0:0:0:0:
344,288,22091,2,0,P|301:321|247:320,1,110
208,292,22603,2,0,L|208:236,2,55,8|0|2,0:0|0:0|0:0,0:0:0:0:
112,314,23285,6,0,L|112:202,1,110,8|0,0:0|0:0,0:0:0:0:
44,132,23966,1,8,0:0:0:0:
44,132,24137,2,0,P|8:92|8:36,1,110,2|0,0:0|0:0,0:0:0:0:
56,36,24648,1,8,0:0:0:0:
56,36,24819,2,0,L|112:36,1,55
146,72,25160,2,0,L|256:72,1,110,2|2,3:2|3:2,0:0:0:0:
256,220,26012,6,0,L|144:220,1,110,8|0,0:0|0:0,0:0:0:0:
196,308,26694,1,8,0:0:0:0:
196,308,26864,2,0,L|306:308,1,110,2|0,0:0|0:0,0:0:0:0:
356,308,27376,2,0,L|416:308,1,55,8|0,0:0|0:0,0:0:0:0:
488,244,27887,2,0,L|488:188,1,55,0|8,0:0|0:0,0:0:0:0:
488,88,28398,6,0,P|452:48|396:40,1,110,2|8,0:0|0:0,0:0:0:0:
332,112,29080,2,0,L|343:165,1,55
299,190,29421,2,0,P|247:205|199:181,1,110,8|0,0:0|0:0,0:0:0:0:
156,92,30103,2,0,P|108:68|56:84,1,110,8|0,0:0|3:2,0:0:0:0:
12,108,30614,1,10,0:0:0:0:
12,108,30785,2,0,L|24:164,2,55,0|10|6,3:2|0:0|0:0,0:0:0:0:
100,152,31466,6,0,P|100:176|44:236,1,110,8|0,0:0|0:0,0:0:0:0:
76,328,32148,1,8,0:0:0:0:
76,328,32319,2,0,L|188:328,1,110,2|0,0:0|0:0,0:0:0:0:
228,304,32830,1,8,0:0:0:0:
228,304,33001,2,0,P|272:268|324:268,1,110,0|2,0:0|0:0,0:0:0:0:
368,292,33512,2,0,L|368:348,2,55,8|2|2,0:0|0:0|0:0,0:0:0:0:
408,200,34194,6,0,L|464:200,2,55,8|0|0,0:0|0:0|0:0,0:0:0:0:
368,172,34705,2,0,L|368:116,1,55,0|8,0:0|0:0,0:0:0:0:
368,68,35046,1,2,0:0:0:0:
268,68,35387,2,0,L|268:128,2,55,0|8|2,0:0|0:0|0:0,0:0:0:0:
168,68,36069,2,0,L|56:68,1,110,2|2,3:2|3:2,0:0:0:0:
8,68,36580,1,6,0:0:0:0:
58,152,36921,6,0,L|116:152,2,55,8|0|0,0:0|0:0|0:0,0:0:0:0:
24,188,37432,2,0,L|24:244,1,55,0|8,0:0|0:0,0:0:0:0:
56,280,37773,2,0,P|112:300|160:288,1,110,2|0,0:0|0:0,0:0:0:0:
206,268,38285,2,0,L|206:212,1,55,8|0,0:0|0:0,0:0:0:0:
306,212,38796,2,0,L|306:268,1,55,0|8,0:0|0:0,0:0:0:0:
368,344,39307,6,0,B|408:344|408:344|428:324|428:324|472:324,1,110,6|8,0:0|0:0,0:0:0:0:
512,236,39989,2,0,L|492:180,1,55
444,184,40330,1,8,0:0:0:0:
444,184,40501,2,0,P|404:196|340:172,1,110,2|0,0:0|0:0,0:0:0:0:
316,132,41012,2,0,L|328:76,1,55,12|0,0:0|0:0,0:0:0:0:
304,32,41353,2,0,P|254:9|201:21,1,110,0|0,3:2|3:2,0:0:0:0:
140,100,42035,6,0,L|32:116,1,110,6|0,0:0|3:2,0:0:0:0:
0,156,42546,2,0,P|28:200|16:256,1,110,2|0,0:0|0:0,0:0:0:0:
48,292,43057,2,0,L|156:276,1,110,6|0,0:0|0:0,0:0:0:0:
200,300,43569,2,0,P|216:328|236:340,2,55,2|0|2,3:2|0:0|3:2,0:0:0:0:
288,256,44251,2,0,P|275:231|253:216,2,55,6|6|6,0:0|0:0|0:0,0:0:0:0:
331,280,44763,6,0,L|444:280,1,110,2|0,0:0|3:2,0:0:0:0:
472,244,45273,1,2,0:0:0:0:
472,244,45444,2,0,L|472:188,1,55,0|0,3:2|0:0,0:0:0:0:
441,148,45784,2,0,B|331:148|331:148|331:89,1,165,6|2,0:0|3:2,0:0:0:0:
312,48,46466,2,0,P|260:36|204:48,1,110,8|2,0:0|0:0,0:0:0:0:
120,93,47148,2,0,L|120:149,1,55,2|0,0:0|0:0,0:0:0:0:
120,198,47489,6,0,L|180:198,2,55,6|0|0,0:0|3:2|3:2,0:0:0:0:
80,228,48001,2,0,P|64:280|80:332,1,110,2|2,0:0|0:0,0:0:0:0:
120,360,48512,2,0,L|232:360,1,110,6|0,0:0|0:0,0:0:0:0:
252,316,49023,2,0,L|308:316,2,55,2|0|2,0:0|3:2|0:0,0:0:0:0:
232,272,49535,1,0,3:2:0:0:
232,272,49705,2,0,L|176:272,2,55,6|6|6,0:0|0:0|0:0,0:0:0:0:
252,228,50216,6,0,L|276:120,1,110,2|0,0:0|0:0,0:0:0:0:
288,72,50728,2,0,P|340:56|392:72,1,110,2|0,0:0|0:0,0:0:0:0:
404,121,51239,2,0,L|428:229,1,110,2|0,0:0|0:0,0:0:0:0:
452,272,51751,1,6,0:0:0:0:
452,272,51921,2,0,L|508:272,2,55,4|4|2,0:0|0:0|0:0,0:0:0:0:
352,272,52603,2,0,L|292:272,1,55,0|0,3:2|0:0,0:0:0:0:
256,300,52944,6,0,L|144:300,1,110,4|0,3:2|0:0,0:0:0:0:
104,272,53455,2,0,P|88:220|104:168,1,110,0|0,3:2|0:0,0:0:0:0:
146,140,53966,2,0,L|258:140,1,110,0|0,3:2|0:0,0:0:0:0:
298,112,54478,2,0,P|372:80|446:112,1,165,0|0,3:2|3:2,0:0:0:0:
372,182,55330,1,0,3:2:0:0:
468,212,55671,6,0,L|484:320,1,110,0|0,3:2|0:0,0:0:0:0:
456,364,56182,2,0,P|401:364|355:336,1,110,0|0,3:2|0:0,0:0:0:0:
324,296,56694,2,0,B|288:296|288:296|256:312|256:312|216:312,1,110,0|0,3:2|0:0,0:0:0:0:
188,352,57205,2,0,B|152:352|152:352|124:308|144:260|180:240,1,165,0|0,3:2|3:2,0:0:0:0:
216,208,57887,1,0,0:0:0:0:
216,208,58057,2,0,L|272:208,1,55,0|0,3:2|0:0,0:0:0:0:
308,240,58398,6,0,P|360:256|412:240,1,110,4|0,3:2|0:0,0:0:0:0:
448,208,58910,2,0,P|464:156|448:104,1,110,0|0,3:2|0:0,0:0:0:0:
412,72,59421,2,0,P|360:56|308:72,1,110,0|2,3:2|0:0,0:0:0:0:
272,104,59933,2,0,P|256:156|272:208,1,110,0|0,3:2|0:0,0:0:0:0:
308,240,60444,1,0,3:2:0:0:
360,324,60785,1,0,3:2:0:0:
412,240,61126,5,2,0:0:0:0:
256,49,62830,2,0,L|144:49,1,110,6|0,0:0|3:2,0:0:0:0:
60,101,63512,2,0,L|32:149,1,55,0|0,3:2|3:2,0:0:0:0:
56,193,63853,6,0,P|116:193|152:229,1,110,6|8,0:0|0:0,0:0:0:0:
180,321,64535,2,0,L|232:337,1,55,2|0,0:0|0:0,0:0:0:0:
280,349,64876,1,8,0:0:0:0:
376,373,65216,2,0,P|429:375|470:340,1,110,2|8,0:0|0:0,0:0:0:0:
508,249,65898,2,0,L|488:193,1,55,2|0,0:0|0:0,0:0:0:0:
472,153,66239,1,8,0:0:0:0:
440,61,66580,6,0,B|400:61|400:61|380:81|380:81|336:81,1,110,2|8,0:0|0:0,0:0:0:0:
256,137,67262,2,0,L|256:193,2,55,2|0|8,0:0|0:0|0:0,0:0:0:0:
173,81,67944,2,0,B|132:81|132:81|112:61|112:61|72:61,1,110,2|8,0:0|0:0,0:0:0:0:
40,153,68626,2,0,L|21:204,1,55,2|0,0:0|0:0,0:0:0:0:
4,249,68966,1,8,0:0:0:0:
41,340,69307,6,0,P|82:375|136:373,1,110,6|8,0:0|0:0,0:0:0:0:
212,309,69989,2,0,L|200:253,1,55,2|0,0:0|0:0,0:0:0:0:
192,205,70330,1,8,0:0:0:0:
256,129,70671,2,0,P|309:126|350:161,1,110,2|8,0:0|0:0,0:0:0:0:
404,245,71353,2,0,L|392:301,1,55,2|0,0:0|0:0,0:0:0:0:
384,349,71694,1,8,0:0:0:0:
288,373,72035,5,2,0:0:0:0:
212,309,72376,1,8,0:0:0:0:
116,333,72716,2,0,L|60:345,2,55,2|0|8,0:0|0:0|0:0,0:0:0:0:
212,309,73398,2,0,P|180:257|136:237,1,110,2|8,0:0|0:0,0:0:0:0:
44,201,74080,2,0,L|32:145,1,55,0|0,3:2|3:2,0:0:0:0:
24,97,74421,1,0,3:2:0:0:
92,25,74762,6,0,P|144:17|196:41,1,110,6|8,0:0|0:0,0:0:0:0:
256,117,75444,2,0,L|244:173,1,55
276,209,75785,1,8,0:0:0:0:
276,209,75955,2,0,P|329:201|378:224,1,110,2|0,0:0|0:0,0:0:0:0:
408,265,76466,1,8,0:0:0:0:
448,357,76807,2,0,P|394:364|345:341,1,110,0|8,0:0|0:0,0:0:0:0:
256,297,77489,6,0,B|216:297|216:297|188:313|188:313|148:313,1,110,6|8,0:0|0:0,0:0:0:0:
72,253,78171,2,0,L|16:253,2,55,6|0|8,0:0|0:0|0:0,0:0:0:0:
150,193,78853,2,0,B|190:193|190:193|218:177|218:177|256:177,1,110,6|8,0:0|0:0,0:0:0:0:
336,237,79535,2,0,L|392:237,1,55
440,237,79876,1,8,0:0:0:0:
512,169,80216,6,0,P|508:113|476:70,1,110,6|10,0:0|0:0,0:0:0:0:
414,149,80898,2,0,L|358:149,1,55,10|0,0:0|0:0,0:0:0:0:
316,125,81239,1,10,0:0:0:0:
236,71,81580,2,0,B|196:71|196:71|168:85|168:85|128:85,1,110,14|10,0:0|0:0,0:0:0:0:
56,149,82262,2,0,L|1:149,2,55,10|0|10,0:0|0:0|0:0,0:0:0:0:
129,213,82944,6,0,B|167:213|167:213|195:227|195:227|235:227,1,110,14|10,0:0|0:0,0:0:0:0:
308,291,83626,2,0,L|364:291,2,55,10|0|10,0:0|0:0|0:0,0:0:0:0:
236,355,84307,2,0,B|196:355|196:355|168:369|168:369|129:369,1,110,6|0,0:0|0:0,0:0:0:0:
72,291,84989,2,0,L|16:291,2,55,6|0|0,0:0|3:2|3:2,0:0:0:0:
129,213,85671,6,0,B|167:213|167:213|195:227|195:227|235:227,1,110,6|8,0:0|0:0,0:0:0:0:
320,173,86353,2,0,L|308:117,1,55,2|0,0:0|0:0,0:0:0:0:
296,69,86694,1,8,0:0:0:0:
388,33,87035,2,0,P|444:41|480:77,1,110,2|8,0:0|0:0,0:0:0:0:
508,173,87716,2,0,L|496:229,1,55,2|0,0:0|0:0,0:0:0:0:
484,277,88057,1,8,0:0:0:0:
422,353,88398,6,0,P|370:368|318:352,1,110,6|8,0:0|0:0,0:0:0:0:
256,277,89080,2,0,L|256:221,2,55,2|0|8,0:0|0:0|0:0,0:0:0:0:
193,352,89762,2,0,P|141:368|90:353,1,110,2|12,0:0|0:0,0:0:0:0:
28,277,90444,1,2,3:2:0:0:
28,277,90614,2,0,L|17:224,1,55,0|2,3:2|3:2,0:0:0:0:
3,172,90955,1,0,3:2:0:0:
3,172,91126,1,6,0:0:0:0:
256,192,91296,12,0,96580,0:0:0:0:
