osu file format v14

[General]
AudioFilename: audio.ogg
AudioLeadIn: 0
PreviewTime: 90338
Countdown: 0
SampleSet: Normal
StackLeniency: 0.7
Mode: 1
LetterboxInBreaks: 0
WidescreenStoryboard: 0

[Editor]
DistanceSpacing: 1
BeatDivisor: 4
GridSize: 32
TimelineZoom: 2.899999

[Metadata]
Title:Dreams come true -Hana Sakihokoru, Chikyuu no Moto de- (Lemon beads Remix)
TitleUnicode:Dreams come true -花咲き誇る、地球のもとで- (Lemon beads Remix)
Artist:Ceui
ArtistUnicode:Ceui
Creator:A-40
Version:Winter Bloom
Source:アストラエアの白き永遠 Finale -白き星の夢-
Tags:Astralair no Shiroki Towa Hoshi no Yume Favorite Grand ED Ending Visual Novel Eroge Electronic Video Game Japanese J-Core a40 永原さくら nagahara sakura 小高光太郎 odaka kotaro koutarou 廣澤優也 hirosawa yuya yuuya sono makers white eternity of star's dream
BeatmapID:2797468
BeatmapSetID:1351255

[Difficulty]
HPDrainRate:5
CircleSize:5
OverallDifficulty:6.2
ApproachRate:5
SliderMultiplier:1.4
SliderTickRate:1

[Events]
//Background and Video events
0,0,"yuki_a.jpg",0,0
//Break Periods
//Storyboard Layer 0 (Background)
//Storyboard Layer 1 (Fail)
//Storyboard Layer 2 (Pass)
//Storyboard Layer 3 (Foreground)
//Storyboard Layer 4 (Overlay)
//Storyboard Sound Samples

[TimingPoints]
210,342.857142857143,4,1,0,80,1,0
11179,-105.263157894737,4,1,0,80,0,0
19065,-104.166666666667,4,1,0,80,0,0
19236,-102.040816326531,4,1,0,80,0,0
19322,-101.010101010101,4,1,0,80,0,0
19408,-100,4,1,0,80,0,0
44179,-111.111111111111,4,1,0,70,0,0
55065,-100,4,1,0,80,0,0
66122,-117.647058823529,4,1,0,60,0,0
77008,-108.108108108108,4,1,0,80,0,0
81979,-106.382978723404,4,1,0,80,0,0
82065,-105.263157894737,4,1,0,80,0,0
82150,-104.166666666667,4,1,0,80,0,0
82665,-102.040816326531,4,1,0,80,0,0
82836,-100,4,1,0,80,0,0
90724,-90.9090909090909,4,1,0,85,0,1
109921,-80,4,1,0,85,0,1
110264,-90.9090909090909,4,1,0,85,0,1
110435,-80,4,1,0,85,0,1
111292,-90.9090909090909,4,1,0,85,0,1
111635,-80,4,1,0,85,0,1
112235,-83.3333333333333,4,1,0,85,0,1
112492,-86.9565217391304,4,1,0,85,0,1
112664,-90.9090909090909,4,1,0,85,0,1
134610,-90.9090909090909,4,1,0,85,0,0
134693,-100,4,1,0,80,0,0
145581,-90.9090909090909,4,1,0,85,0,1
167524,-90.9090909090909,4,1,0,85,0,0
167608,-111.111111111111,4,1,0,70,0,0
178493,-100,4,1,0,70,0,0
187065,-100,4,1,0,80,0,0
189550,-117.647058823529,4,1,0,60,0,0
194950,-100,4,1,0,80,0,0
203265,-100,4,1,0,75,0,0
213122,-100,4,1,0,80,0,0
225467,-90.9090909090909,4,1,0,85,0,1
225724,-90.9090909090909,4,1,0,75,0,1
225895,-90.9090909090909,4,1,0,85,0,1
241581,-90.9090909090909,4,1,0,85,0,0
241667,-100,4,1,0,80,0,0
244067,-97.5609756097561,4,1,0,85,0,0
244152,-95.2380952380952,4,1,0,85,0,0
244238,-93.0232558139535,4,1,0,85,0,0
244324,-90.9090909090909,4,1,0,85,0,1
247067,-90.9090909090909,4,1,0,85,0,0
247150,-100,4,1,0,80,0,0
258038,-90.9090909090909,4,1,0,85,0,1
279981,-90.9090909090909,4,1,0,85,0,0
280065,-100,4,1,0,75,0,0
301922,-100,4,1,0,70,0,0
303293,-100,4,1,0,60,0,0
304665,-100,4,1,0,50,0,0
306036,-100,4,1,0,40,0,0
307408,-100,4,1,0,30,0,0
308779,-100,4,1,0,15,0,0

[HitObjects]
256,192,210,5,8,0:0:0:0:
256,192,552,1,0,0:0:0:0:
256,192,724,1,8,0:0:0:0:
256,192,1067,1,8,0:0:0:0:
256,192,1238,1,0,0:0:0:0:
256,192,1410,1,0,0:0:0:0:
256,192,1581,1,8,0:0:0:0:
256,192,1752,1,8,0:0:0:0:
256,192,1924,1,0,0:0:0:0:
256,192,2095,1,8,0:0:0:0:
256,192,2438,1,8,0:0:0:0:
256,192,2610,1,0,0:0:0:0:
256,192,2781,1,0,0:0:0:0:
256,192,2952,1,8,0:0:0:0:
256,192,3295,1,0,0:0:0:0:
256,192,3467,1,8,0:0:0:0:
256,192,3810,1,8,0:0:0:0:
256,192,3981,1,0,0:0:0:0:
256,192,4152,1,8,0:0:0:0:
256,192,4324,1,8,0:0:0:0:
256,192,4495,1,0,0:0:0:0:
256,192,4667,1,8,0:0:0:0:
256,192,4838,1,0,0:0:0:0:
256,192,5010,1,0,0:0:0:0:
256,192,5181,1,8,0:0:0:0:
256,192,5352,1,0,0:0:0:0:
256,192,5695,1,0,0:0:0:0:
256,192,5867,1,0,0:0:0:0:
256,192,6038,1,8,0:0:0:0:
256,192,6210,1,0,0:0:0:0:
256,192,6552,1,8,0:0:0:0:
256,192,6724,1,0,0:0:0:0:
256,192,7067,1,8,0:0:0:0:
256,192,7238,1,8,0:0:0:0:
256,192,7410,1,0,0:0:0:0:
256,192,7581,1,8,0:0:0:0:
256,192,7924,1,8,0:0:0:0:
256,192,8095,1,0,0:0:0:0:
256,192,8438,1,0,0:0:0:0:
256,192,8610,1,0,0:0:0:0:
256,192,8781,1,8,0:0:0:0:
256,192,8952,1,8,0:0:0:0:
256,192,9295,1,0,0:0:0:0:
256,192,9467,1,8,0:0:0:0:
256,192,9810,1,4,0:0:0:0:
256,192,10667,1,0,0:0:0:0:
256,192,10838,1,8,0:0:0:0:
256,192,11181,1,12,0:0:0:0:
256,192,11352,1,0,0:0:0:0:
256,192,11524,1,0,0:0:0:0:
256,192,11695,1,8,0:0:0:0:
256,192,12038,1,8,0:0:0:0:
256,192,12210,1,0,0:0:0:0:
256,192,12381,1,8,0:0:0:0:
256,192,12552,1,8,0:0:0:0:
256,192,12724,1,0,0:0:0:0:
256,192,12895,1,0,0:0:0:0:
256,192,13067,1,8,0:0:0:0:
256,192,13410,1,8,0:0:0:0:
256,192,13581,1,0,0:0:0:0:
256,192,13752,1,8,0:0:0:0:
256,192,13924,1,8,0:0:0:0:
256,192,14095,1,8,0:0:0:0:
256,192,14267,1,0,0:0:0:0:
256,192,14438,1,8,0:0:0:0:
256,192,14781,1,8,0:0:0:0:
256,192,14952,1,0,0:0:0:0:
256,192,15124,1,8,0:0:0:0:
256,192,15295,1,0,0:0:0:0:
256,192,15467,1,0,0:0:0:0:
256,192,15638,1,8,0:0:0:0:
256,192,15810,1,0,0:0:0:0:
256,192,16152,1,8,0:0:0:0:
256,192,16324,1,0,0:0:0:0:
256,192,16667,1,12,0:0:0:0:
256,192,17010,1,0,0:0:0:0:
256,192,17352,1,0,0:0:0:0:
256,192,17695,1,0,0:0:0:0:
256,192,17867,1,0,0:0:0:0:
256,192,17952,1,0,0:0:0:0:
256,192,18038,1,12,0:0:0:0:
256,192,18381,1,0,0:0:0:0:
256,192,18724,1,0,0:0:0:0:
256,192,19067,1,0,0:0:0:0:
256,192,19238,1,0,0:0:0:0:
256,192,19324,1,0,0:0:0:0:
256,192,19410,1,12,0:0:0:0:
256,192,19581,1,0,0:0:0:0:
256,192,19752,1,8,0:0:0:0:
256,192,19924,1,0,0:0:0:0:
256,192,20095,1,12,0:0:0:0:
256,192,20267,1,8,0:0:0:0:
256,192,20438,1,0,0:0:0:0:
256,192,20610,1,0,0:0:0:0:
256,192,20781,1,8,0:0:0:0:
256,192,20867,1,8,0:0:0:0:
256,192,20952,1,0,0:0:0:0:
256,192,21038,1,8,0:0:0:0:
256,192,21124,1,0,0:0:0:0:
256,192,21210,1,0,0:0:0:0:
256,192,21295,1,8,0:0:0:0:
256,192,21381,1,8,0:0:0:0:
256,192,21467,1,0,0:0:0:0:
256,192,21552,1,8,0:0:0:0:
256,192,21638,1,0,0:0:0:0:
256,192,21724,1,0,0:0:0:0:
256,192,21810,1,8,0:0:0:0:
256,192,21895,1,8,0:0:0:0:
256,192,21981,1,0,0:0:0:0:
256,192,22067,1,0,0:0:0:0:
256,192,22152,1,12,0:0:0:0:
256,192,22495,1,0,0:0:0:0:
256,192,22667,1,8,0:0:0:0:
256,192,22752,1,8,0:0:0:0:
256,192,22838,1,0,0:0:0:0:
256,192,23010,1,8,0:0:0:0:
256,192,23181,1,0,0:0:0:0:
256,192,23352,1,8,0:0:0:0:
256,192,23524,1,0,0:0:0:0:
256,192,23695,1,0,0:0:0:0:
256,192,23867,1,8,0:0:0:0:
256,192,24038,1,0,0:0:0:0:
256,192,24124,1,8,0:0:0:0:
256,192,24210,1,0,0:0:0:0:
256,192,24381,1,8,0:0:0:0:
256,192,24552,1,0,0:0:0:0:
256,192,24724,1,0,0:0:0:0:
256,192,24895,1,8,0:0:0:0:
256,192,25067,1,8,0:0:0:0:
256,192,25238,1,0,0:0:0:0:
256,192,25410,1,8,0:0:0:0:
256,192,25495,1,0,0:0:0:0:
256,192,25581,1,8,0:0:0:0:
256,192,25752,1,8,0:0:0:0:
256,192,25924,1,0,0:0:0:0:
256,192,26095,1,8,0:0:0:0:
256,192,26267,1,0,0:0:0:0:
256,192,26438,1,0,0:0:0:0:
256,192,26610,1,8,0:0:0:0:
256,192,26781,1,0,0:0:0:0:
256,192,26867,1,0,0:0:0:0:
256,192,26952,1,8,0:0:0:0:
256,192,27124,1,0,0:0:0:0:
256,192,27295,1,8,0:0:0:0:
256,192,27467,1,0,0:0:0:0:
256,192,27638,1,0,0:0:0:0:
256,192,27981,1,0,0:0:0:0:
256,192,28152,1,8,0:0:0:0:
256,192,28238,1,8,0:0:0:0:
256,192,28324,1,0,0:0:0:0:
256,192,28495,1,8,0:0:0:0:
256,192,28667,1,0,0:0:0:0:
256,192,28838,1,8,0:0:0:0:
256,192,29010,1,0,0:0:0:0:
256,192,29181,1,0,0:0:0:0:
256,192,29352,1,8,0:0:0:0:
256,192,29524,1,8,0:0:0:0:
256,192,29610,1,0,0:0:0:0:
256,192,29695,1,8,0:0:0:0:
256,192,29867,1,8,0:0:0:0:
256,192,30038,1,0,0:0:0:0:
256,192,30210,1,0,0:0:0:0:
256,192,30381,1,8,0:0:0:0:
256,192,30552,1,8,0:0:0:0:
256,192,30724,1,0,0:0:0:0:
256,192,30895,1,8,0:0:0:0:
256,192,30981,1,0,0:0:0:0:
256,192,31067,1,0,0:0:0:0:
256,192,31238,1,8,0:0:0:0:
256,192,31410,1,0,0:0:0:0:
256,192,31581,1,8,0:0:0:0:
256,192,31752,1,0,0:0:0:0:
256,192,31924,1,0,0:0:0:0:
256,192,32095,1,8,0:0:0:0:
256,192,32267,1,0,0:0:0:0:
256,192,32352,1,0,0:0:0:0:
256,192,32438,1,8,0:0:0:0:
256,192,32610,1,0,0:0:0:0:
256,192,32781,1,8,0:0:0:0:
256,192,32952,1,0,0:0:0:0:
256,192,33124,1,12,0:0:0:0:
256,192,33467,1,0,0:0:0:0:
256,192,33638,1,8,0:0:0:0:
256,192,33724,1,8,0:0:0:0:
256,192,33810,1,0,0:0:0:0:
256,192,33981,1,8,0:0:0:0:
256,192,34152,1,0,0:0:0:0:
256,192,34324,1,8,0:0:0:0:
256,192,34495,1,0,0:0:0:0:
256,192,34667,1,0,0:0:0:0:
256,192,34838,1,8,0:0:0:0:
256,192,35010,1,8,0:0:0:0:
256,192,35095,1,8,0:0:0:0:
256,192,35181,1,0,0:0:0:0:
256,192,35352,1,8,0:0:0:0:
256,192,35524,1,0,0:0:0:0:
256,192,35695,1,0,0:0:0:0:
256,192,35867,1,8,0:0:0:0:
256,192,36038,1,8,0:0:0:0:
256,192,36210,1,0,0:0:0:0:
256,192,36381,1,0,0:0:0:0:
256,192,36467,1,0,0:0:0:0:
256,192,36552,1,8,0:0:0:0:
256,192,36724,1,8,0:0:0:0:
256,192,36895,1,0,0:0:0:0:
256,192,37067,1,8,0:0:0:0:
256,192,37238,1,0,0:0:0:0:
256,192,37410,1,0,0:0:0:0:
256,192,37581,1,8,0:0:0:0:
256,192,37752,1,8,0:0:0:0:
256,192,37838,1,0,0:0:0:0:
256,192,37924,1,8,0:0:0:0:
256,192,38095,1,0,0:0:0:0:
256,192,38267,1,8,0:0:0:0:
256,192,38438,1,0,0:0:0:0:
256,192,38610,1,12,0:0:0:0:
256,192,38781,1,0,0:0:0:0:
256,192,38952,1,8,0:0:0:0:
256,192,39124,1,0,0:0:0:0:
256,192,39295,1,8,0:0:0:0:
256,192,39467,1,8,0:0:0:0:
256,192,39638,1,0,0:0:0:0:
256,192,39810,1,0,0:0:0:0:
256,192,39895,1,0,0:0:0:0:
256,192,39981,1,12,0:0:0:0:
256,192,40152,1,0,0:0:0:0:
256,192,40324,1,8,0:0:0:0:
256,192,40495,1,0,0:0:0:0:
256,192,40667,1,8,0:0:0:0:
256,192,40838,1,8,0:0:0:0:
256,192,41010,1,0,0:0:0:0:
256,192,41181,1,0,0:0:0:0:
256,192,41267,1,0,0:0:0:0:
256,192,41352,1,12,0:0:0:0:
256,192,41524,1,0,0:0:0:0:
256,192,41695,1,8,0:0:0:0:
256,192,41867,1,0,0:0:0:0:
256,192,41952,1,0,0:0:0:0:
256,192,42038,1,12,0:0:0:0:
256,192,42210,1,0,0:0:0:0:
256,192,42381,1,8,0:0:0:0:
256,192,42552,1,8,0:0:0:0:
256,192,42724,1,0,0:0:0:0:
256,192,42810,1,0,0:0:0:0:
256,192,42895,1,8,0:0:0:0:
256,192,42981,1,0,0:0:0:0:
256,192,43067,1,8,0:0:0:0:
256,192,43152,1,8,0:0:0:0:
256,192,43238,1,0,0:0:0:0:
256,192,43324,1,0,0:0:0:0:
256,192,43410,1,8,0:0:0:0:
256,192,43495,1,0,0:0:0:0:
256,192,43581,1,8,0:0:0:0:
256,192,43667,1,8,0:0:0:0:
256,192,43752,1,0,0:0:0:0:
256,192,43838,1,0,0:0:0:0:
256,192,43924,1,8,0:0:0:0:
256,192,44010,1,0,0:0:0:0:
256,192,44095,1,12,0:0:0:0:
256,192,45124,1,0,0:0:0:0:
256,192,45295,1,8,0:0:0:0:
256,192,45467,1,8,0:0:0:0:
256,192,46495,1,0,0:0:0:0:
256,192,46838,1,8,0:0:0:0:
256,192,47524,1,8,0:0:0:0:
256,192,47867,1,8,0:0:0:0:
256,192,48038,1,0,0:0:0:0:
256,192,49238,1,0,0:0:0:0:
256,192,49581,1,8,0:0:0:0:
256,192,49924,1,8,0:0:0:0:
256,192,50095,1,0,0:0:0:0:
256,192,50952,1,8,0:0:0:0:
256,192,51981,1,0,0:0:0:0:
256,192,52152,1,8,0:0:0:0:
256,192,52324,1,8,0:0:0:0:
256,192,52667,1,0,0:0:0:0:
256,192,52838,1,8,0:0:0:0:
256,192,53352,1,8,0:0:0:0:
256,192,53695,1,0,0:0:0:0:
256,192,54381,1,8,0:0:0:0:
256,192,55067,1,4,0:0:0:0:
256,192,55410,1,0,0:0:0:0:
256,192,55581,1,0,0:0:0:0:
256,192,55752,1,8,0:0:0:0:
256,192,56095,1,0,0:0:0:0:
256,192,56267,1,8,0:0:0:0:
256,192,56352,1,0,0:0:0:0:
256,192,56438,1,8,0:0:0:0:
256,192,56781,1,8,0:0:0:0:
256,192,56952,1,0,0:0:0:0:
256,192,57124,1,8,0:0:0:0:
256,192,57467,1,8,0:0:0:0:
256,192,57638,1,0,0:0:0:0:
256,192,57724,1,8,0:0:0:0:
256,192,57810,1,0,0:0:0:0:
256,192,58152,1,0,0:0:0:0:
256,192,58324,1,0,0:0:0:0:
256,192,58495,1,8,0:0:0:0:
256,192,58581,1,8,0:0:0:0:
256,192,58667,1,0,0:0:0:0:
256,192,58838,1,8,0:0:0:0:
256,192,59010,1,0,0:0:0:0:
256,192,59352,1,0,0:0:0:0:
256,192,59524,1,8,0:0:0:0:
256,192,59610,1,8,0:0:0:0:
256,192,59695,1,0,0:0:0:0:
256,192,59867,1,8,0:0:0:0:
256,192,60210,1,8,0:0:0:0:
256,192,60381,1,0,0:0:0:0:
256,192,60467,1,8,0:0:0:0:
256,192,60552,1,0,0:0:0:0:
256,192,60895,1,0,0:0:0:0:
256,192,61067,1,0,0:0:0:0:
256,192,61238,1,8,0:0:0:0:
256,192,61581,1,0,0:0:0:0:
256,192,61752,1,8,0:0:0:0:
256,192,61838,1,8,0:0:0:0:
256,192,61924,1,0,0:0:0:0:
256,192,62267,1,8,0:0:0:0:
256,192,62438,1,0,0:0:0:0:
256,192,62610,1,8,0:0:0:0:
256,192,62952,1,8,0:0:0:0:
256,192,63124,1,0,0:0:0:0:
256,192,63210,1,0,0:0:0:0:
256,192,63295,1,8,0:0:0:0:
256,192,63638,1,8,0:0:0:0:
256,192,63810,1,0,0:0:0:0:
256,192,63981,1,8,0:0:0:0:
256,192,64067,1,8,0:0:0:0:
256,192,64152,1,0,0:0:0:0:
256,192,64324,1,8,0:0:0:0:
256,192,64495,1,8,0:0:0:0:
256,192,64581,1,0,0:0:0:0:
256,192,64667,1,8,0:0:0:0:
256,192,65010,1,0,0:0:0:0:
256,192,65181,1,8,0:0:0:0:
256,192,65267,1,8,0:0:0:0:
256,192,65352,1,0,0:0:0:0:
256,192,65524,1,0,0:0:0:0:
256,192,65695,1,8,0:0:0:0:
256,192,65867,1,0,0:0:0:0:
256,192,66038,1,12,0:0:0:0:
256,192,67410,1,8,0:0:0:0:
256,192,68438,1,0,0:0:0:0:
256,192,68781,1,8,0:0:0:0:
256,192,69810,1,0,0:0:0:0:
256,192,69981,1,0,0:0:0:0:
256,192,70152,1,0,0:0:0:0:
256,192,71181,1,8,0:0:0:0:
256,192,71524,1,0,0:0:0:0:
256,192,72038,1,8,0:0:0:0:
256,192,73581,1,8,0:0:0:0:
256,192,73924,1,0,0:0:0:0:
256,192,74267,1,8,0:0:0:0:
256,192,75638,1,8,0:0:0:0:
256,192,76324,1,0,0:0:0:0:
256,192,77010,1,12,0:0:0:0:
256,192,77352,1,0,0:0:0:0:
256,192,77695,1,8,0:0:0:0:
256,192,77867,1,0,0:0:0:0:
256,192,78038,1,0,0:0:0:0:
256,192,78210,1,8,0:0:0:0:
256,192,78381,1,0,0:0:0:0:
256,192,78724,1,8,0:0:0:0:
256,192,79067,1,8,0:0:0:0:
256,192,79238,1,0,0:0:0:0:
256,192,79410,1,8,0:0:0:0:
256,192,79752,1,8,0:0:0:0:
256,192,80095,1,8,0:0:0:0:
256,192,80438,1,8,0:0:0:0:
256,192,80610,1,0,0:0:0:0:
256,192,80695,1,8,0:0:0:0:
256,192,80952,1,0,0:0:0:0:
256,192,81124,1,12,0:0:0:0:
256,192,81295,1,0,0:0:0:0:
256,192,81467,1,0,0:0:0:0:
256,192,81638,1,12,0:0:0:0:
256,192,81981,1,0,0:0:0:0:
256,192,82067,1,0,0:0:0:0:
256,192,82152,1,12,0:0:0:0:
256,192,82324,1,8,0:0:0:0:
256,192,82667,1,0,0:0:0:0:
256,192,82838,1,12,0:0:0:0:
256,192,83181,1,0,0:0:0:0:
256,192,83352,1,8,0:0:0:0:
256,192,83438,1,0,0:0:0:0:
256,192,83524,1,8,0:0:0:0:
256,192,83695,1,8,0:0:0:0:
256,192,83867,1,0,0:0:0:0:
256,192,84210,1,0,0:0:0:0:
256,192,84381,1,0,0:0:0:0:
256,192,84467,1,0,0:0:0:0:
256,192,84552,1,8,0:0:0:0:
256,192,84724,1,0,0:0:0:0:
256,192,84895,1,8,0:0:0:0:
256,192,85238,1,12,0:0:0:0:
256,192,85410,1,0,0:0:0:0:
256,192,85581,1,8,0:0:0:0:
256,192,85752,1,0,0:0:0:0:
256,192,85924,1,8,0:0:0:0:
256,192,86095,1,8,0:0:0:0:
256,192,86267,1,0,0:0:0:0:
256,192,86438,1,0,0:0:0:0:
256,192,86524,1,0,0:0:0:0:
256,192,86610,1,12,0:0:0:0:
256,192,86781,1,0,0:0:0:0:
256,192,86952,1,8,0:0:0:0:
256,192,87124,1,0,0:0:0:0:
256,192,87295,1,8,0:0:0:0:
256,192,87467,1,8,0:0:0:0:
256,192,87638,1,0,0:0:0:0:
256,192,87810,1,0,0:0:0:0:
256,192,87895,1,0,0:0:0:0:
256,192,87981,1,8,0:0:0:0:
256,192,88067,1,0,0:0:0:0:
256,192,88152,1,8,0:0:0:0:
256,192,88238,1,8,0:0:0:0:
256,192,88324,1,0,0:0:0:0:
256,192,88410,1,0,0:0:0:0:
256,192,88495,1,8,0:0:0:0:
256,192,88581,1,8,0:0:0:0:
256,192,88667,1,0,0:0:0:0:
256,192,88752,1,8,0:0:0:0:
256,192,88838,1,0,0:0:0:0:
256,192,88924,1,0,0:0:0:0:
256,192,89010,1,8,0:0:0:0:
256,192,89095,1,8,0:0:0:0:
256,192,89181,1,0,0:0:0:0:
256,192,89267,1,8,0:0:0:0:
256,192,89352,1,4,0:0:0:0:
256,192,89524,1,4,0:0:0:0:
256,192,90381,1,8,0:0:0:0:
256,192,90724,1,12,0:0:0:0:
256,192,91067,1,8,0:0:0:0:
256,192,91238,1,0,0:0:0:0:
256,192,91324,1,0,0:0:0:0:
256,192,91410,1,8,0:0:0:0:
256,192,91581,1,8,0:0:0:0:
256,192,91752,1,0,0:0:0:0:
256,192,91838,1,0,0:0:0:0:
256,192,91924,1,8,0:0:0:0:
256,192,92010,1,8,0:0:0:0:
256,192,92095,1,0,0:0:0:0:
256,192,92267,1,8,0:0:0:0:
256,192,92438,1,0,0:0:0:0:
256,192,92524,1,0,0:0:0:0:
256,192,92610,1,8,0:0:0:0:
256,192,92695,1,8,0:0:0:0:
256,192,92781,1,8,0:0:0:0:
256,192,92867,1,0,0:0:0:0:
256,192,92952,1,8,0:0:0:0:
256,192,93124,1,8,0:0:0:0:
256,192,93210,1,8,0:0:0:0:
256,192,93295,1,0,0:0:0:0:
256,192,93381,1,8,0:0:0:0:
256,192,93467,1,0,0:0:0:0:
256,192,93638,1,0,0:0:0:0:
256,192,93810,1,8,0:0:0:0:
256,192,93895,1,0,0:0:0:0:
256,192,93981,1,8,0:0:0:0:
256,192,94067,1,8,0:0:0:0:
256,192,94152,1,0,0:0:0:0:
256,192,94324,1,0,0:0:0:0:
256,192,94495,1,8,0:0:0:0:
256,192,94581,1,8,0:0:0:0:
256,192,94667,1,0,0:0:0:0:
256,192,94752,1,0,0:0:0:0:
256,192,94838,1,12,0:0:0:0:
256,192,95181,1,0,0:0:0:0:
256,192,95352,1,12,0:0:0:0:
256,192,95695,1,0,0:0:0:0:
256,192,95867,1,12,0:0:0:0:
256,192,96038,1,0,0:0:0:0:
256,192,96210,1,12,0:0:0:0:
256,192,96381,1,0,0:0:0:0:
256,192,96552,1,0,0:0:0:0:
256,192,96638,1,0,0:0:0:0:
256,192,96724,1,8,0:0:0:0:
256,192,96895,1,0,0:0:0:0:
256,192,97067,1,8,0:0:0:0:
256,192,97152,1,8,0:0:0:0:
256,192,97238,1,0,0:0:0:0:
256,192,97324,1,8,0:0:0:0:
256,192,97410,1,0,0:0:0:0:
256,192,97495,1,0,0:0:0:0:
256,192,97581,1,8,0:0:0:0:
256,192,97752,1,0,0:0:0:0:
256,192,97838,1,8,0:0:0:0:
256,192,97924,1,0,0:0:0:0:
256,192,98095,1,0,0:0:0:0:
256,192,98267,1,8,0:0:0:0:
256,192,98352,1,0,0:0:0:0:
256,192,98438,1,8,0:0:0:0:
256,192,98524,1,8,0:0:0:0:
256,192,98610,1,0,0:0:0:0:
256,192,98695,1,0,0:0:0:0:
256,192,98781,1,8,0:0:0:0:
256,192,98867,1,0,0:0:0:0:
256,192,98952,1,12,0:0:0:0:
256,192,99295,1,0,0:0:0:0:
256,192,99467,1,12,0:0:0:0:
256,192,99810,1,0,0:0:0:0:
256,192,99981,1,12,0:0:0:0:
256,192,100152,1,12,0:0:0:0:
256,192,100495,1,0,0:0:0:0:
256,192,100667,1,12,0:0:0:0:
256,192,101010,1,12,0:0:0:0:
256,192,101267,1,12,0:0:0:0:
256,192,101524,1,12,0:0:0:0:
256,192,101695,1,12,0:0:0:0:
256,192,102038,1,0,0:0:0:0:
256,192,102210,1,8,0:0:0:0:
256,192,102295,1,0,0:0:0:0:
256,192,102381,1,8,0:0:0:0:
256,192,102552,1,8,0:0:0:0:
256,192,102638,1,8,0:0:0:0:
256,192,102724,1,0,0:0:0:0:
256,192,102810,1,8,0:0:0:0:
256,192,102895,1,0,0:0:0:0:
256,192,102981,1,0,0:0:0:0:
256,192,103067,1,8,0:0:0:0:
256,192,103238,1,0,0:0:0:0:
256,192,103410,1,0,0:0:0:0:
256,192,103495,1,8,0:0:0:0:
256,192,103581,1,8,0:0:0:0:
256,192,103667,1,0,0:0:0:0:
256,192,103752,1,0,0:0:0:0:
256,192,103838,1,0,0:0:0:0:
256,192,103924,1,8,0:0:0:0:
256,192,104095,1,8,0:0:0:0:
256,192,104181,1,8,0:0:0:0:
256,192,104267,1,0,0:0:0:0:
256,192,104352,1,0,0:0:0:0:
256,192,104438,1,12,0:0:0:0:
256,192,104781,1,0,0:0:0:0:
256,192,104867,1,8,0:0:0:0:
256,192,104952,1,0,0:0:0:0:
256,192,105124,1,12,0:0:0:0:
256,192,105295,1,0,0:0:0:0:
256,192,105381,1,0,0:0:0:0:
256,192,105638,1,12,0:0:0:0:
256,192,105981,1,0,0:0:0:0:
256,192,106152,1,12,0:0:0:0:
256,192,106324,1,0,0:0:0:0:
256,192,106495,1,12,0:0:0:0:
256,192,106752,1,12,0:0:0:0:
256,192,107010,1,12,0:0:0:0:
256,192,107181,1,12,0:0:0:0:
256,192,107352,1,0,0:0:0:0:
256,192,107438,1,0,0:0:0:0:
256,192,107524,1,8,0:0:0:0:
256,192,107695,1,0,0:0:0:0:
256,192,107781,1,8,0:0:0:0:
256,192,107867,1,8,0:0:0:0:
256,192,107952,1,8,0:0:0:0:
256,192,108038,1,0,0:0:0:0:
256,192,108124,1,0,0:0:0:0:
256,192,108210,1,8,0:0:0:0:
256,192,108381,1,8,0:0:0:0:
256,192,108467,1,0,0:0:0:0:
256,192,108552,1,8,0:0:0:0:
256,192,108724,1,0,0:0:0:0:
256,192,108810,1,0,0:0:0:0:
256,192,108895,1,8,0:0:0:0:
256,192,108981,1,0,0:0:0:0:
256,192,109067,1,8,0:0:0:0:
256,192,109238,1,0,0:0:0:0:
256,192,109324,1,0,0:0:0:0:
256,192,109410,1,8,0:0:0:0:
256,192,109495,1,0,0:0:0:0:
256,192,109581,1,8,0:0:0:0:
256,192,109667,1,8,0:0:0:0:
256,192,109752,1,0,0:0:0:0:
256,192,109838,1,0,0:0:0:0:
256,192,109924,1,12,0:0:0:0:
256,192,110267,1,0,0:0:0:0:
256,192,110438,1,12,0:0:0:0:
256,192,110781,1,12,0:0:0:0:
256,192,111124,1,12,0:0:0:0:
256,192,111467,1,0,0:0:0:0:
256,192,111638,1,12,0:0:0:0:
256,192,111981,1,12,0:0:0:0:
256,192,112238,1,12,0:0:0:0:
256,192,112495,1,12,0:0:0:0:
256,192,112667,1,12,0:0:0:0:
256,192,113010,1,8,0:0:0:0:
256,192,113181,1,0,0:0:0:0:
256,192,113267,1,0,0:0:0:0:
256,192,113352,1,8,0:0:0:0:
256,192,113524,1,0,0:0:0:0:
256,192,113695,1,0,0:0:0:0:
256,192,113781,1,8,0:0:0:0:
256,192,113867,1,8,0:0:0:0:
256,192,113952,1,0,0:0:0:0:
256,192,114038,1,8,0:0:0:0:
256,192,114210,1,0,0:0:0:0:
256,192,114295,1,8,0:0:0:0:
256,192,114381,1,0,0:0:0:0:
256,192,114552,1,8,0:0:0:0:
256,192,114638,1,8,0:0:0:0:
256,192,114724,1,0,0:0:0:0:
256,192,114810,1,0,0:0:0:0:
256,192,114895,1,8,0:0:0:0:
256,192,115067,1,0,0:0:0:0:
256,192,115152,1,8,0:0:0:0:
256,192,115238,1,0,0:0:0:0:
256,192,115324,1,0,0:0:0:0:
256,192,115410,1,8,0:0:0:0:
256,192,115581,1,0,0:0:0:0:
256,192,115752,1,8,0:0:0:0:
256,192,115838,1,0,0:0:0:0:
256,192,115924,1,8,0:0:0:0:
256,192,116010,1,8,0:0:0:0:
256,192,116095,1,0,0:0:0:0:
256,192,116181,1,0,0:0:0:0:
256,192,116267,1,8,0:0:0:0:
256,192,116438,1,0,0:0:0:0:
256,192,116524,1,8,0:0:0:0:
256,192,116610,1,0,0:0:0:0:
256,192,116695,1,0,0:0:0:0:
256,192,116781,1,12,0:0:0:0:
256,192,117124,1,0,0:0:0:0:
256,192,117295,1,12,0:0:0:0:
256,192,117638,1,0,0:0:0:0:
256,192,117810,1,12,0:0:0:0:
256,192,117981,1,0,0:0:0:0:
256,192,118152,1,12,0:0:0:0:
256,192,118324,1,0,0:0:0:0:
256,192,118495,1,0,0:0:0:0:
256,192,118581,1,0,0:0:0:0:
256,192,118667,1,8,0:0:0:0:
256,192,118838,1,0,0:0:0:0:
256,192,119010,1,8,0:0:0:0:
256,192,119095,1,8,0:0:0:0:
256,192,119181,1,0,0:0:0:0:
256,192,119267,1,8,0:0:0:0:
256,192,119352,1,0,0:0:0:0:
256,192,119438,1,0,0:0:0:0:
256,192,119524,1,8,0:0:0:0:
256,192,119695,1,0,0:0:0:0:
256,192,119781,1,8,0:0:0:0:
256,192,119867,1,0,0:0:0:0:
256,192,120038,1,0,0:0:0:0:
256,192,120210,1,8,0:0:0:0:
256,192,120295,1,8,0:0:0:0:
256,192,120381,1,0,0:0:0:0:
256,192,120467,1,0,0:0:0:0:
256,192,120552,1,8,0:0:0:0:
256,192,120638,1,0,0:0:0:0:
256,192,120724,1,0,0:0:0:0:
256,192,120810,1,0,0:0:0:0:
256,192,120895,1,12,0:0:0:0:
256,192,121238,1,0,0:0:0:0:
256,192,121410,1,12,0:0:0:0:
256,192,121752,1,0,0:0:0:0:
256,192,121924,1,12,0:0:0:0:
256,192,122095,1,12,0:0:0:0:
256,192,122438,1,0,0:0:0:0:
256,192,122610,1,12,0:0:0:0:
256,192,122952,1,12,0:0:0:0:
256,192,123210,1,12,0:0:0:0:
256,192,123467,1,12,0:0:0:0:
256,192,123638,1,12,0:0:0:0:
256,192,123981,1,0,0:0:0:0:
256,192,124152,1,8,0:0:0:0:
256,192,124238,1,0,0:0:0:0:
256,192,124324,1,8,0:0:0:0:
256,192,124495,1,8,0:0:0:0:
256,192,124581,1,0,0:0:0:0:
256,192,124667,1,8,0:0:0:0:
256,192,124752,1,8,0:0:0:0:
256,192,124838,1,0,0:0:0:0:
256,192,124924,1,0,0:0:0:0:
256,192,125010,1,8,0:0:0:0:
256,192,125181,1,0,0:0:0:0:
256,192,125352,1,0,0:0:0:0:
256,192,125438,1,0,0:0:0:0:
256,192,125524,1,8,0:0:0:0:
256,192,125610,1,0,0:0:0:0:
256,192,125695,1,8,0:0:0:0:
256,192,125781,1,8,0:0:0:0:
256,192,125867,1,0,0:0:0:0:
256,192,126038,1,8,0:0:0:0:
256,192,126124,1,8,0:0:0:0:
256,192,126210,1,0,0:0:0:0:
256,192,126295,1,0,0:0:0:0:
256,192,126381,1,8,0:0:0:0:
256,192,126552,1,0,0:0:0:0:
256,192,126724,1,8,0:0:0:0:
256,192,126895,1,0,0:0:0:0:
256,192,126981,1,8,0:0:0:0:
256,192,127067,1,0,0:0:0:0:
256,192,127238,1,8,0:0:0:0:
256,192,127410,1,0,0:0:0:0:
256,192,127495,1,0,0:0:0:0:
256,192,127581,1,8,0:0:0:0:
256,192,127667,1,0,0:0:0:0:
256,192,127752,1,8,0:0:0:0:
256,192,127838,1,8,0:0:0:0:
256,192,127924,1,0,0:0:0:0:
256,192,128010,1,0,0:0:0:0:
256,192,128095,1,8,0:0:0:0:
256,192,128267,1,0,0:0:0:0:
256,192,128352,1,0,0:0:0:0:
256,192,128438,1,8,0:0:0:0:
256,192,128610,1,0,0:0:0:0:
256,192,128781,1,8,0:0:0:0:
256,192,128867,1,8,0:0:0:0:
256,192,128952,1,0,0:0:0:0:
256,192,129038,1,0,0:0:0:0:
256,192,129124,1,12,0:0:0:0:
256,192,129295,1,0,0:0:0:0:
256,192,129467,1,8,0:0:0:0:
256,192,129552,1,0,0:0:0:0:
256,192,129638,1,8,0:0:0:0:
256,192,129724,1,8,0:0:0:0:
256,192,129810,1,0,0:0:0:0:
256,192,129895,1,0,0:0:0:0:
256,192,129981,1,8,0:0:0:0:
256,192,130152,1,0,0:0:0:0:
256,192,130238,1,0,0:0:0:0:
256,192,130324,1,8,0:0:0:0:
256,192,130410,1,0,0:0:0:0:
256,192,130495,1,12,0:0:0:0:
256,192,130667,1,0,0:0:0:0:
256,192,130838,1,8,0:0:0:0:
256,192,130924,1,8,0:0:0:0:
256,192,131010,1,0,0:0:0:0:
256,192,131095,1,8,0:0:0:0:
256,192,131181,1,0,0:0:0:0:
256,192,131352,1,8,0:0:0:0:
256,192,131438,1,8,0:0:0:0:
256,192,131524,1,0,0:0:0:0:
256,192,131610,1,8,0:0:0:0:
256,192,131695,1,0,0:0:0:0:
256,192,131781,1,0,0:0:0:0:
256,192,131867,1,12,0:0:0:0:
256,192,132038,1,0,0:0:0:0:
256,192,132210,1,8,0:0:0:0:
256,192,132381,1,0,0:0:0:0:
256,192,132467,1,0,0:0:0:0:
256,192,132552,1,12,0:0:0:0:
256,192,132724,1,0,0:0:0:0:
256,192,132895,1,8,0:0:0:0:
256,192,133067,1,0,0:0:0:0:
256,192,133152,1,0,0:0:0:0:
256,192,133238,1,8,0:0:0:0:
256,192,133324,1,0,0:0:0:0:
256,192,133410,1,8,0:0:0:0:
256,192,133495,1,8,0:0:0:0:
256,192,133581,1,0,0:0:0:0:
256,192,133667,1,0,0:0:0:0:
256,192,133752,1,8,0:0:0:0:
256,192,133838,1,0,0:0:0:0:
256,192,133924,1,8,0:0:0:0:
256,192,134010,1,8,0:0:0:0:
256,192,134095,1,0,0:0:0:0:
256,192,134181,1,0,0:0:0:0:
256,192,134267,1,8,0:0:0:0:
256,192,134352,1,0,0:0:0:0:
256,192,134438,1,0,0:0:0:0:
256,192,134524,1,0,0:0:0:0:
256,192,134610,1,12,0:0:0:0:
256,192,134952,1,8,0:0:0:0:
256,192,135124,1,8,0:0:0:0:
256,192,135295,1,0,0:0:0:0:
256,192,135467,1,0,0:0:0:0:
256,192,135552,1,8,0:0:0:0:
256,192,135724,1,0,0:0:0:0:
256,192,135810,1,8,0:0:0:0:
256,192,135981,1,0,0:0:0:0:
256,192,136152,1,0,0:0:0:0:
256,192,136324,1,8,0:0:0:0:
256,192,136495,1,8,0:0:0:0:
256,192,136667,1,0,0:0:0:0:
256,192,136838,1,8,0:0:0:0:
256,192,136924,1,0,0:0:0:0:
256,192,137095,1,0,0:0:0:0:
256,192,137181,1,8,0:0:0:0:
256,192,137352,1,0,0:0:0:0:
256,192,137695,1,8,0:0:0:0:
256,192,137867,1,8,0:0:0:0:
256,192,138038,1,0,0:0:0:0:
256,192,138210,1,0,0:0:0:0:
256,192,138295,1,8,0:0:0:0:
256,192,138467,1,0,0:0:0:0:
256,192,138552,1,8,0:0:0:0:
256,192,138724,1,8,0:0:0:0:
256,192,138895,1,0,0:0:0:0:
256,192,139067,1,8,0:0:0:0:
256,192,139238,1,0,0:0:0:0:
256,192,139410,1,0,0:0:0:0:
256,192,139581,1,8,0:0:0:0:
256,192,139667,1,0,0:0:0:0:
256,192,139838,1,0,0:0:0:0:
256,192,139924,1,8,0:0:0:0:
256,192,140095,1,12,0:0:0:0:
256,192,140267,1,0,0:0:0:0:
256,192,140438,1,8,0:0:0:0:
256,192,140610,1,0,0:0:0:0:
256,192,140781,1,8,0:0:0:0:
256,192,140952,1,8,0:0:0:0:
256,192,141124,1,0,0:0:0:0:
256,192,141295,1,8,0:0:0:0:
256,192,141467,1,12,0:0:0:0:
256,192,141638,1,0,0:0:0:0:
256,192,141810,1,8,0:0:0:0:
256,192,141981,1,0,0:0:0:0:
256,192,142152,1,8,0:0:0:0:
256,192,142324,1,8,0:0:0:0:
256,192,142495,1,0,0:0:0:0:
256,192,142667,1,0,0:0:0:0:
256,192,142752,1,0,0:0:0:0:
256,192,142838,1,12,0:0:0:0:
256,192,143010,1,0,0:0:0:0:
256,192,143181,1,0,0:0:0:0:
256,192,143352,1,12,0:0:0:0:
256,192,143524,1,0,0:0:0:0:
256,192,143695,1,0,0:0:0:0:
256,192,143867,1,12,0:0:0:0:
256,192,144038,1,0,0:0:0:0:
256,192,144095,1,0,0:0:0:0:
256,192,144152,1,0,0:0:0:0:
256,192,144210,1,8,0:0:0:0:
256,192,144295,1,0,0:0:0:0:
256,192,144381,1,8,0:0:0:0:
256,192,144467,1,8,0:0:0:0:
256,192,144552,1,0,0:0:0:0:
256,192,144638,1,0,0:0:0:0:
256,192,144724,1,8,0:0:0:0:
256,192,144810,1,0,0:0:0:0:
256,192,144895,1,8,0:0:0:0:
256,192,144981,1,8,0:0:0:0:
256,192,145067,1,0,0:0:0:0:
256,192,145152,1,0,0:0:0:0:
256,192,145238,1,8,0:0:0:0:
256,192,145581,1,12,0:0:0:0:
256,192,145924,1,8,0:0:0:0:
256,192,146095,1,0,0:0:0:0:
256,192,146181,1,0,0:0:0:0:
256,192,146267,1,8,0:0:0:0:
256,192,146438,1,0,0:0:0:0:
256,192,146610,1,0,0:0:0:0:
256,192,146695,1,0,0:0:0:0:
256,192,146781,1,8,0:0:0:0:
256,192,146867,1,8,0:0:0:0:
256,192,146952,1,0,0:0:0:0:
256,192,147124,1,8,0:0:0:0:
256,192,147295,1,8,0:0:0:0:
256,192,147381,1,8,0:0:0:0:
256,192,147467,1,0,0:0:0:0:
256,192,147552,1,8,0:0:0:0:
256,192,147638,1,0,0:0:0:0:
256,192,147724,1,0,0:0:0:0:
256,192,147810,1,8,0:0:0:0:
256,192,147981,1,0,0:0:0:0:
256,192,148067,1,0,0:0:0:0:
256,192,148152,1,8,0:0:0:0:
256,192,148238,1,8,0:0:0:0:
256,192,148324,1,0,0:0:0:0:
256,192,148495,1,8,0:0:0:0:
256,192,148667,1,0,0:0:0:0:
256,192,148752,1,0,0:0:0:0:
256,192,148838,1,8,0:0:0:0:
256,192,148924,1,0,0:0:0:0:
256,192,149010,1,8,0:0:0:0:
256,192,149095,1,8,0:0:0:0:
256,192,149181,1,0,0:0:0:0:
256,192,149352,1,8,0:0:0:0:
256,192,149438,1,8,0:0:0:0:
256,192,149524,1,0,0:0:0:0:
256,192,149610,1,0,0:0:0:0:
256,192,149695,1,8,0:0:0:0:
256,192,149867,1,8,0:0:0:0:
256,192,150038,1,0,0:0:0:0:
256,192,150124,1,8,0:0:0:0:
256,192,150210,1,0,0:0:0:0:
256,192,150295,1,0,0:0:0:0:
256,192,150381,1,8,0:0:0:0:
256,192,150552,1,8,0:0:0:0:
256,192,150724,1,0,0:0:0:0:
256,192,150810,1,8,0:0:0:0:
256,192,150895,1,8,0:0:0:0:
256,192,150981,1,0,0:0:0:0:
256,192,151067,1,8,0:0:0:0:
256,192,151238,1,0,0:0:0:0:
256,192,151410,1,0,0:0:0:0:
256,192,151495,1,0,0:0:0:0:
256,192,151581,1,8,0:0:0:0:
256,192,151752,1,0,0:0:0:0:
256,192,151924,1,8,0:0:0:0:
256,192,152095,1,0,0:0:0:0:
256,192,152181,1,0,0:0:0:0:
256,192,152267,1,8,0:0:0:0:
256,192,152352,1,0,0:0:0:0:
256,192,152438,1,8,0:0:0:0:
256,192,152524,1,8,0:0:0:0:
256,192,152610,1,0,0:0:0:0:
256,192,152781,1,8,0:0:0:0:
256,192,152867,1,8,0:0:0:0:
256,192,152952,1,0,0:0:0:0:
256,192,153038,1,0,0:0:0:0:
256,192,153124,1,8,0:0:0:0:
256,192,153295,1,8,0:0:0:0:
256,192,153467,1,0,0:0:0:0:
256,192,153552,1,0,0:0:0:0:
256,192,153638,1,8,0:0:0:0:
256,192,153724,1,8,0:0:0:0:
256,192,153810,1,0,0:0:0:0:
256,192,153981,1,8,0:0:0:0:
256,192,154152,1,0,0:0:0:0:
256,192,154238,1,0,0:0:0:0:
256,192,154324,1,8,0:0:0:0:
256,192,154495,1,8,0:0:0:0:
256,192,154667,1,0,0:0:0:0:
256,192,154752,1,0,0:0:0:0:
256,192,154838,1,8,0:0:0:0:
256,192,154924,1,0,0:0:0:0:
256,192,155010,1,8,0:0:0:0:
256,192,155181,1,8,0:0:0:0:
256,192,155352,1,0,0:0:0:0:
256,192,155438,1,0,0:0:0:0:
256,192,155524,1,8,0:0:0:0:
256,192,155695,1,0,0:0:0:0:
256,192,155781,1,8,0:0:0:0:
256,192,155867,1,0,0:0:0:0:
256,192,156038,1,8,0:0:0:0:
256,192,156124,1,8,0:0:0:0:
256,192,156210,1,0,0:0:0:0:
256,192,156295,1,0,0:0:0:0:
256,192,156381,1,8,0:0:0:0:
256,192,156552,1,12,0:0:0:0:
256,192,156895,1,0,0:0:0:0:
256,192,157067,1,8,0:0:0:0:
256,192,157152,1,8,0:0:0:0:
256,192,157238,1,0,0:0:0:0:
256,192,157410,1,0,0:0:0:0:
256,192,157495,1,8,0:0:0:0:
256,192,157581,1,0,0:0:0:0:
256,192,157667,1,0,0:0:0:0:
256,192,157752,1,8,0:0:0:0:
256,192,157838,1,0,0:0:0:0:
256,192,157924,1,8,0:0:0:0:
256,192,158095,1,8,0:0:0:0:
256,192,158267,1,0,0:0:0:0:
256,192,158352,1,8,0:0:0:0:
256,192,158438,1,0,0:0:0:0:
256,192,158524,1,0,0:0:0:0:
256,192,158610,1,8,0:0:0:0:
256,192,158781,1,0,0:0:0:0:
256,192,158952,1,0,0:0:0:0:
256,192,159038,1,8,0:0:0:0:
256,192,159124,1,8,0:0:0:0:
256,192,159210,1,0,0:0:0:0:
256,192,159295,1,8,0:0:0:0:
256,192,159467,1,0,0:0:0:0:
256,192,159552,1,0,0:0:0:0:
256,192,159638,1,8,0:0:0:0:
256,192,159810,1,0,0:0:0:0:
256,192,159981,1,8,0:0:0:0:
256,192,160067,1,8,0:0:0:0:
256,192,160152,1,0,0:0:0:0:
256,192,160238,1,0,0:0:0:0:
256,192,160324,1,8,0:0:0:0:
256,192,160410,1,0,0:0:0:0:
256,192,160495,1,8,0:0:0:0:
256,192,160667,1,8,0:0:0:0:
256,192,160838,1,0,0:0:0:0:
256,192,160924,1,0,0:0:0:0:
256,192,161010,1,8,0:0:0:0:
256,192,161095,1,8,0:0:0:0:
256,192,161181,1,0,0:0:0:0:
256,192,161352,1,8,0:0:0:0:
256,192,161438,1,8,0:0:0:0:
256,192,161524,1,0,0:0:0:0:
256,192,161610,1,8,0:0:0:0:
256,192,161695,1,0,0:0:0:0:
256,192,161781,1,0,0:0:0:0:
256,192,161867,1,8,0:0:0:0:
256,192,161952,1,0,0:0:0:0:
256,192,162038,1,12,0:0:0:0:
256,192,162210,1,0,0:0:0:0:
256,192,162381,1,0,0:0:0:0:
256,192,162467,1,0,0:0:0:0:
256,192,162552,1,8,0:0:0:0:
256,192,162638,1,8,0:0:0:0:
256,192,162724,1,0,0:0:0:0:
256,192,162895,1,8,0:0:0:0:
256,192,163067,1,0,0:0:0:0:
256,192,163152,1,0,0:0:0:0:
256,192,163238,1,8,0:0:0:0:
256,192,163324,1,0,0:0:0:0:
256,192,163410,1,12,0:0:0:0:
256,192,163581,1,0,0:0:0:0:
256,192,163752,1,8,0:0:0:0:
256,192,163838,1,8,0:0:0:0:
256,192,163924,1,0,0:0:0:0:
256,192,164010,1,0,0:0:0:0:
256,192,164095,1,8,0:0:0:0:
256,192,164267,1,0,0:0:0:0:
256,192,164352,1,8,0:0:0:0:
256,192,164438,1,0,0:0:0:0:
256,192,164524,1,0,0:0:0:0:
256,192,164610,1,8,0:0:0:0:
256,192,164781,1,12,0:0:0:0:
256,192,164952,1,0,0:0:0:0:
256,192,165124,1,8,0:0:0:0:
256,192,165210,1,8,0:0:0:0:
256,192,165295,1,0,0:0:0:0:
256,192,165467,1,12,0:0:0:0:
256,192,165638,1,0,0:0:0:0:
256,192,165810,1,0,0:0:0:0:
256,192,165981,1,8,0:0:0:0:
256,192,166067,1,0,0:0:0:0:
256,192,166152,1,8,0:0:0:0:
256,192,166238,1,8,0:0:0:0:
256,192,166324,1,0,0:0:0:0:
256,192,166410,1,8,0:0:0:0:
256,192,166495,1,0,0:0:0:0:
256,192,166581,1,0,0:0:0:0:
256,192,166667,1,8,0:0:0:0:
256,192,166752,1,8,0:0:0:0:
256,192,166838,1,0,0:0:0:0:
256,192,166924,1,8,0:0:0:0:
256,192,167010,1,0,0:0:0:0:
256,192,167095,1,0,0:0:0:0:
256,192,167181,1,8,0:0:0:0:
256,192,167267,1,0,0:0:0:0:
256,192,167352,1,0,0:0:0:0:
256,192,167438,1,0,0:0:0:0:
256,192,167524,1,12,0:0:0:0:
256,192,168210,1,0,0:0:0:0:
256,192,168895,1,8,0:0:0:0:
256,192,169581,1,8,0:0:0:0:
256,192,170267,1,0,0:0:0:0:
256,192,170781,1,0,0:0:0:0:
256,192,171295,1,0,0:0:0:0:
256,192,171638,1,8,0:0:0:0:
256,192,172324,1,8,0:0:0:0:
256,192,172667,1,8,0:0:0:0:
256,192,173010,1,0,0:0:0:0:
256,192,174038,1,0,0:0:0:0:
256,192,174210,1,8,0:0:0:0:
256,192,174381,1,8,0:0:0:0:
256,192,175067,1,0,0:0:0:0:
256,192,175752,1,8,0:0:0:0:
256,192,177124,1,8,0:0:0:0:
256,192,177810,1,8,0:0:0:0:
256,192,178495,1,12,0:0:0:0:
256,192,178838,1,0,0:0:0:0:
256,192,179010,1,8,0:0:0:0:
256,192,179095,1,8,0:0:0:0:
256,192,179181,1,0,0:0:0:0:
256,192,179352,1,8,0:0:0:0:
256,192,179524,1,0,0:0:0:0:
256,192,179695,1,0,0:0:0:0:
256,192,179867,1,8,0:0:0:0:
256,192,180210,1,0,0:0:0:0:
256,192,180381,1,8,0:0:0:0:
256,192,180467,1,0,0:0:0:0:
256,192,180552,1,8,0:0:0:0:
256,192,180724,1,0,0:0:0:0:
256,192,180895,1,8,0:0:0:0:
256,192,181238,1,0,0:0:0:0:
256,192,181581,1,0,0:0:0:0:
256,192,181752,1,8,0:0:0:0:
256,192,181838,1,0,0:0:0:0:
256,192,181924,1,8,0:0:0:0:
256,192,182095,1,0,0:0:0:0:
256,192,182267,1,8,0:0:0:0:
256,192,182352,1,8,0:0:0:0:
256,192,182438,1,0,0:0:0:0:
256,192,182610,1,8,0:0:0:0:
256,192,182952,1,0,0:0:0:0:
256,192,183124,1,8,0:0:0:0:
256,192,183210,1,8,0:0:0:0:
256,192,183295,1,0,0:0:0:0:
256,192,183467,1,0,0:0:0:0:
256,192,183638,1,8,0:0:0:0:
256,192,183810,1,0,0:0:0:0:
256,192,183895,1,0,0:0:0:0:
256,192,183981,1,12,0:0:0:0:
256,192,184324,1,0,0:0:0:0:
256,192,184495,1,12,0:0:0:0:
256,192,184838,1,0,0:0:0:0:
256,192,185010,1,12,0:0:0:0:
256,192,185352,1,0,0:0:0:0:
256,192,185524,1,12,0:0:0:0:
256,192,185867,1,0,0:0:0:0:
256,192,186038,1,12,0:0:0:0:
256,192,186210,1,0,0:0:0:0:
256,192,186381,1,0,0:0:0:0:
256,192,186552,1,12,0:0:0:0:
256,192,186895,1,0,0:0:0:0:
256,192,187067,1,8,0:0:0:0:
256,192,187238,1,0,0:0:0:0:
256,192,187410,1,8,0:0:0:0:
256,192,187581,1,8,0:0:0:0:
256,192,187752,1,0,0:0:0:0:
256,192,187924,1,8,0:0:0:0:
256,192,188095,1,0,0:0:0:0:
256,192,188181,1,0,0:0:0:0:
256,192,188267,1,8,0:0:0:0:
256,192,188352,1,8,0:0:0:0:
256,192,188438,1,0,0:0:0:0:
256,192,188524,1,8,0:0:0:0:
256,192,188610,1,0,0:0:0:0:
256,192,188695,1,0,0:0:0:0:
256,192,188781,1,8,0:0:0:0:
256,192,188867,1,8,0:0:0:0:
256,192,188952,1,0,0:0:0:0:
256,192,189038,1,8,0:0:0:0:
256,192,189124,1,0,0:0:0:0:
256,192,189210,1,0,0:0:0:0:
256,192,189295,1,8,0:0:0:0:
256,192,189381,1,0,0:0:0:0:
256,192,189467,1,12,0:0:0:0:
256,192,190838,1,0,0:0:0:0:
256,192,192210,1,8,0:0:0:0:
256,192,193581,1,0,0:0:0:0:
256,192,194952,1,12,0:0:0:0:
256,192,195124,1,0,0:0:0:0:
256,192,195295,1,8,0:0:0:0:
256,192,195467,1,0,0:0:0:0:
256,192,195638,1,8,0:0:0:0:
256,192,195810,1,8,0:0:0:0:
256,192,195981,1,0,0:0:0:0:
256,192,196152,1,8,0:0:0:0:
256,192,196324,1,12,0:0:0:0:
256,192,196495,1,0,0:0:0:0:
256,192,196667,1,8,0:0:0:0:
256,192,196838,1,0,0:0:0:0:
256,192,197010,1,8,0:0:0:0:
256,192,197181,1,8,0:0:0:0:
256,192,197352,1,0,0:0:0:0:
256,192,197524,1,0,0:0:0:0:
256,192,197610,1,0,0:0:0:0:
256,192,197695,1,12,0:0:0:0:
256,192,197867,1,0,0:0:0:0:
256,192,198038,1,0,0:0:0:0:
256,192,198210,1,12,0:0:0:0:
256,192,198381,1,0,0:0:0:0:
256,192,198552,1,0,0:0:0:0:
256,192,198724,1,12,0:0:0:0:
256,192,198895,1,0,0:0:0:0:
256,192,198952,1,0,0:0:0:0:
256,192,199010,1,0,0:0:0:0:
256,192,199067,1,8,0:0:0:0:
256,192,199152,1,0,0:0:0:0:
256,192,199238,1,8,0:0:0:0:
256,192,199324,1,8,0:0:0:0:
256,192,199410,1,0,0:0:0:0:
256,192,199495,1,0,0:0:0:0:
256,192,199581,1,8,0:0:0:0:
256,192,199667,1,0,0:0:0:0:
256,192,199752,1,8,0:0:0:0:
256,192,199838,1,8,0:0:0:0:
256,192,199924,1,0,0:0:0:0:
256,192,200010,1,0,0:0:0:0:
256,192,200095,1,8,0:0:0:0:
256,192,200181,1,0,0:0:0:0:
256,192,200267,1,0,0:0:0:0:
256,192,200352,1,0,0:0:0:0:
256,192,200438,1,12,0:0:0:0:
256,192,202324,1,0,0:0:0:0:
256,192,202410,1,0,0:0:0:0:
256,192,202495,1,8,0:0:0:0:
256,192,202667,1,0,0:0:0:0:
256,192,202838,1,8,0:0:0:0:
256,192,202924,1,8,0:0:0:0:
256,192,203010,1,0,0:0:0:0:
256,192,203095,1,0,0:0:0:0:
256,192,203181,1,12,0:0:0:0:
256,192,203524,1,8,0:0:0:0:
256,192,203695,1,0,0:0:0:0:
256,192,203781,1,8,0:0:0:0:
256,192,203952,1,8,0:0:0:0:
256,192,204038,1,0,0:0:0:0:
256,192,204210,1,8,0:0:0:0:
256,192,204381,1,0,0:0:0:0:
256,192,204552,1,8,0:0:0:0:
256,192,204895,1,8,0:0:0:0:
256,192,205067,1,0,0:0:0:0:
256,192,205152,1,8,0:0:0:0:
256,192,205324,1,8,0:0:0:0:
256,192,205410,1,0,0:0:0:0:
256,192,205581,1,8,0:0:0:0:
256,192,205667,1,8,0:0:0:0:
256,192,205752,1,0,0:0:0:0:
256,192,205924,1,8,0:0:0:0:
256,192,206267,1,0,0:0:0:0:
256,192,206438,1,8,0:0:0:0:
256,192,206524,1,0,0:0:0:0:
256,192,206610,1,8,0:0:0:0:
256,192,206781,1,0,0:0:0:0:
256,192,206952,1,8,0:0:0:0:
256,192,207124,1,0,0:0:0:0:
256,192,207210,1,0,0:0:0:0:
256,192,207295,1,8,0:0:0:0:
256,192,207638,1,8,0:0:0:0:
256,192,207810,1,8,0:0:0:0:
256,192,207895,1,0,0:0:0:0:
256,192,207981,1,8,0:0:0:0:
256,192,208152,1,0,0:0:0:0:
256,192,208324,1,8,0:0:0:0:
256,192,208410,1,8,0:0:0:0:
256,192,208495,1,0,0:0:0:0:
256,192,208667,1,12,0:0:0:0:
256,192,209010,1,0,0:0:0:0:
256,192,209181,1,8,0:0:0:0:
256,192,209267,1,0,0:0:0:0:
256,192,209438,1,0,0:0:0:0:
256,192,209524,1,8,0:0:0:0:
256,192,209695,1,8,0:0:0:0:
256,192,209867,1,0,0:0:0:0:
256,192,210038,1,8,0:0:0:0:
256,192,210381,1,0,0:0:0:0:
256,192,210552,1,8,0:0:0:0:
256,192,210638,1,0,0:0:0:0:
256,192,210810,1,0,0:0:0:0:
256,192,210895,1,8,0:0:0:0:
256,192,211067,1,8,0:0:0:0:
256,192,211238,1,0,0:0:0:0:
256,192,211410,1,12,0:0:0:0:
256,192,211752,1,12,0:0:0:0:
256,192,211924,1,12,0:0:0:0:
256,192,212267,1,0,0:0:0:0:
256,192,212438,1,12,0:0:0:0:
256,192,212610,1,12,0:0:0:0:
256,192,212952,1,0,0:0:0:0:
256,192,213124,1,12,0:0:0:0:
256,192,213467,1,12,0:0:0:0:
256,192,213724,1,12,0:0:0:0:
256,192,213981,1,0,0:0:0:0:
256,192,214152,1,12,0:0:0:0:
256,192,214495,1,0,0:0:0:0:
256,192,214667,1,8,0:0:0:0:
256,192,214752,1,0,0:0:0:0:
256,192,214924,1,0,0:0:0:0:
256,192,215010,1,8,0:0:0:0:
256,192,215181,1,0,0:0:0:0:
256,192,215267,1,8,0:0:0:0:
256,192,215352,1,8,0:0:0:0:
256,192,215438,1,0,0:0:0:0:
256,192,215524,1,8,0:0:0:0:
256,192,215867,1,0,0:0:0:0:
256,192,216038,1,8,0:0:0:0:
256,192,216124,1,8,0:0:0:0:
256,192,216210,1,0,0:0:0:0:
256,192,216381,1,8,0:0:0:0:
256,192,216552,1,0,0:0:0:0:
256,192,216638,1,0,0:0:0:0:
256,192,216724,1,8,0:0:0:0:
256,192,216810,1,0,0:0:0:0:
256,192,216895,1,12,0:0:0:0:
256,192,217238,1,8,0:0:0:0:
256,192,217410,1,0,0:0:0:0:
256,192,217581,1,12,0:0:0:0:
256,192,217752,1,8,0:0:0:0:
256,192,217838,1,0,0:0:0:0:
256,192,218095,1,12,0:0:0:0:
256,192,218438,1,0,0:0:0:0:
256,192,218610,1,12,0:0:0:0:
256,192,218952,1,12,0:0:0:0:
256,192,219210,1,12,0:0:0:0:
256,192,219467,1,12,0:0:0:0:
256,192,219638,1,12,0:0:0:0:
256,192,219810,1,0,0:0:0:0:
256,192,219981,1,8,0:0:0:0:
256,192,220152,1,0,0:0:0:0:
256,192,220324,1,8,0:0:0:0:
256,192,220495,1,8,0:0:0:0:
256,192,220667,1,0,0:0:0:0:
256,192,220838,1,0,0:0:0:0:
256,192,220924,1,0,0:0:0:0:
256,192,221010,1,12,0:0:0:0:
256,192,221181,1,0,0:0:0:0:
256,192,221352,1,8,0:0:0:0:
256,192,221524,1,0,0:0:0:0:
256,192,221695,1,8,0:0:0:0:
256,192,221867,1,8,0:0:0:0:
256,192,222038,1,0,0:0:0:0:
256,192,222210,1,0,0:0:0:0:
256,192,222295,1,0,0:0:0:0:
256,192,222381,1,12,0:0:0:0:
256,192,222724,1,0,0:0:0:0:
256,192,222895,1,8,0:0:0:0:
256,192,222981,1,8,0:0:0:0:
256,192,223067,1,0,0:0:0:0:
256,192,223152,1,0,0:0:0:0:
256,192,223238,1,8,0:0:0:0:
256,192,223324,1,0,0:0:0:0:
256,192,223410,1,8,0:0:0:0:
256,192,223581,1,0,0:0:0:0:
256,192,223752,1,8,0:0:0:0:
256,192,223838,1,8,0:0:0:0:
256,192,223924,1,0,0:0:0:0:
256,192,224010,1,8,0:0:0:0:
256,192,224095,1,0,0:0:0:0:
256,192,224181,1,0,0:0:0:0:
256,192,224267,1,8,0:0:0:0:
256,192,224352,1,8,0:0:0:0:
256,192,224438,1,0,0:0:0:0:
256,192,224524,1,8,0:0:0:0:
256,192,224610,1,0,0:0:0:0:
256,192,224695,1,0,0:0:0:0:
256,192,224781,1,8,0:0:0:0:
256,192,224867,1,0,0:0:0:0:
256,192,224952,1,8,0:0:0:0:
256,192,225038,1,8,0:0:0:0:
256,192,225295,1,0,0:0:0:0:
256,192,225467,1,12,0:0:0:0:
256,192,225810,1,12,0:0:0:0:
256,192,225981,1,0,0:0:0:0:
256,192,226152,1,0,0:0:0:0:
256,192,226238,1,8,0:0:0:0:
256,192,226324,1,0,0:0:0:0:
256,192,226410,1,0,0:0:0:0:
256,192,226495,1,8,0:0:0:0:
256,192,226667,1,0,0:0:0:0:
256,192,226752,1,8,0:0:0:0:
256,192,226838,1,0,0:0:0:0:
256,192,227010,1,8,0:0:0:0:
256,192,227095,1,8,0:0:0:0:
256,192,227181,1,0,0:0:0:0:
256,192,227267,1,0,0:0:0:0:
256,192,227352,1,8,0:0:0:0:
256,192,227524,1,8,0:0:0:0:
256,192,227610,1,0,0:0:0:0:
256,192,227695,1,8,0:0:0:0:
256,192,227781,1,8,0:0:0:0:
256,192,227867,1,0,0:0:0:0:
256,192,228038,1,8,0:0:0:0:
256,192,228210,1,0,0:0:0:0:
256,192,228295,1,8,0:0:0:0:
256,192,228381,1,0,0:0:0:0:
256,192,228467,1,0,0:0:0:0:
256,192,228552,1,8,0:0:0:0:
256,192,228638,1,0,0:0:0:0:
256,192,228724,1,8,0:0:0:0:
256,192,228895,1,0,0:0:0:0:
256,192,228981,1,0,0:0:0:0:
256,192,229067,1,8,0:0:0:0:
256,192,229152,1,0,0:0:0:0:
256,192,229238,1,12,0:0:0:0:
256,192,229581,1,0,0:0:0:0:
256,192,229752,1,12,0:0:0:0:
256,192,230095,1,0,0:0:0:0:
256,192,230267,1,12,0:0:0:0:
256,192,230438,1,0,0:0:0:0:
256,192,230610,1,12,0:0:0:0:
256,192,230781,1,0,0:0:0:0:
256,192,230952,1,0,0:0:0:0:
256,192,231038,1,0,0:0:0:0:
256,192,231124,1,8,0:0:0:0:
256,192,231295,1,8,0:0:0:0:
256,192,231467,1,0,0:0:0:0:
256,192,231552,1,8,0:0:0:0:
256,192,231638,1,0,0:0:0:0:
256,192,231724,1,0,0:0:0:0:
256,192,231810,1,8,0:0:0:0:
256,192,231895,1,8,0:0:0:0:
256,192,231981,1,0,0:0:0:0:
256,192,232152,1,0,0:0:0:0:
256,192,232238,1,0,0:0:0:0:
256,192,232324,1,8,0:0:0:0:
256,192,232495,1,0,0:0:0:0:
256,192,232667,1,8,0:0:0:0:
256,192,232752,1,8,0:0:0:0:
256,192,232838,1,0,0:0:0:0:
256,192,232924,1,8,0:0:0:0:
256,192,233010,1,0,0:0:0:0:
256,192,233095,1,0,0:0:0:0:
256,192,233181,1,8,0:0:0:0:
256,192,233267,1,0,0:0:0:0:
256,192,233352,1,12,0:0:0:0:
256,192,233695,1,0,0:0:0:0:
256,192,233867,1,12,0:0:0:0:
256,192,234210,1,0,0:0:0:0:
256,192,234381,1,12,0:0:0:0:
256,192,234552,1,12,0:0:0:0:
256,192,234895,1,0,0:0:0:0:
256,192,235067,1,12,0:0:0:0:
256,192,235410,1,12,0:0:0:0:
256,192,235667,1,12,0:0:0:0:
256,192,235924,1,12,0:0:0:0:
256,192,236095,1,12,0:0:0:0:
256,192,236438,1,0,0:0:0:0:
256,192,236610,1,8,0:0:0:0:
256,192,236695,1,0,0:0:0:0:
256,192,236781,1,8,0:0:0:0:
256,192,236952,1,0,0:0:0:0:
256,192,237038,1,0,0:0:0:0:
256,192,237124,1,8,0:0:0:0:
256,192,237210,1,0,0:0:0:0:
256,192,237295,1,8,0:0:0:0:
256,192,237381,1,8,0:0:0:0:
256,192,237467,1,0,0:0:0:0:
256,192,237638,1,0,0:0:0:0:
256,192,237810,1,8,0:0:0:0:
256,192,237895,1,8,0:0:0:0:
256,192,237981,1,0,0:0:0:0:
256,192,238152,1,0,0:0:0:0:
256,192,238324,1,8,0:0:0:0:
256,192,238410,1,8,0:0:0:0:
256,192,238495,1,0,0:0:0:0:
256,192,238581,1,0,0:0:0:0:
256,192,238667,1,8,0:0:0:0:
256,192,238752,1,0,0:0:0:0:
256,192,238838,1,8,0:0:0:0:
256,192,239010,1,0,0:0:0:0:
256,192,239181,1,8,0:0:0:0:
256,192,239352,1,0,0:0:0:0:
256,192,239438,1,8,0:0:0:0:
256,192,239524,1,0,0:0:0:0:
256,192,239695,1,0,0:0:0:0:
256,192,239867,1,8,0:0:0:0:
256,192,239952,1,8,0:0:0:0:
256,192,240038,1,0,0:0:0:0:
256,192,240124,1,8,0:0:0:0:
256,192,240210,1,0,0:0:0:0:
256,192,240295,1,0,0:0:0:0:
256,192,240381,1,8,0:0:0:0:
256,192,240467,1,0,0:0:0:0:
256,192,240552,1,8,0:0:0:0:
256,192,240724,1,0,0:0:0:0:
256,192,240810,1,0,0:0:0:0:
256,192,240895,1,8,0:0:0:0:
256,192,241067,1,0,0:0:0:0:
256,192,241238,1,8,0:0:0:0:
256,192,241324,1,8,0:0:0:0:
256,192,241410,1,0,0:0:0:0:
256,192,241495,1,0,0:0:0:0:
256,192,241581,1,12,0:0:0:0:
256,192,241924,1,0,0:0:0:0:
256,192,242095,1,8,0:0:0:0:
256,192,242181,1,8,0:0:0:0:
256,192,242267,1,0,0:0:0:0:
256,192,242438,1,0,0:0:0:0:
256,192,242610,1,8,0:0:0:0:
256,192,242781,1,0,0:0:0:0:
256,192,242867,1,0,0:0:0:0:
256,192,242952,1,12,0:0:0:0:
256,192,243295,1,0,0:0:0:0:
256,192,243467,1,0,0:0:0:0:
256,192,243638,1,8,0:0:0:0:
256,192,243810,1,0,0:0:0:0:
256,192,243981,1,8,0:0:0:0:
256,192,244067,1,8,0:0:0:0:
256,192,244152,1,0,0:0:0:0:
256,192,244238,1,0,0:0:0:0:
256,192,244324,1,12,0:0:0:0:
256,192,244495,1,0,0:0:0:0:
256,192,244667,1,8,0:0:0:0:
256,192,244838,1,0,0:0:0:0:
256,192,244924,1,0,0:0:0:0:
256,192,245010,1,12,0:0:0:0:
256,192,245181,1,0,0:0:0:0:
256,192,245352,1,8,0:0:0:0:
256,192,245524,1,0,0:0:0:0:
256,192,245581,1,0,0:0:0:0:
256,192,245638,1,0,0:0:0:0:
256,192,245695,1,8,0:0:0:0:
256,192,245781,1,0,0:0:0:0:
256,192,245867,1,8,0:0:0:0:
256,192,245952,1,8,0:0:0:0:
256,192,246038,1,0,0:0:0:0:
256,192,246124,1,0,0:0:0:0:
256,192,246210,1,8,0:0:0:0:
256,192,246295,1,0,0:0:0:0:
256,192,246381,1,8,0:0:0:0:
256,192,246467,1,8,0:0:0:0:
256,192,246552,1,0,0:0:0:0:
256,192,246638,1,0,0:0:0:0:
256,192,246724,1,8,0:0:0:0:
256,192,246810,1,0,0:0:0:0:
256,192,246895,1,0,0:0:0:0:
256,192,246981,1,0,0:0:0:0:
256,192,247067,1,12,0:0:0:0:
256,192,247410,1,8,0:0:0:0:
256,192,247581,1,8,0:0:0:0:
256,192,247752,1,0,0:0:0:0:
256,192,247924,1,0,0:0:0:0:
256,192,248010,1,8,0:0:0:0:
256,192,248181,1,0,0:0:0:0:
256,192,248267,1,8,0:0:0:0:
256,192,248438,1,0,0:0:0:0:
256,192,248610,1,0,0:0:0:0:
256,192,248781,1,8,0:0:0:0:
256,192,248952,1,8,0:0:0:0:
256,192,249124,1,0,0:0:0:0:
256,192,249295,1,8,0:0:0:0:
256,192,249381,1,0,0:0:0:0:
256,192,249552,1,0,0:0:0:0:
256,192,249638,1,8,0:0:0:0:
256,192,249810,1,0,0:0:0:0:
256,192,250152,1,8,0:0:0:0:
256,192,250324,1,8,0:0:0:0:
256,192,250495,1,0,0:0:0:0:
256,192,250667,1,0,0:0:0:0:
256,192,250752,1,8,0:0:0:0:
256,192,250924,1,0,0:0:0:0:
256,192,251010,1,8,0:0:0:0:
256,192,251181,1,8,0:0:0:0:
256,192,251352,1,0,0:0:0:0:
256,192,251524,1,8,0:0:0:0:
256,192,251695,1,0,0:0:0:0:
256,192,251867,1,0,0:0:0:0:
256,192,252038,1,8,0:0:0:0:
256,192,252124,1,0,0:0:0:0:
256,192,252295,1,0,0:0:0:0:
256,192,252381,1,8,0:0:0:0:
256,192,252552,1,12,0:0:0:0:
256,192,252724,1,0,0:0:0:0:
256,192,252895,1,8,0:0:0:0:
256,192,253067,1,0,0:0:0:0:
256,192,253238,1,8,0:0:0:0:
256,192,253410,1,8,0:0:0:0:
256,192,253581,1,0,0:0:0:0:
256,192,253752,1,8,0:0:0:0:
256,192,253924,1,12,0:0:0:0:
256,192,254095,1,0,0:0:0:0:
256,192,254267,1,8,0:0:0:0:
256,192,254438,1,0,0:0:0:0:
256,192,254610,1,8,0:0:0:0:
256,192,254781,1,8,0:0:0:0:
256,192,254952,1,0,0:0:0:0:
256,192,255124,1,0,0:0:0:0:
256,192,255210,1,0,0:0:0:0:
256,192,255295,1,12,0:0:0:0:
256,192,255467,1,0,0:0:0:0:
256,192,255638,1,0,0:0:0:0:
256,192,255810,1,12,0:0:0:0:
256,192,255981,1,0,0:0:0:0:
256,192,256152,1,0,0:0:0:0:
256,192,256324,1,12,0:0:0:0:
256,192,256495,1,0,0:0:0:0:
256,192,256552,1,0,0:0:0:0:
256,192,256610,1,0,0:0:0:0:
256,192,256667,1,8,0:0:0:0:
256,192,256752,1,8,0:0:0:0:
256,192,256838,1,0,0:0:0:0:
256,192,256924,1,8,0:0:0:0:
256,192,257010,1,0,0:0:0:0:
256,192,257095,1,0,0:0:0:0:
256,192,257181,1,8,0:0:0:0:
256,192,257267,1,0,0:0:0:0:
256,192,257352,1,8,0:0:0:0:
256,192,257438,1,8,0:0:0:0:
256,192,257524,1,0,0:0:0:0:
256,192,257610,1,0,0:0:0:0:
256,192,257695,1,8,0:0:0:0:
256,192,258038,1,12,0:0:0:0:
256,192,258381,1,8,0:0:0:0:
256,192,258552,1,0,0:0:0:0:
256,192,258638,1,0,0:0:0:0:
256,192,258724,1,8,0:0:0:0:
256,192,258895,1,0,0:0:0:0:
256,192,259067,1,0,0:0:0:0:
256,192,259152,1,0,0:0:0:0:
256,192,259238,1,8,0:0:0:0:
256,192,259324,1,8,0:0:0:0:
256,192,259410,1,0,0:0:0:0:
256,192,259581,1,8,0:0:0:0:
256,192,259752,1,8,0:0:0:0:
256,192,259838,1,8,0:0:0:0:
256,192,259924,1,0,0:0:0:0:
256,192,260010,1,8,0:0:0:0:
256,192,260095,1,0,0:0:0:0:
256,192,260181,1,0,0:0:0:0:
256,192,260267,1,8,0:0:0:0:
256,192,260438,1,0,0:0:0:0:
256,192,260524,1,0,0:0:0:0:
256,192,260610,1,8,0:0:0:0:
256,192,260695,1,8,0:0:0:0:
256,192,260781,1,0,0:0:0:0:
256,192,260952,1,8,0:0:0:0:
256,192,261124,1,0,0:0:0:0:
256,192,261210,1,0,0:0:0:0:
256,192,261295,1,8,0:0:0:0:
256,192,261381,1,0,0:0:0:0:
256,192,261467,1,8,0:0:0:0:
256,192,261552,1,8,0:0:0:0:
256,192,261638,1,0,0:0:0:0:
256,192,261810,1,8,0:0:0:0:
256,192,261895,1,8,0:0:0:0:
256,192,261981,1,0,0:0:0:0:
256,192,262067,1,0,0:0:0:0:
256,192,262152,1,8,0:0:0:0:
256,192,262324,1,8,0:0:0:0:
256,192,262495,1,0,0:0:0:0:
256,192,262581,1,8,0:0:0:0:
256,192,262667,1,0,0:0:0:0:
256,192,262752,1,0,0:0:0:0:
256,192,262838,1,8,0:0:0:0:
256,192,263010,1,8,0:0:0:0:
256,192,263181,1,0,0:0:0:0:
256,192,263267,1,8,0:0:0:0:
256,192,263352,1,8,0:0:0:0:
256,192,263438,1,0,0:0:0:0:
256,192,263524,1,8,0:0:0:0:
256,192,263695,1,0,0:0:0:0:
256,192,263867,1,0,0:0:0:0:
256,192,263952,1,0,0:0:0:0:
256,192,264038,1,8,0:0:0:0:
256,192,264210,1,0,0:0:0:0:
256,192,264381,1,8,0:0:0:0:
256,192,264552,1,0,0:0:0:0:
256,192,264638,1,0,0:0:0:0:
256,192,264724,1,8,0:0:0:0:
256,192,264810,1,0,0:0:0:0:
256,192,264895,1,8,0:0:0:0:
256,192,264981,1,8,0:0:0:0:
256,192,265067,1,0,0:0:0:0:
256,192,265238,1,8,0:0:0:0:
256,192,265324,1,8,0:0:0:0:
256,192,265410,1,0,0:0:0:0:
256,192,265495,1,0,0:0:0:0:
256,192,265581,1,8,0:0:0:0:
256,192,265752,1,8,0:0:0:0:
256,192,265924,1,0,0:0:0:0:
256,192,266010,1,0,0:0:0:0:
256,192,266095,1,8,0:0:0:0:
256,192,266181,1,8,0:0:0:0:
256,192,266267,1,0,0:0:0:0:
256,192,266438,1,8,0:0:0:0:
256,192,266610,1,0,0:0:0:0:
256,192,266695,1,0,0:0:0:0:
256,192,266781,1,8,0:0:0:0:
256,192,266952,1,8,0:0:0:0:
256,192,267124,1,0,0:0:0:0:
256,192,267210,1,0,0:0:0:0:
256,192,267295,1,8,0:0:0:0:
256,192,267381,1,0,0:0:0:0:
256,192,267467,1,8,0:0:0:0:
256,192,267638,1,8,0:0:0:0:
256,192,267810,1,0,0:0:0:0:
256,192,267895,1,0,0:0:0:0:
256,192,267981,1,8,0:0:0:0:
256,192,268152,1,8,0:0:0:0:
256,192,268238,1,8,0:0:0:0:
256,192,268324,1,0,0:0:0:0:
256,192,268495,1,0,0:0:0:0:
256,192,268581,1,8,0:0:0:0:
256,192,268667,1,0,0:0:0:0:
256,192,268752,1,0,0:0:0:0:
256,192,268838,1,8,0:0:0:0:
256,192,269010,1,12,0:0:0:0:
256,192,269352,1,0,0:0:0:0:
256,192,269524,1,8,0:0:0:0:
256,192,269610,1,8,0:0:0:0:
256,192,269695,1,0,0:0:0:0:
256,192,269867,1,0,0:0:0:0:
256,192,269952,1,8,0:0:0:0:
256,192,270038,1,0,0:0:0:0:
256,192,270124,1,0,0:0:0:0:
256,192,270210,1,8,0:0:0:0:
256,192,270295,1,0,0:0:0:0:
256,192,270381,1,8,0:0:0:0:
256,192,270552,1,8,0:0:0:0:
256,192,270724,1,0,0:0:0:0:
256,192,270810,1,8,0:0:0:0:
256,192,270895,1,0,0:0:0:0:
256,192,270981,1,0,0:0:0:0:
256,192,271067,1,8,0:0:0:0:
256,192,271238,1,0,0:0:0:0:
256,192,271410,1,0,0:0:0:0:
256,192,271495,1,8,0:0:0:0:
256,192,271581,1,8,0:0:0:0:
256,192,271667,1,0,0:0:0:0:
256,192,271752,1,8,0:0:0:0:
256,192,271924,1,0,0:0:0:0:
256,192,272010,1,0,0:0:0:0:
256,192,272095,1,8,0:0:0:0:
256,192,272267,1,0,0:0:0:0:
256,192,272438,1,8,0:0:0:0:
256,192,272524,1,8,0:0:0:0:
256,192,272610,1,0,0:0:0:0:
256,192,272695,1,0,0:0:0:0:
256,192,272781,1,8,0:0:0:0:
256,192,272867,1,0,0:0:0:0:
256,192,272952,1,8,0:0:0:0:
256,192,273124,1,0,0:0:0:0:
256,192,273295,1,0,0:0:0:0:
256,192,273381,1,0,0:0:0:0:
256,192,273467,1,8,0:0:0:0:
256,192,273552,1,8,0:0:0:0:
256,192,273638,1,0,0:0:0:0:
256,192,273810,1,8,0:0:0:0:
256,192,273895,1,8,0:0:0:0:
256,192,273981,1,0,0:0:0:0:
256,192,274067,1,8,0:0:0:0:
256,192,274152,1,0,0:0:0:0:
256,192,274238,1,0,0:0:0:0:
256,192,274324,1,8,0:0:0:0:
256,192,274410,1,0,0:0:0:0:
256,192,274495,1,12,0:0:0:0:
256,192,274667,1,0,0:0:0:0:
256,192,274838,1,0,0:0:0:0:
256,192,274924,1,0,0:0:0:0:
256,192,275010,1,8,0:0:0:0:
256,192,275181,1,0,0:0:0:0:
256,192,275352,1,8,0:0:0:0:
256,192,275438,1,8,0:0:0:0:
256,192,275524,1,0,0:0:0:0:
256,192,275610,1,0,0:0:0:0:
256,192,275695,1,8,0:0:0:0:
256,192,275867,1,12,0:0:0:0:
256,192,276038,1,0,0:0:0:0:
256,192,276210,1,8,0:0:0:0:
256,192,276295,1,8,0:0:0:0:
256,192,276381,1,0,0:0:0:0:
256,192,276552,1,8,0:0:0:0:
256,192,276724,1,0,0:0:0:0:
256,192,276810,1,8,0:0:0:0:
256,192,276895,1,0,0:0:0:0:
256,192,276981,1,0,0:0:0:0:
256,192,277067,1,8,0:0:0:0:
256,192,277238,1,12,0:0:0:0:
256,192,277410,1,0,0:0:0:0:
256,192,277581,1,8,0:0:0:0:
256,192,277667,1,8,0:0:0:0:
256,192,277752,1,0,0:0:0:0:
256,192,277924,1,12,0:0:0:0:
256,192,278095,1,8,0:0:0:0:
256,192,278267,1,0,0:0:0:0:
256,192,278438,1,8,0:0:0:0:
256,192,278524,1,0,0:0:0:0:
256,192,278610,1,8,0:0:0:0:
256,192,278695,1,8,0:0:0:0:
256,192,278781,1,0,0:0:0:0:
256,192,278867,1,8,0:0:0:0:
256,192,278952,1,0,0:0:0:0:
256,192,279038,1,0,0:0:0:0:
256,192,279124,1,8,0:0:0:0:
256,192,279210,1,8,0:0:0:0:
256,192,279295,1,0,0:0:0:0:
256,192,279381,1,8,0:0:0:0:
256,192,279467,1,0,0:0:0:0:
256,192,279552,1,0,0:0:0:0:
256,192,279638,1,8,0:0:0:0:
256,192,279724,1,0,0:0:0:0:
256,192,279810,1,0,0:0:0:0:
256,192,279895,1,0,0:0:0:0:
256,192,279981,1,12,0:0:0:0:
256,192,280324,1,0,0:0:0:0:
256,192,280495,1,8,0:0:0:0:
256,192,280838,1,0,0:0:0:0:
256,192,281010,1,8,0:0:0:0:
256,192,281181,1,0,0:0:0:0:
256,192,281352,1,8,0:0:0:0:
256,192,281438,1,8,0:0:0:0:
256,192,281524,1,0,0:0:0:0:
256,192,281695,1,0,0:0:0:0:
256,192,281867,1,8,0:0:0:0:
256,192,282210,1,0,0:0:0:0:
256,192,282381,1,0,0:0:0:0:
256,192,282552,1,8,0:0:0:0:
256,192,282724,1,8,0:0:0:0:
256,192,282810,1,8,0:0:0:0:
256,192,282895,1,0,0:0:0:0:
256,192,283067,1,0,0:0:0:0:
256,192,283238,1,8,0:0:0:0:
256,192,283581,1,8,0:0:0:0:
256,192,283752,1,8,0:0:0:0:
256,192,283924,1,0,0:0:0:0:
256,192,284095,1,0,0:0:0:0:
256,192,284181,1,8,0:0:0:0:
256,192,284267,1,0,0:0:0:0:
256,192,284438,1,0,0:0:0:0:
256,192,284610,1,8,0:0:0:0:
256,192,284952,1,8,0:0:0:0:
256,192,285124,1,0,0:0:0:0:
256,192,285295,1,0,0:0:0:0:
256,192,285467,1,8,0:0:0:0:
256,192,285810,1,0,0:0:0:0:
256,192,285981,1,8,0:0:0:0:
256,192,286324,1,0,0:0:0:0:
256,192,286495,1,8,0:0:0:0:
256,192,286667,1,0,0:0:0:0:
256,192,286838,1,8,0:0:0:0:
256,192,286924,1,8,0:0:0:0:
256,192,287010,1,0,0:0:0:0:
256,192,287181,1,0,0:0:0:0:
256,192,287352,1,8,0:0:0:0:
256,192,287695,1,0,0:0:0:0:
256,192,287867,1,0,0:0:0:0:
256,192,288038,1,8,0:0:0:0:
256,192,288210,1,8,0:0:0:0:
256,192,288295,1,0,0:0:0:0:
256,192,288381,1,8,0:0:0:0:
256,192,288552,1,0,0:0:0:0:
256,192,288724,1,8,0:0:0:0:
256,192,289067,1,8,0:0:0:0:
256,192,289238,1,8,0:0:0:0:
256,192,289324,1,0,0:0:0:0:
256,192,289410,1,8,0:0:0:0:
256,192,289581,1,0,0:0:0:0:
256,192,289752,1,0,0:0:0:0:
256,192,289838,1,0,0:0:0:0:
256,192,289924,1,8,0:0:0:0:
256,192,290095,1,8,0:0:0:0:
256,192,290267,1,0,0:0:0:0:
256,192,290438,1,8,0:0:0:0:
256,192,290610,1,0,0:0:0:0:
256,192,290781,1,0,0:0:0:0:
256,192,290952,1,12,0:0:0:0:
256,192,291295,1,0,0:0:0:0:
256,192,291467,1,8,0:0:0:0:
256,192,291810,1,0,0:0:0:0:
256,192,291981,1,8,0:0:0:0:
256,192,292152,1,0,0:0:0:0:
256,192,292324,1,8,0:0:0:0:
256,192,292410,1,8,0:0:0:0:
256,192,292495,1,0,0:0:0:0:
256,192,292667,1,0,0:0:0:0:
256,192,292838,1,8,0:0:0:0:
256,192,293181,1,0,0:0:0:0:
256,192,293352,1,0,0:0:0:0:
256,192,293524,1,8,0:0:0:0:
256,192,293695,1,8,0:0:0:0:
256,192,293781,1,8,0:0:0:0:
256,192,293867,1,0,0:0:0:0:
256,192,294038,1,0,0:0:0:0:
256,192,294210,1,8,0:0:0:0:
256,192,294552,1,8,0:0:0:0:
256,192,294724,1,8,0:0:0:0:
256,192,294895,1,0,0:0:0:0:
256,192,295067,1,0,0:0:0:0:
256,192,295152,1,8,0:0:0:0:
256,192,295238,1,0,0:0:0:0:
256,192,295410,1,0,0:0:0:0:
256,192,295581,1,8,0:0:0:0:
256,192,295924,1,8,0:0:0:0:
256,192,296095,1,0,0:0:0:0:
256,192,296267,1,0,0:0:0:0:
256,192,296438,1,12,0:0:0:0:
256,192,296610,1,0,0:0:0:0:
256,192,296781,1,8,0:0:0:0:
256,192,296952,1,0,0:0:0:0:
256,192,297124,1,8,0:0:0:0:
256,192,297295,1,8,0:0:0:0:
256,192,297467,1,0,0:0:0:0:
256,192,297638,1,8,0:0:0:0:
256,192,297810,1,12,0:0:0:0:
256,192,297981,1,0,0:0:0:0:
256,192,298152,1,8,0:0:0:0:
256,192,298324,1,0,0:0:0:0:
256,192,298495,1,8,0:0:0:0:
256,192,298667,1,8,0:0:0:0:
256,192,298838,1,0,0:0:0:0:
256,192,299010,1,8,0:0:0:0:
256,192,299181,1,0,0:0:0:0:
256,192,299267,1,0,0:0:0:0:
256,192,299352,1,8,0:0:0:0:
256,192,299438,1,8,0:0:0:0:
256,192,299524,1,0,0:0:0:0:
256,192,299610,1,0,0:0:0:0:
256,192,299695,1,8,0:0:0:0:
256,192,299781,1,0,0:0:0:0:
256,192,299867,1,8,0:0:0:0:
256,192,299952,1,8,0:0:0:0:
256,192,300038,1,0,0:0:0:0:
256,192,300124,1,0,0:0:0:0:
256,192,300210,1,8,0:0:0:0:
256,192,300295,1,0,0:0:0:0:
256,192,300381,1,8,0:0:0:0:
256,192,300638,1,8,0:0:0:0:
256,192,300724,1,0,0:0:0:0:
256,192,300895,1,8,0:0:0:0:
256,192,301067,1,0,0:0:0:0:
256,192,301238,1,8,0:0:0:0:
256,192,301324,1,8,0:0:0:0:
256,192,301410,1,0,0:0:0:0:
256,192,301495,1,8,0:0:0:0:
256,192,301581,1,0,0:0:0:0:
256,192,301752,1,12,0:0:0:0:
256,192,301924,8,0,310152,0:0:0:0:
