osu file format v14

[General]
AudioFilename: audio.mp3
AudioLeadIn: 0
PreviewTime: 273718
Countdown: 0
SampleSet: Soft
StackLeniency: 0.7
Mode: 0
LetterboxInBreaks: 0
WidescreenStoryboard: 1

[Editor]
Bookmarks: 1665,13093,24522,35950,47379,58807,70236,84522,107379,130236,141664,141754,141843,141932,142022,142111,142200,142289,142379,142468,142557,142647,142736,142825,142914,143004,143093,143182,143272,143361,143450,143539,143629,143718,143807,143897,143986,144075,144164,144254,144343,144432,144522,144611,144700,144789,144879,144968,145057,145147,145236,145325,145414,145504,145593,145682,145772,145861,145950,146039,146129,146218,146307,146397,146486,146575,146664,146754,146843,146932,147022,147111,147200,147289,147379,147468,147557,147647,147736,147825,147914,148004,148093,148182,148272,148361,148450,148539,148629,148718,148807,148897,148986,149075,149164,149254,149343,149432,149522,149611,149700,149789,149879,149968,150057,150147,150236,150325,150414,150504,150593,150682,150772,150861,150950,151039,151129,151218,151307,151397,151486,151575,151664,151754,151843,151932,152022,152111,152200,152289,152379,152468,152557,152647,152736,152825,152914,153004,153093,153182,153272,153361,153450,153539,153629,153718,153807,153897,153986,154075,154164,154254,154343,154432,154522,154611,154700,154789,154879,154968,155057,155147,155236,155325,155414,155504,155593,155682,155772,155861,155950,167379,178807,194522,217379,237379,248807,260236,274522,274611,274700,274789,274879,274968,275057,275147,275236,275325,275414,275504,275593,275682,275772,275861,275950,276039,276129,276218,276307,276397,276486,276575,276664,276754,276843,276932,277022,277111,277200,277289,277379,277468,277557,277647,277736,277825,277914,278004,278093,278182,278272,278361,278450,278539,278629,278718,278807,278897,278986,279075,279164,279254,279343,279432,279522,279611,279700,279789,279879,279968,280057,280147,280236,280325,280414,280504,280593,280682,280772,280861,280950,281039,281129,281218,281307,281397,281486,281575,281664,281754,281843,281932,282022,282111,282200,282289,282379,282468,282557,282647,282736,282825,282914,283004,283093,283182,283272,283361,283450,283539,283629,283718,283807,283897,283986,284075,284164,284254,284343,284432,284522,284611,284700,284789,284879,284968,285057,285147,285236,285325,285414,285504,285593,285682,285772,285861,285950,297379,320236,331664,343093,355950
DistanceSpacing: 1
BeatDivisor: 4
GridSize: 4
TimelineZoom: 1

[Metadata]
Title:Dreams come true -Hana Sakihokoru, Chikyuu no Moto de-
TitleUnicode:Dreams come true -花咲き誇る、地球のもとで-
Artist:Ceui
ArtistUnicode:Ceui
Creator:Kowari
Version:Collab Expert
Source:アストラエアの白き永遠 Finale -白き星の夢-
Tags:Astral Air no Shiroki Towa Finale Hoshi no Yume Galgame Eroge Visual Novel Ending Full Version Favorite Shizuku- Silky Kanau Mamayu fuyuyu- Shikibe Mayu Kazato Asa pop japanese
BeatmapID:2461017
BeatmapSetID:1070829

[Difficulty]
HPDrainRate:6
CircleSize:4
OverallDifficulty:8.2
ApproachRate:9
SliderMultiplier:1.7
SliderTickRate:1

[Events]
//Background and Video events
0,0,"bg.jpg",0,0
//Break Periods
2,141864,155350
2,274722,285350
//Storyboard Layer 0 (Background)
//Storyboard Layer 1 (Fail)
//Storyboard Layer 2 (Pass)
//Storyboard Layer 3 (Foreground)
//Storyboard Layer 4 (Overlay)
//Storyboard Sound Samples

[TimingPoints]
1665,357.142857142857,4,2,1,40,1,0
13093,-125,4,2,1,60,0,0
24522,-125,4,2,1,70,0,0
34522,-200,4,2,1,70,0,0
35950,-250,4,2,1,55,0,0
47379,-166.666666666667,4,2,1,65,0,0
58807,-142.857142857143,4,2,1,60,0,0
68718,-142.857142857143,4,2,1,5,0,0
68807,-142.857142857143,4,2,1,60,0,0
70236,-142.857142857143,4,2,1,65,0,0
75950,-125,4,2,1,70,0,0
78807,-125,4,2,1,75,0,0
81664,-125,4,2,1,65,0,0
83807,-125,4,2,1,60,0,0
84164,-125,4,2,1,70,0,0
84522,-95.2380952380952,4,2,1,85,0,1
104522,-95.2380952380952,4,2,1,85,0,0
107379,-95.2380952380952,4,2,1,85,0,1
128807,-95.2380952380952,4,2,1,80,0,1
130236,-125,4,2,1,75,0,0
140236,-125,4,2,1,65,0,0
166129,-111.111111111111,4,2,1,65,0,0
167379,-100,4,2,1,75,0,0
178807,-111.111111111111,4,2,1,70,0,0
184522,-111.111111111111,4,2,1,76,0,0
187379,-111.111111111111,4,2,1,80,0,0
193093,-125,4,2,1,80,0,0
194522,-95.2380952380952,4,2,1,85,0,1
215950,-95.2380952380952,4,2,1,80,0,1
216843,-111.111111111111,4,2,1,80,0,1
217379,-100,4,2,1,80,0,0
237379,-125,4,2,1,70,0,0
248807,-111.111111111111,4,2,1,75,0,0
254522,-83.3333333333333,4,2,1,80,0,0
256664,-90.9090909090909,4,2,1,80,0,0
260236,-111.111111111111,4,2,1,70,0,0
264432,-111.111111111111,4,2,1,5,0,0
264522,-111.111111111111,4,2,1,70,0,0
265950,-100,4,2,1,80,0,0
269879,-133.333333333333,4,2,1,60,0,0
285950,-125,4,2,1,65,0,0
290057,-100,4,2,1,65,0,0
291664,-100,4,2,1,70,0,0
294522,-100,4,2,1,75,0,0
297379,-95.2380952380952,4,2,1,85,0,1
318807,-95.2380952380952,4,2,1,80,0,1
319700,-111.111111111111,4,2,1,80,0,1
320236,-100,4,2,1,75,0,0
330057,-133.333333333333,4,2,1,75,0,0
331664,-200,4,2,1,50,0,0
343093,-200,4,2,1,40,0,0
355950,-250,4,2,1,25,0,0
357379,-250,4,2,1,20,0,0
358807,-250,4,2,1,15,0,0
360236,-250,4,2,1,10,0,0
361664,-250,4,2,1,5,0,0

[Colours]
Combo1 : 128,128,128
Combo2 : 255,128,128
Combo3 : 255,62,62
Combo4 : 113,255,255
Combo5 : 45,150,255
Combo6 : 192,192,192

[HitObjects]
256,192,11664,12,0,12914,0:2:0:0:
427,223,13093,6,0,P|433:256|440:289,2,68,2|0|2,3:2|0:2|0:2,0:2:0:0:
341,272,13629,2,0,P|275:264|240:208,1,136,2|0,0:2|0:2,0:2:0:0:
312,75,14164,2,0,P|305:108|299:141,1,68,2|0,0:2|0:2,0:2:0:0:
162,180,14522,6,0,P|112:136|48:149,1,136,2|2,3:2|0:2,0:2:0:0:
109,247,15057,2,0,P|173:226|239:208,1,136,2|0,0:2|0:2,0:2:0:0:
312,75,15593,2,0,P|279:64|246:55,1,68,2|0,0:2|0:2,0:2:0:0:
340,271,15950,6,0,P|387:224|388:158,1,136,2|2,3:2|0:2,0:2:0:0:
239,208,16486,2,0,P|253:274|266:341,1,136,2|0,0:2|0:2,0:2:0:0:
90,167,17022,2,0,L|56:163,3,34,2|2|2|2,0:2|0:2|3:2|0:2,0:2:0:0:
48,149,17379,6,0,B|95:137|95:137|129:154|129:154|176:139,1,136,2|0,3:2|0:2,0:2:0:0:
239,208,17914,2,0,P|267:147|253:82,1,136,0|2,3:2|3:2,0:2:0:0:
387,157,18450,2,0,P|420:149|453:142,1,68,0|0,0:0|0:2,0:0:0:0:
504,283,18807,6,0,P|470:275|437:268,1,68,2|2,3:2|0:2,0:0:0:0:
334,252,19164,1,2,0:2:0:0:
265,340,19343,2,0,P|213:380|150:363,1,136,0|0,0:2|0:2,0:0:0:0:
184,233,19879,2,0,P|192:266|198:299,1,68,2|0,0:2|3:2,0:0:0:0:
253,82,20236,6,0,P|187:86|142:38,1,136,2|2,0:2|0:2,0:2:0:0:
364,21,20772,2,0,P|358:54|352:87,1,68,0|2,0:2|0:2,0:0:0:0:
259,174,21129,1,0,0:2:0:0:
259,174,21307,2,0,P|264:207|270:240,1,68,2|0,0:2|0:2,0:2:0:0:
383,351,21664,6,0,P|388:317|394:284,1,68,2|0,3:2|0:2,0:2:0:0:
414,196,22022,1,2,0:2:0:0:
270,240,22200,2,0,B|221:232|221:232|187:252|187:252|140:245,1,136,2|0,0:2|0:2,0:2:0:0:
93,106,22736,1,2,0:2:0:0:
169,163,22914,1,0,0:2:0:0:
134,16,23093,5,2,0:2:0:0:
134,16,23272,2,0,P|81:56|15:52,1,136
169,163,23807,5,0,0:0:0:0:
328,97,23986,1,0,0:0:0:0:
216,45,24164,1,0,0:0:0:0:
216,45,24343,1,0,0:2:0:0:
328,97,24522,6,0,P|336:129|350:193,1,68,4|0,3:2|0:2,0:2:0:0:
445,238,24879,2,0,P|452:204|460:171,1,68,0|0,3:2|0:2,0:2:0:0:
346,341,25236,2,0,P|410:327|462:368,1,136,2|0,3:2|3:2,0:2:0:0:
282,246,25772,5,2,3:2:0:0:
282,246,25861,1,2,3:2:0:0:
282,246,25950,2,0,P|230:286|166:272,1,136,0|0,3:2|3:2,0:2:0:0:
32,180,26486,1,0,0:2:0:0:
152,97,26664,2,0,P|143:130|131:180,1,68,0|0,3:2|0:0,0:2:0:0:
58,280,27022,2,0,P|49:247|41:214,1,68,2|0,3:2|0:2,0:2:0:0:
113,25,27379,6,0,P|160:64|235:51,1,136,6|0,3:2|3:2,0:2:0:0:
363,0,27914,1,2,0:2:0:0:
405,147,28093,2,0,P|357:135|330:129,1,68,0|0,3:0|0:2,0:0:0:0:
240,256,28450,2,0,P|287:244|315:238,1,68,2|2,3:2|0:2,0:0:0:0:
331,256,28718,5,2,0:0:0:0:
331,256,28807,1,0,3:2:0:0:
163,170,28986,1,2,0:2:0:0:
275,94,29164,1,0,3:2:0:0:
226,299,29343,1,2,0:2:0:0:
143,141,29522,1,0,3:2:0:0:
265,207,29700,1,8,0:2:0:0:
122,318,29879,1,0,3:2:0:0:
122,318,30236,6,0,P|76:308|38:300,1,68,4|0,3:2|0:0,0:2:0:0:
171,132,30593,2,0,P|166:158|159:207,1,68,0|0,3:2|0:0,0:0:0:0:
220,361,30950,2,0,P|284:374|340:331,1,136,0|0,3:2|3:2,0:2:0:0:
493,256,31486,5,2,0:2:0:0:
493,256,31575,1,2,0:0:0:0:
493,256,31664,2,0,P|455:248|409:240,1,68,6|0,3:2|0:0,0:2:0:0:
336,70,32022,1,0,3:2:0:0:
475,159,32200,1,2,0:2:0:0:
307,255,32379,1,4,3:3:0:0:
387,150,32557,1,0,0:2:0:0:
234,45,32736,1,0,3:2:0:0:
234,45,33093,6,0,P|240:74|253:141,1,68,6|0,3:2|0:0,0:2:0:0:
107,173,33450,2,0,P|113:139|120:106,1,68,0|2,3:2|0:2,0:0:0:0:
150,268,33807,2,0,P|97:283|29:240,1,136,0|8,3:2|0:2,0:0:0:0:
257,336,34343,5,8,0:2:0:0:
257,336,34432,1,0,0:0:0:0:
257,336,34522,2,0,B|312:365|381:322|371:288|371:288|349:315|384:361|424:366,1,255,4|0,3:2|0:2,0:2:0:0:
420,222,35950,6,0,P|363:206|297:254,1,136,2|0,0:2|0:2,0:2:0:0:
221,134,37022,2,0,P|226:159|230:182,1,34,0|0,0:2|0:2,0:2:0:0:
167,234,37379,2,0,P|130:226|91:220,2,68,2|0|0,0:2|0:2|0:2,0:2:0:0:
246,380,38450,1,2,0:2:0:0:
295,293,38807,6,0,P|225:304|153:317,1,136,2|0,0:2|0:2,0:2:0:0:
16,226,39878,1,0,0:2:0:0:
16,226,40057,1,0,0:2:0:0:
115,187,40236,2,0,P|106:225|98:259,1,68,2|0,0:2|0:2,0:2:0:0:
206,123,40950,2,0,P|198:89|190:56,1,68,2|2,0:2|0:2,0:0:0:0:
287,191,41664,6,0,P|323:183|368:177,1,68,2|0,0:2|0:2,0:2:0:0:
436,208,42200,2,0,P|407:183|406:108,1,102,2|0,0:2|0:2,0:2:0:0:
457,59,43093,2,0,P|492:66|526:72,1,68,2|0,0:2|0:2,0:2:0:0:
309,117,43807,2,0,P|274:124|240:130,1,68,2|0,0:2|0:2,0:2:0:0:
140,85,44343,1,0,0:2:0:0:
92,184,44522,6,0,P|148:186|176:225,1,102,2|2,0:2|0:2,0:2:0:0:
105,384,45593,1,0,0:2:0:0:
193,321,45950,2,0,P|253:333|273:337,1,68,2|0,0:2|0:2,0:2:0:0:
338,274,46486,1,0,0:0:0:0:
338,274,46664,2,0,P|334:256|330:235,2,34,2|0|0,0:2|0:0|0:2,0:2:0:0:
330,239,47379,6,0,P|380:245|420:216,1,101.999996887207,2|0,3:2|0:2,0:2:0:0:
401,87,47914,1,0,0:0:0:0:
401,87,48093,2,0,P|394:111|390:136,1,50.9999984436036,0|0,0:2|0:2,0:2:0:0:
238,12,48450,1,2,3:2:0:0:
314,42,48629,1,2,0:2:0:0:
189,77,48807,6,0,P|143:54|93:58,1,101.999996887207,2|0,3:2|0:2,0:2:0:0:
118,191,49343,1,2,0:2:0:0:
118,191,49522,2,0,P|121:165|125:140,1,50.9999984436036,2|0,0:2|0:0,0:2:0:0:
213,235,49879,2,0,P|216:260|220:285,1,50.9999984436036,2|0,0:2|0:0,0:0:0:0:
314,144,50236,2,0,P|264:149|222:121,1,101.999996887207,2|0,3:2|0:0,0:0:0:0:
435,244,50950,6,0,P|426:294|418:344,1,101.999996887207,2|2,0:2|0:2,0:2:0:0:
340,228,51486,1,2,0:2:0:0:
292,299,51664,6,0,P|241:303|198:278,1,101.999996887207,2|2,3:2|0:2,0:2:0:0:
121,138,52379,2,0,P|112:189|104:239,1,101.999996887207,2|2,3:2|0:2,0:2:0:0:
65,70,53093,6,0,P|110:48|159:56,1,101.999996887207,2|0,3:2|0:2,0:2:0:0:
221,121,53629,2,0,P|270:109|320:99,1,101.999996887207,2|0,0:2|0:2,0:2:0:0:
433,118,54164,2,0,P|438:93|443:68,1,50.9999984436036,2|2,0:2|0:2,0:2:0:0:
380,207,54522,6,0,P|439:161|512:175,1,152.999995330811,2|2,3:2|0:2,0:2:0:0:
409,315,55236,2,0,P|359:302|309:291,1,101.999996887207,2|2,0:2|0:2,0:2:0:0:
133,357,55772,1,2,0:2:0:0:
133,357,55950,6,0,B|199:340|199:340|213:350|230:352,2,101.999996887207,2|2|2,3:2|0:2|0:2,0:2:0:0:
243,254,57022,1,2,0:2:0:0:
185,161,57200,1,2,0:2:0:0:
70,281,57379,2,0,P|110:250|160:246,1,101.999996887207,2|2,3:2|0:2,0:0:0:0:
313,304,58093,2,0,P|321:253|330:203,1,101.999996887207,2|2,0:2|0:2,0:0:0:0:
496,54,58807,6,0,B|395:31|427:100|323:77,1,178.499994552612,2|2,0:2|0:2,0:2:0:0:
221,27,59522,2,0,P|233:85|242:143,1,118.999996368408,2|0,0:2|0:2,0:2:0:0:
52,317,60236,6,0,P|39:257|86:202,2,118.999996368408,2|0|2,0:2|0:2|0:2,0:2:0:0:
240,284,61307,2,0,P|210:278|173:272,1,59.4999981842042,0|0,0:2|0:2,0:0:0:0:
296,366,61664,6,0,P|354:353|422:342,1,118.999996368408,2|2,0:2|0:2,0:2:0:0:
512,211,62379,2,0,P|451:217|405:181,1,118.999996368408,2|0,0:2|0:2,0:2:0:0:
302,219,62914,5,0,0:0:0:0:
302,219,63093,2,0,P|312:158|326:95,1,118.999996368408,2|2,0:2|0:2,0:2:0:0:
131,13,63807,2,0,P|143:71|153:129,1,118.999996368408,2|2,0:2|0:2,0:2:0:0:
102,226,64343,5,0,0:2:0:0:
102,226,64522,2,0,P|38:235|-6:188,1,118.999996368408,2|0,0:2|0:2,0:2:0:0:
0,201,65057,2,0,P|81:182|171:293,1,237.999992736817,0|0,0:2|0:2,0:0:0:0:
124,384,65950,2,0,P|176:374|244:364,1,118.999996368408,2|0,0:2|0:2,0:2:0:0:
441,229,66664,6,0,P|448:193|456:161,1,59.4999981842042,2|0,0:2|0:2,0:2:0:0:
335,239,67022,2,0,P|341:267|347:297,1,59.4999981842042,2|0,0:2|0:2,0:2:0:0:
421,382,67379,2,0,P|376:333|263:358,1,178.499994552612,2|0,0:2|0:2,0:2:0:0:
181,242,68093,2,0,P|207:247|250:258,1,59.4999981842042,2|0,0:2|0:0,0:0:0:0:
337,148,68450,2,0,P|310:153|268:164,1,59.4999981842042,2|0,0:3|0:0,0:2:0:0:
171,131,68807,6,0,B|125:96|121:33|166:-8|166:-8|222:15|218:54,2,237.999992736817,2|2|2,0:2|0:2|0:2,0:2:0:0:
378,222,70593,5,2,0:2:0:0:
482,75,70950,2,0,P|424:67|363:57,1,118.999996368408,2|2,0:2|0:2,0:2:0:0:
510,176,71486,1,2,0:2:0:0:
363,245,71664,5,2,3:2:0:0:
363,245,71843,2,0,P|417:240|462:289,1,118.999996368408,0|0,3:2|0:2,0:2:0:0:
363,367,72379,1,2,0:2:0:0:
266,203,72736,1,2,0:2:0:0:
112,344,73093,6,0,P|186:357|258:263,1,178.499994552612,0|0,3:2|0:0,0:2:0:0:
184,207,73807,2,0,P|127:220|77:232,2,89.2499972763062,2|2|2,0:2|0:3|0:3,0:2:0:0:
271,117,74522,5,2,0:2:0:0:
271,117,74700,2,0,P|317:156|374:152,1,118.999996368408,2|2,0:2|3:2,0:2:0:0:
406,121,75147,1,0,3:2:0:0:
406,121,75236,1,8,0:2:0:0:
236,26,75414,2,0,P|158:44|104:54,1,118.999996368408,12|2,0:2|0:2,0:2:0:0:
10,159,75950,6,0,P|65:151|113:237,1,136,4|0,3:2|0:2,0:2:0:0:
202,319,76486,1,0,3:2:0:0:
202,319,76575,1,0,3:2:0:0:
202,319,76664,2,0,P|96:339|61:347,1,136,8|2,0:2|0:2,0:2:0:0:
226,189,77200,1,2,0:2:0:0:
343,286,77379,6,0,P|331:349|323:403,2,102,6|4|6,0:3|0:3|0:3,0:2:0:0:
410,161,78093,2,0,P|443:203|505:201,1,102,10|8,0:2|0:2,0:2:0:0:
512,189,78450,1,2,3:2:0:0:
398,61,78629,1,8,0:2:0:0:
298,192,78807,6,0,P|220:208|147:223,1,136,4|8,3:2|0:2,0:2:0:0:
41,81,79343,2,0,P|80:122|161:94,1,136,0|0,3:2|3:2,0:2:0:0:
236,6,79879,2,0,P|296:19|325:25,1,68,10|2,0:2|0:2,0:2:0:0:
410,145,80236,5,0,3:2:0:0:
483,26,80414,1,0,3:2:0:0:
307,110,80593,1,8,0:2:0:0:
491,221,80772,2,0,P|477:285|460:373,1,136,0|0,3:2|3:2,0:2:0:0:
401,155,81307,1,10,0:2:0:0:
401,155,81486,1,2,0:2:0:0:
308,273,81664,5,14,0:2:0:0:
279,290,81753,1,8,0:2:0:0:
245,293,81842,1,8,0:2:0:0:
214,282,81931,1,8,0:2:0:0:
191,257,82022,2,0,L|200:206,1,34,10|8,0:2|0:2,0:2:0:0:
94,144,82200,5,10,0:2:0:0:
89,153,82289,1,8,0:2:0:0:
85,161,82379,2,0,L|45:172,1,34,8|8,0:2|0:2,0:0:0:0:
200,67,82557,1,10,0:2:0:0:
205,76,82646,1,8,0:2:0:0:
209,84,82736,2,0,L|249:95,1,34,8|8,0:2|0:2,0:0:0:0:
120,2,82914,1,10,0:2:0:0:
331,133,83093,5,12,0:2:0:0:
81,247,83272,1,4,0:2:0:0:
175,339,83807,6,0,L|179:305,3,34,2|2|2|2,0:2|0:2|0:2|0:2,0:2:0:0:
81,247,84164,2,0,L|85:280,3,34,2|2|2|2,0:2|0:2|0:2|0:2,0:2:0:0:
196,223,84522,6,0,B|298:195|262:263|368:238,1,178.499994552612,6|8,3:2|0:2,0:2:0:0:
334,64,85057,1,8,0:2:0:0:
334,64,85147,1,8,0:2:0:0:
334,64,85236,2,0,P|327:108|321:152,1,89.2499972763062,0|0,3:2|0:2,0:2:0:0:
196,223,85593,1,10,0:2:0:0:
149,29,85772,1,2,0:2:0:0:
321,153,85950,6,0,B|388:144|388:144|430:169|430:169|491:159,1,178.499994552612,2|10,3:2|0:2,0:2:0:0:
321,24,86486,1,10,0:2:0:0:
321,24,86575,1,8,0:2:0:0:
321,24,86664,1,0,3:2:0:0:
374,233,86843,1,2,0:2:0:0:
172,110,87022,2,0,P|215:99|259:91,1,89.2499972763062,8|0,0:2|0:2,0:0:0:0:
428,324,87379,6,0,P|363:267|279:282,1,178.499994552612,6|8,3:2|0:2,0:2:0:0:
71,192,87914,1,10,0:2:0:0:
71,192,88004,1,8,0:2:0:0:
71,192,88093,2,0,P|77:236|84:280,1,89.2499972763062,0|0,3:2|0:2,0:2:0:0:
212,129,88450,2,0,P|218:84|225:40,1,89.2499972763062,10|0,0:2|0:2,0:2:0:0:
379,172,88807,6,0,B|338:143|288:160|288:160|275:203|229:210,1,178.499994552612,2|8,3:2|0:2,0:2:0:0:
71,192,89343,1,10,0:2:0:0:
71,192,89432,1,8,0:2:0:0:
71,192,89522,1,0,0:2:0:0:
299,76,89700,1,2,0:2:0:0:
116,0,89879,1,10,0:2:0:0:
228,210,90057,1,2,0:2:0:0:
447,59,90236,6,0,B|459:123|459:123|437:163|437:163|448:229,1,178.499994552612,6|10,3:2|0:2,0:2:0:0:
277,360,90772,1,10,0:2:0:0:
277,360,90861,1,8,0:2:0:0:
277,360,90950,1,0,3:2:0:0:
328,152,91129,1,2,0:2:0:0:
482,320,91307,2,0,P|438:314|394:306,1,89.2499972763062,8|8,0:2|0:2,0:0:0:0:
216,141,91664,6,0,P|131:126|68:185,1,178.499994552612,6|10,3:2|0:2,0:2:0:0:
147,312,92200,1,8,0:2:0:0:
147,312,92289,1,8,0:2:0:0:
147,312,92379,2,0,P|153:268|161:224,1,89.2499972763062,2|0,3:2|0:2,0:2:0:0:
328,152,92736,1,10,0:2:0:0:
184,55,92914,1,0,0:2:0:0:
267,218,93093,6,0,B|320:258|365:233|365:233|388:204|429:204,1,178.499994552612,6|10,3:2|0:2,0:2:0:0:
371,0,93629,1,10,0:2:0:0:
371,0,93718,1,8,0:2:0:0:
371,0,93807,1,8,0:2:0:0:
267,218,93986,1,8,0:2:0:0:
206,46,94164,1,10,0:2:0:0:
22,262,94343,6,0,B|76:249|76:249|142:268|166:325,1,178.499994552612,6|0,3:2|3:2,0:2:0:0:
328,152,94879,1,8,0:2:0:0:
125,124,95057,1,2,0:2:0:0:
125,124,95147,1,2,0:0:0:0:
125,124,95236,2,0,L|132:167,1,44.6249986381531,10|0,0:2|0:0,0:0:0:0:
259,261,95414,2,0,L|267:218,1,44.6249986381531,10|8,0:2|0:2,0:0:0:0:
203,63,95593,1,10,0:2:0:0:
241,84,95682,1,8,0:2:0:0:
285,81,95771,1,10,0:2:0:0:
321,56,95860,1,8,0:2:0:0:
338,15,95950,6,0,B|392:-3|432:23|432:23|451:61|495:65,1,178.499994552612,6|8,3:2|0:2,0:2:0:0:
344,239,96486,1,10,0:2:0:0:
344,239,96575,1,8,0:2:0:0:
344,239,96664,2,0,P|335:195|328:151,1,89.2499972763062,0|0,3:2|0:2,0:2:0:0:
512,290,97022,2,0,P|448:278|400:322,1,133.874995914459,10|0,0:2|0:0,0:2:0:0:
384,364,97379,6,0,P|340:355|296:348,1,89.2499972763062,6|0,3:2|0:0,0:2:0:0:
101,309,97736,1,8,0:2:0:0:
244,174,97914,5,10,0:2:0:0:
244,174,98004,1,8,0:2:0:0:
244,174,98093,1,0,3:2:0:0:
187,384,98272,1,0,0:2:0:0:
33,234,98450,2,0,P|76:223|119:213,1,89.2499972763062,10|8,0:2|0:2,0:0:0:0:
321,56,98807,6,0,P|386:72|451:88,1,133.874995914459,4|0,3:2|0:0,0:2:0:0:
494,101,99164,1,10,0:2:0:0:
331,235,99343,1,2,0:2:0:0:
331,235,99432,1,2,0:0:0:0:
331,235,99522,1,2,3:2:0:0:
512,295,99700,1,2,0:2:0:0:
360,114,99879,1,8,0:2:0:0:
204,321,100057,6,0,B|258:294|299:319|299:319|314:355|358:365,1,178.499994552612,6|0,3:2|3:2,0:2:0:0:
434,169,100593,1,8,0:2:0:0:
239,225,100772,1,10,0:2:0:0:
239,225,100861,1,8,0:2:0:0:
239,225,100950,1,2,3:2:0:0:
303,57,101129,1,2,3:2:0:0:
364,261,101307,1,10,0:2:0:0:
132,168,101486,5,10,0:2:0:0:
132,168,101575,1,8,0:2:0:0:
132,168,101664,2,0,B|81:160|29:151|29:151|-10:176|-1:213,1,178.499994552612,6|8,3:2|0:2,0:2:0:0:
222,124,102200,1,10,0:2:0:0:
222,124,102289,1,8,0:2:0:0:
222,124,102379,1,2,3:2:0:0:
173,327,102557,1,2,0:2:0:0:
364,261,102736,1,10,0:2:0:0:
132,168,102914,1,2,0:2:0:0:
336,5,103093,6,0,P|322:93|310:181,1,178.499994552612,6|8,3:2|0:2,0:2:0:0:
279,341,103629,1,0,3:2:0:0:
469,237,103807,5,10,0:2:0:0:
222,124,103986,1,8,0:2:0:0:
222,124,104075,1,8,0:2:0:0:
222,124,104164,2,0,L|229:167,1,44.6249986381531,10|8,0:2|0:2,0:0:0:0:
372,230,104343,2,0,L|364:273,1,44.6249986381531,8|4,0:3|0:3,0:0:0:0:
279,341,104522,5,12,0:2:0:0:
469,237,104700,1,0,3:3:0:0:
310,155,104879,1,0,3:2:0:0:
412,339,105057,5,12,0:2:0:0:
178,280,105236,1,0,3:0:0:0:
410,149,105414,1,0,3:2:0:0:
279,341,105593,5,8,0:2:0:0:
157,148,105772,2,0,B|203:113|203:113|269:103|310:155,1,178.499994552612,4|0,0:2|3:2,0:2:0:0:
469,237,106307,1,8,0:2:0:0:
443,61,106486,1,2,0:0:0:0:
443,61,106575,1,2,0:0:0:0:
443,61,106664,1,8,0:2:0:0:
324,247,106843,5,8,0:2:0:0:
357,231,106932,1,8,0:0:0:0:
394,230,107021,1,8,0:2:0:0:
428,244,107110,1,8,0:2:0:0:
454,270,107200,1,8,0:2:0:0:
467,305,107289,1,8,0:2:0:0:
465,342,107379,6,0,B|430:310|383:323|383:323|362:373|297:379,1,178.499994552612,6|8,3:2|0:2,0:2:0:0:
126,200,107914,1,8,0:2:0:0:
126,200,108004,1,8,0:2:0:0:
126,200,108093,1,0,3:2:0:0:
294,280,108272,1,0,0:2:0:0:
95,383,108450,1,10,0:2:0:0:
197,271,108629,1,2,0:2:0:0:
5,134,108807,6,0,P|18:189|36:266,1,133.874995914459,2|0,3:2|0:0,0:2:0:0:
41,294,109164,1,8,0:2:0:0:
215,146,109343,1,10,0:2:0:0:
215,146,109432,1,8,0:2:0:0:
215,146,109522,1,0,3:2:0:0:
266,357,109700,1,2,0:2:0:0:
135,267,109879,2,0,P|175:257|242:245,1,89.2499972763062,8|0,0:2|0:2,0:0:0:0:
366,44,110236,6,0,B|342:65|319:87|319:87|260:85|215:30,1,178.499994552612,6|8,3:2|0:2,0:2:0:0:
472,114,110772,1,10,0:2:0:0:
472,114,110861,1,8,0:2:0:0:
472,114,110950,2,0,P|482:64|494:25,1,89.2499972763062,0|0,3:2|0:2,0:2:0:0:
399,222,111307,2,0,P|442:231|485:243,1,89.2499972763062,10|0,0:2|0:2,0:2:0:0:
233,377,111664,6,0,B|273:392|295:363|295:363|283:307|270:238,1,178.499994552612,2|8,3:2|0:2,0:2:0:0:
29,277,112200,1,2,0:2:0:0:
60,264,112289,1,2,0:2:0:0:
93,264,112378,1,8,0:2:0:0:
124,275,112467,1,8,0:2:0:0:
149,296,112557,1,8,0:2:0:0:
266,138,112736,2,0,P|223:148|162:158,1,89.2499972763062,10|10,0:2|0:2,0:0:0:0:
151,151,113004,5,8,0:2:0:0:
151,151,113093,2,0,P|118:73|185:12,1,178.499994552612,6|10,3:2|0:2,0:2:0:0:
382,108,113629,1,10,0:2:0:0:
382,108,113718,1,8,0:2:0:0:
382,108,113807,1,0,3:2:0:0:
252,226,113986,2,0,P|257:183|267:130,1,89.2499972763062,2|8,0:2|0:2,0:0:0:0:
442,241,114343,1,2,0:2:0:0:
213,379,114522,6,0,P|118:359|31:345,1,178.499994552612,6|10,3:2|0:2,0:2:0:0:
215,202,115057,1,8,0:2:0:0:
215,202,115147,1,8,0:2:0:0:
215,202,115236,2,0,P|166:210|113:220,1,89.2499972763062,2|0,3:2|0:2,0:2:0:0:
27,45,115593,2,0,P|79:88|144:75,1,133.874995914459,10|0,0:2|0:0,0:2:0:0:
163,58,115950,5,6,3:2:0:0:
254,229,116129,2,0,L|263:188,3,29.7499990921021,0|0|0|10,3:0|3:0|3:0|3:2,0:0:0:0:
60,365,116486,2,0,B|128:353|128:353|160:316|160:316|240:303,1,178.499994552612,2|0,3:2|3:2,0:2:0:0:
64,215,117022,1,10,0:2:0:0:
226,338,117200,6,0,B|266:303|317:315|317:315|334:355|387:372,1,178.499994552612,6|0,3:2|3:2,0:2:0:0:
510,243,117736,2,0,P|466:253|421:261,1,89.2499972763062,8|2,0:2|0:2,0:0:0:0:
313,163,118093,1,0,3:2:0:0:
505,22,118272,1,8,0:2:0:0:
487,54,118361,1,8,0:2:0:0:
460,79,118450,1,10,0:2:0:0:
425,92,118539,1,8,0:2:0:0:
388,92,118629,1,8,0:2:0:0:
354,79,118718,1,8,0:2:0:0:
326,54,118807,6,0,P|311:119|294:208,1,133.874995914459,6|0,3:2|3:2,0:2:0:0:
294,211,119164,1,8,0:2:0:0:
65,106,119343,2,0,P|119:48|209:65,1,178.499994552612,2|0,3:2|3:2,0:2:0:0:
87,230,119879,2,0,P|41:219|-4:210,1,89.2499972763062,8|0,0:2|0:2,0:2:0:0:
106,353,120236,5,2,3:2:0:0:
300,250,120414,1,0,3:2:0:0:
157,151,120593,1,8,0:2:0:0:
299,358,120772,2,0,B|405:335|361:403|475:371,1,178.499994552612,2|2,3:2|3:2,0:2:0:0:
426,136,121307,1,10,0:2:0:0:
406,272,121486,1,2,0:2:0:0:
512,98,121664,6,0,P|466:48|354:74,1,178.499994552612,6|8,3:2|0:2,0:2:0:0:
240,192,122200,2,0,B|254:129|254:129|234:90|234:90|257:-13,1,178.499994552612,2|0,3:2|3:2,0:2:0:0:
240,192,122736,1,10,0:2:0:0:
49,71,122914,1,2,0:2:0:0:
108,272,123093,6,0,P|112:227|123:170,1,89.2499972763062,0|2,3:2|3:2,0:0:0:0:
150,73,123450,1,8,0:2:0:0:
11,330,123629,2,0,B|52:296|98:308|98:308|119:349|176:359,1,178.499994552612,0|0,3:2|3:2,0:2:0:0:
363,169,124164,1,10,0:2:0:0:
189,255,124343,1,0,0:2:0:0:
372,373,124522,6,0,P|328:362|267:351,1,89.2499972763062,12|0,0:2|0:2,0:2:0:0:
512,194,124879,5,8,0:2:0:0:
335,271,125057,1,0,3:2:0:0:
453,89,125236,5,8,0:2:0:0:
308,256,125414,1,0,3:2:0:0:
342,39,125593,5,8,0:2:0:0:
281,257,125772,1,0,3:2:0:0:
197,55,125950,5,12,0:2:0:0:
197,55,126307,1,8,0:2:0:0:
382,166,126486,1,0,3:2:0:0:
134,136,126664,5,8,0:2:0:0:
319,25,126843,1,0,3:2:0:0:
31,116,127022,5,8,0:2:0:0:
37,148,127111,1,8,0:2:0:0:
43,181,127200,1,8,0:2:0:0:
49,214,127289,1,8,0:2:0:0:
55,247,127379,1,12,0:2:0:0:
244,185,127557,2,0,P|198:172|141:161,1,89.2499972763062,0|0,3:2|3:2,0:0:0:0:
23,355,127914,5,12,0:2:0:0:
242,272,128093,1,0,3:2:0:0:
43,181,128272,1,0,3:2:0:0:
216,369,128450,1,12,0:2:0:0:
324,114,128629,1,0,3:2:0:0:
122,270,128807,5,14,0:2:0:0:
452,366,129343,1,2,3:2:0:0:
452,366,129432,1,0,3:2:0:0:
452,366,129522,1,10,0:2:0:0:
388,242,129700,2,0,B|367:355|367:355|391:385|437:372,1,178.499994552612,2|0,3:2|0:2,0:2:0:0:
281,237,130236,6,0,P|218:236|176:306,1,136,6|0,3:2|0:2,0:2:0:0:
6,227,130772,1,0,3:2:0:0:
103,368,130950,2,0,P|92:274|83:217,1,136,10|0,0:2|0:2,0:2:0:0:
182,14,131664,6,0,P|170:65|156:126,2,102,4|4|4,0:3|0:3|0:3,0:2:0:0:
378,74,132379,2,0,P|334:71|273:124,1,102,10|0,0:2|0:2,0:2:0:0:
264,108,132736,2,0,P|276:148|284:192,1,68,2|8,3:2|0:2,0:2:0:0:
185,343,133093,6,0,P|221:302|304:305,1,136,6|0,3:2|0:2,0:2:0:0:
435,379,133629,1,2,3:2:0:0:
429,220,133807,2,0,P|410:268|403:291,1,68,8|0,0:2|0:0,0:2:0:0:
298,138,134164,2,0,P|317:186|324:209,1,68,2|0,0:2|0:0,0:0:0:0:
374,65,134522,5,2,3:2:0:0:
218,187,134700,1,2,3:2:0:0:
218,187,134789,1,0,3:2:0:0:
218,187,134879,1,2,0:0:0:0:
347,215,135057,1,2,3:2:0:0:
239,59,135236,2,0,P|196:45|121:97,1,136,8|8,0:2|0:2,0:2:0:0:
115,120,135682,1,8,0:2:0:0:
115,120,135772,2,0,L|126:168,1,34,8|8,0:2|0:2,0:0:0:0:
50,265,135950,6,0,P|117:259|168:317,1,136,6|8,3:2|0:2,0:2:0:0:
274,192,136486,1,0,0:2:0:0:
274,192,136575,1,0,3:2:0:0:
274,192,136664,2,0,P|232:209|205:220,1,68,0|0,3:2|0:0,0:2:0:0:
253,371,137022,2,0,P|263:324|273:292,1,68,8|0,0:2|0:2,0:0:0:0:
369,182,137379,6,0,P|428:204|477:220,1,102,6|0,3:2|0:0,0:2:0:0:
496,222,137736,2,0,P|488:176|481:136,1,68,10|0,0:2|0:2,0:2:0:0:
441,309,138093,2,0,P|435:342|429:375,1,68,2|0,3:2|0:2,0:2:0:0:
245,298,138450,2,0,P|279:264|345:276,1,102,10|0,0:2|0:2,0:2:0:0:
346,283,138807,5,6,3:2:0:0:
184,204,138986,1,0,3:2:0:0:
184,204,139343,2,0,P|136:194|102:190,1,68,8|8,0:3|0:3,0:0:0:0:
5,293,139700,1,4,0:3:0:0:
5,293,139879,2,0,P|63:285|91:280,1,68,4|4,0:3|0:3,0:0:0:0:
35,131,140236,1,6,3:2:0:0:
35,131,141664,5,2,0:2:0:0:
500,236,155950,6,0,P|434:224|381:263,1,136,6|0,3:2|0:0,0:2:0:0:
276,316,156486,2,0,P|287:248|299:182,1,136,0|0,3:2|3:2,0:0:0:0:
174,102,157022,1,10,0:2:0:0:
292,66,157200,1,2,3:2:0:0:
206,194,157379,6,0,P|153:153|88:166,1,136,2|0,3:2|0:2,0:2:0:0:
13,295,157914,2,0,P|65:254|130:267,1,136,0|0,3:2|0:2,0:2:0:0:
209,327,158450,2,0,P|242:321|275:315,1,68,10|2,0:2|3:2,0:0:0:0:
425,172,158807,6,0,B|379:200|379:200|299:179,1,136,2|0,3:2|0:2,0:2:0:0:
186,35,159343,1,0,3:2:0:0:
186,35,159522,2,0,P|179:68|173:101,1,68,2|0,0:2|3:2,0:2:0:0:
75,160,159879,1,10,0:2:0:0:
36,48,160057,1,2,3:2:0:0:
0,215,160236,6,0,P|65:208|114:252,1,136,0|0,3:2|0:0,0:0:0:0:
240,89,160772,2,0,P|206:95|173:101,1,68,8|0,0:2|0:2,0:0:0:0:
300,180,161129,1,0,3:2:0:0:
402,134,161307,2,0,P|395:100|389:67,1,68,10|0,0:2|0:0,0:0:0:0:
512,307,161664,6,0,B|494:275|449:270|449:270|392:289,1,136,2|2,3:2|0:2,0:2:0:0:
348,369,162200,2,0,P|305:318|312:252,1,136,2|0,3:2|3:2,0:2:0:0:
240,89,162736,2,0,P|233:122|227:155,1,68,10|0,0:2|3:2,0:0:0:0:
110,259,163093,5,2,3:2:0:0:
193,309,163272,1,0,3:2:0:0:
45,337,163450,1,0,0:0:0:0:
92,176,163629,1,8,0:2:0:0:
92,176,163986,5,0,3:2:0:0:
193,309,164164,2,0,P|200:275|209:242,1,68,10|2,0:2|3:2,0:0:0:0:
300,180,164522,6,0,P|355:217|421:209,1,136,2|2,3:2|0:2,0:2:0:0:
423,53,165057,2,0,B|384:38|358:73|358:73|372:133,1,136,2|0,3:2|3:2,0:2:0:0:
405,274,165593,2,0,P|412:240|421:207,1,68,10|0,0:2|0:2,0:2:0:0:
460,353,165950,5,14,0:2:0:0:
308,300,166129,2,0,P|233:293|178:342,1,152.999995330811,0|8,3:2|0:2,0:2:0:0:
0,272,166664,1,2,3:2:0:0:
92,176,166843,1,8,0:2:0:0:
107,202,166932,1,8,0:2:0:0:
132,222,167021,1,8,0:2:0:0:
162,232,167110,1,8,0:2:0:0:
194,231,167200,2,0,L|230:218,1,38.2499988327027,8|0,0:2|0:0,0:0:0:0:
290,137,167379,1,6,3:2:0:0:
290,137,167736,5,8,0:2:0:0:
463,332,167914,2,0,B|436:298|383:308|383:308|374:353|301:368,1,170,0|0,3:2|3:2,0:2:0:0:
136,237,168450,1,10,0:2:0:0:
212,379,168629,5,10,0:2:0:0:
212,379,168718,1,8,0:2:0:0:
212,379,168807,2,0,P|218:344|227:288,1,85,2|0,3:2|0:0,0:2:0:0:
28,204,169164,2,0,P|34:245|41:287,1,85,8|0,0:2|0:0,0:0:0:0:
222,152,169522,1,0,3:2:0:0:
48,86,169700,1,0,3:2:0:0:
271,20,169879,1,10,0:2:0:0:
116,194,170057,1,8,0:2:0:0:
336,292,170236,1,2,3:2:0:0:
336,292,170593,6,0,P|376:283|444:274,1,85,8|0,0:2|0:0,0:0:0:0:
497,103,170950,1,2,3:2:0:0:
347,183,171129,1,0,3:2:0:0:
385,0,171307,2,0,P|391:32|404:104,1,85,10|2,0:2|0:2,0:2:0:0:
239,228,171664,6,0,P|216:166|278:91,1,170,4|10,3:2|0:2,0:2:0:0:
430,200,172200,2,0,P|388:189|346:182,1,85,0|0,3:2|0:0,0:2:0:0:
174,347,172557,1,0,3:2:0:0:
174,347,172647,1,0,3:2:0:0:
174,347,172736,1,10,0:2:0:0:
363,288,172914,1,8,0:2:0:0:
363,288,173004,1,8,0:2:0:0:
363,288,173093,1,6,3:2:0:0:
363,288,173450,5,8,0:2:0:0:
182,204,173629,2,0,P|91:221|7:236,1,170,0|0,3:2|3:2,0:2:0:0:
106,16,174164,2,0,P|79:46|90:100,1,85,10|10,0:2|0:2,0:0:0:0:
112,113,174432,5,8,0:2:0:0:
112,113,174522,2,0,B|147:80|195:90|195:90|211:131|257:147,1,170,2|8,3:2|0:2,0:2:0:0:
399,7,175057,2,0,P|390:45|381:111,1,85,0|0,3:2|0:2,0:2:0:0:
434,212,175414,1,0,3:2:0:0:
279,60,175593,1,10,0:2:0:0:
492,0,175772,1,2,3:2:0:0:
307,180,175950,1,4,3:2:0:0:
307,180,176307,5,10,0:2:0:0:
489,126,176486,1,2,3:2:0:0:
284,274,176664,5,8,0:2:0:0:
512,322,176843,1,0,3:2:0:0:
394,112,177022,5,10,0:2:0:0:
326,359,177200,1,2,3:2:0:0:
138,244,177379,6,0,P|167:224|217:227,1,85,8|8,0:2|0:2,0:0:0:0:
238,243,177647,1,8,0:2:0:0:
238,243,177736,1,8,0:2:0:0:
19,317,177914,2,0,L|12:274,1,42.5,8|0,0:3|0:0,0:0:0:0:
40,53,178093,5,4,0:3:0:0:
77,33,178182,1,4,0:3:0:0:
119,34,178271,1,8,0:3:0:0:
156,54,178360,1,8,0:3:0:0:
179,88,178450,1,0,3:2:0:0:
202,122,178540,1,0,3:0:0:0:
239,142,178629,1,8,0:2:0:0:
281,143,178718,1,8,0:2:0:0:
318,123,178807,6,0,P|359:86|431:98,1,114.749996498108,4|0,3:2|0:0,0:2:0:0:
441,84,179164,2,0,P|431:148|419:191,1,76.4999976654053,2|2,3:2|0:2,0:0:0:0:
512,266,179522,2,0,B|420:237|448:300|353:272,1,152.999995330811,2|2,3:2|3:2,0:0:0:0:
231,193,180057,1,2,0:2:0:0:
243,354,180236,6,0,P|258:302|272:269,1,76.4999976654053,0|0,3:2|0:0,0:2:0:0:
126,174,180593,2,0,P|139:209|149:246,1,76.4999976654053,2|2,3:2|0:2,0:0:0:0:
200,95,180950,2,0,P|165:63|69:76,1,114.749996498108,2|2,3:2|0:2,0:0:0:0:
73,51,181308,2,0,P|37:76|-3:80,1,76.4999976654053,2|2,3:2|0:2,0:0:0:0:
223,189,181664,6,0,B|264:179|282:151|282:151|331:155|355:191,1,152.999995330811,0|0,3:2|3:2,0:2:0:0:
486,317,182200,1,0,0:2:0:0:
481,133,182379,2,0,P|451:195|434:244,2,114.749996498108,2|2|2,3:3|0:3|3:3,0:2:0:0:
353,333,183093,5,2,3:2:0:0:
293,137,183272,1,0,3:2:0:0:
435,238,183450,1,2,3:2:0:0:
235,333,183629,2,0,P|203:292|107:302,1,152.999995330811,10|8,0:2|0:2,0:2:0:0:
256,200,184164,1,10,0:2:0:0:
83,138,184343,5,4,0:3:0:0:
83,138,184432,1,4,0:3:0:0:
83,138,184522,2,0,P|176:122|255:104,1,152.999995330811,6|0,3:2|0:2,0:2:0:0:
395,21,185057,1,0,3:2:0:0:
330,180,185236,2,0,P|335:114|340:84,1,76.4999976654053,12|2,0:2|3:2,0:0:0:0:
421,250,185593,1,2,0:2:0:0:
227,185,185772,1,2,3:2:0:0:
426,129,185950,5,10,0:2:0:0:
263,287,186129,1,8,0:2:0:0:
478,341,186307,1,0,3:2:0:0:
341,180,186486,1,2,3:2:0:0:
227,360,186664,2,0,P|217:291|205:235,1,114.749996498108,12|0,0:2|0:0,0:2:0:0:
184,233,187022,2,0,P|197:180|202:146,1,76.4999976654053,2|8,3:2|0:2,0:0:0:0:
16,70,187379,6,0,P|16:124|111:155,1,152.999995330811,6|0,3:2|3:2,0:2:0:0:
272,51,187914,2,0,B|190:20|190:20|151:33|146:69,1,152.999995330811,8|0,0:2|3:2,0:2:0:0:
271,199,188450,1,10,0:2:0:0:
373,60,188629,1,10,0:2:0:0:
194,142,188808,5,8,0:2:0:0:
407,197,188986,1,0,3:2:0:0:
272,51,189164,1,0,3:2:0:0:
350,285,189343,2,0,P|398:242|502:263,1,152.999995330811,8|0,0:2|3:2,0:2:0:0:
276,366,189879,2,0,P|218:351|194:339,1,76.4999976654053,10|2,0:2|3:2,0:0:0:0:
118,124,190236,5,6,3:2:0:0:
245,260,190414,1,0,0:0:0:0:
308,62,190593,1,2,3:2:0:0:
133,244,190772,1,10,0:2:0:0:
133,244,191129,5,10,0:2:0:0:
65,33,191307,1,0,3:2:0:0:
257,154,191486,1,2,3:2:0:0:
20,159,191664,5,12,0:2:0:0:
270,19,191843,1,12,0:2:0:0:
502,264,193093,6,0,P|459:260|431:233,1,68,4|0,3:2|3:2,0:0:0:0:
423,221,193361,2,0,P|440:168|453:103,1,102,0|8,3:2|0:3,0:2:0:0:
291,140,193807,1,8,0:2:0:0:
430,22,193986,1,8,0:2:0:0:
329,249,194164,1,8,0:2:0:0:
285,256,194253,1,8,0:2:0:0:
242,246,194342,1,8,0:2:0:0:
208,219,194431,1,8,0:2:0:0:
188,180,194522,6,0,B|145:140|91:158|91:158|72:195|35:202,1,178.499994552612,6|8,3:2|0:2,0:2:0:0:
151,342,195057,1,8,0:2:0:0:
151,342,195147,1,8,0:2:0:0:
151,342,195236,2,0,L|130:255,1,89.2499972763062,0|0,3:2|0:2,0:2:0:0:
290,156,195593,1,10,0:2:0:0:
143,62,195772,1,2,0:2:0:0:
242,246,195950,6,0,P|305:187|390:202,1,178.499994552612,2|10,3:2|0:2,0:2:0:0:
350,360,196486,2,0,P|342:316|331:272,1,89.2499972763062,10|0,0:2|3:2,0:0:0:0:
498,177,196843,1,2,0:2:0:0:
322,106,197022,1,8,0:2:0:0:
457,32,197200,1,0,0:2:0:0:
390,202,197379,6,0,B|288:180|327:260|223:239,1,178.499994552612,6|8,3:2|0:2,0:2:0:0:
16,115,197914,1,10,0:2:0:0:
16,115,198004,1,8,0:2:0:0:
16,115,198093,2,0,P|28:157|35:201,1,89.2499972763062,0|0,3:2|0:2,0:2:0:0:
101,365,198450,2,0,P|108:320|120:278,1,89.2499972763062,10|0,0:2|0:2,0:2:0:0:
218,153,198807,6,0,P|303:177|389:201,1,178.499994552612,6|8,3:2|0:2,0:2:0:0:
496,45,199343,1,2,0:2:0:0:
330,97,199522,1,8,0:2:0:0:
330,97,199611,1,8,0:2:0:0:
330,97,199700,1,8,0:2:0:0:
482,189,199879,1,10,0:2:0:0:
363,295,200057,5,10,0:2:0:0:
363,295,200147,1,8,0:2:0:0:
363,295,200236,2,0,P|309:228|224:239,1,178.499994552612,6|10,3:2|0:2,0:2:0:0:
41,355,200772,2,0,P|33:310|21:268,1,89.2499972763062,10|0,0:2|3:2,0:0:0:0:
147,130,201129,2,0,P|134:172|127:216,1,89.2499972763062,2|10,0:2|0:2,0:0:0:0:
230,184,201486,1,2,0:2:0:0:
56,91,201664,6,0,P|118:31|203:45,1,178.499994552612,6|10,3:2|0:2,0:2:0:0:
434,121,202200,1,8,0:2:0:0:
434,121,202289,1,8,0:2:0:0:
434,121,202379,2,0,L|455:34,1,89.2499972763062,2|0,3:2|0:2,0:2:0:0:
341,218,202736,2,0,P|405:206|458:243,1,133.874995914459,10|0,0:2|0:0,0:2:0:0:
472,285,203093,6,0,B|378:266|406:337|303:319,1,178.499994552612,6|10,3:2|0:2,0:0:0:0:
138,264,203629,1,0,3:2:0:0:
268,161,203807,1,0,0:2:0:0:
203,354,203986,1,0,3:2:0:0:
39,217,204164,1,10,0:2:0:0:
299,248,204343,6,0,P|358:186|340:103,1,178.499994552612,6|0,3:2|3:2,0:2:0:0:
126,43,204879,2,0,L|147:130,1,89.2499972763062,8|2,0:2|0:2,0:0:0:0:
12,306,205236,5,0,3:2:0:0:
203,354,205414,1,8,0:2:0:0:
232,349,205503,1,8,0:2:0:0:
261,344,205592,1,10,0:2:0:0:
291,339,205681,1,8,0:2:0:0:
320,334,205771,1,8,0:2:0:0:
349,329,205860,1,8,0:2:0:0:
378,324,205950,6,0,P|424:277|420:212,1,133.874995914459,6|0,3:2|3:2,0:2:0:0:
388,181,206307,1,8,0:2:0:0:
502,54,206486,2,0,P|417:70|355:10,1,178.499994552612,2|0,3:2|3:2,0:2:0:0:
301,203,207022,2,0,P|344:191|387:180,1,89.2499972763062,10|0,0:2|0:2,0:2:0:0:
199,123,207379,5,2,3:2:0:0:
114,334,207557,1,0,3:2:0:0:
22,200,207736,1,8,0:2:0:0:
218,291,207914,2,0,B|317:273|274:337|388:319,1,178.499994552612,2|2,3:2|3:2,0:2:0:0:
507,179,208450,1,10,0:2:0:0:
348,237,208629,1,0,0:2:0:0:
218,61,208807,6,0,B|181:30|132:41|132:41|109:77|54:69,1,178.499994552612,6|10,3:2|0:2,0:2:0:0:
254,154,209343,2,0,P|316:95|299:9,1,178.499994552612,2|0,3:2|3:2,0:2:0:0:
254,154,209879,1,10,0:2:0:0:
77,113,210057,1,2,0:2:0:0:
140,274,210236,6,0,P|157:233|154:189,1,89.2499972763062,0|2,3:2|3:2,0:0:0:0:
36,339,210593,1,8,0:2:0:0:
209,370,210772,2,0,B|270:357|270:357|315:378|315:378|380:366,1,178.499994552612,0|0,3:2|3:2,0:0:0:0:
499,216,211307,5,10,0:2:0:0:
322,280,211486,1,2,0:2:0:0:
360,87,211664,2,0,P|374:129|387:172,1,89.2499972763062,12|0,0:2|0:2,0:2:0:0:
291,384,212022,5,8,0:2:0:0:
240,206,212200,1,0,3:2:0:0:
162,378,212379,5,8,0:2:0:0:
206,198,212557,1,0,3:2:0:0:
52,308,212736,5,8,0:2:0:0:
181,174,212914,1,0,3:2:0:0:
0,140,213093,1,12,0:2:0:0:
0,140,213450,5,8,0:2:0:0:
159,262,213629,1,0,3:2:0:0:
241,70,213807,5,8,0:2:0:0:
80,199,213986,1,0,3:2:0:0:
322,280,214164,1,8,0:2:0:0:
344,252,214253,1,8,0:2:0:0:
376,238,214342,1,8,0:2:0:0:
412,239,214431,1,8,0:2:0:0:
443,255,214521,5,12,0:2:0:0:
260,184,214700,1,0,3:2:0:0:
400,67,214879,1,0,3:2:0:0:
397,324,215057,6,0,B|308:307|327:372|225:353,1,178.499994552612,12|0,0:2|3:2,0:0:0:0:
19,289,215593,1,12,0:2:0:0:
159,200,215772,1,0,3:2:0:0:
3,77,215950,6,0,B|34:110|82:116|82:116|115:86|163:86,1,178.499994552612,6|0,3:2|0:0,0:2:0:0:
266,157,216486,1,2,3:2:0:0:
266,157,216575,1,0,3:2:0:0:
266,157,216664,1,8,0:2:0:0:
419,10,216843,6,0,B|379:-2|355:28|355:28|362:68|370:109,1,152.999995330811,2|0,3:2|0:2,0:2:0:0:
458,166,217379,6,0,P|483:126|465:77,1,85,14|0,0:2|0:2,0:2:0:0:
291,177,217736,1,0,3:2:0:0:
462,342,217914,2,0,B|441:301|382:304|382:304|358:344|292:347,1,170,12|0,0:2|3:2,0:2:0:0:
159,242,218450,6,0,B|221:260|221:260|195:366,1,170,12|0,0:2|0:0,0:2:0:0:
43,219,218986,1,0,3:2:0:0:
43,219,219075,1,0,3:2:0:0:
43,219,219164,1,8,0:2:0:0:
220,138,219343,1,0,3:2:0:0:
110,327,219522,2,0,P|65:314|20:306,1,85,8|8,0:2|0:3,0:0:0:0:
0,308,219789,1,4,0:3:0:0:
0,308,219879,1,0,3:2:0:0:
105,47,220057,2,0,L|120:112,1,42.5,8|8,0:2|0:2,0:0:0:0:
137,181,220236,5,4,3:2:0:0:
137,181,220593,1,0,3:2:0:0:
359,80,220772,2,0,P|313:33|211:54,1,170,12|0,0:2|3:2,0:0:0:0:
314,211,221307,2,0,P|354:201|410:192,1,85,4|0,3:2|0:0,0:2:0:0:
478,313,221664,5,0,3:2:0:0:
314,211,221843,1,0,3:2:0:0:
474,90,222022,2,0,P|498:116|489:181,1,85,8|0,0:2|3:2,0:0:0:0:
372,291,222379,5,8,0:3:0:0:
335,271,222468,1,4,0:3:0:0:
293,272,222557,1,8,0:2:0:0:
256,292,222646,1,8,0:0:0:0:
233,326,222736,1,8,0:2:0:0:
210,360,222826,1,8,0:2:0:0:
173,380,222915,1,8,0:2:0:0:
131,381,223004,1,8,0:2:0:0:
94,361,223093,6,0,P|101:317|110:274,1,85,12|0,0:2|0:0,0:2:0:0:
233,326,223450,1,0,3:2:0:0:
23,142,223629,2,0,B|9:179|38:203|38:203|93:189|170:175,1,170,8|0,0:2|3:2,0:2:0:0:
315,75,224164,6,0,P|263:17|171:35,1,170,12|4,0:2|0:3,0:2:0:0:
274,181,224700,1,0,3:2:0:0:
426,48,224879,2,0,P|433:85|441:133,1,85,0|0,0:2|3:2,0:0:0:0:
446,164,225147,1,8,0:2:0:0:
446,164,225236,1,0,3:2:0:0:
380,358,225414,1,8,0:2:0:0:
364,326,225503,1,8,0:2:0:0:
339,301,225592,1,8,0:2:0:0:
308,285,225681,1,8,0:2:0:0:
273,279,225771,1,8,0:2:0:0:
238,285,225860,1,8,0:2:0:0:
207,302,225950,6,0,P|165:311|111:322,1,85,6|2,3:2|3:2,0:2:0:0:
97,296,226218,1,2,0:2:0:0:
97,296,226307,2,0,P|101:269|107:243,1,42.5,2|2,3:2|3:2,0:0:0:0:
1,195,226486,2,0,P|4:215|8:236,1,42.5,2|2,3:2|0:2,0:0:0:0:
98,137,226664,6,0,P|101:116|105:95,3,42.5,2|2|10|2,3:2|0:2|0:2|0:2,0:0:0:0:
181,17,227022,2,0,P|184:37|188:58,3,42.5,2|2|2|2,3:2|0:2|3:2|0:2,0:0:0:0:
211,153,227379,5,6,3:2:0:0:
248,173,227468,1,2,0:2:0:0:
290,172,227557,1,2,0:2:0:0:
327,152,227646,1,2,0:2:0:0:
350,118,227736,1,2,3:2:0:0:
373,84,227826,1,2,0:2:0:0:
410,64,227915,1,2,0:2:0:0:
452,63,228004,1,2,0:2:0:0:
489,83,228093,5,2,3:2:0:0:
484,109,228182,1,2,0:2:0:0:
480,135,228271,1,2,0:2:0:0:
475,161,228360,1,2,0:2:0:0:
472,187,228450,1,2,3:2:0:0:
468,214,228539,1,2,0:2:0:0:
465,240,228628,1,2,0:2:0:0:
461,266,228717,1,2,0:2:0:0:
459,293,228807,6,0,P|397:276|326:261,1,127.5,12|0,0:2|0:0,0:0:0:0:
216,214,229164,2,0,P|234:209|258:201,1,42.5,0|0,3:2|0:0,0:0:0:0:
231,373,229343,6,0,P|195:339|114:344,1,127.5,8|0,0:2|0:0,0:2:0:0:
97,358,229700,1,0,3:2:0:0:
108,142,229879,2,0,L|123:199,1,42.5,0|0,3:2|0:2,0:2:0:0:
39,259,230057,2,0,L|28:217,1,42.5,8|0,0:3|0:2,0:2:0:0:
83,35,230236,6,0,P|124:45|165:53,1,85,8|4,0:3|0:3,0:0:0:0:
233,191,230593,1,0,3:2:0:0:
411,52,230772,2,0,P|337:32|268:97,1,170,8|8,0:3|0:2,0:2:0:0:
416,266,231307,1,8,0:2:0:0:
445,148,231486,1,8,0:2:0:0:
242,226,231664,5,8,0:2:0:0:
383,373,231843,1,8,0:2:0:0:
181,317,232022,1,8,0:2:0:0:
343,184,232200,1,8,0:2:0:0:
151,143,232379,5,8,0:2:0:0:
189,350,232557,1,8,0:2:0:0:
66,212,232736,1,8,0:2:0:0:
289,301,232914,1,8,0:2:0:0:
73,364,233093,5,8,0:2:0:0:
242,226,233272,1,8,0:3:0:0:
36,124,233450,1,8,0:3:0:0:
129,283,233629,1,4,0:3:0:0:
183,63,233807,1,0,3:2:0:0:
12,216,233986,6,0,P|36:221|85:234,1,42.5,2|2,3:2|0:2,0:0:0:0:
153,310,234164,2,0,P|173:305|194:300,1,42.5,2|2,3:2|0:2,0:2:0:0:
294,143,234343,2,0,P|273:138|252:133,1,42.5,2|2,3:2|0:2,0:2:0:0:
154,195,234522,5,12,0:2:0:0:
282,352,234700,2,0,P|302:319|290:271,1,85,0|0,0:0|3:2,0:0:0:0:
28,348,235057,2,0,B|65:316|112:328|112:328|131:374|186:385,1,170,12|0,0:2|3:2,0:2:0:0:
53,225,235593,1,8,0:2:0:0:
197,131,235772,2,0,P|188:161|170:237,1,85,12|0,0:2|0:0,0:2:0:0:
327,362,236129,5,8,0:2:0:0:
287,184,236307,1,8,0:2:0:0:
465,257,236486,1,8,0:2:0:0:
245,301,236664,1,8,0:2:0:0:
402,147,236843,1,8,0:2:0:0:
409,114,236932,1,8,0:2:0:0:
402,81,237021,1,8,0:2:0:0:
381,54,237110,1,8,0:2:0:0:
350,39,237200,1,8,0:2:0:0:
317,39,237289,1,8,0:2:0:0:
288,53,237379,6,0,P|240:117|106:98,1,204,6|0,3:2|0:0,0:2:0:0:
0,25,238093,1,2,3:2:0:0:
0,25,238272,2,0,B|36:26|50:51|50:51|32:125,1,136,0|0,3:2|0:2,0:2:0:0:
7,277,238807,6,0,B|43:230|105:236|105:236|135:288|206:279,1,204,2|0,3:2|0:0,0:2:0:0:
317,197,239522,1,2,3:2:0:0:
317,197,239700,2,0,B|268:219|268:219|291:316,1,136,0|0,3:2|0:2,0:2:0:0:
409,361,240236,6,0,P|441:315|526:326,1,136,6|0,3:2|0:2,0:2:0:0:
408,220,240772,1,2,0:2:0:0:
509,157,240950,2,0,P|492:218|489:237,1,68,0|0,3:2|3:2,0:2:0:0:
404,69,241307,2,0,P|421:130|424:149,1,68,2|0,0:2|0:2,0:2:0:0:
334,268,241664,6,0,P|223:250|116:236,1,204,2|0,3:2|0:0,0:2:0:0:
25,338,242379,2,0,P|68:328|102:322,1,68,2|0,3:2|3:2,0:0:0:0:
58,171,242736,2,0,P|45:214|38:246,1,68,2|0,0:2|3:2,0:0:0:0:
147,81,243093,6,0,B|218:61|281:51|281:51|307:71|335:104,1,204,14|0,0:2|0:0,0:2:0:0:
422,154,243807,2,0,P|432:109|439:69,1,68,8|0,0:2|0:0,0:2:0:0:
333,228,244164,2,0,P|339:261|346:294,1,68,2|2,0:2|3:2,0:0:0:0:
408,376,244522,6,0,P|347:335|282:366,1,136,10|0,0:2|0:2,0:2:0:0:
157,270,245057,1,0,3:2:0:0:
157,270,245147,1,8,0:2:0:0:
157,270,245236,1,10,0:2:0:0:
263,211,245414,2,0,P|250:257|239:287,1,68,8|0,0:2|0:0,0:2:0:0:
175,121,245772,5,0,3:2:0:0:
175,121,245950,2,0,P|92:102|32:92,2,136,10|8|8,0:2|0:2|0:2,0:2:0:0:
330,52,246843,1,0,0:2:0:0:
227,3,247022,2,0,P|240:50|251:85,1,68,8|0,0:2|0:2,0:2:0:0:
298,196,247379,5,10,0:2:0:0:
410,74,247557,2,0,L|457:67,2,34,8|8|8,0:2|0:2|0:2,0:2:0:0:
436,266,247914,1,8,0:2:0:0:
436,266,248004,1,8,0:2:0:0:
436,266,248093,1,8,0:2:0:0:
253,330,248272,1,8,0:2:0:0:
243,297,248361,1,8,0:2:0:0:
223,270,248450,1,8,0:2:0:0:
195,251,248539,1,8,0:2:0:0:
162,243,248629,1,8,0:2:0:0:
128,247,248718,1,8,0:2:0:0:
98,262,248807,5,6,3:2:0:0:
15,126,248986,1,8,0:2:0:0:
15,126,249075,1,8,0:2:0:0:
14,126,249164,2,0,P|51:137|88:147,1,76.4999976654053,8|8,0:2|0:2,0:0:0:0:
250,87,249522,1,10,0:2:0:0:
143,33,249700,1,8,0:2:0:0:
143,33,249789,1,8,0:2:0:0:
143,33,249879,1,8,0:2:0:0:
202,204,250057,2,0,L|193:241,1,38.2499988327027,8|8,0:2|0:2,0:0:0:0:
165,336,250236,5,10,0:2:0:0:
111,160,250414,1,8,0:2:0:0:
111,160,250504,1,8,0:2:0:0:
111,160,250593,1,8,0:2:0:0:
288,254,250772,1,8,0:2:0:0:
288,254,250861,1,8,0:2:0:0:
288,254,250950,2,0,P|325:247|363:242,1,76.4999976654053,10|8,0:2|0:2,0:0:0:0:
397,259,251218,1,8,0:2:0:0:
397,259,251307,1,8,0:2:0:0:
443,68,251486,5,8,0:2:0:0:
443,68,251575,1,8,0:2:0:0:
442,67,251664,2,0,P|368:61|314:112,1,152.999995330811,14|8,0:2|0:2,0:0:0:0:
359,266,252200,2,0,L|396:258,2,38.2499988327027,8|8|8,0:0|0:0|3:2,0:0:0:0:
279,350,252557,1,8,0:2:0:0:
279,350,252647,1,8,0:2:0:0:
279,350,252736,2,0,L|241:342,1,38.2499988327027,10|0,0:2|0:0,0:0:0:0:
202,204,252914,2,0,L|164:211,1,38.2499988327027,10|8,0:2|0:2,0:0:0:0:
93,290,253093,5,10,0:2:0:0:
294,215,253272,1,8,0:2:0:0:
294,215,253361,1,8,0:2:0:0:
294,215,253450,1,8,0:2:0:0:
170,77,253629,1,8,0:2:0:0:
170,77,253718,1,8,0:2:0:0:
170,77,253807,2,0,L|162:114,1,38.2499988327027,10|0,0:2|0:0,0:0:0:0:
55,175,253986,2,0,L|47:137,1,38.2499988327027,8|8,0:2|0:2,0:0:0:0:
202,204,254164,6,0,L|164:211,1,38.2499988327027,10|8,0:2|0:2,0:0:0:0:
55,297,254343,2,0,L|92:289,1,38.2499988327027,8|8,0:2|0:2,0:0:0:0:
284,338,254522,6,0,B|288:298|266:267|266:267|289:248|299:222|299:222|278:192|282:153,1,203.999993774414,12|0,0:2|3:2,0:2:0:0:
326,20,255057,2,0,B|377:5|402:42|402:42|385:108|372:156,1,203.999993774414,8|0,0:3|3:2,0:2:0:0:
118,308,255593,6,0,B|162:261|223:281|223:281|239:331|283:340,1,203.999993774414,4|0,0:3|3:2,0:2:0:0:
471,214,256129,2,0,P|375:191|306:260,1,203.999993774414,12|0,0:2|3:2,0:2:0:0:
161,114,256664,2,0,P|169:67|177:22,1,93.5000028533936,8|8,0:3|0:2,0:0:0:0:
281,90,257022,1,0,3:2:0:0:
55,175,257200,6,0,P|144:163|202:232,1,187.000005706787,14|0,0:2|3:2,0:2:0:0:
394,180,257736,1,8,0:2:0:0:
327,351,257914,1,0,3:2:0:0:
327,351,258004,1,0,3:2:0:0:
327,351,258093,2,0,P|315:305|306:259,1,93.5000028533936,8|0,0:2|3:2,0:0:0:0:
427,90,258450,1,10,0:2:0:0:
453,260,258629,1,2,0:2:0:0:
289,178,258807,1,14,0:2:0:0:
289,178,259164,5,0,3:2:0:0:
221,351,259343,1,8,0:3:0:0:
415,181,259522,1,4,0:3:0:0:
188,104,259700,1,0,3:2:0:0:
326,299,259879,1,8,0:2:0:0:
329,60,260057,1,8,0:2:0:0:
185,251,260236,6,0,B|154:225|110:231|110:231|89:263|44:274,1,152.999995330811,6|0,3:2|3:2,0:2:0:0:
127,115,260772,1,0,0:0:0:0:
13,85,260950,2,0,P|17:109|27:167,1,76.4999976654053,2|0,3:2|0:2,0:0:0:0:
147,3,261307,2,0,P|142:27|133:85,1,76.4999976654053,2|0,3:2|0:2,0:2:0:0:
288,168,261664,6,0,B|328:133|328:133|300:24,1,152.999995330811,2|0,3:2|3:2,0:2:0:0:
224,93,262200,1,0,0:0:0:0:
377,216,262379,2,0,P|409:208|457:199,1,76.4999976654053,2|2,3:2|0:2,0:0:0:0:
313,314,262736,2,0,P|350:321|387:329,1,76.4999976654053,2|0,3:2|0:2,0:0:0:0:
194,372,263093,6,0,P|134:328|59:351,1,152.999995330811,6|0,3:2|3:2,0:2:0:0:
18,190,263629,2,0,P|11:223|3:275,1,76.4999976654053,2|0,0:2|3:2,0:2:0:0:
130,200,263986,1,2,0:2:0:0:
74,69,264164,2,0,P|31:76|-18:89,1,76.4999976654053,2|0,3:2|0:0,0:2:0:0:
130,200,264522,6,0,B|188:212|188:212|216:240|216:240|283:254,1,152.999995330811,2|0,3:2|3:2,0:2:0:0:
389,379,265057,2,0,P|376:314|372:293,1,76.4999976654053,2|2,0:2|3:2,0:0:0:0:
388,180,265414,1,0,0:2:0:0:
286,356,265593,1,2,3:2:0:0:
481,279,265772,1,0,0:2:0:0:
290,82,265950,6,0,P|282:137|267:267,1,170,12|0,0:2|3:2,0:2:0:0:
118,70,266486,1,12,0:2:0:0:
19,287,266664,1,0,0:0:0:0:
187,144,266843,1,0,3:2:0:0:
5,183,267022,2,0,P|46:192|111:211,1,85,12|0,0:2|0:0,0:2:0:0:
256,64,267379,5,0,3:2:0:0:
363,311,267557,2,0,P|308:363|221:342,1,170,12|0,0:2|3:2,0:2:0:0:
313,168,268093,1,10,0:2:0:0:
498,263,268272,1,0,3:2:0:0:
450,42,268450,2,0,P|444:71|431:143,1,85,8|0,0:2|3:2,0:0:0:0:
430,155,268718,5,0,3:2:0:0:
430,155,268807,1,10,0:2:0:0:
134,68,268986,1,0,3:2:0:0:
341,1,269164,1,0,3:2:0:0:
165,291,269343,2,0,B|63:266|96:331|-11:307,1,170,12|0,0:2|3:2,0:2:0:0:
172,132,269879,6,0,B|252:141|298:220|298:220|255:63|341:1|341:1|298:71|347:149|458:136|459:52|450:34,1,637.500024318696,6|0,3:2|0:0,0:0:0:0:
256,192,271754,12,0,274522,0:0:0:0:
484,147,285950,6,0,P|445:106|359:117,1,136,6|0,3:2|3:2,0:2:0:0:
245,46,286486,2,0,P|267:142|275:188,1,136,8|0,0:3|0:2,0:2:0:0:
175,318,287022,2,0,P|190:250|199:224,1,68,4|0,0:3|0:0,0:0:0:0:
276,356,287379,5,10,0:2:0:0:
276,356,287557,2,0,P|330:346|353:342,1,68,8|0,0:3|0:2,0:2:0:0:
196,229,287914,2,0,P|149:217|72:270,1,136,4|0,0:3|0:2,0:2:0:0:
324,206,288450,2,0,P|343:139|349:113,1,68,4|0,0:3|0:0,0:0:0:0:
220,14,288807,6,0,P|234:91|239:131,1,102,4|0,3:2|0:0,0:2:0:0:
230,134,289164,1,2,0:2:0:0:
329,10,289343,1,2,0:2:0:0:
123,89,289522,1,6,3:2:0:0:
123,89,289700,2,0,P|81:73|46:66,1,68,2|0,0:2|0:2,0:2:0:0:
228,240,290057,6,0,B|271:245|303:209|303:209|368:216|377:277,1,170,14|0,0:2|3:2,0:2:0:0:
457,67,290593,1,8,0:3:0:0:
328,111,290772,1,2,3:2:0:0:
505,214,290950,1,10,0:2:0:0:
384,349,291129,1,10,0:2:0:0:
346,368,291218,1,8,0:2:0:0:
304,366,291307,1,10,0:2:0:0:
270,342,291396,1,8,0:2:0:0:
252,304,291486,2,0,L|263:256,1,42.5,10|8,0:2|0:2,0:0:0:0:
201,136,291664,6,0,P|139:119|66:195,1,170,6|0,3:2|3:2,0:2:0:0:
235,30,292200,2,0,L|279:14,2,42.5,2|2|2,0:2|0:2|3:2,0:2:0:0:
161,228,292557,1,2,0:2:0:0:
161,228,292647,1,2,0:2:0:0:
161,228,292736,1,2,3:2:0:0:
73,93,292914,1,0,0:2:0:0:
73,93,293004,1,0,0:0:0:0:
73,93,293093,5,8,0:2:0:0:
280,212,293272,1,8,0:2:0:0:
64,283,293450,1,8,0:2:0:0:
287,92,293629,1,8,0:2:0:0:
209,350,293807,5,8,0:2:0:0:
33,182,293986,1,8,0:2:0:0:
287,92,294164,1,8,0:2:0:0:
181,227,294343,1,8,0:2:0:0:
41,55,294522,6,0,B|83:23|136:32|136:32|154:76|200:89,1,170,12|0,0:2|3:2,0:2:0:0:
412,96,295057,2,0,P|353:90|286:191,1,170,12|0,0:2|3:2,0:2:0:0:
353,370,295593,1,8,0:2:0:0:
194,265,295772,6,0,P|236:270|278:277,1,85,4|0,3:2|0:0,0:2:0:0:
463,191,296129,1,0,3:2:0:0:
463,191,296307,2,0,P|393:207|355:222,1,85,8|0,0:2|0:0,0:2:0:0:
259,380,296664,1,0,3:2:0:0:
203,167,296843,1,8,0:2:0:0:
186,128,296932,1,8,0:0:0:0:
155,99,297021,1,8,0:2:0:0:
115,87,297110,1,8,0:2:0:0:
73,92,297200,1,8,0:2:0:0:
38,116,297289,1,8,0:2:0:0:
17,153,297379,6,0,P|33:240|47:328,1,178.499994552612,6|8,3:2|0:2,0:2:0:0:
260,249,297914,1,8,0:2:0:0:
260,249,298004,1,8,0:2:0:0:
260,249,298093,2,0,P|224:223|180:226,1,89.2499972763062,0|0,3:2|0:2,0:2:0:0:
317,170,298450,1,10,0:2:0:0:
197,311,298629,1,2,0:2:0:0:
367,371,298807,6,0,P|428:310|512:326,1,178.499994552612,6|8,3:2|0:2,0:2:0:0:
317,170,299343,1,10,0:2:0:0:
317,170,299432,1,8,0:2:0:0:
317,170,299522,1,0,3:2:0:0:
503,124,299700,1,2,0:2:0:0:
347,266,299879,2,0,P|303:255|259:248,1,89.2499972763062,8|0,0:2|0:2,0:0:0:0:
115,87,300236,6,0,P|65:129|61:194,1,133.874995914459,6|0,3:2|0:0,0:2:0:0:
88,230,300593,1,8,0:2:0:0:
176,382,300772,2,0,P|113:325|28:340,1,178.499994552612,10|0,0:2|0:2,0:0:0:0:
174,255,301307,2,0,P|179:210|182:166,1,89.2499972763062,10|0,0:2|0:2,0:0:0:0:
274,15,301664,6,0,B|333:3|333:3|377:27|377:27|443:11,1,178.499994552612,2|8,3:2|0:2,0:2:0:0:
314,114,302200,1,10,0:2:0:0:
314,114,302289,1,8,0:2:0:0:
314,114,302379,1,0,3:2:0:0:
503,153,302557,1,0,0:2:0:0:
326,243,302736,1,10,0:2:0:0:
512,319,302914,5,2,0:2:0:0:
512,319,303004,1,0,0:0:0:0:
512,319,303093,2,0,B|472:274|414:286|414:286|399:316|360:329,1,178.499994552612,4|8,3:2|0:2,0:2:0:0:
194,137,303629,2,0,P|187:181|180:225,1,89.2499972763062,8|0,0:2|3:2,0:0:0:0:
29,330,303986,2,0,P|22:285|15:241,1,89.2499972763062,0|8,0:2|0:2,0:2:0:0:
79,171,304343,1,8,0:2:0:0:
205,357,304522,6,0,P|275:307|359:328,1,178.499994552612,6|8,3:2|0:2,0:2:0:0:
500,136,305057,1,8,0:2:0:0:
500,136,305147,1,8,0:2:0:0:
500,136,305236,1,2,3:2:0:0:
305,195,305414,1,0,0:2:0:0:
431,290,305593,2,0,P|436:245|439:201,1,89.2499972763062,10|0,0:2|0:2,0:2:0:0:
275,96,305950,5,6,3:2:0:0:
414,21,306129,2,0,L|406:49,3,29.7499990921021,8|0|0|10,3:2|3:0|3:0|3:2,0:0:0:0:
305,195,306486,2,0,P|261:184|217:176,1,89.2499972763062,2|0,3:2|0:2,0:2:0:0:
92,254,306843,1,0,3:2:0:0:
136,76,307022,1,8,0:2:0:0:
2,275,307200,6,0,P|60:340|145:330,1,178.499994552612,4|0,3:2|3:2,0:2:0:0:
267,101,307736,1,8,0:2:0:0:
92,254,307914,1,2,0:2:0:0:
314,333,308093,1,0,3:2:0:0:
239,213,308272,5,8,0:2:0:0:
239,213,308361,1,8,0:2:0:0:
239,213,308450,2,0,L|227:256,1,44.6249986381531,10|8,0:2|0:2,0:0:0:0:
325,376,308629,2,0,L|313:332,1,44.6249986381531,8|8,0:2|0:2,0:0:0:0:
477,241,308807,6,0,B|443:203|392:220|392:220|364:261|318:251,1,178.499994552612,6|8,3:2|0:2,0:2:0:0:
136,76,309343,2,0,P|191:11|276:23,1,178.499994552612,2|0,3:2|3:2,0:2:0:0:
156,181,309879,2,0,P|112:171|68:162,1,89.2499972763062,10|0,0:2|0:2,0:2:0:0:
222,92,310236,5,2,3:2:0:0:
88,251,310414,1,8,0:2:0:0:
40,62,310593,1,8,0:2:0:0:
239,213,310772,1,2,3:2:0:0:
239,213,311129,5,2,3:2:0:0:
95,356,311307,1,10,0:2:0:0:
68,162,311486,1,2,0:2:0:0:
216,327,311664,6,0,P|281:314|347:303,1,133.874995914459,4|0,3:2|3:2,0:2:0:0:
347,302,312022,1,8,0:2:0:0:
503,153,312200,2,0,P|416:153|359:88,1,178.499994552612,2|0,3:2|3:2,0:2:0:0:
154,166,312736,1,10,0:2:0:0:
218,14,312914,1,2,0:2:0:0:
285,190,313093,6,0,P|277:234|270:277,1,89.2499972763062,0|2,3:2|3:2,0:0:0:0:
397,191,313450,1,8,0:2:0:0:
219,106,313629,2,0,B|118:83|158:156|50:135,1,178.499994552612,0|0,3:2|3:2,0:2:0:0:
232,273,314164,1,10,0:2:0:0:
55,366,314343,5,2,0:2:0:0:
55,366,314432,1,0,0:0:0:0:
55,366,314522,2,0,P|45:322|35:278,1,89.2499972763062,12|0,0:2|0:2,0:2:0:0:
219,106,314879,5,8,0:2:0:0:
128,303,315057,1,0,3:2:0:0:
310,141,315236,5,8,0:2:0:0:
273,354,315414,1,0,3:2:0:0:
406,151,315593,5,8,0:2:0:0:
426,366,315771,1,0,3:2:0:0:
229,275,315950,1,12,0:2:0:0:
229,275,316307,5,8,0:2:0:0:
468,219,316486,1,0,3:2:0:0:
314,92,316664,1,8,0:2:0:0:
354,313,316843,1,0,3:2:0:0:
140,216,317022,5,8,0:2:0:0:
97,202,317111,1,8,0:2:0:0:
54,211,317200,1,8,0:2:0:0:
20,239,317289,1,8,0:2:0:0:
3,280,317379,5,12,0:2:0:0:
224,217,317557,1,0,3:2:0:0:
52,70,317736,1,0,3:2:0:0:
94,288,317914,5,12,0:2:0:0:
321,197,318093,1,0,3:2:0:0:
251,384,318272,1,0,3:2:0:0:
171,140,318450,1,12,0:2:0:0:
348,364,318629,5,0,3:2:0:0:
348,364,318718,1,0,0:0:0:0:
347,363,318807,2,0,P|289:298|203:301,1,178.499994552612,14|0,0:2|0:0,0:2:0:0:
179,148,319343,1,2,3:2:0:0:
179,148,319432,1,0,3:2:0:0:
179,148,319522,1,8,0:2:0:0:
321,197,319700,6,0,B|359:176|392:192|392:192|412:227|458:227,1,152.999995330811,2|0,3:2|0:2,0:2:0:0:
494,18,320236,6,0,B|454:5|432:41|432:41|443:75|461:135,1,170,6|8,3:2|0:2,0:2:0:0:
244,58,320772,1,8,0:2:0:0:
244,58,320861,1,8,0:2:0:0:
244,58,320950,2,0,P|280:32|333:41,1,85,2|0,3:2|0:2,0:2:0:0:
159,168,321307,2,0,P|115:157|73:148,1,85,8|0,0:2|0:2,0:2:0:0:
0,322,321664,6,0,P|66:347|134:287,1,170,0|8,3:2|0:2,0:2:0:0:
299,384,322200,1,8,0:2:0:0:
299,384,322289,1,8,0:2:0:0:
299,384,322379,2,0,P|255:373|197:361,1,85,2|0,3:2|0:2,0:2:0:0:
374,219,322736,2,0,P|332:228|291:237,1,85,10|0,0:2|0:2,0:2:0:0:
504,153,323093,6,0,P|489:236|476:320,1,170,6|8,3:2|0:2,0:2:0:0:
291,237,323629,1,8,0:2:0:0:
291,237,323718,1,8,0:2:0:0:
291,237,323807,1,0,3:2:0:0:
404,149,323986,1,0,0:2:0:0:
327,364,324164,2,0,P|287:334|200:347,1,127.5,10|0,0:2|0:0,0:2:0:0:
184,358,324522,5,2,3:2:0:0:
37,242,324700,1,2,0:2:0:0:
206,155,324879,1,10,0:2:0:0:
81,327,325057,5,10,0:2:0:0:
81,327,325147,1,8,0:2:0:0:
81,327,325236,1,4,3:2:0:0:
291,237,325414,1,2,0:2:0:0:
118,82,325593,2,0,P|110:119|101:173,1,85,8|0,0:2|0:2,0:2:0:0:
184,358,325950,6,0,B|218:321|266:333|266:333|286:378|331:386,1,170,6|8,3:2|0:2,0:2:0:0:
478,260,326486,1,8,0:2:0:0:
478,260,326575,1,8,0:2:0:0:
478,260,326664,2,0,P|434:268|390:279,1,85,0|0,3:2|0:2,0:2:0:0:
250,102,327022,1,8,0:2:0:0:
418,169,327200,1,2,0:2:0:0:
282,302,327379,6,0,P|291:259|303:212,1,85,6|0,3:2|0:0,0:2:0:0:
143,80,327736,2,0,P|152:121|162:162,1,85,10|8,0:2|0:2,0:0:0:0:
168,189,328004,1,8,0:2:0:0:
168,189,328093,1,2,3:2:0:0:
249,16,328272,1,0,0:2:0:0:
26,155,328450,1,10,0:2:0:0:
301,219,328629,1,0,0:2:0:0:
168,55,328807,5,12,0:2:0:0:
71,285,328986,2,0,L|63:244,3,28.3333333333333,0|0|0|8,3:2|0:0|0:0|0:2,0:0:0:0:
248,376,329343,2,0,B|313:364|313:364|341:332|341:332|407:319,1,170,8|4,0:3|0:3,0:2:0:0:
204,135,329879,2,0,L|211:176,1,42.5,0|0,3:2|0:0,0:0:0:0:
256,275,330057,6,0,B|305:212|342:275|411:245|420:156|373:108|286:135|286:135|246:65|149:78|160:175|217:178,1,510.000019454957,4|0,3:2|0:0,0:2:0:0:
139,229,331664,6,0,P|124:265|120:285,2,42.5,2|2|0,3:2|0:2|0:2,0:2:0:0:
211,177,332200,2,0,P|186:151|120:142,1,85,2|2,0:2|0:2,0:2:0:0:
0,108,333093,6,0,P|40:98|71:69,1,85,2|0,3:2|0:2,0:2:0:0:
131,8,333629,2,0,P|172:23|221:39,1,85,2|2,0:2|0:2,0:2:0:0:
319,125,334343,5,0,0:2:0:0:
380,55,334522,2,0,P|371:20|364:0,2,42.5,2|2|0,3:2|0:2|0:2,0:2:0:0:
442,135,335057,2,0,P|419:186|411:229,1,85,2|2,0:2|0:2,0:2:0:0:
331,365,335772,5,0,0:2:0:0:
406,321,335950,2,0,P|433:331|453:340,2,42.5,2|0|2,3:2|0:2|0:2,0:2:0:0:
335,256,336486,1,2,0:2:0:0:
335,256,336664,2,0,P|303:271|282:278,1,42.5,2|0,0:2|0:2,0:2:0:0:
228,333,337022,2,0,P|209:323|189:315,1,42.5,2|0,0:2|0:2,0:2:0:0:
51,329,337379,5,2,3:2:0:0:
105,218,337557,2,0,P|111:243|116:275,1,42.5,2|0,3:2|3:2,0:2:0:0:
41,156,337914,2,0,P|71:176|127:167,1,85,2|2,3:2|0:2,0:2:0:0:
208,101,338807,6,0,B|245:57|218:9|218:9|111:-4|102:87|102:87|127:74|139:56,1,297.5,2|0,3:2|0:2,0:2:0:0:
257,168,340236,5,2,3:2:0:0:
257,168,340414,2,0,P|268:197|274:227,1,42.5
261,290,340772,2,0,P|277:264|338:251,1,85,2|0,0:2|0:0,0:0:0:0:
469,326,341307,2,0,P|425:330|391:300,1,85,2|0,0:2|0:0,0:0:0:0:
502,229,341843,5,2,0:2:0:0:
418,157,342022,2,0,P|428:189|432:213,2,42.5,2|0|2,0:2|0:2|0:2,0:2:0:0:
358,86,342557,1,0,0:2:0:0:
358,86,342736,2,0,P|363:56|372:32,1,42.5,2|0,0:2|0:2,0:2:0:0:
236,44,343093,6,0,P|233:23|227:3,2,42.5,2|0|0,0:2|0:0|0:0,0:2:0:0:
194,115,343629,2,0,L|110:130,1,85,2|2,0:2|0:2,0:0:0:0:
39,85,344164,1,0,0:2:0:0:
45,320,344522,6,0,P|25:311|5:308,2,42.5,2|0|0,0:2|0:0|0:0,0:2:0:0:
115,374,345057,2,0,L|128:290,1,85,2|2,0:2|0:2,0:0:0:0:
86,217,345593,1,0,0:2:0:0:
187,73,345950,6,0,L|194:115,2,42.5,2|0|0,0:2|0:0|0:0,0:2:0:0:
249,15,346486,2,0,P|287:31|330:35,1,85,2|2,0:2|0:2,0:0:0:0:
405,1,347022,1,2,0:2:0:0:
489,157,347379,6,0,P|491:136|495:114,2,42.5,2|0|0,0:2|0:0|0:0,0:2:0:0:
512,238,347914,1,2,0:2:0:0:
394,306,348272,1,2,0:2:0:0:
394,306,348450,2,0,L|352:298,1,42.5,0|0,0:2|0:0,0:0:0:0:
278,371,348807,6,0,P|247:342|206:334,1,85,2|0,0:2|0:2,0:2:0:0:
131,374,349343,1,2,0:2:0:0:
18,223,349700,2,0,L|102:236,1,85,2|0,0:2|0:0,0:0:0:0:
172,188,350236,6,0,P|208:208|250:205,1,85,2|0,0:2|0:2,0:2:0:0:
250,205,350772,1,2,0:2:0:0:
307,98,351129,2,0,P|267:112|225:120,1,85,2|0,0:2|0:0,0:0:0:0:
58,61,351664,6,0,L|64:19,2,42.5,2|2|0,0:2|0:2|0:2,0:0:0:0:
0,150,352200,2,0,P|41:143|75:167,1,85,2|2,0:2|0:2,0:2:0:0:
97,247,352736,1,2,0:2:0:0:
290,358,353272,5,2,0:2:0:0:
362,366,353451,5,2,0:2:0:0:
414,336,353629,5,2,0:2:0:0:
447,279,353808,5,2,0:2:0:0:
438,224,353986,5,2,0:2:0:0:
424,201,354165,5,2,0:2:0:0:
411,191,354343,5,2,0:2:0:0:
256,192,354432,12,0,355772,0:0:0:0:
236,124,355950,6,0,B|218:58|218:58|254:6|254:6|287:59|287:59|269:124|269:124|297:112|297:112|305:142|305:142|305:142|305:142|352:94|352:94|415:96|415:96|387:153|387:153|321:169|321:169|345:185|345:185|323:211|323:211|389:227|389:227|419:283|419:283|353:285|353:285|308:237|308:237|304:268|304:268|274:259|274:259|274:259|274:259|292:326|292:326|259:379|259:379|223:325|223:325|240:260|240:260|214:272|214:272|205:241|205:241|158:290|158:290|94:285|94:285|123:229|123:229|189:214|189:214|166:198|166:198|187:172|187:172|187:172|187:172|121:157|121:157|92:102|92:102|156:98|156:98|203:146|203:146|208:124,1,1904,6|0,0:2|0:2,0:2:0:0:
