osu file format v14

[General]
AudioFilename: audio.mp3
AudioLeadIn: 0
PreviewTime: 57310
Countdown: 0
SampleSet: Normal
StackLeniency: 0.7
Mode: 1
LetterboxInBreaks: 0
WidescreenStoryboard: 1

[Editor]
Bookmarks: 32296,100867,137790,169439,179988,211636,245922,257406
DistanceSpacing: 0.6
BeatDivisor: 4
GridSize: 8
TimelineZoom: 1

[Metadata]
Title:COLORFUL DAYS!!
TitleUnicode:COLORFUL DAYS!!
Artist:Ceui
ArtistUnicode:Ceui
Creator:jacky10186
Version:Oni
Source:いろとりどりのヒカリ
Tags:Irotoridori no Hikari FAVORITE iroseka irohika 山本美禰子 Yamamoto Mineko 小高光太郎 Odaka Kotaro 二階堂真紅 Nikaidou Shinku Nardoxyribonucleic JUDYDANNY Poii
BeatmapID:1802240
BeatmapSetID:855500

[Difficulty]
HPDrainRate:5
CircleSize:5
OverallDifficulty:5
ApproachRate:5
SliderMultiplier:1.4
SliderTickRate:1

[Events]
//Background and Video events
0,0,"mine.jpg",0,100
//Break Periods
//Storyboard Layer 0 (Background)
//Storyboard Layer 1 (Fail)
//Storyboard Layer 2 (Pass)
//Storyboard Layer 3 (Foreground)
//Storyboard Sound Samples

[TimingPoints]
8557,329.67032967033,4,1,0,100,1,0
21743,-100,4,1,0,85,0,0
40205,-100,4,1,0,90,0,0
42842,-100,4,1,0,87,0,0
48117,-100,4,1,0,90,0,0
56029,-100,4,1,0,94,0,0
56688,-100,4,1,0,97,0,0
57842,-100,4,1,0,90,0,0
58172,-100,4,1,0,97,0,0
58666,-100,4,1,0,100,0,1
79765,-100,4,1,0,90,0,0
85040,-100,4,1,0,100,0,1
90315,-100,4,1,0,100,0,0
100864,-100,4,1,0,85,0,0
119326,-100,4,1,0,90,0,0
121963,-100,4,1,0,87,0,0
127238,-100,4,1,0,90,0,0
135150,-100,4,1,0,94,0,0
135809,-100,4,1,0,97,0,0
136963,-100,4,1,0,90,0,0
137293,-100,4,1,0,97,0,0
137787,-100,4,1,0,100,0,1
158886,-100,4,1,0,88,0,0
169436,-100,4,1,0,74,0,0
179491,-100,4,1,0,92,0,0
199765,-100,4,1,0,82,0,0
203721,-100,4,1,0,92,0,0
205040,-100,4,1,0,94,0,0
210315,-100,4,1,0,97,0,0
210809,-100,4,1,0,90,0,0
211139,-100,4,1,0,97,0,0
211633,-100,4,1,0,100,0,1
232732,-100,4,1,0,100,0,0
238007,-100,4,1,0,100,0,1
245919,-100,4,1,0,100,0,0
255150,612.244897959184,4,1,0,80,1,0
255150,-53.8473964783803,4,1,0,80,0,0
256065,-61.5384615384615,4,1,0,80,0,0
257403,750,4,1,0,80,1,0
257403,-58.6063412061185,4,1,0,80,0,0

[HitObjects]
206,220,11194,5,8,0:0:0:0:
161,148,11853,1,0,0:0:0:0:
206,220,12183,1,8,0:0:0:0:
190,302,12513,1,0,0:0:0:0:
227,138,13172,1,0,0:0:0:0:
389,214,13502,1,12,0:0:0:0:
306,226,13831,1,8,0:0:0:0:
230,269,14491,1,0,0:0:0:0:
389,214,14820,1,8,0:0:0:0:
309,242,15150,1,0,0:0:0:0:
150,298,15809,1,0,0:0:0:0:
389,214,16139,1,12,0:0:0:0:
389,214,16469,1,12,0:0:0:0:
272,165,16963,1,0,0:0:0:0:
199,61,17458,1,0,0:0:0:0:
312,141,17787,1,8,0:0:0:0:
221,193,18447,1,0,0:0:0:0:
389,214,18776,1,12,0:0:0:0:
389,214,19106,1,8,0:0:0:0:
221,193,19436,1,0,0:0:0:0:
389,214,19600,1,12,0:0:0:0:
312,179,19930,1,8,0:0:0:0:
274,168,20260,1,0,0:0:0:0:
244,127,20425,1,8,0:0:0:0:
223,187,20754,1,0,0:0:0:0:
291,180,21084,1,8,0:0:0:0:
305,191,21249,1,0,0:0:0:0:
286,180,21331,1,0,0:0:0:0:
340,213,21414,1,8,0:0:0:0:
468,244,21743,1,4,0:0:0:0:
393,205,22073,1,0,0:0:0:0:
475,222,22403,1,8,0:0:0:0:
198,136,22567,1,0,0:0:0:0:
233,157,23062,1,8,0:0:0:0:
233,157,23392,1,0,0:0:0:0:
256,191,23557,1,8,0:0:0:0:
272,172,24051,1,8,0:0:0:0:
299,92,24381,1,0,0:0:0:0:
326,12,24710,1,0,0:0:0:0:
316,95,25040,1,0,0:0:0:0:
256,222,25205,1,8,0:0:0:0:
188,171,25535,1,0,0:0:0:0:
319,210,25699,1,8,0:0:0:0:
256,222,26194,1,8,0:0:0:0:
240,184,26524,1,0,0:0:0:0:
273,179,26688,1,8,0:0:0:0:
238,102,27018,1,0,0:0:0:0:
214,182,27348,1,8,0:0:0:0:
295,193,27677,1,0,0:0:0:0:
298,187,28007,1,8,0:0:0:0:
329,215,28172,1,0,0:0:0:0:
413,215,28502,1,0,0:0:0:0:
378,239,28666,1,8,0:0:0:0:
347,160,28996,1,0,0:0:0:0:
325,220,29326,1,8,0:0:0:0:
295,141,29655,1,0,0:0:0:0:
295,141,30150,1,0,0:0:0:0:
295,141,30315,1,0,0:0:0:0:
368,101,30644,1,8,0:0:0:0:
384,183,30974,1,0,0:0:0:0:
342,187,31139,1,8,0:0:0:0:
276,117,31469,1,0,0:0:0:0:
204,73,31798,1,0,0:0:0:0:
223,110,31963,1,12,0:0:0:0:
393,205,32293,1,0,0:0:0:0:
434,210,32622,1,8,0:0:0:0:
198,136,32952,1,0,0:0:0:0:
218,172,33117,1,8,0:0:0:0:
233,157,33611,1,8,0:0:0:0:
314,176,33941,1,8,0:0:0:0:
296,138,34106,1,0,0:0:0:0:
221,73,34436,1,0,0:0:0:0:
299,92,34600,1,12,0:0:0:0:
326,12,34930,1,0,0:0:0:0:
316,95,35260,1,8,0:0:0:0:
247,100,35589,1,0,0:0:0:0:
240,184,35754,1,8,0:0:0:0:
240,184,36249,1,8,0:0:0:0:
220,102,36578,1,0,0:0:0:0:
273,179,36743,1,8,0:0:0:0:
273,179,37073,1,0,0:0:0:0:
238,102,37238,1,12,0:0:0:0:
214,182,37567,1,0,0:0:0:0:
236,243,37897,1,8,0:0:0:0:
298,187,38227,1,8,0:0:0:0:
339,194,38392,1,8,0:0:0:0:
329,215,38557,1,0,0:0:0:0:
378,239,38886,1,8,0:0:0:0:
347,160,39216,1,0,0:0:0:0:
387,171,39381,1,8,0:0:0:0:
325,220,39546,1,0,0:0:0:0:
295,141,39875,1,12,0:0:0:0:
295,141,40205,1,0,0:0:0:0:
295,141,40535,1,0,0:0:0:0:
368,101,40699,1,8,0:0:0:0:
284,112,41029,1,0,0:0:0:0:
384,183,41194,1,12,0:0:0:0:
300,172,41524,1,0,0:0:0:0:
294,154,41853,1,8,0:0:0:0:
204,73,42018,1,0,0:0:0:0:
247,75,42348,1,0,0:0:0:0:
294,154,42430,1,8,0:0:0:0:
294,154,42513,1,8,0:0:0:0:
296,8,42677,1,8,0:0:0:0:
300,49,42842,1,4,0:0:0:0:
241,160,43337,1,0,0:0:0:0:
277,181,43502,1,8,0:0:0:0:
227,112,43831,1,0,0:0:0:0:
302,143,44161,1,0,0:0:0:0:
266,164,44326,1,8,0:0:0:0:
342,164,44655,1,0,0:0:0:0:
340,165,45150,1,0,0:0:0:0:
322,203,45315,1,8,0:0:0:0:
275,242,45480,1,0,0:0:0:0:
189,150,45974,1,0,0:0:0:0:
361,238,46139,1,8,0:0:0:0:
417,174,46469,1,0,0:0:0:0:
340,205,46798,1,0,0:0:0:0:
256,212,47128,1,8,0:0:0:0:
342,162,47458,1,8,0:0:0:0:
305,181,47622,1,8,0:0:0:0:
348,78,47787,1,0,0:0:0:0:
342,160,48117,1,12,0:0:0:0:
258,166,48447,1,0,0:0:0:0:
341,175,48776,1,8,0:0:0:0:
341,175,48941,1,8,0:0:0:0:
299,167,49106,1,0,0:0:0:0:
413,217,49436,1,8,0:0:0:0:
461,254,49765,1,8,0:0:0:0:
423,235,49930,1,8,0:0:0:0:
422,236,50095,1,0,0:0:0:0:
346,202,50260,1,0,0:0:0:0:
413,217,50425,1,8,0:0:0:0:
338,177,50754,1,12,0:0:0:0:
343,260,51084,1,0,0:0:0:0:
317,179,51414,1,0,0:0:0:0:
298,180,51578,1,0,0:0:0:0:
291,183,51743,1,8,0:0:0:0:
226,135,52073,1,0,0:0:0:0:
227,132,52403,1,8,0:0:0:0:
291,183,52732,1,0,0:0:0:0:
326,235,52897,1,8,0:0:0:0:
306,225,52980,1,8,0:0:0:0:
323,105,53062,1,0,0:0:0:0:
264,111,53309,1,0,0:0:0:0:
349,179,53392,1,12,0:0:0:0:
277,135,53721,1,8,0:0:0:0:
296,172,53886,1,8,0:0:0:0:
307,213,54051,1,0,0:0:0:0:
277,134,54381,1,8,0:0:0:0:
342,186,54710,1,0,0:0:0:0:
321,183,54875,1,0,0:0:0:0:
258,178,55040,1,8,0:0:0:0:
285,227,55370,1,0,0:0:0:0:
293,143,55699,1,8,0:0:0:0:
293,143,56029,1,0,0:0:0:0:
334,150,56359,1,8,0:0:0:0:
374,122,56524,1,0,0:0:0:0:
392,159,56688,1,8,0:0:0:0:
392,159,56853,1,4,0:0:0:0:
275,43,57018,1,4,0:0:0:0:
240,18,57183,1,12,0:0:0:0:
233,59,57348,1,0,0:0:0:0:
233,59,57677,1,0,0:0:0:0:
215,183,57842,1,8,0:0:0:0:
324,111,58172,1,0,0:0:0:0:
304,118,58254,1,0,0:0:0:0:
302,147,58337,1,8,0:0:0:0:
281,183,58584,1,0,0:0:0:0:
291,223,58666,1,12,0:0:0:0:
291,223,58996,1,0,0:0:0:0:
354,277,59161,1,8,0:0:0:0:
354,277,59326,1,8,0:0:0:0:
457,203,59655,1,0,0:0:0:0:
382,241,59985,1,0,0:0:0:0:
357,182,60150,1,0,0:0:0:0:
367,200,60315,1,8,0:0:0:0:
383,161,60480,1,0,0:0:0:0:
313,113,60809,1,0,0:0:0:0:
326,152,60974,1,8,0:0:0:0:
242,143,61304,1,0,0:0:0:0:
158,145,61633,1,0,0:0:0:0:
118,160,61798,1,8,0:0:0:0:
78,171,61963,1,8,0:0:0:0:
161,176,62293,1,0,0:0:0:0:
202,171,62458,1,8,0:0:0:0:
177,204,62622,1,0,0:0:0:0:
218,196,62787,1,0,0:0:0:0:
261,205,62952,1,8,0:0:0:0:
296,227,63117,1,0,0:0:0:0:
296,227,63447,1,0,0:0:0:0:
335,241,63611,1,8,0:0:0:0:
335,241,63941,1,8,0:0:0:0:
262,198,64271,1,0,0:0:0:0:
296,227,64436,1,8,0:0:0:0:
337,179,64600,1,8,0:0:0:0:
306,209,64930,1,8,0:0:0:0:
336,137,65095,1,0,0:0:0:0:
353,175,65260,1,8,0:0:0:0:
297,112,65589,1,8,0:0:0:0:
269,80,65754,1,8,0:0:0:0:
241,49,65919,1,0,0:0:0:0:
179,81,66414,1,0,0:0:0:0:
197,127,66578,1,8,0:0:0:0:
141,63,66908,1,12,0:0:0:0:
200,117,67238,1,0,0:0:0:0:
240,129,67403,1,0,0:0:0:0:
272,155,67567,1,8,0:0:0:0:
230,148,67732,1,4,0:0:0:0:
274,219,68062,1,12,0:0:0:0:
358,217,68392,1,4,0:0:0:0:
420,214,68721,1,0,0:0:0:0:
382,195,68886,1,8,0:0:0:0:
274,219,68969,1,8,0:0:0:0:
342,180,69051,1,0,0:0:0:0:
291,223,69216,1,12,0:0:0:0:
291,223,69546,1,0,0:0:0:0:
354,277,69710,1,8,0:0:0:0:
354,277,69875,1,8,0:0:0:0:
329,243,70205,1,0,0:0:0:0:
422,227,70370,1,8,0:0:0:0:
382,241,70535,1,0,0:0:0:0:
357,182,70699,1,0,0:0:0:0:
357,182,70782,1,0,0:0:0:0:
367,200,70864,1,8,0:0:0:0:
383,161,71029,1,0,0:0:0:0:
313,113,71359,1,0,0:0:0:0:
326,152,71524,1,8,0:0:0:0:
242,143,71853,1,0,0:0:0:0:
158,145,72183,1,0,0:0:0:0:
118,160,72348,1,8,0:0:0:0:
78,171,72513,1,8,0:0:0:0:
161,176,72842,1,0,0:0:0:0:
191,147,73007,1,0,0:0:0:0:
190,126,73089,1,0,0:0:0:0:
214,153,73172,1,8,0:0:0:0:
229,192,73337,1,0,0:0:0:0:
335,241,73502,1,8,0:0:0:0:
193,122,73666,1,0,0:0:0:0:
296,227,73996,1,0,0:0:0:0:
335,241,74161,1,8,0:0:0:0:
335,241,74491,1,0,0:0:0:0:
266,192,74820,1,8,0:0:0:0:
303,195,74985,1,0,0:0:0:0:
303,195,75150,1,8,0:0:0:0:
276,167,75397,1,0,0:0:0:0:
309,179,75644,1,0,0:0:0:0:
299,198,75809,1,8,0:0:0:0:
304,253,76139,1,8,0:0:0:0:
342,178,76469,1,0,0:0:0:0:
375,254,76798,1,8,0:0:0:0:
351,219,76963,1,8,0:0:0:0:
304,253,77128,1,0,0:0:0:0:
388,249,77458,1,8,0:0:0:0:
331,187,77787,1,0,0:0:0:0:
303,155,77952,1,8,0:0:0:0:
274,124,78117,1,0,0:0:0:0:
244,93,78282,1,0,0:0:0:0:
225,101,78364,1,0,0:0:0:0:
214,62,78447,1,8,0:0:0:0:
155,1,78776,1,0,0:0:0:0:
211,63,79106,1,0,0:0:0:0:
154,0,79436,1,8,0:0:0:0:
182,31,79765,1,0,0:0:0:0:
228,101,80095,1,0,0:0:0:0:
253,134,80260,1,8,0:0:0:0:
274,170,80425,1,0,0:0:0:0:
312,244,80754,1,0,0:0:0:0:
437,208,81084,1,8,0:0:0:0:
395,212,81249,1,8,0:0:0:0:
355,188,81414,1,0,0:0:0:0:
332,107,81743,1,0,0:0:0:0:
356,187,82073,1,0,0:0:0:0:
369,227,82238,1,0,0:0:0:0:
381,267,82403,1,8,0:0:0:0:
297,256,82732,1,8,0:0:0:0:
294,175,82897,1,0,0:0:0:0:
308,257,83227,1,0,0:0:0:0:
370,201,83557,1,0,0:0:0:0:
331,184,83721,1,0,0:0:0:0:
372,203,83886,1,8,0:0:0:0:
296,240,84216,1,0,0:0:0:0:
372,204,84546,1,8,0:0:0:0:
453,182,84875,1,8,0:0:0:0:
473,177,84958,1,8,0:0:0:0:
268,168,85040,1,0,0:0:0:0:
284,182,85205,1,0,0:0:0:0:
323,195,85370,1,8,0:0:0:0:
283,121,85699,1,0,0:0:0:0:
288,117,86029,1,8,0:0:0:0:
267,153,86194,1,0,0:0:0:0:
247,190,86359,1,0,0:0:0:0:
329,263,86688,1,8,0:0:0:0:
411,249,87018,1,0,0:0:0:0:
453,242,87183,1,0,0:0:0:0:
411,249,87348,1,8,0:0:0:0:
237,130,87677,1,0,0:0:0:0:
237,130,88007,1,0,0:0:0:0:
237,130,88172,1,0,0:0:0:0:
350,184,88337,1,8,0:0:0:0:
312,203,88502,1,0,0:0:0:0:
350,184,88666,1,8,0:0:0:0:
350,184,88831,1,0,0:0:0:0:
352,225,88996,1,12,0:0:0:0:
269,210,89326,1,0,0:0:0:0:
362,200,90315,1,12,0:0:0:0:
240,143,90644,1,0,0:0:0:0:
161,148,90974,1,0,0:0:0:0:
206,220,91304,1,8,0:0:0:0:
190,302,91633,1,0,0:0:0:0:
227,138,92293,1,0,0:0:0:0:
389,214,92622,1,12,0:0:0:0:
306,226,92952,1,8,0:0:0:0:
252,161,93282,1,0,0:0:0:0:
230,269,93611,1,0,0:0:0:0:
389,214,93941,1,8,0:0:0:0:
309,242,94271,1,0,0:0:0:0:
150,298,94930,1,0,0:0:0:0:
389,214,95260,1,12,0:0:0:0:
389,214,95589,1,12,0:0:0:0:
323,161,96084,1,0,0:0:0:0:
389,214,96578,1,0,0:0:0:0:
312,141,96908,1,8,0:0:0:0:
191,103,97403,1,0,0:0:0:0:
389,214,97897,1,12,0:0:0:0:
389,214,98227,1,8,0:0:0:0:
221,193,98557,1,0,0:0:0:0:
389,214,98721,1,12,0:0:0:0:
389,214,99051,1,8,0:0:0:0:
328,195,99216,1,0,0:0:0:0:
274,168,99381,1,0,0:0:0:0:
244,127,99546,1,8,0:0:0:0:
223,187,99875,1,0,0:0:0:0:
291,180,100205,1,8,0:0:0:0:
305,191,100370,1,0,0:0:0:0:
299,170,100452,1,0,0:0:0:0:
340,213,100535,1,8,0:0:0:0:
281,152,100864,1,0,0:0:0:0:
218,95,101194,1,0,0:0:0:0:
249,123,101359,1,0,0:0:0:0:
340,213,101524,1,8,0:0:0:0:
249,123,101688,1,0,0:0:0:0:
280,200,102018,1,0,0:0:0:0:
298,193,102183,1,8,0:0:0:0:
381,202,102513,1,0,0:0:0:0:
405,256,102677,1,8,0:0:0:0:
329,218,103007,1,0,0:0:0:0:
405,256,103172,1,8,0:0:0:0:
347,194,103502,1,0,0:0:0:0:
312,218,103666,1,8,0:0:0:0:
279,243,103831,1,0,0:0:0:0:
354,216,104161,1,0,0:0:0:0:
327,182,104326,1,8,0:0:0:0:
308,219,104491,1,8,0:0:0:0:
283,248,104820,1,8,0:0:0:0:
198,248,105150,1,8,0:0:0:0:
152,139,105315,1,0,0:0:0:0:
152,139,105644,1,8,0:0:0:0:
187,161,105809,1,0,0:0:0:0:
238,102,106139,1,0,0:0:0:0:
214,182,106469,1,8,0:0:0:0:
255,179,106633,1,8,0:0:0:0:
236,243,106798,1,0,0:0:0:0:
298,187,107128,1,8,0:0:0:0:
329,215,107293,1,0,0:0:0:0:
413,215,107622,1,8,0:0:0:0:
378,239,107787,1,0,0:0:0:0:
347,160,108117,1,0,0:0:0:0:
325,220,108447,1,0,0:0:0:0:
326,261,108611,1,0,0:0:0:0:
295,141,108776,1,8,0:0:0:0:
295,141,109106,1,8,0:0:0:0:
295,141,109271,1,0,0:0:0:0:
295,141,109436,1,0,0:0:0:0:
368,101,109765,1,0,0:0:0:0:
384,183,110095,1,8,0:0:0:0:
348,161,110260,1,0,0:0:0:0:
276,117,110589,1,0,0:0:0:0:
204,73,110919,1,0,0:0:0:0:
223,110,111084,1,12,0:0:0:0:
393,205,111414,1,0,0:0:0:0:
351,199,111578,1,0,0:0:0:0:
475,222,111743,1,8,0:0:0:0:
198,136,112073,1,0,0:0:0:0:
198,136,112238,1,8,0:0:0:0:
232,112,112567,1,0,0:0:0:0:
233,157,112732,1,8,0:0:0:0:
191,160,112897,1,0,0:0:0:0:
314,176,113062,1,8,0:0:0:0:
233,157,113227,1,0,0:0:0:0:
221,73,113557,1,0,0:0:0:0:
299,92,113721,1,12,0:0:0:0:
326,12,114051,1,0,0:0:0:0:
233,157,114216,1,0,0:0:0:0:
316,95,114381,1,8,0:0:0:0:
247,100,114710,1,0,0:0:0:0:
240,184,114875,1,8,0:0:0:0:
256,222,115205,1,0,0:0:0:0:
240,184,115370,1,8,0:0:0:0:
256,222,115535,1,8,0:0:0:0:
235,185,115699,1,0,0:0:0:0:
273,179,115864,1,8,0:0:0:0:
273,179,116194,1,0,0:0:0:0:
238,102,116359,1,12,0:0:0:0:
214,182,116688,1,0,0:0:0:0:
236,243,117018,1,8,0:0:0:0:
232,201,117183,1,0,0:0:0:0:
298,187,117348,1,8,0:0:0:0:
340,197,117513,1,8,0:0:0:0:
272,188,117842,1,0,0:0:0:0:
378,239,118007,1,8,0:0:0:0:
378,239,118172,1,8,0:0:0:0:
347,160,118337,1,0,0:0:0:0:
319,191,118502,1,8,0:0:0:0:
325,220,118666,1,0,0:0:0:0:
295,141,118996,1,12,0:0:0:0:
295,141,119326,1,0,0:0:0:0:
295,141,119655,1,0,0:0:0:0:
368,101,119820,1,8,0:0:0:0:
284,112,120150,1,0,0:0:0:0:
384,183,120315,1,12,0:0:0:0:
300,172,120644,1,0,0:0:0:0:
261,154,120809,1,0,0:0:0:0:
294,154,120974,1,8,0:0:0:0:
223,110,121139,1,0,0:0:0:0:
247,75,121469,1,0,0:0:0:0:
294,154,121551,1,8,0:0:0:0:
294,154,121633,1,8,0:0:0:0:
296,8,121798,1,8,0:0:0:0:
300,49,121963,1,4,0:0:0:0:
241,160,122458,1,0,0:0:0:0:
277,181,122622,1,8,0:0:0:0:
252,147,122787,1,0,0:0:0:0:
261,136,123117,1,8,0:0:0:0:
219,128,123282,1,0,0:0:0:0:
278,107,123447,1,8,0:0:0:0:
384,158,123611,1,0,0:0:0:0:
363,154,123694,1,0,0:0:0:0:
342,164,123776,1,0,0:0:0:0:
425,165,123941,1,8,0:0:0:0:
350,166,124271,1,0,0:0:0:0:
322,203,124436,1,8,0:0:0:0:
275,242,124600,1,0,0:0:0:0:
189,150,125095,1,0,0:0:0:0:
361,238,125260,1,8,0:0:0:0:
318,238,125425,1,8,0:0:0:0:
417,174,125589,1,0,0:0:0:0:
332,170,125919,1,0,0:0:0:0:
267,166,126249,1,8,0:0:0:0:
235,137,126414,1,0,0:0:0:0:
342,162,126578,1,8,0:0:0:0:
305,181,126743,1,8,0:0:0:0:
348,78,126908,1,0,0:0:0:0:
267,166,127073,1,0,0:0:0:0:
342,160,127238,1,12,0:0:0:0:
258,166,127567,1,0,0:0:0:0:
341,175,127897,1,8,0:0:0:0:
383,180,128062,1,8,0:0:0:0:
341,175,128227,1,0,0:0:0:0:
413,217,128557,1,8,0:0:0:0:
461,212,128721,1,0,0:0:0:0:
461,254,128886,1,8,0:0:0:0:
433,222,129051,1,8,0:0:0:0:
381,227,129216,1,0,0:0:0:0:
346,202,129381,1,0,0:0:0:0:
413,217,129546,1,8,0:0:0:0:
338,177,129875,1,12,0:0:0:0:
343,260,130205,1,0,0:0:0:0:
317,179,130535,1,0,0:0:0:0:
275,180,130699,1,0,0:0:0:0:
298,180,130864,1,8,0:0:0:0:
226,135,131194,1,0,0:0:0:0:
190,113,131359,1,0,0:0:0:0:
227,132,131524,1,8,0:0:0:0:
264,151,131688,1,8,0:0:0:0:
291,183,131853,1,0,0:0:0:0:
326,235,132018,1,8,0:0:0:0:
306,225,132100,1,8,0:0:0:0:
323,105,132183,1,0,0:0:0:0:
264,111,132430,1,0,0:0:0:0:
349,179,132513,1,12,0:0:0:0:
277,135,132842,1,8,0:0:0:0:
235,143,133007,1,8,0:0:0:0:
307,213,133172,1,0,0:0:0:0:
277,134,133502,1,8,0:0:0:0:
267,218,133831,1,8,0:0:0:0:
225,211,133996,1,0,0:0:0:0:
258,178,134161,1,8,0:0:0:0:
284,210,134326,1,8,0:0:0:0:
285,227,134491,1,0,0:0:0:0:
267,218,134655,1,0,0:0:0:0:
293,143,134820,1,8,0:0:0:0:
293,143,135150,1,0,0:0:0:0:
293,143,135315,1,0,0:0:0:0:
334,150,135480,1,8,0:0:0:0:
322,167,135562,1,8,0:0:0:0:
374,122,135644,1,0,0:0:0:0:
340,96,135809,1,8,0:0:0:0:
308,69,135974,1,4,0:0:0:0:
275,43,136139,1,4,0:0:0:0:
240,18,136304,1,12,0:0:0:0:
233,59,136469,1,0,0:0:0:0:
233,59,136798,1,0,0:0:0:0:
215,183,136963,1,8,0:0:0:0:
324,111,137293,1,0,0:0:0:0:
306,121,137375,1,0,0:0:0:0:
294,138,137458,1,8,0:0:0:0:
281,183,137705,1,0,0:0:0:0:
291,223,137787,1,12,0:0:0:0:
291,223,138117,1,0,0:0:0:0:
354,277,138282,1,8,0:0:0:0:
354,277,138447,1,8,0:0:0:0:
457,203,138776,1,0,0:0:0:0:
422,227,138941,1,8,0:0:0:0:
382,241,139106,1,8,0:0:0:0:
361,244,139188,1,8,0:0:0:0:
357,182,139271,1,0,0:0:0:0:
357,182,139436,1,8,0:0:0:0:
383,161,139600,1,0,0:0:0:0:
313,113,139930,1,0,0:0:0:0:
326,152,140095,1,8,0:0:0:0:
242,143,140425,1,0,0:0:0:0:
158,145,140754,1,0,0:0:0:0:
118,160,140919,1,8,0:0:0:0:
78,171,141084,1,8,0:0:0:0:
161,176,141414,1,0,0:0:0:0:
202,171,141578,1,8,0:0:0:0:
177,204,141743,1,0,0:0:0:0:
210,151,141826,1,8,0:0:0:0:
218,196,141908,1,0,0:0:0:0:
261,205,142073,1,8,0:0:0:0:
296,227,142238,1,0,0:0:0:0:
296,227,142567,1,0,0:0:0:0:
335,241,142732,1,8,0:0:0:0:
335,241,143062,1,8,0:0:0:0:
262,198,143392,1,0,0:0:0:0:
296,227,143557,1,8,0:0:0:0:
337,179,143721,1,8,0:0:0:0:
295,174,143886,1,0,0:0:0:0:
274,172,143969,1,0,0:0:0:0:
306,209,144051,1,8,0:0:0:0:
336,137,144216,1,0,0:0:0:0:
353,175,144381,1,8,0:0:0:0:
297,112,144710,1,8,0:0:0:0:
269,80,144875,1,8,0:0:0:0:
241,49,145040,1,0,0:0:0:0:
200,2,145205,1,0,0:0:0:0:
206,21,145287,1,8,0:0:0:0:
199,44,145370,1,8,0:0:0:0:
179,81,145535,1,0,0:0:0:0:
197,127,145699,1,8,0:0:0:0:
141,63,146029,1,12,0:0:0:0:
200,117,146359,1,0,0:0:0:0:
240,129,146524,1,0,0:0:0:0:
272,155,146688,1,8,0:0:0:0:
230,148,146853,1,4,0:0:0:0:
274,219,147183,1,12,0:0:0:0:
358,217,147513,1,4,0:0:0:0:
420,214,147842,1,0,0:0:0:0:
419,172,147925,1,8,0:0:0:0:
419,172,148007,1,8,0:0:0:0:
341,185,148172,1,0,0:0:0:0:
291,223,148337,1,12,0:0:0:0:
291,223,148666,1,0,0:0:0:0:
354,277,148831,1,8,0:0:0:0:
354,277,148996,1,8,0:0:0:0:
329,243,149161,1,0,0:0:0:0:
298,213,149326,1,8,0:0:0:0:
382,241,149655,1,0,0:0:0:0:
340,242,149820,1,8,0:0:0:0:
367,200,149985,1,8,0:0:0:0:
383,161,150150,1,8,0:0:0:0:
158,145,150232,1,8,0:0:0:0:
347,183,150315,1,0,0:0:0:0:
326,152,150480,1,0,0:0:0:0:
326,152,150644,1,8,0:0:0:0:
242,143,150974,1,0,0:0:0:0:
158,145,151304,1,0,0:0:0:0:
118,160,151469,1,8,0:0:0:0:
78,171,151633,1,8,0:0:0:0:
119,171,151798,1,0,0:0:0:0:
161,176,151963,1,8,0:0:0:0:
214,153,152293,1,0,0:0:0:0:
211,153,152458,1,8,0:0:0:0:
237,185,152622,1,8,0:0:0:0:
277,196,152787,1,8,0:0:0:0:
258,185,152870,1,0,0:0:0:0:
241,173,152952,1,0,0:0:0:0:
296,227,153117,1,0,0:0:0:0:
335,241,153282,1,8,0:0:0:0:
335,241,153611,1,0,0:0:0:0:
369,217,153776,1,0,0:0:0:0:
266,192,153941,1,8,0:0:0:0:
303,195,154106,1,0,0:0:0:0:
303,195,154271,1,8,0:0:0:0:
276,167,154518,1,0,0:0:0:0:
283,188,154600,1,8,0:0:0:0:
309,179,154765,1,0,0:0:0:0:
299,198,154930,1,8,0:0:0:0:
304,253,155260,1,8,0:0:0:0:
342,178,155589,1,0,0:0:0:0:
375,254,155919,1,8,0:0:0:0:
351,219,156084,1,8,0:0:0:0:
304,253,156249,1,0,0:0:0:0:
299,211,156414,1,0,0:0:0:0:
296,190,156496,1,0,0:0:0:0:
388,249,156578,1,8,0:0:0:0:
331,187,156908,1,0,0:0:0:0:
359,218,157073,1,8,0:0:0:0:
274,124,157238,1,0,0:0:0:0:
244,93,157403,1,8,0:0:0:0:
214,62,157567,1,0,0:0:0:0:
267,126,157897,1,0,0:0:0:0:
334,176,158227,1,8,0:0:0:0:
340,217,158392,1,0,0:0:0:0:
272,232,158557,1,0,0:0:0:0:
250,179,158886,1,4,0:0:0:0:
410,228,159546,1,8,0:0:0:0:
328,81,160205,1,0,0:0:0:0:
328,81,160864,1,8,0:0:0:0:
306,247,161524,1,12,0:0:0:0:
399,107,162183,1,0,0:0:0:0:
400,274,162842,1,8,0:0:0:0:
375,357,163172,1,0,0:0:0:0:
406,172,163502,1,0,0:0:0:0:
335,103,164161,1,4,0:0:0:0:
453,221,164820,1,8,0:0:0:0:
308,134,165480,1,0,0:0:0:0:
462,200,166139,1,0,0:0:0:0:
462,200,166798,1,12,0:0:0:0:
462,200,167458,1,0,0:0:0:0:
462,200,167787,1,8,0:0:0:0:
478,176,168117,1,0,0:0:0:0:
143,145,169436,1,0,0:0:0:0:
249,15,170095,1,0,0:0:0:0:
264,182,170754,1,8,0:0:0:0:
343,220,171249,1,0,0:0:0:0:
334,171,171414,1,8,0:0:0:0:
286,145,172073,1,0,0:0:0:0:
394,299,172732,1,8,0:0:0:0:
335,211,173392,1,8,0:0:0:0:
354,86,173886,1,0,0:0:0:0:
374,122,174051,1,8,0:0:0:0:
323,167,174710,1,0,0:0:0:0:
467,253,175370,1,0,0:0:0:0:
299,253,176029,1,8,0:0:0:0:
216,157,176524,1,0,0:0:0:0:
254,173,176688,1,8,0:0:0:0:
323,167,177348,5,0,0:0:0:0:
323,167,178007,1,8,0:0:0:0:
451,275,178666,1,0,0:0:0:0:
248,218,179491,1,0,0:0:0:0:
255,115,179655,1,8,0:0:0:0:
275,119,179738,1,8,0:0:0:0:
219,110,179903,1,0,0:0:0:0:
378,194,179985,1,12,0:0:0:0:
312,141,180315,1,0,0:0:0:0:
329,179,180480,1,8,0:0:0:0:
285,107,180809,1,0,0:0:0:0:
419,202,180974,1,8,0:0:0:0:
295,123,181304,1,0,0:0:0:0:
432,158,181633,1,8,0:0:0:0:
389,158,181798,1,0,0:0:0:0:
337,125,181963,1,0,0:0:0:0:
295,123,182128,1,0,0:0:0:0:
335,135,182293,1,8,0:0:0:0:
292,88,182540,1,8,0:0:0:0:
298,112,182622,1,4,0:0:0:0:
377,137,182952,1,8,0:0:0:0:
386,178,183117,1,0,0:0:0:0:
407,219,183447,1,0,0:0:0:0:
407,219,183611,1,8,0:0:0:0:
323,208,183941,1,0,0:0:0:0:
284,191,184106,1,0,0:0:0:0:
405,193,184271,1,8,0:0:0:0:
280,89,184436,1,0,0:0:0:0:
383,160,184600,1,0,0:0:0:0:
396,199,184765,1,0,0:0:0:0:
383,160,184930,1,8,0:0:0:0:
311,204,185260,1,4,0:0:0:0:
349,129,185589,1,0,0:0:0:0:
368,166,185754,1,8,0:0:0:0:
402,89,186084,1,0,0:0:0:0:
375,168,186249,1,8,0:0:0:0:
345,67,186661,1,8,0:0:0:0:
386,149,186743,1,0,0:0:0:0:
245,129,186908,1,8,0:0:0:0:
324,156,187238,1,0,0:0:0:0:
288,144,187403,1,0,0:0:0:0:
245,184,187567,1,8,0:0:0:0:
273,160,187897,1,12,0:0:0:0:
301,191,188227,1,0,0:0:0:0:
342,193,188392,1,12,0:0:0:0:
415,242,188721,1,0,0:0:0:0:
376,228,188886,1,12,0:0:0:0:
304,184,189216,1,0,0:0:0:0:
272,160,189381,1,8,0:0:0:0:
232,136,189546,1,8,0:0:0:0:
248,144,189628,1,8,0:0:0:0:
192,128,189710,1,0,0:0:0:0:
224,152,189875,1,0,0:0:0:0:
264,168,190040,1,0,0:0:0:0:
288,200,190205,1,8,0:0:0:0:
219,110,190452,1,0,0:0:0:0:
378,194,190535,1,12,0:0:0:0:
312,141,190864,1,0,0:0:0:0:
329,179,191029,1,8,0:0:0:0:
254,142,191194,1,8,0:0:0:0:
285,107,191359,1,0,0:0:0:0:
419,202,191524,1,8,0:0:0:0:
295,123,191853,1,0,0:0:0:0:
432,158,192183,1,8,0:0:0:0:
389,158,192348,1,0,0:0:0:0:
366,193,192513,1,8,0:0:0:0:
352,168,192677,1,0,0:0:0:0:
256,152,192842,1,8,0:0:0:0:
292,88,193089,1,0,0:0:0:0:
298,112,193172,1,12,0:0:0:0:
377,137,193502,1,0,0:0:0:0:
386,178,193666,1,12,0:0:0:0:
407,219,193996,1,0,0:0:0:0:
407,219,194161,1,12,0:0:0:0:
323,208,194491,1,0,0:0:0:0:
284,191,194655,1,0,0:0:0:0:
405,193,194820,1,8,0:0:0:0:
384,196,194903,1,8,0:0:0:0:
280,89,194985,1,0,0:0:0:0:
383,160,195150,1,8,0:0:0:0:
344,160,195315,1,0,0:0:0:0:
360,240,195480,1,8,0:0:0:0:
311,204,195809,1,12,0:0:0:0:
349,129,196139,1,8,0:0:0:0:
368,166,196304,1,8,0:0:0:0:
382,205,196469,1,0,0:0:0:0:
402,89,196633,1,0,0:0:0:0:
375,168,196798,1,12,0:0:0:0:
472,208,197210,1,8,0:0:0:0:
288,256,197293,1,0,0:0:0:0:
245,129,197458,1,8,0:0:0:0:
324,156,197787,1,8,0:0:0:0:
288,144,197952,1,0,0:0:0:0:
312,176,198117,1,8,0:0:0:0:
336,184,198199,1,8,0:0:0:0:
328,216,198282,1,0,0:0:0:0:
273,160,198447,1,12,0:0:0:0:
301,191,198776,1,0,0:0:0:0:
342,193,198941,1,12,0:0:0:0:
415,242,199271,1,0,0:0:0:0:
376,228,199436,1,12,0:0:0:0:
352,224,199765,1,0,0:0:0:0:
280,176,200095,1,8,0:0:0:0:
392,208,200260,1,0,0:0:0:0:
352,224,200425,1,8,0:0:0:0:
390,208,200589,1,8,0:0:0:0:
410,200,200672,1,8,0:0:0:0:
296,168,200754,1,0,0:0:0:0:
296,208,200919,1,0,0:0:0:0:
232,104,201084,1,8,0:0:0:0:
360,96,201578,1,0,0:0:0:0:
296,208,201743,1,8,0:0:0:0:
392,232,202073,1,0,0:0:0:0:
288,168,202238,1,0,0:0:0:0:
320,192,202403,1,8,0:0:0:0:
392,232,202897,1,0,0:0:0:0:
408,152,203062,1,8,0:0:0:0:
384,184,203227,1,8,0:0:0:0:
376,168,203309,1,8,0:0:0:0:
328,144,203392,1,0,0:0:0:0:
272,128,203639,1,0,0:0:0:0:
312,168,203721,1,12,0:0:0:0:
277,135,204051,1,0,0:0:0:0:
235,143,204216,1,8,0:0:0:0:
267,170,204381,1,8,0:0:0:0:
277,134,204710,1,8,0:0:0:0:
213,131,204958,1,0,0:0:0:0:
267,218,205040,1,12,0:0:0:0:
341,178,205370,1,0,0:0:0:0:
392,230,205535,1,8,0:0:0:0:
419,198,205699,1,0,0:0:0:0:
458,211,205864,1,0,0:0:0:0:
417,223,206029,1,8,0:0:0:0:
458,211,206194,1,0,0:0:0:0:
382,174,206524,1,8,0:0:0:0:
409,142,206688,1,0,0:0:0:0:
329,114,206853,1,0,0:0:0:0:
329,114,207018,1,8,0:0:0:0:
256,157,207183,1,0,0:0:0:0:
329,114,207348,1,0,0:0:0:0:
329,114,207513,1,0,0:0:0:0:
329,114,207842,1,0,0:0:0:0:
292,135,208007,1,8,0:0:0:0:
256,157,208172,1,0,0:0:0:0:
256,157,208337,1,0,0:0:0:0:
294,173,208502,1,8,0:0:0:0:
335,177,208666,1,0,0:0:0:0:
377,181,208831,1,0,0:0:0:0:
340,201,208996,1,8,0:0:0:0:
339,162,209161,1,0,0:0:0:0:
303,184,209326,1,8,0:0:0:0:
335,177,209491,1,8,0:0:0:0:
256,192,209655,12,0,210150,0:0:0:0:
360,224,210315,5,0,0:0:0:0:
280,216,210644,1,0,0:0:0:0:
232,224,210809,1,8,0:0:0:0:
360,224,211139,1,4,0:0:0:0:
256,192,211551,1,0,0:0:0:0:
280,256,211633,1,12,0:0:0:0:
291,223,211963,1,0,0:0:0:0:
354,277,212128,1,8,0:0:0:0:
354,277,212293,1,8,0:0:0:0:
328,248,212458,1,0,0:0:0:0:
457,203,212622,1,8,0:0:0:0:
382,241,212952,1,0,0:0:0:0:
357,182,213117,1,0,0:0:0:0:
367,200,213282,1,8,0:0:0:0:
383,161,213447,1,0,0:0:0:0:
360,152,213529,1,0,0:0:0:0:
344,144,213611,1,0,0:0:0:0:
313,113,213776,1,0,0:0:0:0:
326,152,213941,1,8,0:0:0:0:
242,143,214271,1,0,0:0:0:0:
158,145,214600,1,0,0:0:0:0:
118,160,214765,1,8,0:0:0:0:
78,171,214930,1,8,0:0:0:0:
120,168,215095,1,0,0:0:0:0:
161,176,215260,1,8,0:0:0:0:
177,204,215589,1,0,0:0:0:0:
218,196,215754,1,0,0:0:0:0:
261,205,215919,1,8,0:0:0:0:
304,192,216084,1,8,0:0:0:0:
288,184,216166,1,8,0:0:0:0:
336,224,216249,1,0,0:0:0:0:
296,227,216414,1,0,0:0:0:0:
335,241,216578,1,8,0:0:0:0:
335,241,216908,1,8,0:0:0:0:
262,198,217238,1,0,0:0:0:0:
296,227,217403,1,8,0:0:0:0:
337,179,217567,1,8,0:0:0:0:
344,200,217650,1,8,0:0:0:0:
335,241,217732,1,0,0:0:0:0:
306,209,217897,1,8,0:0:0:0:
336,137,218062,1,0,0:0:0:0:
344,200,218227,1,8,0:0:0:0:
324,118,218474,1,0,0:0:0:0:
269,80,218557,1,8,0:0:0:0:
269,80,218721,1,8,0:0:0:0:
241,49,218886,1,0,0:0:0:0:
200,2,219051,1,0,0:0:0:0:
208,20,219133,1,8,0:0:0:0:
199,44,219216,1,8,0:0:0:0:
179,81,219381,1,0,0:0:0:0:
197,127,219546,1,8,0:0:0:0:
141,63,219875,1,12,0:0:0:0:
200,117,220205,1,0,0:0:0:0:
240,129,220370,1,0,0:0:0:0:
272,155,220535,1,8,0:0:0:0:
230,148,220699,1,4,0:0:0:0:
274,219,221029,1,12,0:0:0:0:
358,217,221359,1,4,0:0:0:0:
288,168,221688,1,0,0:0:0:0:
312,176,221771,1,8,0:0:0:0:
336,176,221853,1,8,0:0:0:0:
200,152,222018,1,0,0:0:0:0:
280,256,222183,1,12,0:0:0:0:
291,223,222513,1,0,0:0:0:0:
354,277,222677,1,8,0:0:0:0:
354,277,222842,1,8,0:0:0:0:
383,161,222925,1,8,0:0:0:0:
315,260,223007,1,0,0:0:0:0:
457,203,223172,1,8,0:0:0:0:
382,241,223502,1,0,0:0:0:0:
357,182,223666,1,0,0:0:0:0:
339,170,223749,1,0,0:0:0:0:
396,195,223831,1,8,0:0:0:0:
383,161,223996,1,8,0:0:0:0:
323,147,224161,1,0,0:0:0:0:
293,121,224326,1,0,0:0:0:0:
326,152,224491,1,8,0:0:0:0:
242,143,224820,1,0,0:0:0:0:
158,145,225150,1,0,0:0:0:0:
118,160,225315,1,8,0:0:0:0:
78,171,225480,1,8,0:0:0:0:
98,174,225562,1,8,0:0:0:0:
120,168,225644,1,0,0:0:0:0:
161,176,225809,1,8,0:0:0:0:
200,200,226139,1,0,0:0:0:0:
218,196,226304,5,0,0:0:0:0:
261,205,226469,1,8,0:0:0:0:
288,184,226633,1,8,0:0:0:0:
276,166,226716,1,0,0:0:0:0:
336,224,226798,1,0,0:0:0:0:
296,227,226963,1,0,0:0:0:0:
335,241,227128,1,8,0:0:0:0:
335,241,227458,5,0,0:0:0:0:
369,217,227622,1,0,0:0:0:0:
348,211,227787,1,8,0:0:0:0:
303,195,227952,1,0,0:0:0:0:
303,195,228117,1,8,0:0:0:0:
276,167,228364,1,0,0:0:0:0:
299,132,228447,1,8,0:0:0:0:
309,179,228611,1,0,0:0:0:0:
299,198,228776,1,8,0:0:0:0:
304,253,229106,1,8,0:0:0:0:
342,178,229436,1,0,0:0:0:0:
375,254,229765,1,8,0:0:0:0:
351,219,229930,1,8,0:0:0:0:
304,253,230095,1,0,0:0:0:0:
280,216,230260,1,0,0:0:0:0:
288,232,230342,1,0,0:0:0:0:
388,249,230425,1,8,0:0:0:0:
428,240,230589,1,8,0:0:0:0:
331,187,230754,1,0,0:0:0:0:
303,155,230919,1,8,0:0:0:0:
274,124,231084,1,0,0:0:0:0:
244,93,231249,1,0,0:0:0:0:
214,62,231414,1,8,0:0:0:0:
214,62,231743,1,0,0:0:0:0:
296,88,232073,1,8,0:0:0:0:
257,105,232238,1,0,0:0:0:0:
312,200,232403,1,0,0:0:0:0:
376,144,232732,1,0,0:0:0:0:
336,128,232897,1,8,0:0:0:0:
376,224,233062,1,0,0:0:0:0:
312,200,233227,1,8,0:0:0:0:
504,40,233392,1,0,0:0:0:0:
424,72,233721,1,0,0:0:0:0:
384,86,233886,1,0,0:0:0:0:
352,112,234051,1,8,0:0:0:0:
304,112,234216,1,0,0:0:0:0:
336,136,234381,1,8,0:0:0:0:
360,216,234710,1,0,0:0:0:0:
343,177,234875,1,8,0:0:0:0:
336,136,235040,1,0,0:0:0:0:
328,96,235205,1,0,0:0:0:0:
320,136,235370,1,8,0:0:0:0:
297,256,235699,1,0,0:0:0:0:
294,175,235864,1,8,0:0:0:0:
308,257,236194,1,0,0:0:0:0:
370,201,236524,1,0,0:0:0:0:
401,173,236688,1,0,0:0:0:0:
372,203,236853,1,8,0:0:0:0:
296,240,237183,1,0,0:0:0:0:
372,204,237513,1,8,0:0:0:0:
301,195,237842,1,8,0:0:0:0:
323,195,237925,1,8,0:0:0:0:
268,168,238007,1,0,0:0:0:0:
284,182,238172,1,0,0:0:0:0:
323,195,238337,1,8,0:0:0:0:
280,184,238502,1,0,0:0:0:0:
283,121,238666,1,0,0:0:0:0:
288,117,238996,1,8,0:0:0:0:
324,138,239161,1,0,0:0:0:0:
338,153,239243,1,0,0:0:0:0:
352,168,239326,1,0,0:0:0:0:
380,199,239491,1,0,0:0:0:0:
329,263,239655,1,8,0:0:0:0:
360,240,239820,1,0,0:0:0:0:
324,217,239985,1,0,0:0:0:0:
303,180,240150,1,0,0:0:0:0:
411,249,240315,1,8,0:0:0:0:
237,130,240644,1,0,0:0:0:0:
237,130,240974,1,0,0:0:0:0:
237,130,241139,1,0,0:0:0:0:
350,184,241304,1,8,0:0:0:0:
312,203,241469,1,0,0:0:0:0:
350,184,241633,1,8,0:0:0:0:
350,184,241798,1,0,0:0:0:0:
352,225,241963,1,12,0:0:0:0:
269,210,242293,1,0,0:0:0:0:
208,152,242622,1,8,0:0:0:0:
256,192,242952,8,0,244600,0:0:0:0:
168,104,244930,5,8,0:0:0:0:
200,8,245919,1,12,0:0:0:0:
248,80,246249,1,8,0:0:0:0:
224,160,246578,1,0,0:0:0:0:
240,200,246908,1,8,0:0:0:0:
320,184,247238,1,0,0:0:0:0:
384,240,247567,1,8,0:0:0:0:
336,168,247732,1,0,0:0:0:0:
432,128,248062,1,0,0:0:0:0:
392,144,248227,1,8,0:0:0:0:
464,192,248557,1,8,0:0:0:0:
384,192,248886,1,8,0:0:0:0:
464,192,249216,1,0,0:0:0:0:
424,200,249546,1,8,0:0:0:0:
352,160,249875,1,0,0:0:0:0:
312,184,250205,1,8,0:0:0:0:
296,240,250370,1,8,0:0:0:0:
231,158,250535,1,0,0:0:0:0:
296,104,250864,1,8,0:0:0:0:
312,184,251194,1,0,0:0:0:0:
296,104,251524,1,8,0:0:0:0:
296,104,251853,1,0,0:0:0:0:
296,104,252183,1,8,0:0:0:0:
296,104,252513,1,0,0:0:0:0:
288,184,252842,1,8,0:0:0:0:
288,184,253007,1,0,0:0:0:0:
288,184,253337,1,0,0:0:0:0:
288,224,253502,1,8,0:0:0:0:
240,296,253831,1,0,0:0:0:0:
312,256,254161,1,8,0:0:0:0:
352,248,254326,1,0,0:0:0:0:
392,240,254491,1,0,0:0:0:0:
321,193,254820,1,0,0:0:0:0:
240,176,255150,1,12,0:0:0:0:
192,288,256068,1,12,0:0:0:0:
401,142,257403,1,4,0:0:0:0:
256,192,257590,12,0,260965,0:0:0:0:
