osu file format v14

[General]
AudioFilename: audio.mp3
AudioLeadIn: 0
PreviewTime:210319
Countdown: 0
SampleSet: Soft
StackLeniency: 0.7
Mode: 0
LetterboxInBreaks: 0
WidescreenStoryboard: 1

[Editor]
DistanceSpacing: 1
BeatDivisor: 4
GridSize: 32
TimelineZoom: 1.2

[Metadata]
Title:COLORFUL DAYS!!
TitleUnicode:COLORFUL DAYS!!
Artist:Ceui
ArtistUnicode:Ceui
Creator:Shikibe Mayu
Version:Normal
Source:いろとりどりのヒカリ
Tags:shizuku- kazato asa kowari Irotoridori no Hikari ending ed favorite full version irohika いろヒカ Yamamoto Mineko 山本美禰子 Odaka Kotaro 小高光太郎 Koutarou Colorful Light The Eternal Chapter In World's End Tale visual novel eroge galgame video game japanese pop jpop j-pop
BeatmapID:2277547
BeatmapSetID:1087831

[Difficulty]
HPDrainRate:4
CircleSize:3
OverallDifficulty:5
ApproachRate:6
SliderMultiplier:1
SliderTickRate:1

[Events]
//Background and Video events
0,0,"d039eb8ce7fea3f2b47357cb121bf134.jpg",0,0
//Break Periods
2,93156,99818
2,169439,178609
//Storyboard Layer 0 (Background)
//Storyboard Layer 1 (Fail)
//Storyboard Layer 2 (Pass)
//Storyboard Layer 3 (Foreground)
//Storyboard Layer 4 (Overlay)
//Storyboard Sound Samples

[TimingPoints]
-670,329.67032967033,4,2,1,30,1,0
5923,-100,4,2,1,40,0,0
11198,-100,4,2,1,65,0,0
16472,-100,4,2,2,65,0,0
16801,-100,4,2,1,65,0,0
19110,-100,4,2,2,65,0,0
21747,-100,4,2,1,55,0,0
32297,-100,4,2,1,60,0,0
40209,-100,4,2,1,70,0,0
42846,-111.111111111111,4,2,1,60,0,0
48121,-100,4,2,1,70,0,0
58670,-100,4,2,3,80,0,1
67736,-100,4,2,3,80,0,0
69220,-100,4,2,3,80,0,1
79769,-100,4,2,3,80,0,0
85044,-100,4,2,3,80,0,1
90319,-100,4,2,3,70,0,0
90648,-100,4,2,1,70,0,0
101198,-100,4,2,1,55,0,0
111417,-100,4,2,1,60,0,0
119330,-100,4,2,1,70,0,0
121967,-111.111111111111,4,2,1,60,0,0
127242,-100,4,2,1,70,0,0
137791,-100,4,2,3,80,0,1
146857,-100,4,2,3,80,0,0
148340,-100,4,2,3,80,0,1
158890,-125,4,2,3,80,0,0
169439,-100,4,2,3,50,0,0
179659,-100,4,2,3,50,0,0
179989,-100,4,2,3,70,0,0
201088,-100,4,2,3,60,0,0
203725,-100,4,2,3,70,0,0
211637,-100,4,2,3,80,0,1
220703,-100,4,2,3,80,0,0
222187,-100,4,2,3,80,0,1
232736,-100,4,2,3,80,0,0
238011,-100,4,2,3,80,0,1
244604,-100,4,2,3,40,0,0
245923,-100,4,2,3,70,0,0
255154,620.47569803516,4,2,3,70,1,0
255154,-50,4,2,3,70,0,0
256084,645.161290322581,4,2,3,70,1,0
257374,750,4,2,3,70,1,0
257749,-100,4,2,3,50,0,0
258499,-100,4,2,3,40,0,0
259249,-100,4,2,3,30,0,0
259999,-100,4,2,3,20,0,0

[Colours]
Combo1 : 245,234,95
Combo2 : 240,152,248
Combo3 : 158,138,229

[HitObjects]
365,68,648,6,0,P|425:26|497:38,2,150,4|2|2,2:0|2:0|2:0,0:0:0:0:
316,155,1967,2,0,L|342:302,1,150,2|2,2:0|2:0,0:0:0:0:
342,302,3286,6,0,P|415:300|473:345,2,150,2|2|2,2:0|2:0|2:0,0:0:0:0:
257,355,4604,2,0,L|232:156,1,200,2|2,2:0|2:0,0:0:0:0:
76,28,5923,6,0,P|119:54|168:52,1,100,6|0,2:0|2:0,0:0:0:0:
209,23,6417,1,2,2:0:0:0:
304,52,6747,1,2,2:0:0:0:
451,23,7242,2,0,P|476:65|473:114,1,100,2|0,2:0|2:0,0:0:0:0:
446,155,7736,1,2,2:0:0:0:
348,134,8066,2,0,L|249:154,1,100,2|0,2:0|0:0,0:0:0:0:
256,192,8560,12,2,9879,0:0:0:0:
29,324,11198,6,0,P|72:347|121:343,1,100,4|2,3:2|3:0,0:0:0:0:
162,314,11692,2,0,L|172:215,1,100,2|2,2:0|2:0,0:0:0:0:
129,122,12351,1,0,2:0:0:0:
129,122,12516,2,0,P|83:106|34:114,2,100,2|2|2,3:0|3:0|3:0,0:0:0:0:
224,90,13505,1,8,2:0:0:0:
291,15,13835,6,0,L|390:34,1,100,4|2,3:2|3:0,0:0:0:0:
437,21,14330,2,0,P|455:66|446:115,1,100,2|2,2:0|2:0,0:0:0:0:
358,162,14989,1,2,2:0:0:0:
358,162,15154,2,0,L|260:183,1,100,2|2,3:0|3:0,0:0:0:0:
163,209,15813,2,0,P|153:257|172:303,1,100,2|8,3:0|2:0,0:0:0:0:
251,363,16472,6,0,L|348:384,1,100,4|2,3:2|3:0,0:0:0:0:
397,370,16967,1,2,2:0:0:0:
462,295,17297,1,2,2:0:0:0:
462,295,17461,2,0,L|454:246,1,50,2|2,3:0|2:0,0:0:0:0:
479,202,17791,2,0,P|430:210|387:186,1,100,2|2,3:2|3:0,0:0:0:0:
355,147,18286,1,2,2:0:0:0:
283,216,18615,1,0,3:0:0:0:
283,216,18780,2,0,L|233:207,1,50,8|0,2:0|2:0,0:0:0:0:
193,235,19110,6,0,P|153:264|103:263,1,100,4|0,3:2|3:0,0:0:0:0:
58,241,19604,1,8,2:0:0:0:
35,143,19934,1,2,2:0:0:0:
35,143,20099,2,0,L|43:92,1,50,4|8,3:2|2:3,0:0:0:0:
32,43,20428,2,0,P|80:58|127:44,1,100,2|8,2:0|2:0,0:0:0:0:
219,6,21088,1,8,3:0:0:0:
295,70,21417,2,0,L|283:118,1,50,8|2,2:0|2:0,0:0:0:0:
247,154,21747,6,0,L|224:251,1,100,4|2,3:2|3:0,0:0:0:0:
236,350,22406,2,0,P|284:343|328:366,1,100,2|2,3:0|3:0,0:0:0:0:
427,353,23066,2,0,P|444:307|435:259,1,100,2|2,3:0|3:0,0:0:0:0:
397,224,23560,1,2,2:0:0:0:
430,132,23890,1,2,2:0:0:0:
430,132,24055,2,0,L|419:84,1,50,2|0,3:0|0:0,0:0:0:0:
425,32,24384,6,0,P|375:37|330:17,1,100,2|2,3:0|3:0,0:0:0:0:
283,12,24879,1,2,2:0:0:0:
283,12,25044,2,0,P|259:56|258:106,1,100,2|2,3:0|3:0,0:0:0:0:
292,198,25703,2,0,P|290:247|267:291,1,100,2|2,3:2|3:0,0:0:0:0:
224,317,26198,1,2,2:0:0:0:
127,292,26527,1,2,2:0:0:0:
127,292,26692,1,2,3:2:0:0:
27,277,27022,6,0,P|7:322|8:371,2,100,4|2|2,3:2|3:0|3:0,0:0:0:0:
68,187,28011,1,2,3:0:0:0:
68,187,28176,2,0,L|51:88,1,100,2|2,2:0|2:0,0:0:0:0:
38,40,28670,1,2,3:0:0:0:
135,17,29000,1,2,3:0:0:0:
215,77,29330,1,2,3:0:0:0:
309,45,29659,6,0,P|316:93|295:138,1,100,2|2,3:2|3:0,0:0:0:0:
223,208,30319,2,0,L|238:306,1,100,2|2,3:0|3:0,0:0:0:0:
318,366,30978,1,10,0:2:0:0:
318,366,31143,1,10,0:2:0:0:
412,26,32297,6,0,P|460:17|507:32,2,100,4|8|0,3:2|2:0|3:0,0:0:0:0:
314,47,33286,2,0,L|305:96,1,50,2|2,3:0|2:0,0:0:0:0:
338,133,33615,2,0,P|347:182|330:229,1,100,2|0,3:2|3:0,0:0:0:0:
320,277,34110,2,0,P|270:276|227:301,1,100,2|0,0:0|3:0,0:0:0:0:
198,341,34604,1,8,2:0:0:0:
104,366,34934,6,0,P|54:366|13:339,1,100,2|2,3:2|3:0,0:0:0:0:
5,290,35428,1,2,2:0:0:0:
5,290,35593,2,0,L|16:241,1,50,2|2,3:0|2:0,0:0:0:0:
26,145,36088,1,2,2:0:0:0:
26,145,36253,2,0,P|75:148|121:129,1,100,2|0,3:2|3:0,0:0:0:0:
151,88,36747,1,2,2:0:0:0:
248,55,37077,1,2,2:0:0:0:
248,55,37242,2,0,P|250:104|230:150,1,100,10|0,0:0|3:0,0:0:0:0:
189,241,37901,6,0,L|204:339,1,100,2|0,3:2|3:0,0:0:0:0:
303,378,38560,1,0,3:0:0:0:
303,378,38725,2,0,P|362:334|435:339,1,150,2|0,2:0|3:0,0:0:0:0:
480,362,39384,1,2,2:0:0:0:
497,266,39714,1,0,3:0:0:0:
497,266,39879,2,0,L|506:215,1,50,8|2,2:0|2:0,0:0:0:0:
499,165,40209,6,0,P|426:153|373:101,1,150,4|10,3:1|2:0,0:0:0:0:
263,0,41198,2,0,L|222:196,1,200,4|8,3:1|2:0,0:0:0:0:
234,295,42187,2,0,P|189:317|140:311,1,100,0|8,3:0|2:0,0:0:0:0:
100,281,42681,1,0,3:0:0:0:
100,281,42846,6,0,L|11:297,2,89.9999972534181,4|2|8,3:2|2:0|2:0,0:0:0:0:
121,196,43835,1,0,3:0:0:0:
121,196,44000,2,0,P|70:152|58:87,1,134.999995880127,8|0,2:0|3:0,0:0:0:0:
107,12,44824,2,0,P|144:29|197:27,1,89.9999972534181,8|0,2:0|3:0,0:0:0:0:
278,0,45483,6,0,P|222:68|226:156,1,179.999994506836,4|8,3:2|0:0,0:0:0:0:
208,247,46472,1,2,2:0:0:0:
208,247,46637,2,0,P|273:258|321:304,1,134.999995880127,8|8,2:0|3:0,0:0:0:0:
405,335,47461,2,0,L|417:245,1,89.9999972534181,8|2,2:0|3:0,0:0:0:0:
458,223,47956,1,8,2:0:0:0:
458,223,48121,6,0,P|472:175|464:126,1,100,4|10,3:2|2:0,0:0:0:0:
411,52,48780,2,0,L|419:2,2,50,2|2|8,2:0|3:2|2:0,0:0:0:0:
365,73,49275,2,0,P|325:45|276:40,1,100,2|0,0:0|3:0,0:0:0:0:
227,53,49769,1,8,0:0:0:0:
219,152,50099,2,0,L|239:249,1,100,2|8,3:2|2:0,0:0:0:0:
248,303,50593,1,0,3:0:0:0:
248,303,50758,6,0,P|208:333|158:335,1,100,4|8,3:2|2:0,0:0:0:0:
116,309,51253,1,0,3:0:0:0:
52,223,51582,1,0,3:0:0:0:
52,223,51747,2,0,L|59:173,1,50,10|0,2:0|3:0,0:0:0:0:
45,125,52077,2,0,P|93:116|133:86,1,100,4|10,3:2|2:0,0:0:0:0:
205,17,52736,2,0,L|306:31,1,100,2|8,3:2|2:0,0:0:0:0:
352,17,53231,1,0,3:0:0:0:
352,17,53395,6,0,P|374:60|368:109,1,100,4|10,3:1|2:0,0:0:0:0:
291,175,54055,2,0,P|268:218|274:267,1,100,2|10,2:0|2:0,0:0:0:0:
296,317,54549,1,0,3:0:0:0:
296,317,54714,2,0,L|397:331,1,100,2|8,3:2|2:0,0:0:0:0:
488,293,55373,2,0,P|501:245|495:195,1,100,2|8,3:2|2:0,0:0:0:0:
450,105,56033,6,0,L|463:56,2,50,4|0|8,3:2|3:0|2:0,0:0:0:0:
379,175,56692,2,0,L|392:224,2,50,8|8|8,2:0|2:0|2:0,0:0:0:0:
366,126,57187,1,10,2:0:0:0:
275,97,58670,6,0,P|229:112|181:99,1,100,4|8,3:2|2:0,0:0:0:0:
140,68,59165,1,2,2:0:0:0:
140,68,59330,2,0,P|91:59|45:78,1,100,2|8,3:1|2:0,0:0:0:0:
3,168,59989,2,0,P|-5:216|13:262,1,100,2|8,3:1|2:0,0:0:0:0:
53,293,60483,1,2,1:1:0:0:
148,263,60813,1,0,3:2:0:0:
148,263,60978,2,0,L|196:274,1,50,10|0,2:0|2:0,0:0:0:0:
229,311,61308,6,0,P|255:269|257:220,1,100,6|8,3:1|2:0,0:0:0:0:
234,176,61802,1,0,1:0:0:0:
234,176,61967,2,0,L|249:77,1,100,2|8,3:1|2:0,0:0:0:0:
333,23,62626,2,0,P|381:14|426:34,1,100,2|10,3:1|2:0,0:0:0:0:
458,74,63121,1,2,3:1:0:0:
421,166,63450,1,0,3:0:0:0:
421,166,63615,2,0,L|430:215,1,50,8|0,2:0|3:0,0:0:0:0:
464,252,63945,6,0,P|459:301|427:338,1,100,6|8,3:1|2:0,0:0:0:0:
381,356,64439,1,0,1:0:0:0:
381,356,64604,2,0,L|283:336,1,100,2|8,3:1|2:0,0:0:0:0:
212,265,65264,2,0,L|114:285,1,100,2|10,3:1|2:0,0:0:0:0:
77,305,65758,1,2,2:0:0:0:
77,305,65923,2,0,P|54:261|57:211,1,100,2|8,3:1|2:0,0:0:0:0:
115,130,66582,6,0,P|67:114|19:123,2,100,6|10|2,3:2|2:0|3:1,0:0:0:0:
213,243,67736,1,10,0:0:0:0:
138,309,68066,1,10,0:0:0:0:
52,257,68395,1,10,0:0:0:0:
56,157,68725,2,0,P|99:134|149:137,1,100,8|4,2:0|2:3,0:0:0:0:
198,144,69220,6,8,L|212:242,1,100,6|8,3:1|2:0,0:0:0:0:
223,295,69714,1,2,2:0:0:0:
223,295,69879,2,0,P|264:321|312:316,1,100,2|8,3:1|2:0,0:0:0:0:
405,345,70538,2,0,L|418:246,1,100,2|10,3:1|2:0,0:0:0:0:
426,196,71033,1,2,0:0:0:0:
508,138,71362,1,0,3:0:0:0:
508,138,71527,1,10,2:0:0:0:
508,41,71857,6,0,L|410:24,1,100,2|8,3:1|2:0,0:0:0:0:
359,30,72351,1,0,1:0:0:0:
359,30,72516,2,0,P|309:24|264:44,1,100,2|8,3:2|2:0,0:0:0:0:
230,132,73176,2,0,L|247:230,1,100,2|10,3:1|2:0,0:0:0:0:
257,279,73670,1,2,3:1:0:0:
216,372,74000,1,0,3:0:0:0:
216,372,74165,2,0,P|193:361|168:357,1,50,10|0,2:0|2:0,0:0:0:0:
128,327,74494,6,0,P|86:353|37:351,1,100,6|8,3:1|2:0,0:0:0:0:
12,253,75154,2,0,L|0:179,2,75,2|2|0,3:1|2:0|3:0,0:0:0:0:
62,252,75813,2,0,P|101:222|115:175,1,100,2|8,3:1|2:0,0:0:0:0:
97,76,76472,2,0,L|23:59,2,75,2|2|0,3:2|0:0|3:0,0:0:0:0:
137,46,77132,6,0,P|183:21|235:26,1,100,2|8,3:1|2:0,0:0:0:0:
318,69,77791,1,0,3:0:0:0:
275,159,78121,2,0,L|264:207,1,50,0|8,3:0|2:0,0:0:0:0:
294,254,78450,1,4,3:2:0:0:
294,254,78615,2,0,P|343:251|388:271,2,100,4|4|4,2:3|2:3|2:3,0:0:0:0:
259,289,79439,1,4,2:3:0:0:
179,349,79769,6,0,L|81:333,1,100,6|2,3:1|2:0,0:0:0:0:
36,322,80264,1,0,3:0:0:0:
36,322,80428,1,10,2:0:0:0:
70,228,80758,2,0,P|69:173|50:134,1,100,2|2,2:0|3:1,0:0:0:0:
31,92,81253,1,8,2:0:0:0:
31,92,81417,1,2,3:2:0:0:
92,13,81747,2,0,L|193:31,1,100,8|2,2:0|2:0,0:0:0:0:
244,25,82242,1,8,2:0:0:0:
244,25,82406,6,0,P|260:72|252:121,1,100,6|2,3:1|2:0,0:0:0:0:
215,154,82901,1,0,3:0:0:0:
215,154,83066,1,10,2:0:0:0:
255,250,83395,1,0,3:0:0:0:
255,250,83560,2,0,L|237:348,2,100,10|10|0,2:0|2:0|3:0,0:0:0:0:
343,197,84549,1,0,3:0:0:0:
343,197,84714,2,0,P|367:206|392:204,1,50,8|8,2:0|2:0,0:0:0:0:
437,185,85044,6,0,L|454:86,1,100,6|8,3:1|2:0,0:0:0:0:
432,41,85538,1,2,2:0:0:0:
432,41,85703,2,0,P|386:23|338:34,1,100,2|8,3:1|2:0,0:0:0:0:
260,97,86362,2,0,L|274:197,1,100,4|8,3:1|2:0,0:0:0:0:
305,235,86857,1,0,1:0:0:0:
305,235,87022,2,0,P|283:278|239:299,1,100,2|10,3:1|2:0,0:0:0:0:
147,257,87681,6,0,P|73:253|10:292,2,150,4|0|8,3:2|3:0|2:0,0:0:0:0:
229,200,89000,1,12,2:0:0:0:
229,200,90319,5,4,3:1:0:0:
256,192,90483,12,4,92956,3:2:0:0:
330,291,100868,6,0,P|287:265|238:266,1,100,4|2,3:2|3:0,0:0:0:0:
170,339,101527,2,0,P|131:369|82:373,1,100,2|2,3:0|3:0,0:0:0:0:
18,295,102187,2,0,P|21:245|52:207,1,100,2|2,3:0|3:0,0:0:0:0:
94,182,102681,1,2,2:0:0:0:
160,106,103011,1,2,2:0:0:0:
160,106,103176,2,0,L|262:89,1,100,2|2,3:0|3:0,0:0:0:0:
357,76,103835,5,2,3:0:0:0:
422,152,104165,2,0,L|473:143,2,50,2|2|2,3:0|0:0|3:0,0:0:0:0:
333,197,104824,2,0,P|283:202|238:182,1,100,2|2,3:2|3:0,0:0:0:0:
199,150,105319,1,2,2:0:0:0:
117,220,105648,1,2,2:0:0:0:
117,220,105813,2,0,L|125:270,1,50,2|2,3:0|2:0,0:0:0:0:
94,309,106143,6,0,P|41:309|-4:332,2,100,4|2|2,3:2|3:0|3:0,0:0:0:0:
189,369,107132,1,2,3:0:0:0:
189,369,107297,2,0,L|288:352,1,100,2|2,2:0|2:0,0:0:0:0:
336,343,107791,1,2,3:0:0:0:
431,371,108121,1,2,3:0:0:0:
495,294,108450,1,2,3:0:0:0:
448,205,108780,6,0,P|428:161|435:112,1,100,2|2,3:2|3:0,0:0:0:0:
449,62,109275,1,2,0:0:0:0:
449,62,109439,2,0,L|349:47,1,100,2|2,3:0|3:0,0:0:0:0:
254,36,110099,1,10,0:0:0:0:
254,36,110264,1,10,0:0:0:0:
392,357,111417,6,0,P|440:351|485:372,2,100,4|8|0,3:2|2:0|3:0,0:0:0:0:
288,342,112406,2,0,L|279:293,1,50,2|2,3:0|2:0,0:0:0:0:
244,256,112736,2,0,P|195:246|148:263,1,100,2|0,3:2|3:0,0:0:0:0:
116,307,113231,1,2,2:0:0:0:
24,282,113560,1,2,2:0:0:0:
24,282,113725,1,8,2:0:0:0:
71,193,114055,6,0,P|83:144|71:96,1,100,2|2,3:2|3:0,0:0:0:0:
55,49,114549,1,2,2:0:0:0:
55,49,114714,2,0,P|80:44|104:40,1,50,2|2,3:0|2:0,0:0:0:0:
198,5,115209,1,2,2:0:0:0:
198,5,115373,2,0,P|216:50|212:100,1,100,2|0,3:2|3:0,0:0:0:0:
182,141,115868,1,2,2:2:0:0:
197,244,116198,1,2,2:0:0:0:
197,244,116362,2,0,P|193:293|210:343,1,100,10|2,2:2|3:2,0:2:0:0:
301,378,117022,5,2,3:2:0:0:
390,340,117351,2,0,L|439:330,1,50,0|2,3:0|2:0,0:0:0:0:
496,247,117846,2,0,L|481:148,1,100,2|2,2:0|2:0,0:0:0:0:
475,103,118340,1,0,3:0:0:0:
475,103,118505,1,2,2:0:0:0:
391,30,118835,1,0,3:0:0:0:
391,30,119000,2,0,P|367:36|342:37,1,50,8|2,2:0|2:0,0:0:0:0:
289,18,119330,6,0,B|248:68|248:68|264:151,1,150,4|10,3:1|2:0,0:0:0:0:
312,294,120319,2,0,B|199:252|232:334|119:299,1,200,4|8,3:1|2:0,0:0:0:0:
59,219,121308,2,0,P|53:169|76:125,1,100,0|8,3:0|2:0,0:0:0:0:
101,85,121802,1,0,3:0:0:0:
101,85,121967,6,0,L|14:58,2,89.9999972534181,4|2|8,3:2|2:0|2:0,0:0:0:0:
182,42,122956,1,0,3:0:0:0:
182,42,123121,2,0,P|212:102|203:168,1,134.999995880127,8|0,2:0|3:0,0:0:0:0:
182,207,123780,2,0,L|136:196,2,44.999998626709,0|8|0,3:0|2:0|3:0,2:0:0:0:
247,276,124439,1,8,2:0:0:0:
247,276,124604,6,0,P|251:320|239:363,2,89.9999972534181,4|0|8,3:2|3:0|2:0,0:0:0:0:
298,203,125593,1,2,2:0:0:0:
298,203,125758,2,0,P|295:158|315:118,1,89.9999972534181,8|8,2:0|2:0,0:0:0:0:
339,80,126253,1,2,3:2:0:0:
279,12,126582,2,0,B|224:43|224:43|153:29,1,134.999995880127,8|8,2:0|2:0,0:0:0:0:
108,51,127242,6,0,P|100:99|114:147,1,100,4|10,3:2|2:0,0:0:0:0:
55,228,127901,2,0,L|5:220,2,50,2|2|8,2:0|3:2|2:0,0:0:0:0:
86,266,128395,2,0,P|96:314|128:352,1,100,2|0,0:2|3:0,0:0:0:0:
172,375,128890,1,8,0:0:0:0:
261,329,129220,2,0,L|281:232,1,100,2|8,3:2|2:0,0:0:0:0:
254,195,129714,1,2,2:0:0:0:
254,195,129879,6,0,B|230:150|230:150|239:101,1,100,4|8,3:2|2:0,0:0:0:0:
320,42,130538,2,0,L|424:29,1,100,0|8,3:0|0:0,0:0:0:0:
456,62,131033,1,2,0:0:0:0:
456,62,131198,2,0,B|480:107|480:107|470:155,1,100,0|8,3:2|2:0,0:0:0:0:
479,254,131857,2,0,L|375:241,1,100,0|8,3:0|0:0,0:0:0:0:
353,285,132351,1,0,3:0:0:0:
353,285,132516,6,0,P|310:307|261:301,1,100,4|10,3:1|2:0,0:0:0:0:
181,237,133176,2,0,P|174:188|197:144,1,100,2|10,2:0|2:0,0:0:0:0:
238,115,133670,1,0,3:0:0:0:
238,115,133835,2,0,L|224:14,1,100,2|8,3:2|2:0,0:0:0:0:
125,0,134494,2,0,P|79:20|51:62,1,100,2|8,3:2|2:0,0:0:0:0:
104,145,135154,2,0,L|153:155,2,50,4|0|8,3:2|3:0|2:0,0:0:0:0:
53,230,135813,2,0,L|3:240,2,50,8|8|8,2:0|2:0|2:0,0:0:0:0:
70,277,136308,1,10,2:0:0:0:
90,322,137791,6,0,P|136:337|184:324,1,100,4|8,3:2|2:0,0:0:0:0:
222,290,138286,1,2,2:0:0:0:
222,290,138450,2,0,L|238:192,1,100,2|8,3:1|2:0,0:0:0:0:
213,93,139110,2,0,P|249:60|298:52,1,100,2|8,3:1|2:0,0:0:0:0:
345,69,139604,1,2,0:0:0:0:
443,51,139934,1,0,3:2:0:0:
443,51,140099,2,0,L|434:101,1,50,10|0,2:0|2:0,0:0:0:0:
403,139,140428,6,0,L|421:239,1,100,6|8,3:1|2:0,0:0:0:0:
450,278,140923,1,0,1:0:0:0:
450,278,141088,2,0,P|401:275|357:297,1,100,2|8,3:1|2:0,0:0:0:0:
279,360,141747,2,0,L|179:344,1,100,2|10,3:1|2:0,0:0:0:0:
130,335,142242,1,2,3:1:0:0:
171,244,142571,1,0,3:0:0:0:
171,244,142736,2,0,L|165:194,1,50,10|0,2:0|3:0,0:0:0:0:
142,149,143066,6,0,P|191:153|237:134,1,100,6|8,3:1|2:0,0:0:0:0:
282,113,143560,1,0,1:0:0:0:
282,113,143725,2,0,P|331:108|377:127,1,100,2|8,3:1|2:0,0:0:0:0:
464,176,144384,2,0,L|484:78,1,100,2|10,3:1|2:0,0:0:0:0:
489,28,144879,1,2,2:0:0:0:
489,28,145044,2,0,P|441:35|393:22,1,100,2|8,3:1|2:0,0:0:0:0:
293,4,145703,6,0,L|194:19,2,100,6|10|2,3:2|2:0|3:1,0:0:0:0:
422,79,146857,1,10,0:0:0:0:
387,172,147187,1,10,0:0:0:0:
290,197,147516,1,10,0:0:0:0:
224,122,147846,2,0,L|125:106,1,100,8|4,2:0|2:3,0:0:0:0:
75,115,148340,6,0,P|55:160|58:210,1,100,6|8,3:1|2:0,0:0:0:0:
41,257,148835,1,2,2:0:0:0:
41,257,149000,2,0,L|140:241,1,100,2|8,3:1|2:0,0:0:0:0:
215,306,149659,2,0,P|264:306|307:282,1,100,2|10,3:1|2:0,0:0:0:0:
291,234,150154,2,0,L|305:134,1,100,2|0,1:2|3:2,0:0:0:0:
311,85,150648,1,10,2:0:0:0:
383,14,150978,6,0,P|432:19|475:43,1,100,2|8,3:1|2:0,0:0:0:0:
488,92,151472,1,0,1:0:0:0:
488,92,151637,2,0,P|479:141|470:190,1,100,2|8,3:2|2:0,0:0:0:0:
496,287,152297,2,0,P|446:287|402:309,1,100,2|10,3:1|2:0,0:0:0:0:
383,356,152791,1,2,3:1:0:0:
297,373,153121,1,0,3:0:0:0:
297,373,153286,2,0,L|288:324,1,50,10|0,2:0|1:0,0:0:0:0:
259,282,153615,6,0,P|217:308|168:306,1,100,6|8,3:1|2:0,0:0:0:0:
74,268,154275,2,0,L|0:285,2,75,2|2|0,3:1|2:0|3:0,0:0:0:0:
100,225,154934,2,0,B|119:189|119:189|106:130,1,100,2|8,3:1|2:0,0:0:0:0:
161,46,155593,2,0,P|126:31|89:34,2,75,0|2|0,3:0|0:0|3:0,0:0:0:0:
209,33,156253,6,0,L|227:131,1,100,2|8,3:1|2:0,0:0:0:0:
190,224,156912,2,0,L|208:322,1,100,2|0,3:1|3:0,0:0:0:0:
223,375,157406,1,8,2:0:0:0:
223,375,157571,1,4,3:2:0:0:
316,338,157901,1,2,2:0:0:0:
411,367,158231,2,0,P|459:356|492:320,1,100,2|2,2:0|3:2,0:0:0:0:
470,222,158890,5,6,3:1:0:0:
256,192,159055,12,0,161527,2:0:0:0:
293,56,162846,6,0,P|330:69|370:66,1,80,2|0,0:0|0:0,0:0:0:0:
449,27,163505,2,0,P|459:65|453:104,1,80,2|2,0:0|0:0,0:0:0:0:
439,148,164000,1,0,0:0:0:0:
439,148,164165,6,0,B|362:133|363:194|286:172,2,160,2|2|2,0:0|0:0|0:0,0:0:0:0:
500,312,166143,2,0,L|420:323,1,80,2|0,0:0|0:0,0:0:0:0:
380,329,166637,1,0,0:0:0:0:
380,329,166802,6,0,B|344:362|344:362|234:345,1,160,2|2,0:0|0:0,0:0:0:0:
152,377,167791,1,2,0:0:0:0:
88,316,168121,1,2,0:0:0:0:
310,36,179659,5,8,2:0:0:0:
407,60,179989,2,0,P|422:107|415:156,1,100,6|0,3:1|2:0,0:0:0:0:
391,200,180483,1,10,2:0:0:0:
437,342,180978,2,0,P|341:360|257:310,1,200,12|8,2:0|2:0,0:0:0:0:
171,361,181967,2,0,L|72:342,1,100,2|8,3:1|2:0,0:0:0:0:
23,253,182626,6,0,P|10:206|19:157,1,100,4|2,3:1|2:0,0:0:0:0:
35,110,183121,1,10,2:0:0:0:
123,63,183450,1,2,2:0:0:0:
123,63,183615,2,0,P|218:78|266:162,1,200,4|8,3:2|2:0,0:0:0:0:
234,257,184604,2,0,P|235:306|256:351,1,100,2|8,3:1|2:0,0:0:0:0:
352,380,185264,6,0,P|401:378|446:357,1,100,6|2,3:1|2:0,0:0:0:0:
474,315,185758,1,10,2:0:0:0:
444,219,186088,1,0,3:0:0:0:
444,219,186253,2,0,L|467:70,1,150,12|0,2:0|3:0,0:0:0:0:
481,22,186912,1,10,2:0:0:0:
386,52,187242,2,0,P|337:61|289:48,1,100,2|8,3:1|2:0,0:0:0:0:
249,18,187736,1,8,2:0:0:0:
249,17,187901,6,0,P|227:62|232:111,1,100,4|2,3:1|2:0,0:0:0:0:
256,155,188395,1,10,2:0:0:0:
299,245,188725,1,0,3:0:0:0:
299,245,188890,2,0,P|248:326|152:328,1,200,4|10,3:1|2:0,0:0:0:0:
54,302,189879,2,0,L|39:203,1,100,0|8,3:0|2:0,0:0:0:0:
25,102,190538,6,0,P|74:112|122:99,1,100,6|8,3:1|2:0,0:0:0:0:
161,67,191033,1,2,1:2:0:0:
253,104,191362,1,0,3:0:0:0:
253,104,191527,2,0,L|268:6,2,100,12|2|8,2:0|3:1|2:0,0:0:0:0:
186,177,192516,2,0,P|174:226|183:274,1,100,2|10,3:2|2:0,0:0:0:0:
219,310,193011,1,0,3:0:0:0:
219,310,193176,6,0,L|317:290,1,100,2|8,3:1|2:0,0:0:0:0:
363,309,193670,1,2,1:2:0:0:
446,253,194000,1,0,3:2:0:0:
446,253,194165,2,0,P|462:299|455:348,2,100,14|2|8,2:0|3:2|2:0,0:0:0:0:
500,168,195154,2,0,L|489:69,1,100,2|10,3:1|2:0,0:0:0:0:
484,18,195648,1,2,2:0:0:0:
484,18,195813,6,0,P|439:40|389:41,1,100,4|10,3:1|2:0,0:0:0:0:
344,19,196308,1,2,1:2:0:0:
254,62,196637,1,0,3:0:0:0:
254,62,196802,2,0,P|232:106|233:156,1,100,14|2,2:0|2:0,0:0:0:0:
257,200,197297,1,0,3:0:0:0:
257,200,197461,2,0,L|239:298,1,100,10|2,2:0|3:1,0:0:0:0:
155,354,198121,2,0,P|133:344|108:344,1,50,8|2,2:0|2:0,0:0:0:0:
60,361,198450,6,0,P|33:321|31:271,1,100,6|8,3:1|2:0,0:0:0:0:
61,231,198945,1,6,2:0:0:0:
20,139,199275,1,2,2:0:0:0:
20,139,199439,2,0,L|39:40,1,100,12|2,2:0|2:1,0:0:0:0:
133,8,200099,2,0,L|182:14,1,50,8|0,0:0|3:0,0:0:0:0:
224,43,200428,2,0,L|243:141,1,100,2|8,3:1|2:3,0:0:0:0:
227,188,200923,1,4,2:3:0:0:
227,188,201088,6,0,B|255:324|255:324|279:301|310:300,1,200,4|8,3:1|2:0,0:0:0:0:
404,335,202077,2,0,L|412:284,1,50,2|0,2:0|3:0,0:0:0:0:
397,237,202406,2,0,P|445:243|490:222,1,100,2|0,3:2|0:0,0:0:0:0:
482,176,202901,1,0,3:0:0:0:
482,176,203066,2,0,L|492:127,2,50,8|8|0,0:0|0:0|3:0,0:0:0:0:
408,108,203725,6,0,P|362:127|313:118,1,100,6|8,3:1|2:0,0:0:0:0:
271,92,204220,1,0,3:0:0:0:
271,92,204384,1,6,3:2:0:0:
176,125,204714,2,0,L|185:175,1,50,8|0,2:0|3:0,0:0:0:0:
208,219,205044,2,0,B|223:271|184:311|184:311|141:277|90:298,1,200,6|6,3:1|3:1,0:0:0:0:
256,192,205868,12,2,210319,3:1:0:0:
495,69,211637,6,0,B|451:88|451:88|401:71,1,100,4|8,3:2|2:0,0:0:0:0:
363,38,212132,1,2,2:0:0:0:
363,38,212297,2,0,L|257:56,1,100,2|8,3:1|2:0,0:0:0:0:
170,19,212956,2,0,P|162:67|180:113,1,100,2|8,3:1|2:0,0:0:0:0:
160,159,213450,1,2,1:2:0:0:
77,215,213780,1,0,3:2:0:0:
77,215,213945,2,0,L|88:263,1,50,10|0,2:0|2:0,0:0:0:0:
62,307,214275,6,0,P|112:303|154:329,1,100,6|8,3:1|2:0,0:0:0:0:
192,361,214769,1,0,1:0:0:0:
192,361,214934,2,0,L|291:346,1,100,2|8,3:1|2:0,0:0:0:0:
332,255,215593,2,0,P|347:207|343:158,1,100,2|10,3:1|2:0,0:0:0:0:
313,117,216088,1,2,3:1:0:0:
337,20,216417,1,0,3:0:0:0:
337,20,216582,2,0,L|386:29,1,50,8|0,2:0|1:0,0:0:0:0:
433,15,216912,6,0,P|470:49|487:95,1,100,6|8,3:1|2:0,0:0:0:0:
465,140,217406,1,0,1:0:0:0:
465,140,217571,2,0,L|485:238,1,100,2|8,3:1|2:0,0:0:0:0:
465,336,218231,2,0,P|420:313|371:319,1,100,2|10,3:1|2:0,0:0:0:0:
323,307,218725,1,0,1:0:0:0:
323,307,218890,2,0,P|300:263|303:213,1,100,2|8,3:1|2:0,0:0:0:0:
342,121,219549,6,0,L|322:23,2,100,6|10|2,3:2|2:0|3:1,0:0:0:0:
443,148,220538,1,0,3:0:0:0:
443,148,220703,1,8,0:0:0:0:
481,240,221033,1,8,0:0:0:0:
416,316,221362,1,8,0:0:0:0:
316,305,221692,2,0,L|296:207,1,100,8|4,2:0|2:3,0:0:0:0:
304,157,222187,6,0,P|294:108|268:65,1,100,6|8,3:1|2:0,0:0:0:0:
225,52,222681,1,2,2:0:0:0:
225,52,222846,2,0,L|127:76,1,100,2|8,3:1|2:0,0:0:0:0:
57,146,223505,2,0,L|37:244,1,100,2|10,3:1|2:0,0:0:0:0:
59,289,224000,2,0,P|102:267|151:272,1,100,2|0,1:2|3:2,0:0:0:0:
193,300,224494,1,10,2:0:0:0:
242,213,224824,6,0,L|259:115,1,100,2|8,3:1|2:0,0:0:0:0:
254,69,225319,1,0,1:0:0:0:
254,69,225483,2,0,P|304:75|349:55,1,100,2|8,3:2|2:0,0:0:0:0:
435,6,226143,2,0,L|452:104,1,100,2|10,3:1|2:0,0:0:0:0:
459,154,226637,1,2,3:1:0:0:
506,248,226967,1,0,3:0:0:0:
506,248,227132,2,0,L|499:297,1,50,10|0,2:0|1:0,0:0:0:0:
493,347,227461,6,0,P|448:325|399:328,1,100,6|8,3:1|2:0,0:0:0:0:
300,346,228121,2,0,L|226:361,2,75,2|0|0,3:1|3:0|3:0,0:0:0:0:
306,296,228780,2,0,P|319:248|309:199,1,100,2|8,3:1|2:0,0:0:0:0:
237,129,229439,2,0,P|239:91|245:54,2,75,2|2|0,3:1|0:0|3:0,0:0:0:0:
188,141,230099,6,0,P|140:154|88:170,1,100,2|8,3:1|2:0,0:0:0:0:
46,259,230758,1,2,3:2:0:0:
46,259,230923,2,0,P|96:259|141:281,1,100,8|8,2:0|2:0,0:0:0:0:
174,324,231417,1,4,3:2:0:0:
174,324,231582,1,4,2:3:0:0:
257,268,231912,2,0,L|241:169,1,100,4|4,2:3|2:3,0:0:0:0:
231,120,232406,1,4,2:3:0:0:
293,41,232736,6,0,P|340:56|389:51,1,100,6|2,3:1|2:0,0:0:0:0:
437,35,233231,1,0,3:0:0:0:
437,35,233395,1,10,2:0:0:0:
497,116,233725,2,0,P|512:163|507:212,1,100,2|2,2:0|3:1,0:0:0:0:
491,260,234220,1,8,2:0:0:0:
491,260,234384,1,2,3:2:0:0:
441,347,234714,2,0,L|342:329,1,100,8|2,2:0|2:0,0:0:0:0:
298,345,235209,1,8,2:0:0:0:
298,345,235373,6,0,P|282:298|290:249,1,100,6|2,3:1|2:0,0:0:0:0:
325,214,235868,1,0,3:0:0:0:
325,214,236033,1,10,2:0:0:0:
304,121,236362,1,0,3:0:0:0:
304,121,236527,2,0,L|320:23,2,100,10|10|0,2:0|2:0|3:0,0:0:0:0:
223,178,237516,1,0,3:0:0:0:
223,178,237681,2,0,P|199:187|174:185,1,50,8|8,2:0|2:0,0:0:0:0:
129,164,238011,6,0,L|30:181,1,100,6|8,3:1|2:0,0:0:0:0:
23,234,238505,1,0,1:0:0:0:
23,234,238670,2,0,P|5:280|16:328,1,100,2|8,3:1|2:0,0:0:0:0:
102,378,239330,2,0,L|202:364,1,100,4|10,3:1|2:0,0:0:0:0:
250,375,239824,1,0,3:0:0:0:
250,374,239989,2,0,P|263:327|255:278,1,100,2|10,3:1|2:0,0:0:0:0:
175,218,240648,6,0,P|154:147|180:78,2,150,4|0|8,3:2|3:0|2:0,0:0:0:0:
267,180,241967,1,12,2:0:0:0:
256,192,242132,12,2,244604,2:1:0:0:
262,63,245923,6,0,P|307:40|356:42,1,100,6|10,3:1|2:0,0:0:0:0:
403,61,246417,2,0,L|385:159,1,100,0|0,1:0|3:0,0:0:0:0:
377,209,246912,1,8,2:0:0:0:
419,299,247242,2,0,P|384:333|335:341,1,100,6|8,3:1|2:0,0:0:0:0:
291,318,247736,1,0,1:0:0:0:
291,318,247901,2,0,L|273:219,1,100,2|10,3:1|2:0,0:0:0:0:
320,131,248560,6,0,L|302:32,1,100,6|10,3:1|2:0,0:0:0:0:
257,8,249055,2,0,P|212:31|163:27,1,100,0|0,1:0|3:0,0:0:0:0:
118,7,249549,1,10,2:0:0:0:
45,76,249879,2,0,L|54:127,1,50,6|0,3:1|0:0,0:0:0:0:
92,157,250209,2,0,L|74:259,1,100,10|2,2:0|3:1,0:0:0:0:
66,304,250703,1,0,3:0:0:0:
66,304,250868,1,10,2:0:0:0:
155,346,251198,6,0,P|201:325|250:328,1,100,6|8,3:1|2:0,0:0:0:0:
298,240,251857,2,0,L|279:141,1,100,2|10,3:2|2:0,0:0:0:0:
269,92,252351,1,2,2:0:0:0:
269,92,252516,2,0,P|308:56|352:46,1,100,6|8,3:1|2:0,0:0:0:0:
401,58,253011,1,0,3:0:0:0:
476,132,253340,1,0,3:0:0:0:
476,132,253505,2,0,L|467:181,1,50,8|0,2:0|1:0,0:0:0:0:
490,225,253835,5,6,3:1:0:0:
473,326,254165,1,8,2:0:0:0:
473,326,254330,1,0,3:0:0:0:
384,293,254659,1,8,2:3:0:0:
384,293,254824,2,0,L|334:302,1,50,4|4,2:3|2:3,0:0:0:0:
280,309,255154,2,0,P|176:210|39:251,1,300,6|6,3:1|3:2,0:0:0:0:
39,250,257374,5,6,3:1:0:0:
256,192,257561,12,0,266374,2:0:0:0:
