osu file format v14

[General]
AudioFilename: audio.mp3
AudioLeadIn: 0
PreviewTime:210319
Countdown: 0
SampleSet: Soft
StackLeniency: 0.7
Mode: 0
LetterboxInBreaks: 0
WidescreenStoryboard: 1

[Editor]
DistanceSpacing: 1
BeatDivisor: 1
GridSize: 32
TimelineZoom: 0.8

[Metadata]
Title:COLORFUL DAYS!!
TitleUnicode:COLORFUL DAYS!!
Artist:Ceui
ArtistUnicode:Ceui
Creator:Shikibe Mayu
Version:Hard
Source:いろとりどりのヒカリ
Tags:shizuku- kazato asa kowari Irotoridori no Hikari ending ed favorite full version irohika いろヒカ Yamamoto Mineko 山本美禰子 Odaka Kotaro 小高光太郎 Koutarou Colorful Light The Eternal Chapter In World's End Tale visual novel eroge galgame video game japanese pop jpop j-pop
BeatmapID:2276748
BeatmapSetID:1087831

[Difficulty]
HPDrainRate:5
CircleSize:3.6
OverallDifficulty:7
ApproachRate:8
SliderMultiplier:1.4
SliderTickRate:1

[Events]
//Background and Video events
0,0,"d039eb8ce7fea3f2b47357cb121bf134.jpg",0,0
//Break Periods
2,161727,168689
//Storyboard Layer 0 (Background)
//Storyboard Layer 1 (Fail)
//Storyboard Layer 2 (Pass)
//Storyboard Layer 3 (Foreground)
//Storyboard Layer 4 (Overlay)
//Storyboard Sound Samples

[TimingPoints]
-670,329.67032967033,4,2,1,30,1,0
648,-125,4,2,1,30,0,0
5923,-125,4,2,1,40,0,0
11198,-100,4,2,1,65,0,0
16472,-100,4,2,2,65,0,0
16801,-100,4,2,1,65,0,0
19110,-100,4,2,2,65,0,0
21747,-125,4,2,1,55,0,0
32297,-111.111111111111,4,2,1,60,0,0
40209,-111.111111111111,4,2,1,70,0,0
42846,-111.111111111111,4,2,1,60,0,0
48121,-100,4,2,1,70,0,0
58670,-90.9090909090909,4,2,3,80,0,1
67736,-90.9090909090909,4,2,3,80,0,0
69220,-90.9090909090909,4,2,3,80,0,1
79769,-90.9090909090909,4,2,3,80,0,0
79934,-100,4,2,3,80,0,0
85044,-90.9090909090909,4,2,3,80,0,1
90319,-100,4,2,3,70,0,0
90648,-100,4,2,1,70,0,0
101198,-125,4,2,1,55,0,0
111417,-111.111111111111,4,2,1,60,0,0
119330,-100,4,2,1,70,0,0
121967,-111.111111111111,4,2,1,60,0,0
127242,-100,4,2,1,70,0,0
137791,-90.9090909090909,4,2,3,80,0,1
146857,-90.9090909090909,4,2,3,80,0,0
148340,-90.9090909090909,4,2,3,80,0,1
158890,-90.9090909090909,4,2,3,80,0,0
169439,-166.666666666667,4,2,3,50,0,0
179659,-100,4,2,3,50,0,0
179989,-100,4,2,3,70,0,0
201088,-100,4,2,3,60,0,0
203725,-100,4,2,3,70,0,0
211637,-90.9090909090909,4,2,3,80,0,1
220703,-90.9090909090909,4,2,3,80,0,0
222187,-90.9090909090909,4,2,3,80,0,1
232736,-90.9090909090909,4,2,3,80,0,0
238011,-90.9090909090909,4,2,3,80,0,1
244604,-90.9090909090909,4,2,3,40,0,0
245923,-100,4,2,3,70,0,0
255154,620.47569803516,4,2,3,70,1,0
256084,645.161290322581,4,2,3,70,1,0
257374,750,4,2,3,70,1,0
257749,-100,4,2,3,50,0,0
258499,-100,4,2,3,40,0,0
259249,-100,4,2,3,30,0,0
259999,-100,4,2,3,20,0,0

[Colours]
Combo1 : 245,234,95
Combo2 : 240,152,248
Combo3 : 158,138,229

[HitObjects]
455,320,483,5,2,2:0:0:0:
455,320,566,1,2,2:0:0:0:
455,320,648,2,0,L|468:374,2,56,4|0|2,2:0|2:0|2:0,0:0:0:0:
512,254,1143,2,0,P|457:261|406:239,1,112,2|0,2:0|2:0,0:0:0:0:
334,186,1637,2,0,L|320:240,1,56,2|0,2:0|2:0,0:0:0:0:
246,156,1967,2,0,L|232:101,1,56,2|0,2:0|2:0,0:0:0:0:
208,19,2297,1,2,2:0:0:0:
208,19,2461,1,2,2:0:0:0:
246,156,3286,6,0,L|232:101,1,56,2|0,2:0|2:0,0:0:0:0:
208,19,3615,1,2,2:0:0:0:
208,19,3780,2,0,P|162:49|107:47,1,112,2|0,2:0|2:0,0:0:0:0:
13,38,4275,2,0,L|26:92,1,56,2|0,2:0|2:0,0:0:0:0:
93,161,4604,2,0,B|65:313|65:313|52:277|22:259,1,224,2|2,2:0|2:0,0:0:0:0:
22,260,5923,6,0,P|77:257|122:287,1,112,6|0,2:0|2:0,0:0:0:0:
177,358,6417,1,2,2:0:0:0:
232,224,6747,2,0,L|212:113,1,112,2|0,2:0|2:0,0:0:0:0:
208,19,7242,2,0,P|257:44|312:39,1,112,2|0,2:0|2:0,0:0:0:0:
383,0,7736,1,2,2:0:0:0:
416,112,8066,2,0,P|407:167|398:222,1,112,2|0,2:0|0:0,0:0:0:0:
256,192,8560,12,2,9879,0:0:0:0:
351,368,11033,5,2,2:3:0:0:
351,368,11115,1,2,2:3:0:0:
351,368,11198,2,0,P|383:353|418:352,2,70,4|2|2,3:2|2:0|3:0,0:0:0:0:
281,321,11692,2,0,P|293:252|306:183,1,140,2|2,2:0|2:0,0:0:0:0:
262,26,12351,5,0,1:0:0:0:
262,26,12434,1,0,1:0:0:0:
262,26,12516,2,0,P|207:67|139:61,1,140,2|2,3:0|3:0,0:0:0:0:
47,12,13011,1,0,1:0:0:0:
47,12,13093,1,0,1:0:0:0:
47,12,13176,2,0,P|42:46|36:81,1,70,2|2,3:0|2:0,0:0:0:0:
90,148,13505,2,0,P|85:182|79:217,1,70,8|0,2:0|0:0,0:0:0:0:
91,312,13835,6,0,P|57:303|22:298,2,70,4|2|0,3:2|0:0|3:0,0:0:0:0:
188,360,14330,1,2,2:0:0:0:
182,364,14412,1,2,0:0:0:0:
177,370,14494,2,0,P|146:309|167:244,1,140,2|2,3:0|3:0,0:0:0:0:
249,181,14989,1,2,2:0:0:0:
200,104,15154,6,0,B|173:52|212:11|212:11|248:25,1,140,2|2,3:0|3:0,0:0:0:0:
336,64,15648,2,0,B|415:79|399:23|468:38,1,140,2|2,2:0|2:0,0:0:0:0:
456,136,16143,2,0,P|447:170|448:205,1,70,8|0,2:0|0:0,0:0:0:0:
384,272,16472,6,0,P|452:270|502:316,1,140,4|2,3:2|3:0,0:0:0:0:
432,384,16967,1,2,2:0:0:0:
431,384,17132,2,0,P|364:361|295:352,1,140,2|2,3:0|3:0,0:0:0:0:
248,208,17791,6,0,B|240:160|240:160|256:120|256:120|247:72,1,140,2|2,3:2|3:0,0:0:0:0:
184,16,18286,1,2,2:0:0:0:
184,16,18368,1,2,2:0:0:0:
184,16,18450,2,0,P|130:58|62:52,1,140,2|8,3:0|2:0,0:0:0:0:
16,192,19110,6,0,B|40:296|40:296|54:266,1,140,4|0,3:2|3:0,0:0:0:0:
0,384,19604,2,0,P|75:317|173:341,1,210,8|4,2:0|3:2,0:0:0:0:
248,288,20264,1,8,2:3:0:0:
248,288,20428,6,0,B|264:200|264:200|256:176|237:157,1,140,2|8,2:0|2:0,0:0:0:0:
200,64,20923,2,0,P|254:106|322:101,1,140,0|8,3:0|3:0,0:0:0:0:
359,71,21335,1,8,2:0:0:0:
359,71,21417,2,0,L|367:1,1,70,8|2,2:0|2:0,0:0:0:0:
408,168,21747,6,0,P|457:143|512:151,2,112,4|2|2,3:2|3:0|3:0,0:0:0:0:
475,234,22571,1,2,2:0:0:0:
475,234,22736,2,0,L|464:289,1,56,2|2,3:0|2:0,0:0:0:0:
498,373,23066,6,0,B|453:341|453:341|398:355,1,112,2|2,3:0|3:0,0:0:0:0:
302,383,23560,2,0,P|311:327|320:272,1,112,2|2,2:0|2:0,0:0:0:0:
320,273,24055,1,2,3:0:0:0:
301,93,24384,6,0,P|245:93|199:63,1,112,2|2,3:0|3:0,0:0:0:0:
133,13,24879,1,2,2:0:0:0:
48,55,25044,1,2,3:0:0:0:
48,55,25209,2,0,P|41:27|37:0,2,56,2|2|2,2:0|3:0|2:0,0:0:0:0:
121,107,25703,6,0,B|131:179|131:179|126:200|112:213,1,112,2|2,3:2|3:0,0:0:0:0:
38,269,26198,2,0,P|92:264|137:296,1,112,2|2,2:0|2:0,0:0:0:0:
137,296,26692,1,2,3:0:0:0:
264,375,27022,6,0,P|288:326|283:271,1,112,4|2,3:2|3:0,0:0:0:0:
240,208,27516,1,2,2:0:0:0:
240,208,27681,2,0,B|248:176|248:176|240:128|240:128|247:98,1,112,2|2,3:0|3:0,0:0:0:0:
216,16,28176,2,0,P|262:45|317:44,1,112,2|2,2:0|2:0,0:0:0:0:
400,0,28670,1,2,3:0:0:0:
404,4,29000,6,0,L|412:60,1,56,2|0,3:0|2:0,0:0:0:0:
490,119,29330,2,0,L|482:175,1,56,2|0,3:0|2:0,0:0:0:0:
512,248,29659,6,0,P|458:236|408:260,1,112,2|2,3:2|3:0,0:0:0:0:
368,336,30154,1,2,2:0:0:0:
368,336,30319,2,0,P|314:347|264:323,1,112,2|2,3:0|3:0,0:0:0:0:
236,247,30813,1,0,3:0:0:0:
272,176,30978,5,10,0:0:0:0:
272,176,31143,1,10,0:0:0:0:
216,24,31802,5,2,2:0:0:0:
216,24,31884,1,2,2:0:0:0:
216,24,31967,2,0,L|161:13,1,56,2|0,2:0|2:0,0:0:0:0:
80,0,32297,6,0,B|96:72|96:72|80:88|72:118,1,126,4|8,3:2|2:0,0:0:0:0:
16,184,32791,1,2,2:0:0:0:
40,272,32956,1,0,3:0:0:0:
40,272,33121,2,0,P|32:304|24:336,2,63.0000000000001,2|2|2,2:0|3:0|2:0,0:0:0:0:
106,372,33615,6,0,P|154:333|215:338,1,126,2|0,3:2|3:0,0:0:0:0:
284,383,34110,2,0,P|272:321|259:259,1,126,2|2,2:0|2:0,0:0:0:0:
240,176,34604,1,8,2:0:0:0:
304,0,34934,6,0,B|344:16|360:48|360:48|381:35|408:32,1,126,2|2,3:2|3:0,0:0:0:0:
480,0,35428,1,2,2:0:0:0:
477,91,35593,1,2,3:0:0:0:
477,91,35758,2,0,P|469:121|465:152,1,63.0000000000001,2|2,2:0|3:0,0:0:0:0:
508,224,36088,1,2,2:0:0:0:
484,304,36253,6,0,B|428:298|436:355|371:346,1,126,2|0,3:2|3:0,0:0:0:0:
292,384,36747,2,0,P|254:335|262:274,1,126,2|2,2:0|2:0,0:0:0:0:
224,196,37242,2,0,P|229:165|234:133,1,63.0000000000001,10|2,2:0|2:0,0:0:0:0:
280,64,37571,6,0,B|260:70|244:84|244:84|200:84|168:52,1,126,4|0,3:2|3:0,0:0:0:0:
96,8,38066,1,2,2:0:0:0:
32,64,38231,1,0,3:0:0:0:
32,64,38395,2,0,P|38:94|43:125,1,63.0000000000001,2|0,2:0|3:0,0:0:0:0:
0,204,38725,6,0,P|12:265|23:327,1,126,2|0,2:0|0:0,0:0:0:0:
104,376,39220,1,0,3:0:0:0:
104,376,39384,2,0,B|148:356|148:356|180:380|220:384,1,126,2|0,2:0|3:0,0:0:0:0:
272,316,39879,2,0,P|265:285|259:254,1,63.0000000000001,8|2,2:0|2:0,0:0:0:0:
184,204,40209,6,0,P|196:142|209:80,1,126,4|2,3:1|2:0,0:0:0:0:
264,16,40703,2,0,B|288:8|320:24|320:24|340:52|380:46,1,126,10|0,2:0|2:0,0:0:0:0:
481,108,41198,2,0,B|445:72|389:92|389:92|369:140|319:139,1,189,4|2,3:1|3:2,0:0:0:0:
320,140,41857,1,8,2:0:0:0:
456,211,42187,5,0,3:0:0:0:
512,288,42351,1,0,3:0:0:0:
512,288,42434,1,8,2:0:0:0:
512,288,42516,2,0,B|516:320|516:320|504:348,1,63.0000000000001,8|0,2:0|3:0,0:0:0:0:
492,384,42764,1,8,2:0:0:0:
492,384,42846,6,0,B|440:376|424:324|424:324|400:368|345:360,1,189,4|0,3:2|3:0,0:0:0:0:
276,312,43505,2,0,L|289:250,1,63.0000000000001,8|2,2:0|2:0,0:0:0:0:
244,181,43835,1,0,3:0:0:0:
318,139,44000,2,0,P|270:99|209:104,1,126,8|8,2:0|2:0,0:0:0:0:
145,48,44494,1,2,2:0:0:0:
68,80,44659,2,0,L|80:141,1,63.0000000000001,0|8,3:0|2:0,0:0:0:0:
21,206,44989,2,0,B|38:295|38:295|42:273|49:261,1,126,2|8,2:0|2:0,0:0:0:0:
0,376,45483,6,0,B|33:334|88:340|88:340|117:377|167:367,1,189,4|0,3:2|3:0,0:0:0:0:
232,312,46143,1,8,2:0:0:0:
123,172,46472,1,2,2:0:0:0:
123,172,46637,2,0,P|132:109|144:47,1,126,8|8,2:0|2:0,0:0:0:0:
224,84,47132,2,0,P|254:75|285:71,1,63.0000000000001,2|0,3:2|0:0,0:0:0:0:
343,8,47461,2,0,P|395:40|456:29,1,126,8|2,2:0|3:0,0:0:0:0:
457,29,47956,1,8,2:0:0:0:
480,156,48121,6,0,P|411:141|342:128,2,140,4|10|2,3:2|2:0|2:0,0:0:0:0:
440,232,48945,1,2,3:2:0:0:
512,275,49110,1,8,2:0:0:0:
512,275,49275,6,0,B|440:263|460:327|384:315,1,140,2|0,2:0|2:0,0:0:0:0:
317,361,49769,2,0,P|272:308|276:240,1,140,10|2,2:0|3:2,0:0:0:0:
336,176,50264,1,0,3:0:0:0:
336,176,50428,2,0,P|329:141|323:107,1,70,8|2,2:0|2:0,0:0:0:0:
360,28,50758,6,0,B|280:12|280:12|264:32|233:45,1,140,4|8,3:2|2:0,0:0:0:0:
128,16,51253,1,0,3:0:0:0:
128,16,51335,1,0,3:0:0:0:
128,16,51417,2,0,P|138:49|143:83,1,70,2|0,2:0|3:0,0:0:0:0:
212,148,51747,2,0,P|201:181|196:215,1,70,10|0,2:0|3:0,0:0:0:0:
184,320,52077,6,0,P|129:277|61:279,2,140,4|10|2,3:2|2:0|3:2,0:0:0:0:
256,272,52901,2,0,L|290:264,2,35,0|8|8,3:0|2:0|2:0,0:0:0:0:
200,188,53231,5,0,3:0:0:0:
200,188,53313,1,8,2:0:0:0:
200,188,53395,2,0,B|224:108|180:128|200:52,1,140,4|10,3:1|2:0,0:0:0:0:
272,4,53890,1,0,3:0:0:0:
340,56,54055,2,0,B|424:84|424:84|452:76|467:57,1,140,2|10,2:0|2:0,0:0:0:0:
512,212,54714,6,0,P|444:202|392:246,1,140,2|8,3:2|2:0,0:0:0:0:
400,328,55209,1,0,3:0:0:0:
340,384,55373,2,0,P|306:373|272:365,1,70,2|0,3:2|3:0,0:0:0:0:
180,300,55703,2,0,P|213:289|247:281,1,70,8|0,2:0|3:0,0:0:0:0:
304,216,56033,5,4,3:2:0:0:
288,136,56198,1,0,3:0:0:0:
344,68,56362,2,0,P|310:57|276:49,1,70,8|8,2:0|2:0,0:0:0:0:
204,0,56692,5,8,2:0:0:0:
160,72,56857,1,8,2:0:0:0:
80,96,57022,1,8,2:0:0:0:
0,64,57187,1,10,2:0:0:0:
0,64,58011,5,2,3:2:0:0:
64,188,58176,1,8,2:0:0:0:
64,188,58258,1,8,2:0:0:0:
64,188,58340,2,0,P|54:239|45:291,1,105,8|8,2:0|2:0,0:0:0:0:
16,328,58670,6,0,B|96:316|76:384|157:368,1,154,4|8,3:2|2:0,0:0:0:0:
217,301,59165,1,2,2:0:0:0:
168,230,59330,2,0,B|152:142|152:142|160:102|186:90,1,154,2|8,3:1|2:0,0:0:0:0:
268,128,59824,1,2,2:0:0:0:
344,80,59989,6,0,P|332:43|324:5,2,77,2|2|8,3:1|2:0|2:0,0:0:0:0:
436,112,60483,1,0,1:0:0:0:
436,112,60566,1,0,1:0:0:0:
436,112,60648,2,0,L|424:188,1,77,2|0,3:2|3:2,0:0:0:0:
488,252,60978,2,0,L|476:328,1,77,10|0,2:0|2:0,0:0:0:0:
408,384,61308,6,0,B|373:362|340:340|340:340|300:344|277:373,1,154,6|8,3:1|2:0,0:0:0:0:
240,279,61802,1,0,1:0:0:0:
240,279,61884,1,0,1:0:0:0:
240,279,61967,2,0,P|254:203|267:127,1,154,2|8,3:1|2:0,0:0:0:0:
312,56,62461,1,0,1:0:0:0:
248,4,62626,6,0,L|172:19,1,77,2|0,3:1|3:0,0:0:0:0:
84,0,62956,1,10,2:0:0:0:
32,72,63121,2,0,P|68:137|49:210,1,154,2|0,3:1|3:0,0:0:0:0:
8,288,63615,2,0,L|14:325,3,38.5,8|0|0|0,2:0|1:0|1:0|1:0,0:0:0:0:
8,348,63945,6,0,B|94:328|94:328|116:352|147:365,1,154,6|8,3:1|2:0,0:0:0:0:
240,348,64439,1,0,1:0:0:0:
240,348,64522,1,0,1:0:0:0:
240,348,64604,2,0,B|252:304|252:304|240:264|240:264|256:236|256:200,1,154,2|8,3:1|2:0,0:0:0:0:
216,124,65099,1,2,2:0:0:0:
236,40,65264,6,0,P|298:-1|372:9,1,154,2|10,3:1|2:0,0:0:0:0:
424,80,65758,1,2,2:0:0:0:
512,68,65923,2,0,P|504:105|497:143,1,77,2|0,3:1|0:0,0:0:0:0:
444,208,66253,1,8,2:0:0:0:
500,268,66417,1,2,2:0:0:0:
474,350,66582,6,0,B|396:329|412:396|328:370,1,154,6|10,3:2|2:0,0:0:0:0:
256,192,67242,2,0,L|271:116,1,77,2|8,3:1|2:0,0:0:0:0:
292,24,67571,1,0,3:0:0:0:
200,4,67736,1,10,2:0:0:0:
200,4,68066,6,0,P|167:24|129:28,1,77,10|0,2:0|3:0,0:0:0:0:
36,8,68395,2,0,L|50:83,1,77,10|0,2:0|3:0,0:0:0:0:
120,148,68725,1,8,2:0:0:0:
120,148,68808,1,8,2:0:0:0:
120,148,68890,1,8,2:3:0:0:
96,228,69055,1,4,2:3:0:0:
4,288,69220,6,0,P|78:278|136:325,1,154,6|8,3:1|2:0,0:0:0:0:
208,376,69714,1,2,2:0:0:0:
268,316,69879,2,0,P|257:239|246:163,1,154,2|8,3:1|2:0,0:0:0:0:
192,88,70373,1,2,2:0:0:0:
252,24,70538,6,0,P|284:43|322:43,1,77,2|0,3:1|3:0,0:0:0:0:
400,0,70868,1,10,2:0:0:0:
474,65,71033,1,0,1:0:0:0:
474,65,71115,1,0,1:0:0:0:
474,65,71198,2,0,L|458:140,1,77,2|0,3:1|3:2,0:0:0:0:
498,223,71527,2,0,B|482:296|482:296|494:315|499:332,1,115.5,10|0,2:0|0:0,0:0:0:0:
492,378,71857,6,0,P|431:333|356:343,1,154,2|8,3:1|2:0,0:0:0:0:
280,384,72351,1,0,1:0:0:0:
280,384,72434,1,0,1:0:0:0:
280,384,72516,2,0,B|305:298|305:298|305:262|280:242,1,154,2|8,3:2|2:0,0:0:0:0:
204,288,73011,1,2,2:0:0:0:
140,236,73176,6,0,P|101:235|67:252,1,77,2|0,3:1|3:0,0:0:0:0:
0,320,73505,1,10,2:0:0:0:
0,320,73670,2,0,B|40:300|40:236|40:236|20:216|11:188,1,154,2|0,3:1|3:0,0:0:0:0:
52,112,74165,2,0,L|36:36,1,77,10|0,2:0|2:0,0:0:0:0:
128,16,74494,6,0,B|156:24|176:40|176:40|228:40|261:-4,1,154,6|8,3:1|2:0,0:0:0:0:
308,76,74989,1,2,2:0:0:0:
256,156,75154,2,0,L|268:231,1,77,2|0,3:1|3:0,0:0:0:0:
280,276,75401,1,2,3:2:0:0:
280,276,75483,1,8,2:0:0:0:
256,372,75648,1,2,2:0:0:0:
360,336,75813,6,0,P|434:340|487:287,1,154,2|8,3:1|2:0,0:0:0:0:
436,208,76308,1,2,2:0:0:0:
500,144,76472,2,0,B|516:115|524:76|524:76|504:37,1,115.5,2|2,3:1|3:2,0:0:0:0:
512,16,76802,2,0,P|474:23|436:31,1,77,10|2,2:0|2:0,0:0:0:0:
308,76,77132,6,0,B|236:94|245:17|167:37,2,154,2|8|2,3:1|2:0|3:2,0:0:0:0:
351,159,77956,2,0,L|335:236,1,77,8|0,2:0|3:0,0:0:0:0:
376,328,78286,5,8,2:0:0:0:
376,328,78368,1,8,2:0:0:0:
376,328,78450,1,8,2:3:0:0:
308,384,78615,2,0,P|275:363|238:354,1,77,4|0,2:3|0:0,0:0:0:0:
168,300,78945,2,0,P|92:316|17:333,1,154,4|4,2:3|2:3,0:0:0:0:
17,333,79439,1,4,2:3:0:0:
48,128,79769,5,6,3:1:0:0:
48,128,79934,2,0,B|84:140|84:140|128:108|108:48,1,140,0|0,3:0|3:0,0:0:0:0:
184,0,80428,1,10,2:0:0:0:
248,112,80758,6,0,L|233:180,1,70,2|0,2:0|1:0,0:0:0:0:
216,228,81005,1,0,1:0:0:0:
216,228,81088,1,2,3:1:0:0:
144,280,81253,2,0,L|158:348,2,70,8|2|0,2:0|3:2|0:0,0:0:0:0:
248,312,81747,6,0,P|280:299|315:303,1,70,8|0,2:0|3:0,0:0:0:0:
380,364,82077,1,2,2:0:0:0:
480,340,82242,1,8,2:0:0:0:
480,340,82406,2,0,B|504:256|504:256|496:228|474:213,1,140,6|2,3:1|2:0,0:0:0:0:
507,124,82901,1,0,3:0:0:0:
507,124,83066,2,0,P|453:166|386:158,1,140,10|0,2:0|3:0,0:0:0:0:
344,80,83560,6,0,L|352:46,2,35,10|0|0,2:0|0:0|3:0,0:0:0:0:
258,46,83890,2,0,P|203:88|134:87,1,140,10|0,2:0|3:0,0:0:0:0:
51,62,84384,1,8,2:0:0:0:
34,143,84549,2,0,L|0:149,2,35,0|0|8,3:0|3:0|2:0,0:0:0:0:
95,228,84879,5,8,2:0:0:0:
95,228,84961,1,8,2:0:0:0:
95,228,85044,2,0,B|76:340|76:340|88:323|106:313,1,154,6|8,3:1|2:0,0:0:0:0:
178,373,85538,1,2,2:0:0:0:
178,373,85621,1,2,2:0:0:0:
178,373,85703,2,0,P|214:362|252:353,1,77,2|0,3:1|3:0,0:0:0:0:
312,270,86033,2,0,P|348:280|386:289,1,77,8|2,2:0|2:0,0:0:0:0:
241,220,86362,6,0,B|229:161|229:161|204:140|204:140|193:79,1,154,4|8,3:1|2:0,0:0:0:0:
250,10,86857,1,0,1:0:0:0:
250,10,87022,2,0,P|282:29|320:28,1,77,2|0,3:1|3:0,0:0:0:0:
400,0,87351,1,10,2:0:0:0:
496,144,87681,6,0,B|481:240|481:240|464:264|431:263,1,154,4|8,3:2|2:0,0:0:0:0:
368,320,88176,1,0,3:0:0:0:
289,270,88340,2,0,P|297:232|307:195,1,77,8|8,2:0|2:0,0:0:0:0:
256,112,88670,1,8,2:0:0:0:
174,169,88835,1,8,2:0:0:0:
174,169,88917,1,8,2:0:0:0:
174,169,89000,1,12,2:0:0:0:
256,192,89082,12,0,89989,2:0:0:0:
79,376,90319,6,0,L|65:307,1,70,4|2,3:1|2:0,0:0:0:0:
14,220,90648,1,2,3:0:0:0:
14,220,90813,2,0,P|72:258|140:250,1,140,2|0,2:0|0:0,0:0:0:0:
192,188,91308,2,0,L|180:117,1,70,2|0,3:0|2:0,0:0:0:0:
226,43,91637,6,0,P|157:28|89:12,2,140,2|2|2,3:0|3:0|3:0,0:0:0:0:
306,0,92461,1,2,2:0:0:0:
306,0,92544,1,0,2:0:0:0:
306,0,92626,2,0,B|322:33|322:33|314:65,1,70,8|0,2:0|3:0,0:0:0:0:
293,103,92873,5,0,3:0:0:0:
293,103,92956,2,0,P|300:137|308:171,1,70,4|2,3:2|2:0,0:0:0:0:
264,253,93286,1,2,3:0:0:0:
292,339,93450,2,0,B|366:325|347:381|423:368,1,140,2|2,2:0|2:0,0:0:0:0:
494,312,93945,1,2,3:0:0:0:
494,312,94110,1,2,2:0:0:0:
429,245,94275,6,0,B|409:163|409:163|417:128|440:118,1,140,2|2,3:0|3:0,0:0:0:0:
512,63,94769,1,2,2:0:0:0:
512,63,94851,1,0,0:0:0:0:
511,63,94934,2,0,P|442:69|384:32,1,140,2|8,3:0|2:0,0:0:0:0:
294,13,95428,1,0,2:0:0:0:
293,103,95593,6,0,B|306:134|306:134|299:168|299:168|319:197|311:236,1,140,4|2,3:2|3:0,0:0:0:0:
362,316,96088,2,0,B|291:306|305:361|229:345,1,140,2|2,2:0|2:0,0:0:0:0:
153,384,96582,2,0,P|121:368|87:362,1,70,2|2,3:0|2:0,0:0:0:0:
16,327,96912,6,0,B|13:272|-3:230|-3:230|10:212|18:194,1,140,2|2,3:2|3:0,0:0:0:0:
0,112,97406,1,2,2:0:0:0:
99,158,97571,2,0,P|134:155|169:148,1,70,2|0,3:0|3:0,0:0:0:0:
205,125,97819,1,0,3:0:0:0:
205,125,97901,1,8,2:0:0:0:
231,43,98066,1,0,2:0:0:0:
312,5,98231,6,0,B|332:56|301:98|301:98|301:120|308:138,1,140,4|0,3:2|3:0,0:0:0:0:
248,237,98725,2,0,B|277:188|344:205|344:205|365:250|428:245,1,210,8|4,2:0|3:2,0:0:0:0:
504,183,99384,1,8,2:3:0:0:
504,183,99549,2,0,P|487:250|481:320,2,140,2|8|0,2:0|2:0|3:0,0:0:0:0:
511,63,100373,1,8,3:0:0:0:
511,63,100456,1,8,2:0:0:0:
511,63,100538,2,0,P|476:67|442:59,1,70,8|2,2:0|2:0,0:0:0:0:
378,10,100868,5,4,3:2:0:0:
308,138,101198,2,0,L|320:192,1,56,2|2,3:0|2:0,0:0:0:0:
383,257,101527,1,2,3:0:0:0:
383,257,101692,2,0,P|328:251|282:281,1,112,2|2,2:0|2:0,0:0:0:0:
224,360,102187,6,0,P|169:348|114:338,1,112,2|2,3:0|3:0,0:0:0:0:
24,384,102681,2,0,B|40:318|40:318|26:300|20:279,1,112,2|2,2:0|2:0,0:0:0:0:
67,208,103176,2,0,L|56:152,1,56,2|0,3:0|0:0,0:0:0:0:
37,64,103505,1,2,3:0:0:0:
37,64,103835,6,0,P|64:70|92:70,1,56,2|2,3:0|2:0,0:0:0:0:
170,23,104165,2,0,L|181:77,1,56,2|2,3:0|2:0,0:0:0:0:
256,128,104494,2,0,L|244:182,1,56,2|2,3:0|2:0,0:0:0:0:
180,244,104824,6,0,P|234:234|284:258,1,112,2|2,3:2|3:0,0:0:0:0:
271,352,105319,2,0,P|324:336|379:323,1,112,2|2,2:0|2:0,0:0:0:0:
410,336,105731,1,0,0:0:0:0:
410,336,105813,2,0,L|422:281,1,56,2|2,3:0|2:0,0:0:0:0:
495,223,106143,6,0,P|464:179|464:123,1,112,4|2,3:2|3:0,0:0:0:0:
501,54,106637,1,2,2:0:0:0:
501,54,106802,2,0,P|446:68|392:81,1,112,2|2,3:0|3:0,0:0:0:0:
320,34,107297,6,0,P|309:59|308:87,1,56,2|2,2:0|3:0,0:0:0:0:
360,160,107626,1,2,2:0:0:0:
360,160,107791,2,0,L|349:214,1,56,2|0,3:0|2:0,0:0:0:0:
384,296,108121,2,0,B|344:292|344:292|316:304|316:304|274:300,1,112,2|2,3:0|3:0,0:0:0:0:
88,384,108780,6,0,P|57:337|59:282,1,112,2|2,3:2|3:0,0:0:0:0:
0,220,109275,1,2,2:0:0:0:
0,220,109439,2,0,P|80:231|136:173,1,168,2|2,3:0|0:0,0:0:0:0:
24,40,110099,5,10,0:0:0:0:
52,152,110264,1,10,0:0:0:0:
196,44,110923,5,2,2:0:0:0:
196,44,111005,1,2,2:0:0:0:
196,44,111088,2,0,B|224:40|224:40|247:55,1,56,2|0,2:0|0:0,0:0:0:0:
200,130,111417,6,0,P|261:117|323:104,1,126,4|8,3:2|2:0,0:0:0:0:
383,35,111912,1,2,2:0:0:0:
473,56,112077,1,0,3:0:0:0:
473,56,112242,2,0,B|502:87|502:135|502:135|480:168,1,126,2|2,2:0|2:0,0:0:0:0:
511,243,112736,6,0,P|462:207|402:217,1,126,2|0,3:2|3:0,0:0:0:0:
384,296,113231,2,0,B|354:313|342:341|342:341|316:322|284:318,1,126,2|2,2:0|2:0,0:0:0:0:
224,260,113725,2,0,L|237:198,1,63.0000000000001,8|0,2:0|0:0,0:0:0:0:
184,132,114055,6,0,P|244:142|293:106,2,126,2|2|2,3:2|3:0|3:0,0:0:0:0:
184,132,114879,1,2,2:0:0:0:
116,80,115044,2,0,L|97:140,1,63.0000000000001,2|2,3:0|2:0,0:0:0:0:
16,184,115373,6,0,B|36:280|36:280|44:264|51:256,1,126,2|0,3:2|3:0,0:0:0:0:
8,364,115868,2,0,P|54:323|116:321,1,126,2|2,2:0|2:0,0:0:0:0:
184,368,116362,2,0,L|244:349,1,63.0000000000001,10|2,2:0|2:0,0:0:0:0:
204,272,116692,6,0,B|216:232|216:232|200:192|200:192|209:152,1,126,4|0,3:2|3:0,0:0:0:0:
176,80,117187,1,2,2:0:0:0:
236,16,117351,1,0,3:0:0:0:
235,16,117516,2,0,P|266:12|295:0,1,63.0000000000001,2|0,2:0|3:0,0:0:0:0:
332,78,117846,6,0,P|363:81|392:94,1,63.0000000000001,2|0,2:0|3:0,0:0:0:0:
474,48,118176,1,2,2:0:0:0:
510,137,118340,1,0,3:0:0:0:
510,137,118505,2,0,P|484:194|476:256,1,126,2|0,2:0|3:0,0:0:0:0:
484,345,119000,2,0,L|423:328,1,63.0000000000001,8|2,2:0|2:0,0:0:0:0:
348,382,119330,6,0,B|368:304|368:304|360:272|336:254,1,140,4|2,3:1|2:0,0:0:0:0:
256,228,119824,2,0,B|231:195|242:161|242:161|252:130|252:130|244:94,1,140,10|0,2:0|2:0,0:0:0:0:
295,0,120319,6,0,B|265:55|195:40|195:40|165:2|111:9,1,210,4|2,3:1|3:2,0:0:0:0:
37,66,120978,1,8,2:0:0:0:
68,144,121143,2,0,L|48:214,1,70,2|0,2:0|3:0,0:0:0:0:
0,304,121472,1,0,3:0:0:0:
0,304,121555,1,8,2:0:0:0:
1,303,121637,2,0,P|36:301|69:314,1,70,8|0,2:0|3:0,0:0:0:0:
104,344,121884,1,8,2:0:0:0:
104,344,121967,6,0,B|143:382|198:363|198:363|217:321|265:313,1,189,4|0,3:2|3:0,0:0:0:0:
193,221,122626,1,8,2:0:0:0:
193,221,122791,2,0,L|208:159,1,63.0000000000001,2|0,2:0|3:0,0:0:0:0:
168,88,123121,6,0,L|137:94,2,31.5,8|8|0,2:0|2:0|3:0,0:0:0:0:
216,16,123450,2,0,P|275:36|337:36,1,126,8|0,2:0|3:0,0:0:0:0:
416,0,123945,1,8,2:0:0:0:
480,64,124110,2,0,B|455:154|455:154|447:139|436:128,1,126,2|8,2:0|2:0,0:0:0:0:
505,221,124604,6,0,B|455:211|403:199|403:199|359:227|372:270,1,189,4|0,3:2|3:0,0:0:0:0:
417,360,125264,2,0,P|364:328|302:336,1,126,8|2,2:0|2:0,0:0:0:0:
224,384,125758,6,0,L|211:322,1,63.0000000000001,8|0,2:0|3:0,0:0:0:0:
270,258,126088,1,8,2:0:0:0:
270,258,126253,2,0,B|285:180|285:180|279:158|259:141,1,126,2|8,3:2|2:0,0:0:0:0:
178,106,126747,2,0,P|147:112|116:120,1,63.0000000000001,0|2,3:0|3:0,0:0:0:0:
50,170,127077,5,8,2:0:0:0:
50,170,127159,1,8,2:0:0:0:
50,170,127242,2,0,B|14:152|14:152|-8:106|23:56,2,140,4|10|2,3:2|2:0|2:0,0:0:0:0:
96,260,128066,1,2,3:2:0:0:
15,318,128231,1,8,2:0:0:0:
15,318,128395,6,0,P|82:311|136:353,1,140,2|0,2:0|2:0,0:0:0:0:
224,384,128890,2,0,L|237:315,1,70,10|8,2:0|2:0,0:0:0:0:
184,248,129220,1,2,3:2:0:0:
184,248,129384,2,0,L|170:179,1,70,0|8,3:0|2:0,0:0:0:0:
152,104,129714,1,2,2:0:0:0:
177,20,129879,6,0,B|209:33|223:53|223:53|271:60|298:29,1,140,4|8,3:2|2:0,0:0:0:0:
392,10,130373,1,8,2:0:0:0:
392,10,130456,1,8,2:0:0:0:
392,10,130538,2,0,B|406:41|406:41|397:75,1,70,2|0,2:0|3:0,0:0:0:0:
385,168,130868,2,0,L|454:152,1,70,10|0,2:0|3:0,0:0:0:0:
512,232,131198,5,4,3:2:0:0:
512,232,131362,1,0,2:0:0:0:
480,312,131527,2,0,B|410:298|422:362|351:345,1,140,10|2,2:0|3:2,0:0:0:0:
264,320,132022,2,0,L|258:354,2,35,0|8|8,3:0|2:0|2:0,0:0:0:0:
216,248,132351,5,0,3:0:0:0:
216,248,132434,1,8,2:0:0:0:
216,248,132516,2,0,B|264:224|272:168|248:128,1,140,4|10,3:1|2:0,0:0:0:0:
288,56,133011,1,0,0:0:0:0:
224,8,133176,2,0,L|86:35,1,140,2|10,2:0|2:0,0:0:0:0:
32,184,133835,6,0,B|55:279|55:279|64:259|80:248,1,140,2|8,3:2|2:0,0:0:0:0:
0,352,134330,1,0,3:0:0:0:
0,352,134494,2,0,P|66:336|122:374,1,140,2|8,3:2|2:0,0:0:0:0:
205,339,134989,1,0,3:0:0:0:
205,339,135071,1,0,3:0:0:0:
205,339,135154,2,0,P|210:304|215:269,1,70,4|0,3:2|3:0,0:0:0:0:
257,196,135483,2,0,P|252:161|247:127,1,70,8|8,2:0|2:0,0:0:0:0:
180,51,135813,5,8,2:0:0:0:
261,11,135978,1,8,2:0:0:0:
355,31,136143,1,8,2:0:0:0:
402,111,136308,1,10,2:0:0:0:
402,111,137132,5,2,3:2:0:0:
465,169,137297,2,0,L|499:161,2,35,8|8|8,2:0|2:0|2:0,0:0:0:0:
483,266,137626,5,0,0:0:0:0:
483,266,137709,1,8,2:0:0:0:
483,266,137791,2,0,B|405:257|422:326|342:312,1,154,4|8,3:2|2:0,0:0:0:0:
291,384,138286,1,2,2:0:0:0:
209,352,138450,2,0,P|220:276|231:200,1,154,2|8,3:1|2:0,0:0:0:0:
298,137,138945,1,2,2:0:0:0:
237,70,139110,6,0,P|272:52|309:45,2,77,2|2|8,3:1|2:0|2:0,0:0:0:0:
176,8,139604,2,0,B|131:12|91:38|91:38|58:33|37:8,1,154,2|0,0:0|3:2,0:0:0:0:
16,100,140099,2,0,P|29:136|33:174,1,77,10|0,2:0|2:0,0:0:0:0:
0,255,140428,6,0,B|30:228|73:236|73:236|96:270|140:265,1,154,6|8,3:1|2:0,0:0:0:0:
200,334,140923,1,0,1:0:0:0:
277,301,141088,2,0,B|292:254|292:254|277:218|277:218|292:191|292:155,1,154,2|8,3:1|2:0,0:0:0:0:
245,83,141582,1,0,1:0:0:0:
300,17,141747,6,0,P|335:30|374:33,1,77,2|0,3:1|3:0,0:0:0:0:
454,0,142077,1,10,2:0:0:0:
500,70,142242,2,0,L|480:144,1,77,2|0,3:1|0:0,0:0:0:0:
411,208,142571,1,0,3:0:0:0:
467,276,142736,2,0,L|457:313,3,38.5,10|0|0|0,0:0|1:0|1:0|1:0,0:0:0:0:
464,337,143066,6,0,B|428:318|385:318|385:318|366:345|328:361,1,154,6|8,3:1|2:0,0:0:0:0:
241,384,143560,1,0,1:0:0:0:
241,384,143643,1,0,1:0:0:0:
241,384,143725,2,0,B|220:342|220:342|227:299|227:299|203:276|196:244,1,154,2|8,3:1|2:0,0:0:0:0:
176,155,144220,1,2,2:0:0:0:
261,96,144384,6,0,P|187:105|130:57,1,154,2|10,3:1|2:0,0:0:0:0:
44,39,144879,1,2,2:0:0:0:
0,115,145044,2,0,L|18:190,1,77,2|0,3:1|0:0,0:0:0:0:
71,272,145373,1,8,2:0:0:0:
71,272,145538,1,2,2:0:0:0:
0,336,145703,6,0,P|74:329|132:378,1,154,6|10,3:2|2:0,0:0:0:0:
131,378,146362,2,0,P|168:365|205:356,1,77,2|8,3:1|2:0,0:0:0:0:
297,383,146692,1,0,3:0:0:0:
221,265,146857,1,10,2:0:0:0:
221,265,147187,6,0,P|227:227|234:189,1,77,10|0,2:0|3:0,0:0:0:0:
166,126,147516,2,0,P|172:88|179:50,1,77,10|0,2:0|3:0,0:0:0:0:
273,15,147846,1,8,2:0:0:0:
273,15,147928,1,8,2:0:0:0:
273,15,148011,2,0,P|308:28|346:25,1,77,8|4,2:3|2:3,0:0:0:0:
448,0,148340,6,0,B|410:16|401:58|401:58|411:93|421:131,1,154,6|8,3:1|2:0,0:0:0:0:
500,182,148835,1,2,2:0:0:0:
500,182,149000,2,0,B|495:213|506:242|506:242|487:268|487:268|490:302|473:326,1,154,2|8,3:1|2:0,0:0:0:0:
401,383,149494,1,2,2:0:0:0:
324,341,149659,6,0,P|286:349|248:357,2,77,2|0|10,3:1|3:0|2:0,0:0:0:0:
289,254,150154,1,0,1:0:0:0:
289,254,150236,1,0,1:0:0:0:
289,254,150319,2,0,P|295:216|302:178,1,77,2|0,3:1|3:2,0:0:0:0:
344,71,150648,2,0,B|313:96|276:89|276:89|264:72|240:66,1,115.5,10|0,2:0|0:0,0:0:0:0:
197,48,150978,6,0,B|216:128|216:128|204:164|168:182,1,154,2|8,3:1|2:0,0:0:0:0:
58,130,151472,1,0,1:0:0:0:
50,126,151555,1,0,1:0:0:0:
41,121,151637,2,0,P|31:202|20:277,1,154,2|8,3:2|2:0,0:0:0:0:
48,364,152132,1,2,2:0:0:0:
125,310,152297,6,0,P|161:296|199:290,1,77,2|0,3:1|3:0,0:0:0:0:
256,360,152626,1,10,2:0:0:0:
330,316,152791,2,0,L|303:164,1,154,2|0,3:1|3:0,0:0:0:0:
240,66,153286,1,10,2:0:0:0:
240,66,153615,6,0,B|269:70|289:88|289:88|338:96|373:48,1,154,6|8,3:1|2:0,0:0:0:0:
448,5,154110,1,0,1:0:0:0:
505,67,154275,2,0,L|474:178,1,115.5,2|2,3:1|3:2,0:0:0:0:
498,217,154604,2,0,L|477:291,1,77,8|2,2:0|2:0,0:0:0:0:
512,384,154934,6,0,B|478:344|422:342|422:342|403:360|376:365,1,154,2|8,3:1|2:0,0:0:0:0:
293,382,155428,1,2,2:0:0:0:
224,320,155593,2,0,L|253:208,1,115.5,2|2,3:1|3:2,0:0:0:0:
266,199,155923,2,0,P|252:163|246:125,1,77,10|2,2:0|2:0,0:0:0:0:
310,31,156253,6,0,B|376:49|376:49|407:16|447:4,2,154,2|8|2,3:1|2:0|3:2,0:0:0:0:
204,4,157077,2,0,B|158:73|69:56,1,154,8|8,2:0|2:0,0:0:0:0:
28,31,157489,1,8,2:0:0:0:
28,31,157571,1,8,2:3:0:0:
102,207,157901,6,0,L|85:282,1,77,2|4,2:0|2:3,0:0:0:0:
0,309,158231,2,0,B|70:291|76:363|144:338,1,154,2|2,2:0|3:2,0:0:0:0:
240,296,158725,1,2,2:0:0:0:
240,296,158890,1,6,3:1:0:0:
256,192,158972,12,0,161527,2:0:0:0:
384,64,169439,6,0,L|373:23,2,41.9999999999999,2|0|2,2:1|2:0|2:0,0:0:0:0:
302,155,170099,2,0,B|240:166|251:115|183:126,1,126,2|0,2:0|2:0,0:0:0:0:
103,71,170758,2,0,L|80:195,1,126,2|2,2:0|2:0,0:0:0:0:
80,194,171417,1,2,2:0:0:0:
32,352,172077,6,0,L|24:310,2,41.9999999999999,2|0|2,2:1|2:0|2:0,0:0:0:0:
128,328,172736,2,0,L|120:286,2,41.9999999999999,2|0|0,2:0|0:0|2:0,0:0:0:0:
210,380,173395,2,0,P|259:341|321:342,1,126,2|2,2:0|2:0,0:0:0:0:
319,341,174055,1,2,2:0:0:0:
436,232,174714,6,0,L|476:241,2,41.9999999999999,2|0|2,2:1|2:0|2:0,0:0:0:0:
395,151,175373,2,0,L|435:141,2,41.9999999999999,2|0|0,2:0|0:0|0:0,0:0:0:0:
224,96,176033,6,0,L|183:105,2,41.9999999999999,2|0|0,2:0|0:0|2:0,0:0:0:0:
265,15,176692,2,0,L|224:5,2,41.9999999999999,2|0|0,2:0|0:0|2:0,0:0:0:0:
289,182,177351,6,0,L|279:222,2,41.9999999999999,2|2|2,2:1|2:0|2:0,0:0:0:0:
96,144,178011,2,0,L|86:103,2,41.9999999999999,2|2|2,2:1|2:0|2:0,0:0:0:0:
0,320,178670,6,0,P|81:318|130:382,1,168,2|0,2:1|3:0,0:0:0:0:
224,320,179494,1,8,2:0:0:0:
224,320,179577,1,8,2:0:0:0:
224,320,179659,2,0,L|217:285,3,35,8|8|8|8,2:0|2:0|2:0|2:0,0:0:0:0:
202,275,179989,6,0,B|211:235|211:235|191:182|191:182|202:141,1,140,6|0,3:1|2:0,0:0:0:0:
129,29,180483,2,0,B|173:63|173:63|254:39,1,140,10|0,2:0|3:0,0:0:0:0:
357,3,180978,2,0,B|414:-8|450:45|450:45|402:76|402:129,1,210,12|0,2:0|3:0,0:0:0:0:
454,207,181637,2,0,L|440:275,1,70,8|0,2:0|2:0,0:0:0:0:
476,352,181967,2,0,P|421:312|352:313,1,140,2|8,3:1|2:0,0:0:0:0:
244,375,182461,5,8,2:0:0:0:
238,366,182544,1,8,2:0:0:0:
232,356,182626,2,0,P|246:287|261:219,1,140,4|2,3:1|2:0,0:0:0:0:
292,103,183121,2,0,B|263:139|215:139|215:139|196:118|169:118,1,140,10|2,2:0|2:0,0:0:0:0:
104,48,183615,2,0,B|49:37|49:37|0:56|-18:120|23:165,1,210,4|0,3:2|3:0,0:0:0:0:
86,232,184275,1,8,2:0:0:0:
17,320,184439,1,0,1:0:0:0:
23,332,184522,1,0,1:0:0:0:
30,343,184604,2,0,P|63:331|97:327,1,70,2|0,3:1|3:0,0:0:0:0:
182,378,184934,2,0,L|193:308,1,70,8|0,2:0|1:0,0:0:0:0:
259,242,185264,6,0,B|271:192|271:192|257:153|257:153|268:106,1,140,6|2,3:1|2:0,0:0:0:0:
233,21,185758,2,0,P|287:60|354:45,1,140,10|0,2:0|3:0,0:0:0:0:
450,1,186253,2,0,B|479:124|479:124|446:148|436:194,1,210,12|0,2:0|3:0,0:0:0:0:
511,252,186912,2,0,L|492:319,1,70,10|0,2:0|3:0,0:0:0:0:
427,383,187242,2,0,P|373:342|306:352,1,140,2|8,3:1|2:0,0:0:0:0:
224,304,187736,5,8,2:0:0:0:
224,304,187819,1,8,2:0:0:0:
224,304,187901,2,0,P|169:345|102:335,1,140,4|2,3:1|2:0,0:0:0:0:
21,279,188395,2,0,B|-6:230|19:180|19:180|7:145,1,140,10|0,2:0|3:0,0:0:0:0:
0,63,188890,2,0,B|37:128|117:109|117:109|133:73|170:64,1,210,4|0,3:1|3:0,0:0:0:0:
253,120,189549,2,0,L|238:189,1,70,10|0,2:0|2:0,0:0:0:0:
211,301,189879,1,0,3:0:0:0:
214,293,189961,2,0,B|268:283|268:283|303:317,1,105,8|8,2:0|2:0,0:0:0:0:
406,374,190373,5,8,2:0:0:0:
412,369,190456,1,8,2:0:0:0:
418,365,190538,2,0,P|426:295|436:226,1,140,6|8,3:1|2:0,0:0:0:0:
494,156,191033,1,2,1:2:0:0:
444,86,191198,2,0,P|410:94|376:86,1,70,2|0,3:2|3:0,0:0:0:0:
260,0,191527,6,0,B|297:32|297:32|288:77|277:121,1,140,12|2,2:0|3:1,0:0:0:0:
336,195,192022,1,0,0:0:0:0:
310,290,192187,1,8,2:0:0:0:
310,290,192351,2,0,P|242:278|186:316,1,140,8|0,2:0|3:0,0:0:0:0:
128,384,192846,2,0,L|58:372,1,70,10|0,2:0|3:0,0:0:0:0:
11,297,193176,6,0,B|-4:206|-4:206|24:167,1,140,2|8,3:1|2:0,0:0:0:0:
0,75,193670,2,0,P|53:117|121:110,1,140,2|0,1:2|3:2,0:0:0:0:
196,47,194165,6,0,P|184:116|172:184,1,140,14|2,2:0|3:2,0:0:0:0:
210,266,194659,1,0,0:0:0:0:
166,349,194824,1,8,2:0:0:0:
166,349,194989,2,0,P|221:308|288:318,1,140,0|0,1:0|3:0,0:0:0:0:
367,268,195483,2,0,L|358:235,2,35,10|0|2,2:0|0:0|2:0,0:0:0:0:
457,294,195813,6,0,B|474:205|474:205|446:163,1,140,4|10,3:1|2:0,0:0:0:0:
506,100,196308,2,0,P|438:108|382:67,1,140,2|0,1:2|3:0,0:0:0:0:
250,26,196802,6,0,B|313:-1|313:-1|277:135,1,210,14|0,2:0|3:0,0:0:0:0:
325,224,197461,2,0,P|290:222|259:237,1,70,10|0,2:0|2:0,0:0:0:0:
237,325,197791,2,0,B|200:367|154:348|154:348|136:324|116:320,1,140,2|8,3:1|2:0,0:0:0:0:
46,365,198286,1,2,2:0:0:0:
6,286,198450,6,0,B|17:213|17:213|22:172|-1:151,1,140,6|8,3:1|2:0,0:0:0:0:
25,71,198945,2,0,B|76:59|76:59|110:77|110:77|157:66,1,140,6|2,2:0|2:0,0:0:0:0:
185,28,199357,1,0,0:0:0:0:
185,28,199439,2,0,P|251:12|310:47,1,140,12|2,2:0|2:1,0:0:0:0:
309,137,199934,1,0,3:0:0:0:
238,189,200099,2,0,L|254:257,1,70,8|0,2:0|3:0,0:0:0:0:
277,356,200428,5,2,3:1:0:0:
366,318,200593,1,8,2:0:0:0:
366,318,200676,1,8,2:0:0:0:
366,318,200758,2,0,L|432:338,1,70,8|4,2:3|2:3,0:0:0:0:
435,183,201088,6,0,B|370:218|370:218|237:188,1,210,4|0,3:1|3:0,0:0:0:0:
237,188,201747,1,8,2:0:0:0:
93,16,202242,5,0,3:0:0:0:
14,79,202406,2,0,P|26:147|37:217,1,140,2|0,3:2|0:0,0:0:0:0:
99,281,202901,1,0,3:0:0:0:
73,363,203066,1,8,2:0:0:0:
155,384,203231,2,0,B|231:390|209:331|281:340,1,140,8|8,2:0|2:0,0:0:0:0:
317,363,203643,5,8,2:0:0:0:
317,363,203725,2,0,L|344:225,1,140,6|8,3:1|2:0,0:0:0:0:
364,143,204220,1,0,3:0:0:0:
445,99,204384,2,0,P|390:57|322:63,1,140,6|8,3:2|2:0,0:0:0:0:
259,128,204879,1,0,3:0:0:0:
176,42,205044,6,0,B|145:190|145:190|122:157|103:149,1,210,6|2,3:1|2:0,0:0:0:0:
0,174,205703,2,0,B|75:132|151:213|90:213|159:297|236:251,1,280,6|0,3:1|3:0,0:0:0:0:
334,217,206527,1,0,3:0:0:0:
386,298,206692,2,0,L|369:366,1,70,0|0,3:0|3:0,0:0:0:0:
480,263,207022,6,0,L|512:126,1,140,8|0,2:0|3:0,0:0:0:0:
465,40,207516,1,0,3:0:0:0:
378,93,207681,6,0,P|343:93|310:82,1,70,8|0,2:0|3:0,0:0:0:0:
239,8,208011,1,8,3:2:0:0:
239,8,208176,1,0,3:0:0:0:
180,98,208340,5,8,2:0:0:0:
237,182,208505,1,8,2:0:0:0:
343,178,208670,2,0,L|327:246,1,70,8|8,2:0|2:0,0:0:0:0:
302,354,209000,5,8,2:0:0:0:
191,384,209165,1,8,2:0:0:0:
105,310,209330,2,0,L|37:326,1,70,8|8,2:0|2:0,0:0:0:0:
3,229,209659,5,8,0:0:0:0:
3,229,209742,1,8,0:0:0:0:
3,229,209824,1,8,0:0:0:0:
64,152,209989,2,0,L|72:118,3,35,8|8|8|8,2:0|2:0|2:0|2:0,0:0:0:0:
59,93,210319,1,2,3:1:0:0:
194,379,211637,6,0,P|255:336|329:350,1,154,4|8,3:2|2:0,0:0:0:0:
419,384,212132,1,2,2:0:0:0:
489,321,212297,2,0,P|472:245|456:170,1,154,2|8,3:1|2:0,0:0:0:0:
501,85,212791,1,2,2:0:0:0:
411,29,212956,6,0,P|375:42|336:42,1,77,2|2,3:1|2:0,0:0:0:0:
258,0,213286,1,8,2:0:0:0:
202,87,213450,1,0,1:0:0:0:
202,87,213533,1,0,1:0:0:0:
202,87,213615,2,0,L|215:162,1,77,2|0,3:2|3:2,0:0:0:0:
301,211,213945,2,0,L|287:286,1,77,10|0,2:0|2:0,0:0:0:0:
217,349,214275,6,0,B|130:336|158:394|72:383,1,154,6|8,3:1|2:0,0:0:0:0:
20,298,214769,1,0,1:0:0:0:
20,298,214851,1,0,1:0:0:0:
20,298,214934,2,0,B|38:199|38:199|31:169|7:157,1,154,2|8,3:1|2:0,0:0:0:0:
0,72,215428,1,0,1:0:0:0:
48,0,215593,6,0,L|122:18,1,77,2|0,3:1|3:0,0:0:0:0:
160,96,215923,1,10,2:0:0:0:
248,32,216088,2,0,P|309:73|382:56,1,154,2|0,3:1|3:0,0:0:0:0:
486,10,216582,2,0,L|479:47,3,38.5,8|0|0|0,2:0|1:0|1:0|1:0,0:0:0:0:
477,65,216912,6,0,B|486:114|496:159|496:159|487:190|461:202,1,154,6|8,3:1|2:0,0:0:0:0:
510,303,217406,1,0,1:0:0:0:
510,303,217489,1,0,1:0:0:0:
510,303,217571,2,0,P|451:255|377:265,1,154,2|8,3:1|2:0,0:0:0:0:
310,331,218066,1,2,2:0:0:0:
225,298,218231,6,0,P|237:222|250:146,1,154,2|10,3:1|2:0,0:0:0:0:
312,88,218725,1,0,1:0:0:0:
272,16,218890,2,0,B|221:6|221:6|181:28|181:28|125:17,1,154,2|8,3:1|2:0,0:0:0:0:
48,0,219384,1,2,2:0:0:0:
0,72,219549,6,0,B|24:168|24:168|8:189|3:218,1,154,6|10,3:2|2:0,0:0:0:0:
120,370,220209,2,0,L|195:354,1,77,2|8,3:1|2:0,0:0:0:0:
254,290,220538,1,0,3:0:0:0:
342,341,220703,6,0,B|396:323|396:323|486:357,2,154,10|10|10,2:0|2:0|2:0,0:0:0:0:
238,205,221692,1,8,2:0:0:0:
238,205,221775,1,8,2:0:0:0:
238,205,221857,2,0,P|246:167|253:129,1,77,8|4,2:3|2:3,0:0:0:0:
182,44,222187,6,0,B|223:75|223:75|323:56,1,154,6|8,3:1|2:0,0:0:0:0:
392,0,222681,1,2,2:0:0:0:
481,31,222846,2,0,B|505:74|505:131|505:131|489:145|481:175,1,154,2|8,3:1|2:0,0:0:0:0:
510,260,223340,1,2,2:0:0:0:
456,328,223505,6,0,P|418:320|380:313,1,77,2|0,3:1|3:0,0:0:0:0:
312,368,223835,1,10,2:0:0:0:
256,272,224000,2,0,P|267:195|278:119,1,154,0|0,1:0|3:2,0:0:0:0:
232,48,224494,2,0,P|193:46|159:30,1,77,10|0,2:0|2:0,0:0:0:0:
64,0,224824,6,0,B|80:56|80:56|64:96|64:96|78:146,1,154,2|8,3:1|2:0,0:0:0:0:
0,208,225319,1,0,1:0:0:0:
0,208,225401,1,0,1:0:0:0:
0,208,225483,2,0,P|75:202|133:250,1,154,2|8,3:2|2:0,0:0:0:0:
112,336,225978,1,2,2:0:0:0:
186,379,226143,6,0,L|261:362,1,77,2|0,3:1|3:0,0:0:0:0:
326,300,226472,1,10,2:0:0:0:
409,333,226637,2,0,B|443:282|443:282|415:193,1,154,2|0,3:1|3:0,0:0:0:0:
480,136,227132,2,0,P|489:98|480:61,1,77,10|0,2:0|1:0,0:0:0:0:
374,13,227461,6,0,B|292:-2|321:66|230:46,1,154,6|8,3:1|2:0,0:0:0:0:
176,118,227956,1,2,2:0:0:0:
240,180,228121,2,0,L|226:255,1,77,2|0,3:1|3:0,0:0:0:0:
229,276,228368,1,2,3:2:0:0:
229,276,228450,1,8,2:0:0:0:
215,373,228615,1,2,2:0:0:0:
123,333,228780,6,0,B|91:328|50:345|50:345|40:303|5:281,1,154,2|8,3:1|2:0,0:0:0:0:
66,209,229275,1,2,2:0:0:0:
9,137,229439,2,0,B|23:90|23:90|4:24,2,115.5,2|2|2,3:1|3:2|2:0,0:0:0:0:
66,209,230099,6,0,B|123:193|123:193|145:164|145:164|201:150,2,154,2|8|2,3:1|2:0|3:2,0:0:0:0:
5,282,230923,2,0,L|80:299,1,77,8|0,2:0|3:0,0:0:0:0:
156,384,231253,5,8,2:0:0:0:
156,384,231335,1,8,2:0:0:0:
156,384,231417,1,8,2:3:0:0:
254,358,231582,2,0,L|271:282,1,77,4|0,2:3|0:0,0:0:0:0:
201,208,231912,2,0,B|186:153|186:153|201:113|201:113|186:60,1,154,4|4,2:3|2:3,0:0:0:0:
186,60,232406,1,4,2:3:0:0:
425,18,232736,5,6,3:1:0:0:
425,18,232901,2,0,B|406:112|406:112|426:136|432:163,1,154,0|0,3:0|3:0,0:0:0:0:
496,232,233395,1,10,2:0:0:0:
456,368,233725,6,0,P|418:360|379:359,1,77,2|0,2:0|1:0,0:0:0:0:
344,376,233972,1,0,1:0:0:0:
344,376,234055,2,0,L|330:300,1,77,2|8,3:1|2:0,0:0:0:0:
264,248,234384,1,2,3:2:0:0:
261,70,234714,6,0,P|222:70|185:60,1,77,8|0,2:0|3:0,0:0:0:0:
121,12,235044,1,2,2:0:0:0:
45,57,235209,1,8,2:0:0:0:
71,138,235373,6,0,B|61:198|61:198|76:229|76:229|63:286,1,154,6|2,3:1|2:0,0:0:0:0:
86,374,235868,2,0,L|163:357,1,77,0|10,3:0|2:0,0:0:0:0:
256,384,236198,2,0,P|299:322|288:248,1,154,2|10,2:0|2:0,0:0:0:0:
288,248,236610,1,8,2:0:0:0:
288,248,236692,1,0,3:0:0:0:
208,184,236857,6,0,P|197:109|240:48,1,154,10|0,2:0|3:0,0:0:0:0:
320,0,237351,1,8,2:0:0:0:
400,48,237516,2,0,L|437:41,2,38.5,0|0|8,3:0|3:0|2:0,0:0:0:0:
496,120,237846,5,8,2:0:0:0:
490,129,237928,1,8,2:0:0:0:
484,140,238011,2,0,B|494:198|494:198|474:231|474:231|482:286,1,154,6|8,3:1|2:0,0:0:0:0:
440,371,238505,1,0,1:0:0:0:
430,365,238588,1,0,1:0:0:0:
419,360,238670,2,0,P|381:368|344:378,1,77,2|0,3:1|3:0,0:0:0:0:
276,314,239000,2,0,P|238:304|201:295,1,77,8|2,2:0|2:0,0:0:0:0:
351,256,239330,6,0,P|375:184|346:115,1,154,4|10,3:1|2:0,0:0:0:0:
375,29,239824,1,0,3:0:0:0:
375,29,239989,2,0,P|337:19|299:11,1,77,2|0,3:1|3:0,0:0:0:0:
224,80,240319,1,10,2:0:0:0:
56,16,240648,6,0,B|24:64|24:64|47:157,1,154,4|8,3:2|2:0,0:0:0:0:
0,240,241143,1,0,3:0:0:0:
0,240,241308,2,0,L|75:255,1,77,8|8,2:0|2:0,0:0:0:0:
128,360,241637,5,8,2:0:0:0:
184,280,241802,1,8,2:0:0:0:
280,304,241967,1,12,2:0:0:0:
256,192,242049,12,2,244604,2:1:0:0:
259,72,245923,6,0,L|327:57,1,70,6|0,3:1|3:0,0:0:0:0:
391,0,246253,1,10,2:0:0:0:
469,26,246417,2,0,P|493:90|478:157,1,140,0|0,1:0|3:0,0:0:0:0:
492,251,246912,2,0,L|423:236,1,70,8|0,2:0|3:0,0:0:0:0:
342,167,247242,6,0,B|379:198|379:198|363:288,1,140,6|8,3:1|2:0,0:0:0:0:
302,381,247736,1,0,1:0:0:0:
298,375,247819,1,0,1:0:0:0:
295,368,247901,2,0,L|225:377,1,70,2|0,3:1|3:0,0:0:0:0:
154,319,248231,2,0,L|163:249,1,70,10|0,2:0|2:0,0:0:0:0:
165,164,248560,6,0,B|114:174|114:174|89:204|89:204|40:214,1,140,6|10,3:1|2:0,0:0:0:0:
11,133,249055,1,0,1:0:0:0:
11,133,249137,1,0,1:0:0:0:
11,133,249220,2,0,L|20:63,1,70,2|0,3:1|3:0,0:0:0:0:
96,16,249549,2,0,P|127:30|162:32,1,70,10|0,2:0|2:0,0:0:0:0:
232,96,249879,6,0,B|245:152|245:152|232:185|232:185|241:231,2,140,6|10|2,3:1|2:0|3:1,0:0:0:0:
310,46,250703,1,0,3:0:0:0:
310,46,250868,2,0,L|326:114,1,70,10|0,2:0|2:0,0:0:0:0:
344,200,251198,6,0,B|377:216|397:250|397:250|420:227|455:221,1,140,6|8,3:1|2:0,0:0:0:0:
512,291,251692,1,0,1:0:0:0:
512,291,251775,1,0,1:0:0:0:
512,291,251857,2,0,L|496:363,1,70,2|0,3:2|2:0,0:0:0:0:
408,333,252187,1,10,2:0:0:0:
337,381,252351,1,2,2:0:0:0:
255,328,252516,6,0,P|264:258|274:189,1,140,6|8,3:1|2:0,0:0:0:0:
321,113,253011,1,0,3:0:0:0:
280,36,253176,2,0,P|212:48|153:13,1,140,2|8,3:2|2:0,0:0:0:0:
50,59,253670,5,0,1:0:0:0:
54,68,253753,1,0,1:0:0:0:
59,77,253835,2,0,L|37:215,1,140,6|8,3:1|2:0,0:0:0:0:
13,312,254330,1,0,3:0:0:0:
78,377,254494,2,0,P|112:369|146:362,1,70,8|8,2:3|2:3,0:0:0:0:
233,380,254824,1,4,2:3:0:0:
272,288,254989,1,4,2:3:0:0:
200,168,255154,5,6,3:1:0:0:
199,167,256084,6,0,P|282:228|381:206,1,210,6|0,3:2|2:0,0:0:0:0:
307,112,257374,5,6,3:1:0:0:
256,192,257561,12,0,266374,2:0:0:0:
