osu file format v14

[General]
AudioFilename: audio.mp3
AudioLeadIn: 0
PreviewTime:210319
Countdown: 0
SampleSet: Soft
StackLeniency: 0.7
Mode: 0
LetterboxInBreaks: 0
WidescreenStoryboard: 1

[Editor]
DistanceSpacing: 1
BeatDivisor: 1
GridSize: 32
TimelineZoom: 0.6999999

[Metadata]
Title:COLORFUL DAYS!!
TitleUnicode:COLORFUL DAYS!!
Artist:Ceui
ArtistUnicode:Ceui
Creator:Shikibe Mayu
Version:Easy
Source:いろとりどりのヒカリ
Tags:shizuku- kazato asa kowari Irotoridori no Hikari ending ed favorite full version irohika いろヒカ Yamamoto Mineko 山本美禰子 Odaka Kotaro 小高光太郎 Koutarou Colorful Light The Eternal Chapter In World's End Tale visual novel eroge galgame video game japanese pop jpop j-pop
BeatmapID:2277735
BeatmapSetID:1087831

[Difficulty]
HPDrainRate:3
CircleSize:3
OverallDifficulty:3
ApproachRate:4
SliderMultiplier:0.84
SliderTickRate:1

[Events]
//Background and Video events
0,0,"d039eb8ce7fea3f2b47357cb121bf134.jpg",0,0
//Break Periods
2,93156,99548
2,169439,178669
//Storyboard Layer 0 (Background)
//Storyboard Layer 1 (Fail)
//Storyboard Layer 2 (Pass)
//Storyboard Layer 3 (Foreground)
//Storyboard Layer 4 (Overlay)
//Storyboard Sound Samples

[TimingPoints]
-670,329.67032967033,4,2,1,30,1,0
5923,-100,4,2,1,40,0,0
11198,-100,4,2,1,65,0,0
16472,-100,4,2,2,65,0,0
16801,-100,4,2,1,65,0,0
19110,-100,4,2,2,65,0,0
21747,-100,4,2,1,55,0,0
32297,-100,4,2,1,60,0,0
40209,-100,4,2,1,70,0,0
42846,-100,4,2,1,60,0,0
48121,-100,4,2,1,70,0,0
58670,-100,4,2,3,80,0,1
67736,-100,4,2,3,80,0,0
69220,-100,4,2,3,80,0,1
79769,-100,4,2,3,80,0,0
85044,-100,4,2,3,80,0,1
90319,-100,4,2,3,70,0,0
90648,-100,4,2,1,70,0,0
92956,-100,4,2,1,70,0,0
101198,-100,4,2,1,55,0,0
111417,-100,4,2,1,60,0,0
119330,-100,4,2,1,70,0,0
121967,-100,4,2,1,60,0,0
127242,-100,4,2,1,70,0,0
137791,-100,4,2,3,80,0,1
146857,-100,4,2,3,80,0,0
148340,-100,4,2,3,80,0,1
158890,-100,4,2,3,80,0,0
169439,-100,4,2,3,50,0,0
179989,-100,4,2,3,70,0,0
201088,-100,4,2,3,60,0,0
203725,-100,4,2,3,70,0,0
211637,-100,4,2,3,80,0,1
220703,-100,4,2,3,80,0,0
222187,-100,4,2,3,80,0,1
232736,-100,4,2,3,80,0,0
238011,-100,4,2,3,80,0,1
244604,-100,4,2,3,40,0,0
245923,-100,4,2,3,70,0,0
255154,620.47569803516,4,2,3,70,1,0
255154,-50,4,2,3,70,0,0
256084,645.161290322581,4,2,3,70,1,0
257374,750,4,2,3,70,1,0
257749,-100,4,2,3,50,0,0
258499,-100,4,2,3,40,0,0
259249,-100,4,2,3,30,0,0
259999,-100,4,2,3,20,0,0
261874,-100,4,2,3,16,0,0
263374,-100,4,2,3,12,0,0
264874,-100,4,2,3,8,0,0
266374,-100,4,2,3,5,0,0

[Colours]
Combo1 : 245,234,95
Combo2 : 240,152,248
Combo3 : 158,138,229

[HitObjects]
362,35,648,6,0,P|422:21|478:47,2,126,4|2|2,2:0|2:0|2:0,0:0:0:0:
307,98,1967,2,0,P|317:160|324:222,1,126,2|2,2:0|2:0,0:0:0:0:
176,371,3286,2,0,P|119:344|57:352,2,126,2|2|2,2:0|2:0|2:0,0:0:0:0:
253,339,4604,2,0,P|273:258|247:179,1,168,2|2,2:0|2:0,0:0:0:0:
199,19,5923,6,0,P|254:49|316:42,1,126,6|2,2:0|2:0,0:0:0:0:
391,3,6747,1,2,2:0:0:0:
464,105,7242,2,0,L|439:228,1,126,2|2,2:0|2:0,0:0:0:0:
413,308,8066,1,2,2:0:0:0:
256,192,8560,12,2,9879,0:0:0:0:
364,42,11198,6,0,P|418:12|479:20,2,126,4|2|2,3:2|2:0|3:0,0:0:0:0:
381,124,12516,2,0,B|360:178|360:178|374:232|374:232|357:283,1,168,2|2,3:0|3:0,0:0:0:0:
284,326,13505,1,8,2:0:0:0:
200,344,13835,2,0,P|138:336|82:363,2,126,4|2|2,3:2|2:0|3:0,0:0:0:0:
280,369,15154,2,0,P|361:365|414:303,1,168,2|2,3:0|3:0,0:0:0:0:
389,222,16143,1,8,2:0:0:0:
319,175,16472,6,0,L|153:205,1,168,4|2,3:2|3:0,0:0:0:0:
84,251,17461,1,2,3:0:0:0:
11,207,17791,2,0,P|-2:125|43:57,1,168,2|2,3:2|3:0,0:0:0:0:
126,48,18780,1,8,2:0:0:0:
199,88,19110,2,0,L|323:65,1,126,4|8,3:2|2:0,0:0:0:0:
442,26,20099,1,8,0:0:0:0:
489,95,20428,2,0,P|489:140|475:188,1,84,4|8,3:2|0:0,0:0:0:0:
411,227,21088,2,0,L|428:309,1,84,0|8,3:0|2:0,0:0:0:0:
363,362,21747,6,0,P|286:333|254:258,1,168,4|2,3:2|3:0,0:0:0:0:
299,96,23066,2,0,L|423:71,2,126,2|2|2,3:0|2:0|3:0,0:0:0:0:
231,46,24384,2,0,B|195:46|172:23|172:23|114:23|84:69,1,168,2|2,3:0|3:0,0:0:0:0:
61,234,25703,2,0,P|65:295|31:348,2,126,2|2|2,3:2|2:0|3:0,0:0:0:0:
126,181,27022,6,0,P|207:169|273:218,1,168,4|2,3:2|3:0,0:0:0:0:
359,361,28340,2,0,P|438:347|482:276,1,168,2|2,3:0|3:0,0:0:0:0:
496,193,29330,1,2,3:0:0:0:
508,110,29659,2,0,B|422:110|446:44|355:53,1,168,2|2,3:2|3:0,0:0:0:0:
189,31,30978,1,10,0:2:0:0:
189,31,32297,6,0,B|180:86|180:86|193:131|193:131|181:195,1,168,4|0,3:2|3:0,0:0:0:0:
202,276,33286,1,2,3:0:0:0:
156,346,33615,2,0,P|94:353|40:322,2,126,2|2|8,3:2|2:0|2:0,0:0:0:0:
202,276,34934,2,0,B|260:264|260:264|307:288|307:288|361:276,1,168,2|2,3:2|3:0,0:0:0:0:
446,255,35923,1,2,3:0:0:0:
489,183,36253,2,0,P|502:122|472:68,2,126,2|2|10,3:2|2:0|2:0,0:0:0:0:
421,134,37571,6,0,B|337:111|340:169|255:143,1,168,4|0,3:2|3:0,0:0:0:0:
112,58,38890,2,0,P|96:96|99:137,1,84,2|0,3:2|3:0,0:0:0:0:
47,203,39549,1,0,3:0:0:0:
36,286,39879,1,8,2:0:0:0:
109,330,40209,6,0,B|149:338|149:338|189:323|189:323|230:330,1,126,4|10,3:1|2:0,0:0:0:0:
350,368,41198,2,0,P|379:292|347:216,1,168,4|8,3:1|2:0,0:0:0:0:
272,176,42187,1,0,3:0:0:0:
256,92,42516,1,8,2:0:0:0:
314,30,42846,6,0,P|395:19|465:63,2,168,4|8|0,3:2|2:0|3:0,0:0:0:0:
149,63,44824,2,0,L|67:77,1,84,8|0,2:0|2:0,0:0:0:0:
14,143,45483,2,0,P|-3:222|40:292,1,168,4|8,3:2|2:0,0:0:0:0:
144,364,46637,2,0,B|192:347|192:347|267:369,1,126,8|2,2:0|3:2,0:0:0:0:
328,313,47461,1,8,2:0:0:0:
331,229,47791,1,2,3:0:0:0:
265,177,48121,6,0,P|184:184|116:138,1,168,4|2,3:2|2:0,0:0:0:0:
161,19,49275,2,0,L|286:3,1,126,2|10,2:0|2:0,0:0:0:0:
369,7,50099,1,2,3:2:0:0:
429,65,50428,1,8,2:0:0:0:
405,145,50758,2,0,B|452:154|485:128|485:128|486:169|513:209,2,168,4|2|4,3:2|2:0|3:2,0:0:0:0:
322,129,52406,1,10,2:0:0:0:
266,192,52736,2,0,L|278:275,1,84,2|8,3:2|2:0,0:0:0:0:
244,352,53395,6,0,P|162:363|96:315,1,168,4|2,3:1|2:0,0:0:0:0:
141,157,54714,2,0,P|223:146|289:194,1,168,2|2,3:2|3:2,0:0:0:0:
256,192,56033,12,2,57351,2:1:0:0:
374,176,58670,6,0,P|307:128|226:139,1,168,4|2,3:2|3:1,0:0:0:0:
154,183,59659,1,8,2:0:0:0:
76,149,59989,2,0,L|92:24,2,126,2|2|10,3:1|1:2|2:0,0:0:0:0:
16,207,61308,2,0,P|15:288|74:345,1,168,6|2,3:1|3:1,0:0:0:0:
235,296,62626,2,0,L|219:170,2,126,2|2|8,3:1|3:1|2:0,0:0:0:0:
294,355,63945,6,0,B|357:345|357:345|394:363|394:363|457:350,1,168,6|2,3:1|3:1,0:0:0:0:
477,269,64934,1,8,2:0:0:0:
503,189,65264,2,0,P|494:109|423:70,1,168,2|2,3:1|3:1,0:0:0:0:
339,62,66253,1,8,2:0:0:0:
268,107,66582,2,0,L|254:189,2,84,6|10|2,3:2|2:0|3:1,0:0:0:0:
172,24,67736,2,0,P|130:19|88:35,1,84,10|10,2:0|2:0,0:0:0:0:
41,100,68395,1,10,2:0:0:0:
68,179,68725,1,8,2:0:0:0:
44,302,69220,6,0,P|114:342|190:315,1,168,6|2,3:1|3:1,0:0:0:0:
224,238,70209,1,8,2:0:0:0:
186,162,70538,2,0,L|163:38,2,126,2|2|10,3:1|1:2|2:0,0:0:0:0:
224,238,71857,2,0,P|288:287|369:274,1,168,2|2,3:1|3:2,0:0:0:0:
470,139,73176,2,0,L|488:14,2,126,2|2|10,3:1|3:1|2:0,0:0:0:0:
402,188,74494,6,0,B|347:157|347:157|243:173,1,168,6|2,3:1|3:1,0:0:0:0:
169,133,75483,1,8,2:0:0:0:
87,155,75813,2,0,P|38:221|47:302,1,168,2|2,3:1|3:1,0:0:0:0:
116,350,76802,1,10,2:0:0:0:
195,322,77132,2,0,L|207:239,2,84,2|8|2,3:1|2:0|3:2,0:0:0:0:
266,366,78121,1,0,3:0:0:0:
341,330,78450,2,0,B|395:320|432:346|432:346|471:324|456:284,1,168,4|0,3:2|0:0,0:0:0:0:
501,123,79769,6,0,P|419:122|352:74,1,168,6|10,3:1|2:0,0:0:0:0:
282,27,80758,1,2,2:0:0:0:
216,79,81088,2,0,L|229:161,1,84,2|2,3:1|3:2,0:0:0:0:
284,225,81747,1,8,2:0:0:0:
192,365,82406,2,0,P|110:373|50:318,1,168,6|10,3:1|2:0,0:0:0:0:
94,200,83560,2,0,L|78:117,1,84,10|10,2:0|2:0,0:0:0:0:
122,45,84220,1,0,3:0:0:0:
202,69,84549,1,0,3:0:0:0:
309,3,85044,6,0,B|364:40|364:40|466:19,1,168,6|2,3:1|3:1,0:0:0:0:
507,91,86033,1,8,2:0:0:0:
449,152,86362,2,0,P|415:226|432:307,1,168,4|2,3:1|3:1,0:0:0:0:
372,367,87351,1,10,2:0:0:0:
291,343,87681,2,0,B|244:338|244:338|211:353|211:353|169:346,2,126,4|0|8,3:2|3:0|2:0,0:0:0:0:
276,260,89000,1,12,2:0:0:0:
256,192,90319,12,4,92956,3:2:0:0:
193,33,100868,6,0,P|112:29|54:86,1,168,4|2,3:2|3:0,0:0:0:0:
75,252,102187,2,0,L|199:227,2,126,2|2|2,3:0|2:0|3:0,0:0:0:0:
70,335,103505,2,0,L|234:301,1,168,2|2,3:0|3:0,0:0:0:0:
316,281,104494,1,2,3:0:0:0:
385,228,104824,2,0,P|434:268|496:270,2,126,2|2|2,3:2|2:0|3:0,0:0:0:0:
431,158,106143,6,0,P|431:75|375:15,1,168,4|2,3:2|3:0,0:0:0:0:
207,0,107461,2,0,P|136:43|55:31,1,168,2|2,3:0|3:0,0:0:0:0:
13,104,108450,1,2,3:0:0:0:
38,183,108780,2,0,P|38:261|98:331,1,168,2|2,3:2|3:0,0:0:0:0:
256,293,110099,1,10,0:2:0:0:
256,293,111417,6,0,L|256:125,1,168,4|0,3:2|3:0,0:0:0:0:
256,40,112406,1,2,3:0:0:0:
180,76,112736,2,0,P|119:89|63:63,2,126,2|2|8,3:2|2:0|2:0,0:0:0:0:
256,40,114055,2,0,B|314:28|314:28|361:52|361:52|415:40,1,168,2|2,3:2|3:0,0:0:0:0:
495,67,115044,1,2,3:0:0:0:
440,130,115373,2,0,B|356:148|356:148|318:134,2,126,2|2|10,3:2|2:0|2:0,0:0:0:0:
491,196,116692,6,0,P|497:277|446:343,1,168,4|0,3:2|3:0,0:0:0:0:
318,233,118011,2,0,P|280:217|239:220,1,84,2|0,3:2|3:0,0:0:0:0:
174,275,118670,1,0,3:0:0:0:
90,287,119000,1,8,2:0:0:0:
41,218,119330,6,0,B|49:178|49:178|34:138|34:138|41:97,1,126,4|10,3:1|2:0,0:0:0:0:
141,20,120319,2,0,P|205:70|205:151,1,168,4|8,3:1|2:0,0:0:0:0:
166,226,121308,1,0,3:0:0:0:
183,307,121637,1,8,2:0:0:0:
260,344,121967,6,0,P|341:354|406:305,2,168,4|8|0,3:2|2:0|3:0,0:0:0:0:
272,176,123945,1,8,2:0:0:0:
433,219,124604,2,0,P|467:145|445:66,1,168,4|8,3:2|2:0,0:0:0:0:
331,8,125758,2,0,B|293:41|293:41|219:27,1,126,8|2,2:0|3:2,0:0:0:0:
138,52,126582,1,8,2:0:0:0:
118,133,126912,1,2,3:0:0:0:
153,209,127242,6,0,P|82:166|3:186,1,168,4|0,3:2|3:0,0:0:0:0:
15,310,128395,2,0,L|140:294,1,126,2|10,2:0|2:0,0:0:0:0:
212,337,129220,1,2,3:2:0:0:
293,318,129549,1,8,2:0:0:0:
308,234,129879,2,0,B|297:177|297:177|317:132|317:132|303:72,2,168,4|2|4,3:2|2:0|3:2,0:0:0:0:
384,268,131527,1,10,2:0:0:0:
463,239,131857,2,0,P|477:200|475:158,1,84,2|8,3:2|2:0,0:0:0:0:
509,81,132516,6,0,P|427:92|361:44,1,168,4|2,3:1|3:2,0:0:0:0:
304,202,133835,2,0,P|237:249|156:238,1,168,2|2,3:2|3:2,0:0:0:0:
256,192,135154,12,2,136472,2:1:0:0:
18,55,137791,6,0,P|99:44|165:92,1,168,4|2,3:2|3:1,0:0:0:0:
214,159,138780,1,8,2:0:0:0:
290,124,139110,2,0,L|306:-1,2,126,2|2|10,3:1|0:2|2:0,0:0:0:0:
366,158,140428,2,0,B|397:120|443:134|443:134|478:166|460:210,1,168,6|2,3:1|3:1,0:0:0:0:
352,336,141747,2,0,P|414:331|466:365,2,126,2|2|10,3:1|3:1|2:0,0:0:0:0:
275,370,143066,6,0,B|251:335|251:335|266:210,1,168,6|2,3:1|3:1,0:0:0:0:
277,127,144055,1,8,2:0:0:0:
238,53,144384,2,0,P|168:9|88:26,1,168,2|2,3:1|3:1,0:0:0:0:
56,192,145703,2,0,P|125:235|205:218,1,168,6|2,3:2|3:1,0:0:0:0:
297,304,146857,2,0,P|336:290|377:295,1,84,10|10,2:0|2:0,0:0:0:0:
435,356,147516,1,10,2:0:0:0:
458,275,147846,1,8,2:0:0:0:
491,153,148340,6,0,B|400:127|422:196|330:169,1,168,6|2,3:1|3:1,0:0:0:0:
268,112,149330,1,8,2:0:0:0:
187,135,149659,2,0,P|131:163|69:160,2,126,2|2|10,3:1|1:2|2:0,0:0:0:0:
187,50,150978,2,0,P|104:45|30:83,1,168,2|2,3:1|3:2,0:0:0:0:
14,251,152297,2,0,L|33:376,2,126,2|2|10,3:1|3:1|2:0,0:0:0:0:
79,199,153615,6,0,B|141:181|183:215|183:215|173:272,1,168,6|2,3:1|3:1,0:0:0:0:
224,338,154604,1,8,2:0:0:0:
307,350,154934,2,0,P|385:327|422:254,1,168,2|2,3:1|3:1,0:0:0:0:
386,177,155923,1,10,2:0:0:0:
441,114,156253,2,0,L|453:31,2,84,2|8|2,3:1|2:0|3:2,0:0:0:0:
304,16,157571,2,0,L|222:32,1,84,4|2,0:0|2:0,0:0:0:0:
140,54,158231,1,2,2:0:0:0:
256,192,158890,12,2,161527,2:0:0:0:
89,49,162846,6,0,L|101:133,1,84,2|0,0:0|0:0,0:0:0:0:
171,177,163505,1,2,0:0:0:0:
159,260,163835,1,2,0:0:0:0:
205,330,164165,6,0,P|125:338|76:274,2,168,0|2|0,0:0|0:0|0:0,0:0:0:0:
314,204,166143,2,0,L|296:121,1,84,2|0,0:0|0:0,0:0:0:0:
331,44,166802,2,0,P|410:28|476:76,1,168,2|2,0:0|0:0,0:0:0:0:
445,154,167791,1,2,0:0:0:0:
468,234,168121,1,2,0:0:0:0:
132,335,179989,6,0,B|201:353|201:353|248:326,2,126,6|10|12,3:1|2:0|2:0,0:0:0:0:
52,361,181308,2,0,P|22:284|54:209,1,168,2|2,2:1|3:1,0:0:0:0:
106,143,182297,1,8,2:0:0:0:
184,173,182626,2,0,P|245:179|298:146,2,126,4|10|4,3:1|2:0|3:2,0:0:0:0:
244,329,184275,1,8,2:0:0:0:
318,367,184604,2,0,P|359:373|399:362,1,84,2|8,3:1|2:0,0:0:0:0:
462,307,185264,6,0,P|487:249|480:187,2,126,6|10|12,3:1|2:0|2:0,0:0:0:0:
302,256,186912,1,10,2:0:0:0:
267,177,187242,2,0,P|262:136|273:96,1,84,2|8,3:1|2:0,0:0:0:0:
336,40,187901,2,0,P|391:68|452:60,2,126,4|10|4,3:1|2:0|3:1,0:0:0:0:
170,67,189549,1,10,2:0:0:0:
100,19,189879,2,0,P|85:58|89:99,1,84,0|8,3:0|2:0,0:0:0:0:
29,158,190538,6,0,P|57:215|52:277,1,126,6|2,3:1|1:2,0:0:0:0:
143,364,191527,2,0,P|223:353|265:283,1,168,12|8,2:0|2:0,0:0:0:0:
220,211,192516,1,2,3:2:0:0:
204,128,192846,1,10,2:0:0:0:
235,48,193176,2,0,P|287:15|349:15,1,126,2|2,3:1|1:2,0:0:0:0:
475,3,194165,2,0,L|456:172,1,168,14|8,2:0|2:0,0:0:0:0:
403,235,195154,1,2,3:1:0:0:
416,317,195483,1,10,2:0:0:0:
347,366,195813,6,0,B|307:345|307:345|226:355,1,126,4|2,3:1|1:2,0:0:0:0:
121,286,196802,2,0,P|120:203|175:143,1,168,14|10,2:0|2:0,0:0:0:0:
253,174,197791,1,2,3:1:0:0:
335,158,198121,1,8,2:0:0:0:
416,181,198450,2,0,B|445:145|445:145|429:66,1,126,6|6,3:1|2:0,0:0:0:0:
318,4,199439,2,0,B|274:11|250:48|250:48|208:64|170:37,1,168,12|8,2:0|2:0,0:0:0:0:
89,60,200428,1,2,3:1:0:0:
81,143,200758,1,8,2:3:0:0:
27,207,201088,6,0,P|108:218|157:284,1,168,4|8,3:1|2:0,0:0:0:0:
188,362,202077,1,2,2:0:0:0:
265,328,202406,2,0,B|353:303|338:362|428:337,1,168,2|8,3:2|2:0,0:0:0:0:
498,184,203725,2,0,P|480:106|406:74,1,168,6|6,3:1|3:2,0:0:0:0:
332,115,204714,1,8,2:0:0:0:
254,83,205044,2,0,B|229:144|229:144|240:191|240:191|221:241,1,168,6|6,3:1|3:1,0:0:0:0:
256,192,205868,12,2,210319,3:1:0:0:
0,223,211637,6,0,P|67:271|148:260,1,168,4|2,3:2|3:1,0:0:0:0:
222,221,212626,1,8,2:0:0:0:
296,260,212956,2,0,L|312:385,2,126,2|2|10,3:1|1:2|2:0,0:0:0:0:
222,221,214275,2,0,P|193:144|229:71,1,168,6|2,3:1|3:1,0:0:0:0:
395,97,215593,2,0,P|448:67|467:8,2,126,2|2|8,3:1|3:1|2:0,0:0:0:0:
337,158,216912,6,0,B|308:195|323:240|323:240|356:264|362:307,1,168,6|2,3:1|3:1,0:0:0:0:
300,363,217901,1,8,2:0:0:0:
220,333,218231,2,0,P|139:321|66:360,1,168,2|2,3:1|3:1,0:0:0:0:
16,200,219549,2,0,P|25:117|81:57,1,168,6|2,3:2|3:1,0:0:0:0:
181,134,220703,2,0,P|220:147|261:142,1,84,10|10,2:0|2:0,0:0:0:0:
323,86,221362,1,10,2:0:0:0:
346,5,221692,1,8,2:0:0:0:
468,36,222187,6,0,L|440:202,1,168,6|2,3:1|3:1,0:0:0:0:
377,257,223176,1,8,2:0:0:0:
399,337,223505,2,0,P|450:371|512:366,2,126,2|2|10,3:1|1:2|2:0,0:0:0:0:
377,257,224824,2,0,B|317:251|317:251|272:280|272:280|218:275,1,168,2|2,3:1|3:2,0:0:0:0:
73,188,226143,2,0,P|41:242|46:304,2,126,2|2|10,3:1|3:1|2:0,0:0:0:0:
30,116,227461,6,0,P|110:127|176:79,1,168,6|2,3:1|3:1,0:0:0:0:
239,22,228450,1,8,2:0:0:0:
308,69,228780,2,0,L|276:233,1,168,2|2,3:1|3:1,0:0:0:0:
248,313,229769,1,10,2:0:0:0:
169,342,230099,2,0,P|127:341|91:362,2,84,2|8|2,3:1|2:0|3:2,0:0:0:0:
248,313,231088,1,0,3:0:0:0:
319,356,231417,2,0,P|400:360|458:302,1,168,4|0,2:0|0:0,0:0:0:0:
509,142,232736,6,0,P|427:146|369:88,1,168,6|10,3:1|2:0,0:0:0:0:
315,24,233725,1,2,2:0:0:0:
245,70,234055,2,0,P|242:112|259:150,1,84,2|2,3:1|3:2,0:0:0:0:
306,220,234714,1,8,2:0:0:0:
298,303,235044,1,2,2:0:0:0:
231,354,235373,2,0,P|149:362|89:307,1,168,6|10,3:1|2:0,0:0:0:0:
102,185,236527,2,0,L|86:102,1,84,10|10,2:0|2:0,0:0:0:0:
60,22,237187,1,0,3:0:0:0:
142,36,237516,1,0,3:0:0:0:
264,4,238011,6,0,B|319:41|319:41|421:20,1,168,6|2,3:1|3:1,0:0:0:0:
492,60,239000,1,8,2:0:0:0:
505,143,239330,2,0,P|510:224|454:284,1,168,4|2,3:1|3:1,0:0:0:0:
288,261,240648,2,0,B|241:256|241:256|208:271|208:271|166:264,2,126,4|0|8,3:2|3:0|2:0,0:0:0:0:
334,331,241967,1,12,2:0:0:0:
256,192,242132,12,2,244604,2:1:0:0:
474,69,245923,6,0,P|406:23|325:38,1,168,6|2,3:1|3:2,0:0:0:0:
263,95,246912,1,8,2:0:0:0:
183,69,247242,2,0,L|100:84,1,84,6|8,3:1|2:0,0:0:0:0:
34,137,247901,2,0,P|19:176|23:217,1,84,2|10,3:1|2:0,0:0:0:0:
12,300,248560,2,0,P|79:253|161:263,1,168,6|2,3:1|3:1,0:0:0:0:
223,319,249549,1,10,2:0:0:0:
385,277,250209,2,0,L|468:299,2,84,10|2|10,2:0|3:1|2:0,0:0:0:0:
336,208,251198,6,0,B|344:167|376:148|376:148|391:96|352:62,1,168,6|2,3:1|3:2,0:0:0:0:
282,17,252187,1,10,2:0:0:0:
200,36,252516,2,0,B|150:52|135:91|135:91|57:73,1,168,6|2,3:1|3:2,0:0:0:0:
9,234,253835,2,0,B|115:211|115:211|168:237,1,168,6|8,3:1|2:3,0:0:0:0:
209,310,254824,1,4,2:3:0:0:
296,286,255154,2,0,P|412:267|494:361,1,252,6|6,3:1|3:2,0:0:0:0:
493,360,257374,5,6,3:1:0:0:
256,192,257561,12,0,266374,2:0:0:0:
