osu file format v14

[General]
AudioFilename: audio.mp3
AudioLeadIn: 0
PreviewTime: 82673
Countdown: 0
SampleSet: Normal
StackLeniency: 0.7
Mode: 1
LetterboxInBreaks: 0
WidescreenStoryboard: 0

[Editor]
Bookmarks: 10728,21395,34728,45395,56061
DistanceSpacing: 1
BeatDivisor: 4
GridSize: 8
TimelineZoom: 1.9

[Metadata]
Title:COLORFUL DAYS!! (Epsilon Remix)
TitleUnicode:COLORFUL DAYS!! (Epsilon Remix)
Artist:Ceui
ArtistUnicode:Ceui
Creator:Pafeeeeb
Version:Colorful Memories
Source:いろとりどりのヒカリ
Tags:E_S_I_A [-E_S_I_A-] ESIA [-ESIA-] Irotoridori no Hikari ending ed favorite irohika Yamamoto Mineko 山本 美禰子 Odaka Kotaro 小高 光太郎 visual novel eroge video game japanese pop jpop j-pop colourful electronic jcore j-core
BeatmapID:4392199
BeatmapSetID:2094730

[Difficulty]
HPDrainRate:5
CircleSize:5
OverallDifficulty:6
ApproachRate:5
SliderMultiplier:1.4
SliderTickRate:1

[Events]
//Background and Video events
0,0,"hikari.jpg",0,0
//Break Periods
2,21595,30861
2,126928,136195
//Storyboard Layer 0 (Background)
//Storyboard Layer 1 (Fail)
//Storyboard Layer 2 (Pass)
//Storyboard Layer 3 (Foreground)
//Storyboard Layer 4 (Overlay)
//Storyboard Sound Samples

[TimingPoints]
62,333.333333333333,4,1,0,60,1,0
62,-133.333333333333,4,1,0,60,0,0
10728,-100,4,1,0,80,0,0
21561,-100,4,1,0,50,0,0
22728,-133.333333333333,4,1,0,50,0,0
32061,-133.333333333333,4,1,0,60,0,0
32395,-127.990401919616,4,1,0,63,0,0
32728,-123.07337332718,4,1,0,65,0,0
33061,-118.520164426175,4,1,0,67,0,0
33395,-114.279592929834,4,1,0,70,0,0
33561,-112.282917587622,4,1,0,71,0,0
33728,-110.343400910219,4,1,0,73,0,0
33811,-109.40416367552,4,1,0,73,0,0
33895,-108.46975088968,4,1,0,74,0,0
33978,-107.562008469449,4,1,0,74,0,0
34061,-106.669333066693,4,1,0,75,0,0
34395,-103.22206095791,4,1,0,78,0,0
34728,-100,4,1,0,80,0,0
69395,-100,4,1,0,80,0,0
69478,-99.227691448776,4,1,0,80,0,0
69561,-98.467220683287,4,1,0,81,0,0
69645,-97.70936411948,4,1,0,81,0,0
69728,-96.971901427662,4,1,0,81,0,0
69811,-96.245487364621,4,1,0,82,0,0
69895,-95.521318523827,4,1,0,82,0,0
69978,-94.81639548324,4,1,0,82,0,0
70061,-94.121800529568,4,1,0,82,0,0
70145,-93.429122130717,4,1,0,83,0,0
70228,-92.754631643037,4,1,0,83,0,0
70311,-92.089810017271,4,1,0,83,0,0
70395,-91.426611796982,4,1,0,84,0,0
70478,-90.780624840385,4,1,0,84,0,0
70561,-90.143702451395,4,1,0,84,0,0
70645,-89.508141682055,4,1,0,85,0,0
70728,-88.888888888889,4,1,0,85,0,0
70811,-88.278145695364,4,1,0,85,0,0
70895,-87.668530088787,4,1,0,86,0,0
70978,-87.074385563812,4,1,0,86,0,0
71061,-86.488240064882,4,1,0,86,0,0
71145,-85.903012727566,4,1,0,87,0,0
71228,-85.332479795151,4,1,0,87,0,0
71311,-84.769475357711,4,1,0,87,0,0
71395,-84.207201516109,4,1,0,88,0,0
71478,-83.658900133365,4,1,0,88,0,0
71561,-83.117692907249,4,1,0,88,0,0
71645,-82.577048164782,4,1,0,88,0,0
71728,-82.049703777795,4,1,0,89,0,0
71811,-81.529051987768,4,1,0,89,0,0
71895,-81.008811911273,4,1,0,89,0,0
72061,-80,4,1,0,90,0,0
72561,-133.333333333333,4,1,0,60,0,0
81228,-117.647058823529,4,1,0,60,0,0
81395,-115.473441108545,4,1,0,62,0,0
81561,-113.211819313936,4,1,0,64,0,0
81895,-109.086942293008,4,1,0,69,0,0
82228,-105.263157894737,4,1,0,73,0,0
82395,-103.444708803145,4,1,0,76,0,0
82561,-101.698362656361,4,1,0,78,0,0
82728,-100,4,1,0,80,0,1
102728,-100,4,1,0,80,0,0
104061,-100,4,1,0,80,0,1
125228,-100,4,1,0,80,0,0
126895,-100,4,1,0,50,0,0
128061,-133.333333333333,4,1,0,50,0,0
137395,-133.333333333333,4,1,0,60,0,0
157228,-133.333333333333,4,1,0,35,0,0
158561,-100,4,1,0,80,0,0
158895,-133.333333333333,4,1,0,60,0,0
167895,-117.647058823529,4,1,0,60,0,0
168061,-115.473441108545,4,1,0,62,0,0
168228,-113.211819313936,4,1,0,64,0,0
168561,-109.098843552258,4,1,0,69,0,0
168895,-105.263157894737,4,1,0,73,0,0
169062,-103.444708803145,4,1,0,76,0,0
169395,-100,4,1,0,80,0,1
189395,-100,4,1,0,80,0,0
192061,-117.647058823529,4,1,0,80,0,0
192395,-112.668918918919,4,1,0,80,0,0
192561,-110.348250475639,4,1,0,80,0,0
192645,-109.209987720016,4,1,0,80,0,0
192728,-108.108108108108,4,1,0,80,0,0
192895,-105.957108816521,4,1,0,80,0,0
192978,-104.919580007079,4,1,0,80,0,0
193061,-103.902173066438,4,1,0,80,0,0
193145,-102.892402622445,4,1,0,80,0,0
193228,-101.913747660338,4,1,0,80,0,0
193395,-100,4,1,0,80,0,1
214561,-100,4,1,0,80,0,0
225728,-100,4,1,0,60,0,0
226061,-111.111111111111,4,1,0,60,0,0

[HitObjects]
256,192,62,5,0,0:0:0:0:
256,192,395,1,0,0:0:0:0:
248,192,728,1,0,0:0:0:0:
248,192,1061,1,0,0:0:0:0:
248,192,1395,1,0,0:0:0:0:
248,200,1728,1,0,0:0:0:0:
248,200,2061,1,0,0:0:0:0:
248,200,2395,1,0,0:0:0:0:
248,200,2728,1,0,0:0:0:0:
248,200,3061,1,0,0:0:0:0:
248,200,3395,1,0,0:0:0:0:
248,200,3728,1,0,0:0:0:0:
248,200,4061,1,0,0:0:0:0:
248,200,4228,1,8,0:0:0:0:
248,200,4395,1,0,0:0:0:0:
248,200,4561,1,8,0:0:0:0:
248,200,4645,1,8,0:0:0:0:
248,200,4728,1,0,0:0:0:0:
248,200,4895,1,8,0:0:0:0:
248,208,5228,1,8,0:0:0:0:
248,200,5311,1,8,0:0:0:0:
256,200,5395,1,0,0:0:0:0:
256,200,5728,1,0,0:0:0:0:
256,200,6061,1,0,0:0:0:0:
256,200,6395,1,0,0:0:0:0:
256,200,6728,1,0,0:0:0:0:
256,200,7061,1,0,0:0:0:0:
256,200,7395,1,0,0:0:0:0:
256,200,7728,1,0,0:0:0:0:
256,200,7811,1,0,0:0:0:0:
256,200,7895,1,8,0:0:0:0:
256,200,8061,1,0,0:0:0:0:
256,200,8395,1,0,0:0:0:0:
256,200,8728,1,0,0:0:0:0:
256,200,9061,1,0,0:0:0:0:
256,200,9395,1,0,0:0:0:0:
256,200,9728,1,0,0:0:0:0:
256,200,10061,1,0,0:0:0:0:
256,200,10395,1,8,0:0:0:0:
256,200,10728,1,0,0:0:0:0:
256,200,10811,1,0,0:0:0:0:
256,200,10895,1,8,0:0:0:0:
256,200,11061,1,0,0:0:0:0:
256,200,11228,1,8,0:0:0:0:
256,200,11311,1,8,0:0:0:0:
256,200,11395,1,0,0:0:0:0:
256,200,11561,1,8,0:0:0:0:
256,200,11728,1,0,0:0:0:0:
256,200,11895,1,8,0:0:0:0:
256,200,12061,1,0,0:0:0:0:
256,200,12145,1,0,0:0:0:0:
256,200,12228,1,8,0:0:0:0:
256,200,12311,1,0,0:0:0:0:
256,200,12395,1,0,0:0:0:0:
256,200,12561,1,8,0:0:0:0:
256,200,12728,1,0,0:0:0:0:
256,200,12895,1,8,0:0:0:0:
256,192,12978,1,8,0:0:0:0:
256,200,13061,1,0,0:0:0:0:
256,200,13228,1,8,0:0:0:0:
256,200,13395,1,0,0:0:0:0:
256,200,13478,1,0,0:0:0:0:
256,200,13561,1,8,0:0:0:0:
256,200,13728,1,0,0:0:0:0:
256,200,13811,1,8,0:0:0:0:
256,208,13978,1,8,0:0:0:0:
256,208,14061,1,0,0:0:0:0:
256,208,14228,1,8,0:0:0:0:
248,200,14395,1,0,0:0:0:0:
248,200,14478,1,0,0:0:0:0:
248,200,14561,1,8,0:0:0:0:
248,200,14645,1,8,0:0:0:0:
248,200,14728,1,0,0:0:0:0:
248,200,14895,1,8,0:0:0:0:
248,200,15061,1,0,0:0:0:0:
248,200,15145,1,0,0:0:0:0:
248,200,15228,1,8,0:0:0:0:
248,200,15395,1,0,0:0:0:0:
248,200,15561,1,8,0:0:0:0:
256,200,15728,1,0,0:0:0:0:
256,200,15895,1,8,0:0:0:0:
256,200,16061,1,0,0:0:0:0:
256,200,16145,1,0,0:0:0:0:
256,200,16228,1,8,0:0:0:0:
256,200,16395,1,0,0:0:0:0:
256,200,16561,1,8,0:0:0:0:
256,200,16645,1,8,0:0:0:0:
256,200,16728,1,0,0:0:0:0:
256,200,16895,1,8,0:0:0:0:
256,200,17061,1,0,0:0:0:0:
256,200,17228,1,8,0:0:0:0:
256,200,17311,1,8,0:0:0:0:
256,200,17395,1,0,0:0:0:0:
256,200,17478,1,8,0:0:0:0:
256,200,17561,1,8,0:0:0:0:
256,200,17728,1,0,0:0:0:0:
256,200,17895,1,0,0:0:0:0:
256,200,17978,1,8,0:0:0:0:
256,200,18061,1,0,0:0:0:0:
256,200,18228,1,8,0:0:0:0:
256,200,18395,1,0,0:0:0:0:
256,200,18561,1,0,0:0:0:0:
256,200,18645,1,0,0:0:0:0:
256,200,18728,1,0,0:0:0:0:
256,200,18895,1,8,0:0:0:0:
256,200,19061,1,0,0:0:0:0:
256,200,19145,1,0,0:0:0:0:
256,200,19228,1,8,0:0:0:0:
256,200,19395,1,0,0:0:0:0:
256,200,19561,1,8,0:0:0:0:
256,200,19645,1,8,0:0:0:0:
256,200,19728,1,0,0:0:0:0:
256,200,19895,1,8,0:0:0:0:
256,200,20061,1,0,0:0:0:0:
256,200,20145,1,0,0:0:0:0:
256,200,20228,1,0,0:0:0:0:
256,200,20311,1,0,0:0:0:0:
256,200,20395,1,8,0:0:0:0:
256,200,20478,1,8,0:0:0:0:
256,200,20561,1,8,0:0:0:0:
256,200,20645,1,8,0:0:0:0:
256,208,20728,1,0,0:0:0:0:
256,200,20811,1,0,0:0:0:0:
248,200,20895,1,8,0:0:0:0:
248,200,20978,1,8,0:0:0:0:
248,200,21061,1,0,0:0:0:0:
248,200,21395,1,12,0:0:0:0:
248,192,32061,5,4,0:0:0:0:
256,192,32395,1,0,0:0:0:0:
256,192,32728,1,12,0:0:0:0:
256,192,33061,1,8,0:0:0:0:
256,192,33395,1,4,0:0:0:0:
256,192,33561,1,0,0:0:0:0:
256,192,33728,1,8,0:0:0:0:
256,192,33811,1,8,0:0:0:0:
256,192,33895,1,0,0:0:0:0:
256,192,33978,1,0,0:0:0:0:
256,192,34061,1,8,0:0:0:0:
256,192,34395,1,12,0:0:0:0:
256,192,34728,1,4,0:0:0:0:
256,192,35061,1,0,0:0:0:0:
256,192,35228,1,8,0:0:0:0:
256,192,35395,1,0,0:0:0:0:
256,192,35478,1,0,0:0:0:0:
256,192,35561,1,8,0:0:0:0:
256,192,35728,1,0,0:0:0:0:
256,192,35895,1,8,0:0:0:0:
256,192,36062,1,0,0:0:0:0:
256,192,36145,1,8,0:0:0:0:
256,192,36228,1,8,0:0:0:0:
256,192,36395,1,0,0:0:0:0:
256,192,36561,1,8,0:0:0:0:
256,192,36645,1,8,0:0:0:0:
256,192,36728,1,0,0:0:0:0:
256,192,36811,1,0,0:0:0:0:
256,200,36895,1,8,0:0:0:0:
256,200,37061,1,0,0:0:0:0:
256,192,37228,1,8,0:0:0:0:
256,200,37395,1,0,0:0:0:0:
256,192,37728,1,0,0:0:0:0:
256,192,37895,1,8,0:0:0:0:
256,192,38061,1,0,0:0:0:0:
256,192,38145,1,0,0:0:0:0:
256,192,38228,1,8,0:0:0:0:
256,192,38395,1,0,0:0:0:0:
256,192,38561,1,8,0:0:0:0:
256,192,38728,1,0,0:0:0:0:
256,192,38811,1,8,0:0:0:0:
256,192,38895,1,8,0:0:0:0:
256,192,38978,1,8,0:0:0:0:
256,192,39061,1,0,0:0:0:0:
256,192,39228,1,8,0:0:0:0:
256,192,39395,1,0,0:0:0:0:
256,192,39561,1,8,0:0:0:0:
256,192,39645,1,0,0:0:0:0:
256,200,39728,1,0,0:0:0:0:
256,192,39895,1,8,0:0:0:0:
256,200,40061,1,0,0:0:0:0:
256,200,40395,1,0,0:0:0:0:
256,200,40561,1,8,0:0:0:0:
256,200,40728,1,0,0:0:0:0:
256,200,40811,1,0,0:0:0:0:
256,200,40895,1,8,0:0:0:0:
256,200,41061,1,0,0:0:0:0:
248,200,41228,1,8,0:0:0:0:
256,200,41311,1,0,0:0:0:0:
256,200,41395,1,0,0:0:0:0:
256,200,41561,1,8,0:0:0:0:
256,200,41728,1,0,0:0:0:0:
256,200,41895,1,8,0:0:0:0:
256,200,42061,1,0,0:0:0:0:
256,200,42145,1,8,0:0:0:0:
256,200,42311,1,8,0:0:0:0:
256,200,42395,1,0,0:0:0:0:
256,200,42561,1,8,0:0:0:0:
256,200,42728,1,0,0:0:0:0:
256,200,43061,1,0,0:0:0:0:
256,200,43228,1,8,0:0:0:0:
256,200,43395,1,0,0:0:0:0:
256,200,43478,1,0,0:0:0:0:
256,200,43561,1,8,0:0:0:0:
256,200,43728,1,0,0:0:0:0:
256,200,43895,1,8,0:0:0:0:
256,200,43978,1,8,0:0:0:0:
256,200,44061,1,0,0:0:0:0:
256,200,44228,1,8,0:0:0:0:
256,200,44395,1,0,0:0:0:0:
256,200,44478,1,0,0:0:0:0:
256,200,44561,1,8,0:0:0:0:
256,200,44645,1,8,0:0:0:0:
256,200,44728,1,0,0:0:0:0:
256,200,44895,1,8,0:0:0:0:
256,200,45061,1,0,0:0:0:0:
264,192,45145,1,0,0:0:0:0:
256,200,45228,1,8,0:0:0:0:
256,200,45395,1,4,0:0:0:0:
256,192,45728,1,0,0:0:0:0:
256,192,45812,1,0,0:0:0:0:
256,192,45895,1,8,0:0:0:0:
256,192,46062,1,0,0:0:0:0:
256,192,46228,1,8,0:0:0:0:
256,192,46311,1,8,0:0:0:0:
256,192,46395,1,0,0:0:0:0:
256,192,46478,1,8,0:0:0:0:
256,192,46562,1,0,0:0:0:0:
256,192,46728,1,0,0:0:0:0:
256,192,46895,1,8,0:0:0:0:
256,192,46978,1,0,0:0:0:0:
256,200,47061,1,0,0:0:0:0:
256,192,47228,1,8,0:0:0:0:
256,192,47395,1,0,0:0:0:0:
256,200,47561,1,8,0:0:0:0:
256,200,47645,1,8,0:0:0:0:
256,200,47728,1,0,0:0:0:0:
256,200,47811,1,8,0:0:0:0:
256,200,47895,1,8,0:0:0:0:
256,200,48062,1,0,0:0:0:0:
256,200,48228,1,8,0:0:0:0:
256,192,48395,1,0,0:0:0:0:
248,192,48478,1,8,0:0:0:0:
256,192,48562,1,8,0:0:0:0:
248,192,48728,1,0,0:0:0:0:
256,192,48895,1,8,0:0:0:0:
256,192,49062,1,0,0:0:0:0:
256,192,49145,1,0,0:0:0:0:
256,192,49228,1,8,0:0:0:0:
256,192,49395,1,0,0:0:0:0:
256,192,49561,1,0,0:0:0:0:
256,192,49645,1,8,0:0:0:0:
256,192,49728,1,0,0:0:0:0:
256,192,49895,1,8,0:0:0:0:
256,192,50062,1,0,0:0:0:0:
256,200,50228,1,8,0:0:0:0:
256,200,50312,1,0,0:0:0:0:
256,200,50395,1,0,0:0:0:0:
256,200,50478,1,0,0:0:0:0:
256,200,50562,1,8,0:0:0:0:
256,200,50728,1,0,0:0:0:0:
256,200,51062,1,0,0:0:0:0:
256,200,51228,1,8,0:0:0:0:
256,200,51395,1,0,0:0:0:0:
256,200,51478,1,8,0:0:0:0:
256,200,51562,1,8,0:0:0:0:
256,200,51728,1,0,0:0:0:0:
248,200,51895,1,8,0:0:0:0:
256,200,51978,1,0,0:0:0:0:
256,200,52062,1,0,0:0:0:0:
256,200,52228,1,8,0:0:0:0:
256,200,52395,1,0,0:0:0:0:
256,200,52478,1,8,0:0:0:0:
256,200,52561,1,0,0:0:0:0:
256,200,52728,1,0,0:0:0:0:
256,200,52811,1,0,0:0:0:0:
256,200,52895,1,8,0:0:0:0:
256,200,52978,1,8,0:0:0:0:
256,200,53062,1,0,0:0:0:0:
256,200,53228,1,8,0:0:0:0:
256,200,53395,1,0,0:0:0:0:
256,200,53561,1,8,0:0:0:0:
256,200,53728,1,0,0:0:0:0:
256,200,53895,1,8,0:0:0:0:
256,200,53978,1,8,0:0:0:0:
256,200,54062,1,0,0:0:0:0:
256,200,54228,1,8,0:0:0:0:
256,200,54395,1,0,0:0:0:0:
256,200,54478,1,0,0:0:0:0:
256,200,54562,1,8,0:0:0:0:
256,200,54728,1,0,0:0:0:0:
256,200,54895,1,8,0:0:0:0:
256,200,55062,1,0,0:0:0:0:
256,200,55145,1,0,0:0:0:0:
256,200,55228,1,8,0:0:0:0:
256,200,55311,1,8,0:0:0:0:
256,200,55395,1,0,0:0:0:0:
256,200,55562,1,0,0:0:0:0:
256,200,55728,1,8,0:0:0:0:
256,200,56061,1,4,0:0:0:0:
256,200,56228,1,8,0:0:0:0:
256,200,56284,1,8,0:0:0:0:
256,200,56339,1,8,0:0:0:0:
256,200,56395,1,0,0:0:0:0:
256,200,56561,1,0,0:0:0:0:
256,200,56728,1,8,0:0:0:0:
256,200,56811,1,8,0:0:0:0:
256,200,56895,1,0,0:0:0:0:
256,200,56978,1,0,0:0:0:0:
256,200,57061,1,8,0:0:0:0:
256,200,57117,1,8,0:0:0:0:
256,200,57173,1,8,0:0:0:0:
256,200,57228,1,0,0:0:0:0:
256,200,57311,1,0,0:0:0:0:
256,200,57395,1,8,0:0:0:0:
256,200,57561,1,0,0:0:0:0:
256,200,57728,1,0,0:0:0:0:
256,200,57784,1,8,0:0:0:0:
256,200,57839,1,8,0:0:0:0:
256,200,57895,1,0,0:0:0:0:
248,200,58061,1,8,0:0:0:0:
248,200,58228,1,8,0:0:0:0:
256,200,58395,1,0,0:0:0:0:
256,200,58561,1,8,0:0:0:0:
256,200,58617,1,8,0:0:0:0:
256,200,58673,1,8,0:0:0:0:
256,192,58728,1,0,0:0:0:0:
256,200,58811,1,0,0:0:0:0:
256,200,58895,1,8,0:0:0:0:
248,192,59061,1,0,0:0:0:0:
256,192,59173,1,0,0:0:0:0:
256,192,59284,1,0,0:0:0:0:
248,192,59395,1,8,0:0:0:0:
256,192,59617,1,8,0:0:0:0:
248,192,59728,1,0,0:0:0:0:
256,192,59950,1,8,0:0:0:0:
248,192,60061,1,0,0:0:0:0:
248,192,60228,1,0,0:0:0:0:
248,192,60311,1,0,0:0:0:0:
248,192,60395,1,0,0:0:0:0:
248,192,60478,1,0,0:0:0:0:
248,192,60561,1,0,0:0:0:0:
248,192,60728,1,12,0:0:0:0:
248,192,61061,1,8,0:0:0:0:
248,192,61117,1,8,0:0:0:0:
248,192,61173,1,8,0:0:0:0:
248,192,61228,1,8,0:0:0:0:
248,192,61395,1,4,0:0:0:0:
248,192,61561,1,0,0:0:0:0:
248,192,61617,1,8,0:0:0:0:
248,192,61673,1,8,0:0:0:0:
248,192,61728,1,0,0:0:0:0:
248,192,61895,1,8,0:0:0:0:
248,192,62061,1,0,0:0:0:0:
248,192,62145,1,0,0:0:0:0:
248,192,62228,1,8,0:0:0:0:
248,192,62311,1,8,0:0:0:0:
248,192,62395,1,0,0:0:0:0:
248,192,62450,1,0,0:0:0:0:
248,192,62506,1,0,0:0:0:0:
248,192,62561,1,8,0:0:0:0:
248,192,62645,1,8,0:0:0:0:
248,192,62728,1,0,0:0:0:0:
248,192,62895,1,0,0:0:0:0:
248,192,63061,1,8,0:0:0:0:
248,192,63117,1,8,0:0:0:0:
248,192,63173,1,8,0:0:0:0:
248,192,63228,1,0,0:0:0:0:
248,192,63311,1,0,0:0:0:0:
248,192,63395,1,8,0:0:0:0:
248,192,63561,1,8,0:0:0:0:
248,192,63728,1,0,0:0:0:0:
248,192,63895,1,8,0:0:0:0:
248,192,63950,1,8,0:0:0:0:
248,192,64006,1,0,0:0:0:0:
248,192,64061,1,0,0:0:0:0:
248,192,64173,1,0,0:0:0:0:
248,192,64284,1,0,0:0:0:0:
248,192,64395,1,8,0:0:0:0:
248,192,64506,1,8,0:0:0:0:
248,192,64617,1,8,0:0:0:0:
248,192,64728,1,0,0:0:0:0:
248,192,64950,1,8,0:0:0:0:
248,192,65061,1,0,0:0:0:0:
248,192,65173,1,8,0:0:0:0:
248,192,65284,1,8,0:0:0:0:
248,192,65395,1,0,0:0:0:0:
248,192,65728,1,8,0:0:0:0:
248,192,65895,1,0,0:0:0:0:
248,192,65978,1,0,0:0:0:0:
248,192,66061,1,8,0:0:0:0:
248,192,66228,1,8,0:0:0:0:
248,192,66395,1,0,0:0:0:0:
248,192,66561,1,8,0:0:0:0:
248,192,66645,1,8,0:0:0:0:
248,192,66728,1,0,0:0:0:0:
256,192,66895,1,0,0:0:0:0:
256,192,66950,1,0,0:0:0:0:
256,192,67006,1,0,0:0:0:0:
256,192,67061,1,8,0:0:0:0:
256,192,67228,1,0,0:0:0:0:
256,192,67395,1,8,0:0:0:0:
256,192,67478,1,8,0:0:0:0:
256,192,67561,1,0,0:0:0:0:
256,192,67645,1,0,0:0:0:0:
256,192,67728,1,8,0:0:0:0:
256,192,67784,1,8,0:0:0:0:
256,192,67839,1,8,0:0:0:0:
256,192,67895,1,0,0:0:0:0:
256,192,67978,1,0,0:0:0:0:
256,192,68061,1,8,0:0:0:0:
256,192,68228,1,0,0:0:0:0:
256,192,68395,1,8,0:0:0:0:
256,192,68561,1,8,0:0:0:0:
256,192,68728,1,0,0:0:0:0:
256,192,68811,1,0,0:0:0:0:
256,192,68895,1,0,0:0:0:0:
256,192,69061,1,12,0:0:0:0:
256,192,69395,1,0,0:0:0:0:
256,192,69478,1,0,0:0:0:0:
256,192,69561,1,0,0:0:0:0:
256,192,69645,1,0,0:0:0:0:
256,192,69728,1,8,0:0:0:0:
256,192,69811,1,8,0:0:0:0:
256,192,69895,1,0,0:0:0:0:
256,192,69978,1,8,0:0:0:0:
256,192,70061,1,0,0:0:0:0:
256,192,70145,1,0,0:0:0:0:
256,192,70228,1,8,0:0:0:0:
256,192,70311,1,8,0:0:0:0:
256,192,70395,1,0,0:0:0:0:
256,192,70478,1,0,0:0:0:0:
256,192,70561,1,8,0:0:0:0:
256,192,70645,1,0,0:0:0:0:
256,192,70728,1,8,0:0:0:0:
256,192,70811,1,8,0:0:0:0:
256,192,70895,1,0,0:0:0:0:
256,192,70978,1,0,0:0:0:0:
256,200,71061,1,8,0:0:0:0:
256,192,71145,1,0,0:0:0:0:
256,192,71228,1,8,0:0:0:0:
256,200,71311,1,0,0:0:0:0:
256,200,71395,1,8,0:0:0:0:
256,200,71478,1,8,0:0:0:0:
256,200,71561,1,8,0:0:0:0:
256,200,71645,1,8,0:0:0:0:
256,200,71728,1,0,0:0:0:0:
256,200,71811,1,0,0:0:0:0:
256,200,71895,1,8,0:0:0:0:
256,200,72061,1,4,0:0:0:0:
256,200,72561,1,0,0:0:0:0:
256,200,73061,1,0,0:0:0:0:
256,208,73561,1,0,0:0:0:0:
256,208,74061,1,0,0:0:0:0:
256,208,74395,1,0,0:0:0:0:
256,208,74728,1,0,0:0:0:0:
256,208,75228,1,0,0:0:0:0:
256,208,75728,1,0,0:0:0:0:
256,208,76228,1,0,0:0:0:0:
256,208,76728,1,0,0:0:0:0:
256,208,77061,1,0,0:0:0:0:
256,208,77395,1,8,0:0:0:0:
256,208,77895,1,8,0:0:0:0:
256,208,78395,1,8,0:0:0:0:
256,208,78895,1,8,0:0:0:0:
256,208,79395,1,8,0:0:0:0:
256,208,79728,1,8,0:0:0:0:
256,208,80061,1,8,0:0:0:0:
256,208,80561,1,8,0:0:0:0:
256,208,81061,1,8,0:0:0:0:
256,208,81228,1,4,0:0:0:0:
256,208,81561,1,4,0:0:0:0:
256,208,81895,1,4,0:0:0:0:
256,208,82228,1,0,0:0:0:0:
256,208,82395,1,8,0:0:0:0:
256,208,82561,1,8,0:0:0:0:
256,208,82728,1,4,0:0:0:0:
256,208,82895,1,0,0:0:0:0:
256,208,83061,1,8,0:0:0:0:
256,208,83228,1,8,0:0:0:0:
256,208,83311,1,8,0:0:0:0:
256,208,83395,1,0,0:0:0:0:
256,208,83561,1,0,0:0:0:0:
256,208,83728,1,8,0:0:0:0:
256,208,83895,1,0,0:0:0:0:
256,208,83978,1,8,0:0:0:0:
256,208,84061,1,0,0:0:0:0:
256,208,84145,1,0,0:0:0:0:
256,208,84228,1,8,0:0:0:0:
256,208,84395,1,8,0:0:0:0:
256,208,84561,1,0,0:0:0:0:
256,208,84645,1,8,0:0:0:0:
256,208,84811,1,8,0:0:0:0:
256,208,84895,1,0,0:0:0:0:
256,208,85061,1,8,0:0:0:0:
256,208,85228,1,0,0:0:0:0:
256,208,85311,1,0,0:0:0:0:
256,208,85395,1,0,0:0:0:0:
256,208,85561,1,0,0:0:0:0:
256,208,85728,1,8,0:0:0:0:
256,208,85895,1,8,0:0:0:0:
256,208,85978,1,0,0:0:0:0:
256,208,86061,1,0,0:0:0:0:
256,208,86228,1,0,0:0:0:0:
256,208,86395,1,8,0:0:0:0:
256,208,86561,1,8,0:0:0:0:
256,208,86645,1,8,0:0:0:0:
256,208,86728,1,0,0:0:0:0:
256,208,86811,1,8,0:0:0:0:
256,208,86895,1,0,0:0:0:0:
256,208,87061,1,8,0:0:0:0:
256,208,87228,1,8,0:0:0:0:
256,208,87311,1,0,0:0:0:0:
256,208,87478,1,0,0:0:0:0:
256,208,87561,1,8,0:0:0:0:
256,208,87728,1,0,0:0:0:0:
256,208,87895,1,0,0:0:0:0:
256,208,88061,1,8,0:0:0:0:
264,208,88228,1,0,0:0:0:0:
264,208,88311,1,0,0:0:0:0:
256,208,88395,1,8,0:0:0:0:
256,208,88561,1,0,0:0:0:0:
256,208,88728,1,8,0:0:0:0:
256,208,88811,1,0,0:0:0:0:
256,208,88978,1,0,0:0:0:0:
256,208,89061,1,8,0:0:0:0:
256,208,89228,1,0,0:0:0:0:
256,216,89395,1,8,0:0:0:0:
256,208,89561,1,0,0:0:0:0:
256,208,89728,1,8,0:0:0:0:
256,208,89811,1,8,0:0:0:0:
256,216,89895,1,0,0:0:0:0:
256,216,90061,1,8,0:0:0:0:
256,216,90145,1,0,0:0:0:0:
256,216,90311,1,0,0:0:0:0:
256,216,90395,1,8,0:0:0:0:
256,216,90561,1,8,0:0:0:0:
256,216,90728,1,0,0:0:0:0:
256,216,90895,1,8,0:0:0:0:
256,216,90978,1,0,0:0:0:0:
256,216,91061,1,8,0:0:0:0:
256,216,91228,1,8,0:0:0:0:
256,216,91395,1,0,0:0:0:0:
256,216,91561,1,8,0:0:0:0:
256,216,91645,1,8,0:0:0:0:
256,216,91728,1,0,0:0:0:0:
256,216,91895,1,8,0:0:0:0:
256,224,92061,1,0,0:0:0:0:
256,224,92145,1,0,0:0:0:0:
256,224,92228,1,8,0:0:0:0:
256,224,92395,1,8,0:0:0:0:
256,224,92478,1,8,0:0:0:0:
256,224,92561,1,0,0:0:0:0:
256,224,92645,1,0,0:0:0:0:
256,224,92728,1,8,0:0:0:0:
256,224,92811,1,8,0:0:0:0:
256,224,92895,1,0,0:0:0:0:
256,224,92978,1,8,0:0:0:0:
256,224,93061,1,0,0:0:0:0:
256,224,93145,1,0,0:0:0:0:
256,224,93228,1,0,0:0:0:0:
256,224,93311,1,0,0:0:0:0:
256,224,93395,1,8,0:0:0:0:
256,224,93561,1,0,0:0:0:0:
256,224,93645,1,8,0:0:0:0:
256,224,93728,1,0,0:0:0:0:
256,224,93811,1,0,0:0:0:0:
256,224,93895,1,8,0:0:0:0:
256,224,94061,1,0,0:0:0:0:
256,200,94145,1,8,0:0:0:0:
256,200,94311,1,8,0:0:0:0:
256,200,94395,1,0,0:0:0:0:
256,200,94561,1,0,0:0:0:0:
256,200,94645,1,8,0:0:0:0:
256,200,94728,1,0,0:0:0:0:
256,200,94811,1,0,0:0:0:0:
256,200,94895,1,8,0:0:0:0:
256,200,95061,1,0,0:0:0:0:
256,200,95145,1,8,0:0:0:0:
256,200,95311,1,8,0:0:0:0:
256,200,95395,1,0,0:0:0:0:
256,208,95561,1,8,0:0:0:0:
256,208,95645,1,0,0:0:0:0:
256,208,95728,1,0,0:0:0:0:
256,208,95895,1,8,0:0:0:0:
256,208,96061,1,0,0:0:0:0:
256,208,96145,1,0,0:0:0:0:
256,208,96228,1,8,0:0:0:0:
256,208,96311,1,0,0:0:0:0:
256,208,96395,1,8,0:0:0:0:
256,208,96478,1,8,0:0:0:0:
256,208,96561,1,0,0:0:0:0:
256,208,96645,1,0,0:0:0:0:
256,208,96728,1,8,0:0:0:0:
256,208,96811,1,0,0:0:0:0:
256,208,96895,1,8,0:0:0:0:
256,208,96978,1,8,0:0:0:0:
256,208,97061,1,0,0:0:0:0:
256,208,97145,1,0,0:0:0:0:
256,208,97228,1,8,0:0:0:0:
256,208,97311,1,8,0:0:0:0:
256,208,97395,1,0,0:0:0:0:
256,208,97561,1,8,0:0:0:0:
256,208,97728,1,0,0:0:0:0:
256,208,97895,1,8,0:0:0:0:
256,208,97978,1,8,0:0:0:0:
256,208,98061,1,8,0:0:0:0:
256,208,98228,1,8,0:0:0:0:
256,208,98395,1,0,0:0:0:0:
256,208,98478,1,8,0:0:0:0:
256,208,98561,1,0,0:0:0:0:
256,208,98728,1,0,0:0:0:0:
256,208,98811,1,0,0:0:0:0:
256,208,98978,1,0,0:0:0:0:
256,208,99061,1,8,0:0:0:0:
256,208,99228,1,8,0:0:0:0:
256,208,99311,1,8,0:0:0:0:
256,208,99395,1,0,0:0:0:0:
256,208,99561,1,8,0:0:0:0:
256,208,99728,1,0,0:0:0:0:
256,208,99811,1,0,0:0:0:0:
256,208,99895,1,8,0:0:0:0:
256,208,100061,1,0,0:0:0:0:
256,208,100228,1,0,0:0:0:0:
256,208,100311,1,8,0:0:0:0:
256,216,100478,1,8,0:0:0:0:
256,208,100561,1,0,0:0:0:0:
256,208,100645,1,0,0:0:0:0:
256,216,100728,1,8,0:0:0:0:
256,216,100895,1,0,0:0:0:0:
256,208,101061,1,0,0:0:0:0:
256,208,101145,1,0,0:0:0:0:
248,208,101228,1,8,0:0:0:0:
248,208,101311,1,0,0:0:0:0:
256,208,101395,1,0,0:0:0:0:
256,208,101478,1,0,0:0:0:0:
256,208,101561,1,8,0:0:0:0:
256,208,101728,1,0,0:0:0:0:
256,208,101811,1,0,0:0:0:0:
256,208,101895,1,8,0:0:0:0:
256,208,102061,1,0,0:0:0:0:
256,208,102145,1,8,0:0:0:0:
256,208,102228,1,8,0:0:0:0:
256,208,102395,1,0,0:0:0:0:
256,208,102478,1,8,0:0:0:0:
256,200,102561,1,8,0:0:0:0:
256,208,102645,1,8,0:0:0:0:
256,200,102728,1,0,0:0:0:0:
256,200,102811,1,0,0:0:0:0:
256,200,102895,1,0,0:0:0:0:
256,200,102978,1,0,0:0:0:0:
256,200,103061,1,8,0:0:0:0:
248,200,103228,1,8,0:0:0:0:
256,200,103311,1,8,0:0:0:0:
256,200,103395,1,0,0:0:0:0:
256,200,103561,1,8,0:0:0:0:
256,200,103645,1,0,0:0:0:0:
256,200,103728,1,0,0:0:0:0:
248,192,103895,1,8,0:0:0:0:
256,200,104061,1,4,0:0:0:0:
256,192,104228,1,8,0:0:0:0:
256,192,104395,1,0,0:0:0:0:
256,192,104478,1,0,0:0:0:0:
256,200,104561,1,8,0:0:0:0:
256,192,104728,1,0,0:0:0:0:
256,192,104811,1,0,0:0:0:0:
256,200,104895,1,8,0:0:0:0:
256,200,104978,1,0,0:0:0:0:
256,200,105145,1,8,0:0:0:0:
256,200,105228,1,0,0:0:0:0:
256,200,105311,1,0,0:0:0:0:
256,200,105395,1,8,0:0:0:0:
256,200,105561,1,8,0:0:0:0:
256,200,105645,1,0,0:0:0:0:
256,200,105728,1,0,0:0:0:0:
256,200,105895,1,0,0:0:0:0:
256,200,106061,1,8,0:0:0:0:
256,200,106145,1,8,0:0:0:0:
256,200,106228,1,0,0:0:0:0:
256,200,106311,1,8,0:0:0:0:
256,200,106478,1,0,0:0:0:0:
256,200,106561,1,8,0:0:0:0:
256,200,106645,1,8,0:0:0:0:
256,200,106728,1,0,0:0:0:0:
256,200,106895,1,0,0:0:0:0:
256,200,107061,1,8,0:0:0:0:
256,200,107145,1,8,0:0:0:0:
256,200,107228,1,0,0:0:0:0:
256,200,107395,1,8,0:0:0:0:
256,200,107478,1,0,0:0:0:0:
256,200,107561,1,0,0:0:0:0:
256,200,107645,1,8,0:0:0:0:
256,200,107811,1,0,0:0:0:0:
256,200,107895,1,0,0:0:0:0:
256,200,107978,1,0,0:0:0:0:
256,200,108061,1,8,0:0:0:0:
256,200,108228,1,0,0:0:0:0:
256,200,108311,1,0,0:0:0:0:
256,200,108395,1,8,0:0:0:0:
256,192,108561,1,0,0:0:0:0:
256,200,108645,1,0,0:0:0:0:
256,200,108728,1,8,0:0:0:0:
256,200,108895,1,0,0:0:0:0:
256,200,108978,1,8,0:0:0:0:
256,200,109145,1,0,0:0:0:0:
256,200,109228,1,8,0:0:0:0:
256,200,109311,1,8,0:0:0:0:
256,200,109395,1,0,0:0:0:0:
256,200,109561,1,8,0:0:0:0:
256,192,109728,1,0,0:0:0:0:
256,192,109811,1,0,0:0:0:0:
256,200,109894,1,8,0:0:0:0:
256,192,110061,1,0,0:0:0:0:
256,192,110144,1,0,0:0:0:0:
256,200,110228,1,8,0:0:0:0:
256,200,110311,1,0,0:0:0:0:
256,200,110478,1,8,0:0:0:0:
256,200,110561,1,0,0:0:0:0:
256,200,110644,1,0,0:0:0:0:
256,200,110728,1,8,0:0:0:0:
256,200,110894,1,8,0:0:0:0:
256,200,111061,1,0,0:0:0:0:
256,200,111144,1,0,0:0:0:0:
256,200,111228,1,0,0:0:0:0:
256,200,111394,1,8,0:0:0:0:
256,200,111478,1,8,0:0:0:0:
256,200,111561,1,0,0:0:0:0:
256,200,111645,1,8,0:0:0:0:
256,200,111811,1,8,0:0:0:0:
256,200,111895,1,0,0:0:0:0:
256,200,111978,1,0,0:0:0:0:
256,200,112061,1,8,0:0:0:0:
256,200,112228,1,0,0:0:0:0:
256,200,112394,1,8,0:0:0:0:
256,200,112478,1,8,0:0:0:0:
256,200,112561,1,0,0:0:0:0:
256,200,112728,1,8,0:0:0:0:
256,200,112811,1,0,0:0:0:0:
256,200,112895,1,0,0:0:0:0:
256,200,112978,1,8,0:0:0:0:
256,200,113061,1,0,0:0:0:0:
256,200,113145,1,0,0:0:0:0:
256,200,113228,1,8,0:0:0:0:
256,200,113311,1,8,0:0:0:0:
256,200,113395,1,0,0:0:0:0:
256,200,113561,1,0,0:0:0:0:
256,200,113644,1,0,0:0:0:0:
256,200,113728,1,8,0:0:0:0:
256,200,113895,1,8,0:0:0:0:
256,200,114061,1,0,0:0:0:0:
256,200,114228,1,8,0:0:0:0:
256,200,114311,1,0,0:0:0:0:
256,200,114478,1,8,0:0:0:0:
256,200,114561,1,0,0:0:0:0:
256,200,114728,1,4,0:0:0:0:
256,192,114895,1,8,0:0:0:0:
256,192,115062,1,0,0:0:0:0:
256,192,115145,1,0,0:0:0:0:
256,200,115228,1,8,0:0:0:0:
256,192,115395,1,0,0:0:0:0:
256,192,115478,1,0,0:0:0:0:
256,200,115562,1,8,0:0:0:0:
256,200,115645,1,0,0:0:0:0:
256,200,115812,1,8,0:0:0:0:
256,200,115895,1,0,0:0:0:0:
256,200,115978,1,0,0:0:0:0:
256,200,116062,1,8,0:0:0:0:
256,200,116228,1,8,0:0:0:0:
256,200,116395,1,0,0:0:0:0:
256,200,116478,1,0,0:0:0:0:
256,200,116562,1,0,0:0:0:0:
256,200,116728,1,8,0:0:0:0:
256,200,116812,1,8,0:0:0:0:
256,200,116895,1,0,0:0:0:0:
256,200,116978,1,8,0:0:0:0:
256,200,117145,1,0,0:0:0:0:
256,200,117228,1,8,0:0:0:0:
256,200,117312,1,8,0:0:0:0:
256,200,117395,1,0,0:0:0:0:
256,200,117562,1,0,0:0:0:0:
256,200,117728,1,8,0:0:0:0:
256,200,117812,1,8,0:0:0:0:
256,200,117895,1,0,0:0:0:0:
256,200,118062,1,8,0:0:0:0:
256,200,118145,1,0,0:0:0:0:
256,200,118228,1,0,0:0:0:0:
256,200,118311,1,8,0:0:0:0:
256,200,118478,1,0,0:0:0:0:
256,200,118562,1,0,0:0:0:0:
256,200,118645,1,8,0:0:0:0:
256,200,118728,1,8,0:0:0:0:
256,200,118895,1,0,0:0:0:0:
256,200,118978,1,0,0:0:0:0:
256,200,119062,1,8,0:0:0:0:
256,192,119228,1,0,0:0:0:0:
256,200,119312,1,0,0:0:0:0:
256,200,119395,1,8,0:0:0:0:
256,200,119562,1,0,0:0:0:0:
256,200,119645,1,8,0:0:0:0:
256,200,119812,1,0,0:0:0:0:
256,200,119895,1,8,0:0:0:0:
256,200,119978,1,8,0:0:0:0:
256,200,120061,1,8,0:0:0:0:
256,200,120228,1,0,0:0:0:0:
256,192,120395,1,0,0:0:0:0:
256,192,120478,1,0,0:0:0:0:
256,200,120561,1,8,0:0:0:0:
256,192,120728,1,0,0:0:0:0:
256,192,120811,1,0,0:0:0:0:
256,200,120895,1,8,0:0:0:0:
256,200,120978,1,0,0:0:0:0:
256,200,121145,1,8,0:0:0:0:
256,200,121228,1,0,0:0:0:0:
256,200,121311,1,0,0:0:0:0:
256,200,121395,1,8,0:0:0:0:
256,200,121561,1,8,0:0:0:0:
256,200,121728,1,0,0:0:0:0:
256,200,121811,1,0,0:0:0:0:
256,200,121895,1,0,0:0:0:0:
256,200,122061,1,8,0:0:0:0:
256,200,122145,1,8,0:0:0:0:
256,200,122228,1,0,0:0:0:0:
256,200,122311,1,0,0:0:0:0:
256,200,122478,1,0,0:0:0:0:
256,200,122562,1,8,0:0:0:0:
256,200,122645,1,8,0:0:0:0:
256,200,122728,1,0,0:0:0:0:
256,200,122895,1,0,0:0:0:0:
256,200,123061,1,8,0:0:0:0:
256,200,123145,1,8,0:0:0:0:
256,200,123228,1,0,0:0:0:0:
256,200,123395,1,8,0:0:0:0:
256,200,123561,1,0,0:0:0:0:
256,200,123644,1,8,0:0:0:0:
256,200,123811,1,8,0:0:0:0:
256,200,123894,1,0,0:0:0:0:
256,200,123978,1,0,0:0:0:0:
256,200,124062,1,8,0:0:0:0:
256,200,124228,1,0,0:0:0:0:
256,200,124311,1,0,0:0:0:0:
256,200,124395,1,8,0:0:0:0:
256,200,124562,1,8,0:0:0:0:
256,200,124728,1,4,0:0:0:0:
256,200,124978,1,4,0:0:0:0:
256,200,125228,1,12,0:0:0:0:
256,192,125561,12,0,126728,0:0:0:0:
256,192,137395,5,0,0:0:0:0:
256,192,137728,1,8,0:0:0:0:
256,192,137895,1,0,0:0:0:0:
256,192,138228,1,8,0:0:0:0:
256,192,138395,1,0,0:0:0:0:
256,192,138728,1,8,0:0:0:0:
256,192,138895,1,0,0:0:0:0:
256,192,139061,1,0,0:0:0:0:
256,192,139228,1,0,0:0:0:0:
256,192,139395,1,8,0:0:0:0:
256,192,139728,1,8,0:0:0:0:
256,192,140061,1,8,0:0:0:0:
256,192,140395,1,0,0:0:0:0:
256,192,140561,1,8,0:0:0:0:
256,192,140895,1,0,0:0:0:0:
256,192,141061,1,8,0:0:0:0:
256,192,141395,1,8,0:0:0:0:
256,192,141561,1,0,0:0:0:0:
256,192,141728,1,8,0:0:0:0:
256,192,141895,1,8,0:0:0:0:
256,192,142061,1,0,0:0:0:0:
256,192,142228,1,0,0:0:0:0:
256,192,142395,1,8,0:0:0:0:
256,192,142561,1,8,0:0:0:0:
256,192,142645,1,8,0:0:0:0:
256,192,142728,1,8,0:0:0:0:
256,192,143061,1,0,0:0:0:0:
256,192,143228,1,8,0:0:0:0:
256,192,143561,1,0,0:0:0:0:
256,192,143728,1,8,0:0:0:0:
256,192,144061,1,0,0:0:0:0:
256,192,144228,1,0,0:0:0:0:
256,192,144395,1,8,0:0:0:0:
256,192,144561,1,0,0:0:0:0:
256,192,144728,1,0,0:0:0:0:
248,192,144895,1,8,0:0:0:0:
248,192,145061,1,8,0:0:0:0:
256,192,145228,1,0,0:0:0:0:
256,192,145311,1,0,0:0:0:0:
256,192,145395,1,8,0:0:0:0:
256,192,145561,1,8,0:0:0:0:
256,192,145728,1,0,0:0:0:0:
256,192,145895,1,8,0:0:0:0:
256,192,146061,1,0,0:0:0:0:
256,192,146228,1,0,0:0:0:0:
256,192,146395,1,8,0:0:0:0:
256,192,146561,1,8,0:0:0:0:
256,192,146645,1,8,0:0:0:0:
256,192,146728,1,8,0:0:0:0:
248,192,146895,1,0,0:0:0:0:
256,192,147061,1,0,0:0:0:0:
256,192,147228,1,8,0:0:0:0:
256,192,147395,1,0,0:0:0:0:
256,192,147561,1,0,0:0:0:0:
256,192,147728,1,8,0:0:0:0:
256,192,148061,1,4,0:0:0:0:
256,200,148728,1,12,0:0:0:0:
256,200,149395,1,4,0:0:0:0:
256,200,149728,1,0,0:0:0:0:
256,200,150061,1,12,0:0:0:0:
256,200,150395,1,8,0:0:0:0:
256,200,150728,1,4,0:0:0:0:
256,200,151395,1,12,0:0:0:0:
256,200,152061,1,4,0:0:0:0:
256,200,152561,1,0,0:0:0:0:
256,200,152728,1,12,0:0:0:0:
256,192,152895,12,12,156728,0:0:0:0:
256,192,157395,5,0,0:0:0:0:
256,192,157728,1,0,0:0:0:0:
256,192,157895,1,8,0:0:0:0:
256,192,158228,1,8,0:0:0:0:
256,200,158728,1,4,0:0:0:0:
256,200,159228,1,0,0:0:0:0:
256,200,159728,1,0,0:0:0:0:
256,208,160228,1,0,0:0:0:0:
256,208,160728,1,0,0:0:0:0:
256,208,161062,1,0,0:0:0:0:
256,208,161395,1,0,0:0:0:0:
256,208,161895,1,0,0:0:0:0:
256,208,162395,1,0,0:0:0:0:
256,208,162895,1,0,0:0:0:0:
256,208,163395,1,0,0:0:0:0:
256,208,163728,1,0,0:0:0:0:
256,208,164062,1,8,0:0:0:0:
256,208,164562,1,8,0:0:0:0:
256,208,165062,1,8,0:0:0:0:
256,208,165562,1,8,0:0:0:0:
256,208,166062,1,8,0:0:0:0:
256,208,166395,1,8,0:0:0:0:
256,208,166728,5,8,0:0:0:0:
256,208,167228,1,8,0:0:0:0:
256,208,167728,1,8,0:0:0:0:
256,192,167895,5,12,0:0:0:0:
256,192,168228,1,12,0:0:0:0:
256,192,168561,1,12,0:0:0:0:
256,208,168895,1,0,0:0:0:0:
256,208,169062,1,8,0:0:0:0:
256,208,169395,1,4,0:0:0:0:
256,208,169562,1,0,0:0:0:0:
256,208,169728,1,8,0:0:0:0:
256,208,169895,1,8,0:0:0:0:
256,208,169978,1,8,0:0:0:0:
256,208,170062,1,0,0:0:0:0:
256,208,170228,1,0,0:0:0:0:
256,208,170395,1,8,0:0:0:0:
256,208,170561,1,0,0:0:0:0:
256,208,170645,1,0,0:0:0:0:
256,208,170728,1,8,0:0:0:0:
256,208,170812,1,0,0:0:0:0:
256,208,170895,1,8,0:0:0:0:
256,208,171062,1,8,0:0:0:0:
256,208,171228,1,0,0:0:0:0:
256,208,171312,1,8,0:0:0:0:
256,208,171478,1,8,0:0:0:0:
256,208,171562,1,0,0:0:0:0:
256,208,171728,1,8,0:0:0:0:
256,208,171895,1,0,0:0:0:0:
256,208,171978,1,0,0:0:0:0:
256,208,172062,1,0,0:0:0:0:
256,208,172228,1,0,0:0:0:0:
256,208,172395,1,8,0:0:0:0:
256,208,172562,1,8,0:0:0:0:
256,208,172645,1,0,0:0:0:0:
256,208,172728,1,0,0:0:0:0:
256,208,172895,1,0,0:0:0:0:
256,208,173062,1,8,0:0:0:0:
256,208,173228,1,8,0:0:0:0:
256,208,173312,1,8,0:0:0:0:
256,208,173395,1,0,0:0:0:0:
256,208,173478,1,8,0:0:0:0:
256,208,173562,1,0,0:0:0:0:
256,208,173728,1,8,0:0:0:0:
256,208,173895,1,8,0:0:0:0:
256,208,173978,1,0,0:0:0:0:
256,208,174145,1,0,0:0:0:0:
256,208,174228,1,8,0:0:0:0:
256,208,174395,1,0,0:0:0:0:
256,208,174562,1,0,0:0:0:0:
256,208,174728,1,8,0:0:0:0:
256,208,174895,1,8,0:0:0:0:
256,208,174978,1,8,0:0:0:0:
256,208,175062,1,0,0:0:0:0:
256,208,175228,1,0,0:0:0:0:
256,208,175395,1,8,0:0:0:0:
256,208,175478,1,0,0:0:0:0:
256,208,175645,1,0,0:0:0:0:
256,208,175728,1,8,0:0:0:0:
256,208,175895,1,0,0:0:0:0:
256,216,176062,1,8,0:0:0:0:
256,208,176228,1,8,0:0:0:0:
256,208,176311,1,8,0:0:0:0:
256,208,176395,1,0,0:0:0:0:
256,208,176478,1,0,0:0:0:0:
256,216,176562,1,8,0:0:0:0:
256,216,176728,1,8,0:0:0:0:
256,216,176811,1,0,0:0:0:0:
256,216,176978,1,0,0:0:0:0:
256,216,177061,1,8,0:0:0:0:
256,216,177228,1,8,0:0:0:0:
256,216,177395,1,0,0:0:0:0:
256,216,177478,1,0,0:0:0:0:
256,216,177562,1,0,0:0:0:0:
256,216,177645,1,0,0:0:0:0:
256,216,177728,1,8,0:0:0:0:
256,216,177895,1,8,0:0:0:0:
256,216,178062,1,0,0:0:0:0:
256,216,178228,1,8,0:0:0:0:
256,216,178312,1,8,0:0:0:0:
256,216,178395,1,8,0:0:0:0:
256,216,178562,1,8,0:0:0:0:
256,224,178728,1,0,0:0:0:0:
256,224,178812,1,0,0:0:0:0:
256,224,178895,1,8,0:0:0:0:
256,224,178978,1,0,0:0:0:0:
256,224,179062,1,8,0:0:0:0:
256,224,179145,1,8,0:0:0:0:
256,224,179228,1,0,0:0:0:0:
256,224,179312,1,0,0:0:0:0:
256,224,179395,1,8,0:0:0:0:
256,224,179478,1,8,0:0:0:0:
256,224,179562,1,0,0:0:0:0:
256,224,179645,1,8,0:0:0:0:
256,224,179728,1,0,0:0:0:0:
256,224,179812,1,0,0:0:0:0:
256,224,179895,1,0,0:0:0:0:
256,224,179978,1,0,0:0:0:0:
256,224,180062,1,8,0:0:0:0:
256,224,180228,1,0,0:0:0:0:
256,224,180312,1,8,0:0:0:0:
256,224,180395,1,0,0:0:0:0:
256,224,180478,1,0,0:0:0:0:
256,224,180562,1,8,0:0:0:0:
256,224,180728,1,0,0:0:0:0:
256,200,180811,1,8,0:0:0:0:
256,200,180978,1,8,0:0:0:0:
256,200,181061,1,0,0:0:0:0:
256,192,181228,1,0,0:0:0:0:
256,192,181311,1,8,0:0:0:0:
256,192,181395,1,0,0:0:0:0:
256,200,181478,1,0,0:0:0:0:
256,200,181562,1,8,0:0:0:0:
256,200,181728,1,0,0:0:0:0:
256,200,181811,1,8,0:0:0:0:
256,200,181978,1,8,0:0:0:0:
256,200,182061,1,0,0:0:0:0:
256,208,182228,1,8,0:0:0:0:
256,208,182311,1,0,0:0:0:0:
256,208,182395,1,0,0:0:0:0:
256,208,182561,1,8,0:0:0:0:
256,208,182728,1,0,0:0:0:0:
256,208,182812,1,0,0:0:0:0:
256,208,182895,1,8,0:0:0:0:
256,208,182978,1,0,0:0:0:0:
256,208,183062,1,8,0:0:0:0:
256,208,183145,1,8,0:0:0:0:
256,208,183229,1,0,0:0:0:0:
256,208,183311,1,8,0:0:0:0:
256,208,183395,1,0,0:0:0:0:
256,208,183479,1,0,0:0:0:0:
256,208,183562,1,8,0:0:0:0:
256,208,183645,1,0,0:0:0:0:
256,208,183729,1,8,0:0:0:0:
256,208,183811,1,8,0:0:0:0:
256,208,183895,1,0,0:0:0:0:
256,208,183978,1,0,0:0:0:0:
256,208,184061,1,8,0:0:0:0:
256,208,184228,1,0,0:0:0:0:
256,208,184395,1,8,0:0:0:0:
256,208,184562,1,0,0:0:0:0:
256,208,184645,1,8,0:0:0:0:
256,208,184728,1,0,0:0:0:0:
256,208,184895,1,8,0:0:0:0:
256,208,185062,1,0,0:0:0:0:
256,208,185145,1,8,0:0:0:0:
256,208,185228,1,8,0:0:0:0:
256,208,185395,1,0,0:0:0:0:
256,208,185478,1,0,0:0:0:0:
256,208,185645,1,0,0:0:0:0:
256,208,185728,1,8,0:0:0:0:
256,208,185895,1,8,0:0:0:0:
256,208,185978,1,8,0:0:0:0:
256,208,186061,1,0,0:0:0:0:
256,208,186228,1,8,0:0:0:0:
256,208,186395,1,0,0:0:0:0:
256,208,186478,1,0,0:0:0:0:
256,208,186562,1,8,0:0:0:0:
256,208,186728,1,0,0:0:0:0:
256,208,186895,1,0,0:0:0:0:
256,208,186978,1,8,0:0:0:0:
256,208,187145,1,0,0:0:0:0:
256,208,187228,1,8,0:0:0:0:
256,208,187311,1,8,0:0:0:0:
256,208,187395,1,0,0:0:0:0:
256,208,187561,1,8,0:0:0:0:
256,208,187728,1,0,0:0:0:0:
256,208,187811,1,0,0:0:0:0:
256,208,187895,1,8,0:0:0:0:
256,216,188061,1,8,0:0:0:0:
256,208,188144,1,0,0:0:0:0:
256,208,188228,1,8,0:0:0:0:
256,200,188394,1,0,0:0:0:0:
256,200,188478,1,0,0:0:0:0:
256,200,188561,1,8,0:0:0:0:
256,200,188728,1,0,0:0:0:0:
256,200,188811,1,8,0:0:0:0:
256,200,188895,1,8,0:0:0:0:
248,200,189061,1,0,0:0:0:0:
248,200,189145,1,0,0:0:0:0:
256,200,189228,1,8,0:0:0:0:
256,200,189312,1,8,0:0:0:0:
256,200,189395,1,0,0:0:0:0:
256,200,189478,1,0,0:0:0:0:
256,200,189562,1,0,0:0:0:0:
256,200,189645,1,0,0:0:0:0:
256,200,189728,1,8,0:0:0:0:
248,200,189895,1,8,0:0:0:0:
256,200,189978,1,8,0:0:0:0:
256,200,190062,1,0,0:0:0:0:
256,200,190228,1,8,0:0:0:0:
256,200,190311,1,0,0:0:0:0:
264,192,190395,1,8,0:0:0:0:
256,192,190478,1,8,0:0:0:0:
248,192,190561,1,0,0:0:0:0:
256,192,190645,1,0,0:0:0:0:
256,192,192061,1,8,0:0:0:0:
256,192,192395,1,8,0:0:0:0:
256,192,192561,1,8,0:0:0:0:
256,192,192645,1,8,0:0:0:0:
256,192,192728,1,0,0:0:0:0:
256,192,192895,1,8,0:0:0:0:
256,192,192978,1,0,0:0:0:0:
256,192,193061,1,0,0:0:0:0:
256,192,193145,1,0,0:0:0:0:
256,192,193228,1,8,0:0:0:0:
256,200,193395,1,4,0:0:0:0:
256,192,193562,1,8,0:0:0:0:
256,192,193729,1,0,0:0:0:0:
256,192,193812,1,0,0:0:0:0:
256,200,193895,1,8,0:0:0:0:
256,192,194062,1,0,0:0:0:0:
256,192,194145,1,0,0:0:0:0:
256,200,194229,1,8,0:0:0:0:
256,200,194312,1,0,0:0:0:0:
256,200,194479,1,8,0:0:0:0:
256,200,194562,1,0,0:0:0:0:
256,200,194645,1,0,0:0:0:0:
256,200,194729,1,8,0:0:0:0:
256,200,194895,1,8,0:0:0:0:
256,200,195062,1,0,0:0:0:0:
256,200,195145,1,0,0:0:0:0:
256,200,195229,1,0,0:0:0:0:
256,200,195395,1,8,0:0:0:0:
256,200,195479,1,8,0:0:0:0:
256,200,195562,1,0,0:0:0:0:
256,200,195645,1,8,0:0:0:0:
256,200,195812,1,0,0:0:0:0:
256,200,195895,1,8,0:0:0:0:
256,200,195979,1,8,0:0:0:0:
256,200,196062,1,0,0:0:0:0:
256,200,196229,1,0,0:0:0:0:
256,200,196395,1,8,0:0:0:0:
256,200,196479,1,8,0:0:0:0:
256,200,196562,1,0,0:0:0:0:
256,200,196729,1,8,0:0:0:0:
256,200,196812,1,0,0:0:0:0:
256,200,196895,1,0,0:0:0:0:
256,200,196979,1,8,0:0:0:0:
256,200,197145,1,0,0:0:0:0:
256,200,197229,1,0,0:0:0:0:
256,200,197312,1,0,0:0:0:0:
256,200,197395,1,8,0:0:0:0:
256,200,197562,1,0,0:0:0:0:
256,200,197645,1,0,0:0:0:0:
256,200,197729,1,8,0:0:0:0:
256,192,197895,1,0,0:0:0:0:
256,200,197979,1,0,0:0:0:0:
256,200,198062,1,8,0:0:0:0:
256,200,198229,1,0,0:0:0:0:
256,200,198312,1,8,0:0:0:0:
256,200,198479,1,0,0:0:0:0:
256,200,198562,1,8,0:0:0:0:
256,200,198645,1,8,0:0:0:0:
256,200,198729,1,0,0:0:0:0:
256,200,198895,1,8,0:0:0:0:
256,192,199062,1,0,0:0:0:0:
256,192,199145,1,0,0:0:0:0:
256,200,199228,1,8,0:0:0:0:
256,192,199395,1,0,0:0:0:0:
256,192,199478,1,0,0:0:0:0:
256,200,199562,1,8,0:0:0:0:
256,200,199645,1,0,0:0:0:0:
256,200,199812,1,8,0:0:0:0:
256,200,199895,1,0,0:0:0:0:
256,200,199978,1,0,0:0:0:0:
256,200,200062,1,8,0:0:0:0:
256,200,200228,1,8,0:0:0:0:
256,200,200395,1,0,0:0:0:0:
256,200,200478,1,0,0:0:0:0:
256,200,200562,1,0,0:0:0:0:
256,200,200728,1,8,0:0:0:0:
256,200,200812,1,8,0:0:0:0:
256,200,200895,1,0,0:0:0:0:
256,200,200979,1,8,0:0:0:0:
256,200,201145,1,8,0:0:0:0:
256,200,201229,1,0,0:0:0:0:
256,200,201312,1,0,0:0:0:0:
256,200,201395,1,8,0:0:0:0:
256,200,201562,1,0,0:0:0:0:
256,200,201645,1,8,0:0:0:0:
256,200,201728,1,8,0:0:0:0:
256,200,201895,1,0,0:0:0:0:
256,200,202062,1,8,0:0:0:0:
256,200,202145,1,0,0:0:0:0:
256,200,202229,1,0,0:0:0:0:
256,200,202312,1,8,0:0:0:0:
256,200,202395,1,0,0:0:0:0:
256,200,202479,1,0,0:0:0:0:
256,200,202562,1,8,0:0:0:0:
256,200,202645,1,8,0:0:0:0:
256,200,202729,1,0,0:0:0:0:
256,200,202895,1,0,0:0:0:0:
256,200,202978,1,0,0:0:0:0:
256,200,203062,1,8,0:0:0:0:
256,200,203229,1,8,0:0:0:0:
256,200,203395,1,0,0:0:0:0:
256,200,203562,1,8,0:0:0:0:
256,200,203645,1,0,0:0:0:0:
256,200,203812,1,8,0:0:0:0:
256,200,203895,1,0,0:0:0:0:
256,200,204062,1,4,0:0:0:0:
256,192,204229,1,8,0:0:0:0:
256,192,204396,1,0,0:0:0:0:
256,192,204479,1,0,0:0:0:0:
256,200,204562,1,8,0:0:0:0:
256,192,204729,1,0,0:0:0:0:
256,192,204812,1,0,0:0:0:0:
256,200,204896,1,8,0:0:0:0:
256,200,204979,1,0,0:0:0:0:
256,200,205146,1,8,0:0:0:0:
256,200,205229,1,0,0:0:0:0:
256,200,205312,1,0,0:0:0:0:
256,200,205396,1,8,0:0:0:0:
256,200,205562,1,8,0:0:0:0:
256,200,205729,1,0,0:0:0:0:
256,200,205812,1,0,0:0:0:0:
256,200,205896,1,0,0:0:0:0:
256,200,206062,1,8,0:0:0:0:
256,200,206146,1,8,0:0:0:0:
256,200,206229,1,0,0:0:0:0:
256,200,206312,1,8,0:0:0:0:
256,200,206479,1,0,0:0:0:0:
256,200,206562,1,8,0:0:0:0:
256,200,206646,1,8,0:0:0:0:
256,200,206729,1,0,0:0:0:0:
256,200,206896,1,0,0:0:0:0:
256,200,207062,1,8,0:0:0:0:
256,200,207146,1,8,0:0:0:0:
256,200,207229,1,0,0:0:0:0:
256,200,207396,1,8,0:0:0:0:
256,200,207479,1,0,0:0:0:0:
256,200,207562,1,0,0:0:0:0:
256,200,207645,1,8,0:0:0:0:
256,200,207812,1,0,0:0:0:0:
256,200,207896,1,0,0:0:0:0:
256,200,207979,1,8,0:0:0:0:
256,200,208062,1,8,0:0:0:0:
256,200,208229,1,0,0:0:0:0:
256,200,208312,1,0,0:0:0:0:
256,200,208396,1,8,0:0:0:0:
256,192,208562,1,0,0:0:0:0:
256,200,208646,1,0,0:0:0:0:
256,200,208729,1,8,0:0:0:0:
256,200,208896,1,0,0:0:0:0:
256,200,208979,1,8,0:0:0:0:
256,200,209146,1,0,0:0:0:0:
256,200,209229,1,8,0:0:0:0:
256,200,209312,1,8,0:0:0:0:
256,200,209395,1,8,0:0:0:0:
256,200,209562,1,0,0:0:0:0:
256,192,209729,1,0,0:0:0:0:
256,192,209812,1,0,0:0:0:0:
256,200,209895,1,8,0:0:0:0:
256,192,210062,1,0,0:0:0:0:
256,192,210145,1,0,0:0:0:0:
256,200,210229,1,8,0:0:0:0:
256,200,210312,1,0,0:0:0:0:
256,200,210479,1,8,0:0:0:0:
256,200,210562,1,0,0:0:0:0:
256,200,210645,1,0,0:0:0:0:
256,200,210729,1,8,0:0:0:0:
256,200,210895,1,8,0:0:0:0:
256,200,211062,1,0,0:0:0:0:
256,200,211145,1,0,0:0:0:0:
256,200,211229,1,0,0:0:0:0:
256,200,211395,1,8,0:0:0:0:
256,200,211479,1,8,0:0:0:0:
256,200,211562,1,0,0:0:0:0:
256,200,211645,1,0,0:0:0:0:
256,200,211812,1,0,0:0:0:0:
256,200,211896,1,8,0:0:0:0:
256,200,211979,1,8,0:0:0:0:
256,200,212062,1,0,0:0:0:0:
256,200,212229,1,0,0:0:0:0:
256,200,212395,1,8,0:0:0:0:
256,200,212479,1,8,0:0:0:0:
256,200,212562,1,0,0:0:0:0:
256,200,212729,1,8,0:0:0:0:
256,200,212895,1,0,0:0:0:0:
256,200,212978,1,8,0:0:0:0:
256,200,213145,1,8,0:0:0:0:
256,200,213228,1,0,0:0:0:0:
256,200,213312,1,0,0:0:0:0:
256,200,213396,1,8,0:0:0:0:
256,200,213562,1,0,0:0:0:0:
256,200,213645,1,0,0:0:0:0:
256,200,213729,1,8,0:0:0:0:
256,200,213896,1,8,0:0:0:0:
256,200,214062,1,4,0:0:0:0:
256,200,214312,1,4,0:0:0:0:
256,200,214562,1,12,0:0:0:0:
256,200,215061,1,4,0:0:0:0:
256,200,215228,1,8,0:0:0:0:
256,200,215311,1,8,0:0:0:0:
256,200,215395,1,0,0:0:0:0:
256,200,215561,1,8,0:0:0:0:
256,200,215728,1,0,0:0:0:0:
256,200,215895,1,8,0:0:0:0:
256,200,215978,1,8,0:0:0:0:
256,200,216061,1,0,0:0:0:0:
256,200,216145,1,8,0:0:0:0:
256,200,216228,1,0,0:0:0:0:
256,200,216395,1,8,0:0:0:0:
256,200,216561,1,8,0:0:0:0:
256,200,216645,1,8,0:0:0:0:
256,200,216728,1,0,0:0:0:0:
256,200,216895,1,8,0:0:0:0:
256,200,217061,1,0,0:0:0:0:
256,200,217228,1,0,0:0:0:0:
256,200,217311,1,8,0:0:0:0:
256,200,217395,1,0,0:0:0:0:
256,200,217478,1,0,0:0:0:0:
256,200,217561,1,8,0:0:0:0:
256,200,217728,1,0,0:0:0:0:
256,200,217811,1,0,0:0:0:0:
256,200,217895,1,8,0:0:0:0:
256,200,218061,1,0,0:0:0:0:
256,200,218228,1,8,0:0:0:0:
256,200,218311,1,8,0:0:0:0:
256,200,218395,1,0,0:0:0:0:
256,200,218561,1,8,0:0:0:0:
256,200,218728,1,0,0:0:0:0:
256,200,218811,1,0,0:0:0:0:
256,200,218895,1,8,0:0:0:0:
256,200,218978,1,0,0:0:0:0:
256,200,219061,1,0,0:0:0:0:
256,200,219228,1,8,0:0:0:0:
256,200,219395,1,0,0:0:0:0:
256,200,219561,1,8,0:0:0:0:
256,200,219645,1,8,0:0:0:0:
256,200,219728,1,0,0:0:0:0:
256,200,219895,1,8,0:0:0:0:
256,200,220061,1,0,0:0:0:0:
256,200,220228,1,8,0:0:0:0:
256,200,220311,1,8,0:0:0:0:
256,200,220395,1,0,0:0:0:0:
256,200,220478,1,8,0:0:0:0:
256,200,220561,1,8,0:0:0:0:
256,200,220728,1,0,0:0:0:0:
256,200,220895,1,8,0:0:0:0:
256,192,220978,1,8,0:0:0:0:
256,200,221061,1,0,0:0:0:0:
256,192,221145,1,0,0:0:0:0:
256,200,221228,1,8,0:0:0:0:
256,200,221395,1,0,0:0:0:0:
256,200,221478,1,0,0:0:0:0:
264,200,221561,1,8,0:0:0:0:
256,200,221728,1,0,0:0:0:0:
256,192,221895,1,8,0:0:0:0:
256,200,221978,1,8,0:0:0:0:
256,200,222061,1,0,0:0:0:0:
256,200,222228,1,8,0:0:0:0:
256,208,222395,1,0,0:0:0:0:
256,208,222561,1,8,0:0:0:0:
256,208,222645,1,8,0:0:0:0:
256,208,222728,1,8,0:0:0:0:
256,208,222895,1,8,0:0:0:0:
256,208,223061,1,0,0:0:0:0:
256,208,223228,1,8,0:0:0:0:
256,208,223395,1,0,0:0:0:0:
256,208,223561,1,8,0:0:0:0:
256,208,223728,1,0,0:0:0:0:
256,208,223811,1,0,0:0:0:0:
256,208,223895,1,8,0:0:0:0:
256,208,224061,1,0,0:0:0:0:
256,208,224395,1,8,0:0:0:0:
256,208,224561,1,8,0:0:0:0:
248,208,224645,1,0,0:0:0:0:
256,208,224728,1,0,0:0:0:0:
256,208,224895,1,0,0:0:0:0:
256,208,225061,1,8,0:0:0:0:
256,208,225145,1,8,0:0:0:0:
256,208,225228,1,0,0:0:0:0:
256,208,225311,1,0,0:0:0:0:
256,208,225395,1,8,0:0:0:0:
256,208,225561,1,8,0:0:0:0:
256,208,225728,1,0,0:0:0:0:
256,208,226061,1,0,0:0:0:0:
256,208,226395,1,0,0:0:0:0:
256,208,226728,1,0,0:0:0:0:
256,208,227061,1,0,0:0:0:0:
256,208,227395,1,0,0:0:0:0:
256,208,227728,1,0,0:0:0:0:
256,208,227895,1,0,0:0:0:0:
256,208,227978,1,0,0:0:0:0:
256,208,228061,1,8,0:0:0:0:
256,208,228145,1,0,0:0:0:0:
256,208,228228,1,8,0:0:0:0:
256,208,228395,1,0,0:0:0:0:
256,208,228478,1,8,0:0:0:0:
256,208,228561,1,0,0:0:0:0:
256,208,228895,1,0,0:0:0:0:
256,208,229061,1,0,0:0:0:0:
256,208,229145,1,0,0:0:0:0:
256,208,229228,1,8,0:0:0:0:
256,208,229311,1,0,0:0:0:0:
256,208,229395,1,8,0:0:0:0:
256,208,229478,1,8,0:0:0:0:
256,208,229561,1,0,0:0:0:0:
256,208,229727,1,0,0:0:0:0:
256,208,229895,1,0,0:0:0:0:
256,208,230228,1,0,0:0:0:0:
256,208,230561,1,0,0:0:0:0:
256,208,230895,1,0,0:0:0:0:
256,208,231228,1,0,0:0:0:0:
256,208,231561,1,0,0:0:0:0:
256,208,231895,1,0,0:0:0:0:
256,208,232228,1,0,0:0:0:0:
256,208,232561,1,0,0:0:0:0:
256,208,232895,1,0,0:0:0:0:
256,208,233228,1,0,0:0:0:0:
256,200,233561,1,0,0:0:0:0:
256,200,233895,1,0,0:0:0:0:
256,200,234228,1,0,0:0:0:0:
256,200,234561,1,0,0:0:0:0:
256,200,234895,1,0,0:0:0:0:
256,200,235228,1,0,0:0:0:0:
256,200,235561,1,0,0:0:0:0:
256,200,235895,1,0,0:0:0:0:
