osu file format v14

[General]
AudioFilename: audio.mp3
AudioLeadIn: 0
PreviewTime: 82673
Countdown: 0
SampleSet: Normal
StackLeniency: 0.7
Mode: 1
LetterboxInBreaks: 0
WidescreenStoryboard: 1

[Editor]
Bookmarks: 10728,21395,34728,45395,56061,126728
DistanceSpacing: 1
BeatDivisor: 4
GridSize: 8
TimelineZoom: 1.7

[Metadata]
Title:COLORFUL DAYS!! (Epsilon Remix)
TitleUnicode:COLORFUL DAYS!! (Epsilon Remix)
Artist:Ceui
ArtistUnicode:Ceui
Creator:Pafeeeeb
Version:[-E S I A-]'s Muzukashii
Source:いろとりどりのヒカリ
Tags:E_S_I_A [-E_S_I_A-] ESIA [-ESIA-] Irotoridori no Hikari ending ed favorite irohika Yamamoto Mineko 山本 美禰子 Odaka Kotaro 小高 光太郎 visual novel eroge video game japanese pop jpop j-pop colourful electronic jcore j-core
BeatmapID:4487853
BeatmapSetID:2094730

[Difficulty]
HPDrainRate:6
CircleSize:2
OverallDifficulty:5
ApproachRate:10
SliderMultiplier:1.4
SliderTickRate:1

[Events]
//Background and Video events
0,0,"hikari.jpg",0,0
//Break Periods
2,21595,31611
2,126928,136945
2,158928,167445
//Storyboard Layer 0 (Background)
//Storyboard Layer 1 (Fail)
//Storyboard Layer 2 (Pass)
//Storyboard Layer 3 (Foreground)
//Storyboard Layer 4 (Overlay)
//Storyboard Sound Samples

[TimingPoints]
62,333.333333333333,4,1,0,60,1,0
10311,-100,4,1,0,70,0,0
10645,-100,4,1,0,80,0,0
21561,-100,4,1,0,60,0,0
31978,-100,4,1,0,70,0,0
34728,-100,4,1,0,80,0,0
72478,-100,4,1,0,60,0,0
81145,-100,4,1,0,80,0,0
82728,-100,4,1,0,90,0,1
102728,-100,4,1,0,90,0,0
104061,-100,4,1,0,90,0,1
125228,-100,4,1,0,90,0,0
126895,-100,4,1,0,60,0,0
137311,-100,4,1,0,60,0,0
147978,-100,4,1,0,70,0,0
158728,-100,4,1,0,80,0,0
158895,-100,4,1,0,60,0,0
167811,-100,4,1,0,80,0,0
169395,-100,4,1,0,90,0,1
189395,-100,4,1,0,90,0,0
191895,-100,4,1,0,80,0,0
193395,-100,4,1,0,90,0,1
214561,-100,4,1,0,80,0,0
225728,-100,4,1,0,70,0,0

[HitObjects]
256,192,62,5,12,0:0:0:0:
248,192,728,1,0,0:0:0:0:
248,192,1395,1,0,0:0:0:0:
248,200,1728,1,0,0:0:0:0:
248,200,2061,1,0,0:0:0:0:
324,132,2395,1,0,0:0:0:0:
248,200,2728,1,0,0:0:0:0:
248,200,3395,1,0,0:0:0:0:
248,200,4061,1,0,0:0:0:0:
248,200,4228,1,8,0:0:0:0:
310,116,4561,1,8,0:0:0:0:
226,195,4728,1,0,0:0:0:0:
248,200,4895,1,8,0:0:0:0:
248,208,5228,1,8,0:0:0:0:
256,200,5395,1,0,0:0:0:0:
256,200,6061,1,0,0:0:0:0:
256,200,6728,1,0,0:0:0:0:
256,200,7061,1,0,0:0:0:0:
256,200,7395,1,0,0:0:0:0:
256,200,7728,1,0,0:0:0:0:
256,200,8061,1,0,0:0:0:0:
256,200,8728,1,0,0:0:0:0:
256,200,9395,1,0,0:0:0:0:
256,200,9728,1,0,0:0:0:0:
256,200,10061,1,0,0:0:0:0:
256,200,10395,1,8,0:0:0:0:
256,200,10728,1,4,0:0:0:0:
256,200,11061,1,8,0:0:0:0:
256,200,11228,1,8,0:0:0:0:
256,200,11395,1,0,0:0:0:0:
256,200,11728,1,0,0:0:0:0:
256,200,11895,1,8,0:0:0:0:
256,200,11978,1,8,0:0:0:0:
256,200,12061,1,8,0:0:0:0:
256,200,12228,1,0,0:0:0:0:
256,200,12395,1,8,0:0:0:0:
256,200,12561,1,0,0:0:0:0:
256,200,12895,1,0,0:0:0:0:
256,200,13061,1,8,0:0:0:0:
256,200,13395,1,0,0:0:0:0:
256,200,13728,1,8,0:0:0:0:
256,208,14061,1,0,0:0:0:0:
256,208,14228,1,8,0:0:0:0:
248,200,14561,1,8,0:0:0:0:
248,200,14728,1,0,0:0:0:0:
248,200,14895,1,8,0:0:0:0:
248,200,15228,1,0,0:0:0:0:
256,200,15311,1,0,0:0:0:0:
248,200,15395,1,0,0:0:0:0:
256,200,15561,1,8,0:0:0:0:
263,271,15728,1,0,0:0:0:0:
256,200,16061,1,8,0:0:0:0:
256,200,16395,1,0,0:0:0:0:
256,200,16561,1,0,0:0:0:0:
256,200,16728,1,8,0:0:0:0:
256,200,17061,1,8,0:0:0:0:
256,200,17228,1,0,0:0:0:0:
256,200,17311,1,0,0:0:0:0:
256,200,17395,1,0,0:0:0:0:
256,200,17561,1,8,0:0:0:0:
256,200,17728,1,0,0:0:0:0:
256,200,17895,1,8,0:0:0:0:
256,200,18228,1,8,0:0:0:0:
256,200,18395,1,0,0:0:0:0:
256,200,18728,1,0,0:0:0:0:
256,200,19061,1,8,0:0:0:0:
256,200,19395,1,0,0:0:0:0:
256,200,19728,1,8,0:0:0:0:
256,200,19895,1,8,0:0:0:0:
256,200,20061,1,0,0:0:0:0:
256,200,20228,1,8,0:0:0:0:
256,200,20395,1,8,0:0:0:0:
256,200,20561,1,0,0:0:0:0:
256,208,20728,1,8,0:0:0:0:
257,209,20895,1,0,0:0:0:0:
281,233,20978,1,0,0:0:0:0:
248,200,21061,1,0,0:0:0:0:
248,200,21395,1,12,0:0:0:0:
248,192,32061,5,0,0:0:0:0:
256,192,32728,1,8,0:0:0:0:
256,192,33395,1,0,0:0:0:0:
256,192,33561,1,0,0:0:0:0:
256,192,33728,1,8,0:0:0:0:
256,192,33895,1,0,0:0:0:0:
256,192,33978,1,0,0:0:0:0:
256,192,34061,1,0,0:0:0:0:
256,192,34395,1,8,0:0:0:0:
256,192,34728,1,4,0:0:0:0:
256,192,35061,1,8,0:0:0:0:
256,192,35395,1,0,0:0:0:0:
256,192,35561,1,8,0:0:0:0:
256,192,35895,1,8,0:0:0:0:
256,192,36061,1,0,0:0:0:0:
256,192,36395,1,0,0:0:0:0:
256,192,36561,1,8,0:0:0:0:
256,192,36645,1,8,0:0:0:0:
256,192,36728,1,8,0:0:0:0:
256,200,36895,1,0,0:0:0:0:
256,200,37061,1,8,0:0:0:0:
256,192,37395,1,8,0:0:0:0:
256,200,37728,1,0,0:0:0:0:
256,192,38061,1,8,0:0:0:0:
256,192,38228,1,0,0:0:0:0:
256,192,38561,1,0,0:0:0:0:
256,192,38728,1,8,0:0:0:0:
256,192,39061,1,8,0:0:0:0:
256,192,39228,1,0,0:0:0:0:
256,192,39311,1,0,0:0:0:0:
256,192,39395,1,0,0:0:0:0:
256,200,39561,1,0,0:0:0:0:
256,192,39728,1,8,0:0:0:0:
256,200,40061,1,0,0:0:0:0:
256,192,40395,1,8,0:0:0:0:
256,200,40561,1,8,0:0:0:0:
256,200,40728,1,8,0:0:0:0:
256,200,41061,1,0,0:0:0:0:
248,200,41228,1,8,0:0:0:0:
256,200,41561,1,8,0:0:0:0:
256,200,41728,1,0,0:0:0:0:
256,200,42061,1,0,0:0:0:0:
256,200,42228,1,8,0:0:0:0:
256,200,42395,1,0,0:0:0:0:
256,200,42728,1,8,0:0:0:0:
256,200,43228,1,8,0:0:0:0:
256,200,43395,1,0,0:0:0:0:
256,200,43728,1,8,0:0:0:0:
256,200,43895,1,8,0:0:0:0:
256,200,44061,1,0,0:0:0:0:
256,200,44228,1,8,0:0:0:0:
256,200,44311,1,8,0:0:0:0:
256,200,44395,1,8,0:0:0:0:
256,200,44561,1,0,0:0:0:0:
256,200,44895,1,8,0:0:0:0:
256,200,45061,1,0,0:0:0:0:
256,200,45395,1,4,0:0:0:0:
256,192,45728,1,8,0:0:0:0:
256,192,46061,1,0,0:0:0:0:
256,192,46228,1,8,0:0:0:0:
256,192,46561,1,8,0:0:0:0:
256,192,46728,1,0,0:0:0:0:
256,200,46811,1,0,0:0:0:0:
256,192,46895,1,0,0:0:0:0:
325,186,47061,1,8,0:0:0:0:
257,129,47228,1,0,0:0:0:0:
256,200,47561,1,0,0:0:0:0:
325,186,47728,1,8,0:0:0:0:
325,186,47895,1,8,0:0:0:0:
256,200,48061,1,0,0:0:0:0:
256,192,48395,1,8,0:0:0:0:
248,192,48728,1,0,0:0:0:0:
256,192,48895,1,0,0:0:0:0:
256,192,49228,1,0,0:0:0:0:
256,192,49395,1,8,0:0:0:0:
256,200,49478,1,8,0:0:0:0:
256,192,49561,1,8,0:0:0:0:
256,192,49728,1,0,0:0:0:0:
256,192,49895,1,8,0:0:0:0:
273,169,50228,1,0,0:0:0:0:
256,200,50395,1,8,0:0:0:0:
217,141,50561,1,0,0:0:0:0:
256,200,50728,1,0,0:0:0:0:
256,200,51061,1,8,0:0:0:0:
256,200,51228,1,0,0:0:0:0:
256,200,51395,1,8,0:0:0:0:
256,200,51561,1,8,0:0:0:0:
256,200,51895,1,0,0:0:0:0:
256,200,52228,1,8,0:0:0:0:
256,200,52395,1,8,0:0:0:0:
256,200,52561,1,0,0:0:0:0:
256,200,52728,1,8,0:0:0:0:
256,200,52811,1,8,0:0:0:0:
256,200,52895,1,8,0:0:0:0:
256,200,53061,1,0,0:0:0:0:
256,200,53395,1,8,0:0:0:0:
256,200,53895,1,0,0:0:0:0:
256,200,54228,1,0,0:0:0:0:
253,220,54395,1,8,0:0:0:0:
256,200,54561,1,0,0:0:0:0:
256,200,54645,1,0,0:0:0:0:
256,200,54728,1,0,0:0:0:0:
256,200,54895,1,0,0:0:0:0:
256,200,55061,1,8,0:0:0:0:
256,200,55145,1,8,0:0:0:0:
256,200,55228,1,8,0:0:0:0:
256,200,55395,1,0,0:0:0:0:
256,200,55728,1,8,0:0:0:0:
256,200,56061,1,4,0:0:0:0:
256,200,56395,1,0,0:0:0:0:
256,200,56561,1,8,0:0:0:0:
256,200,56728,1,0,0:0:0:0:
256,200,56811,1,0,0:0:0:0:
256,200,56895,1,0,0:0:0:0:
256,200,57061,1,8,0:0:0:0:
256,200,57228,1,8,0:0:0:0:
256,200,57395,1,0,0:0:0:0:
256,192,57728,1,8,0:0:0:0:
256,192,57895,1,0,0:0:0:0:
256,200,58061,1,8,0:0:0:0:
248,200,58228,1,8,0:0:0:0:
256,200,58395,1,0,0:0:0:0:
256,200,58478,1,0,0:0:0:0:
256,200,58561,1,0,0:0:0:0:
256,192,58728,1,8,0:0:0:0:
248,192,59061,1,0,0:0:0:0:
264,236,59173,1,0,0:0:0:0:
280,279,59284,1,0,0:0:0:0:
296,323,59395,1,0,0:0:0:0:
295,100,59728,1,8,0:0:0:0:
256,192,59895,1,8,0:0:0:0:
248,192,60061,1,0,0:0:0:0:
248,192,60395,1,0,0:0:0:0:
248,192,60728,1,12,0:0:0:0:
248,192,61061,1,8,0:0:0:0:
248,192,61145,1,8,0:0:0:0:
248,192,61228,1,8,0:0:0:0:
248,192,61395,1,4,0:0:0:0:
248,192,61728,1,8,0:0:0:0:
248,192,62061,1,0,0:0:0:0:
309,207,62228,1,0,0:0:0:0:
309,207,62395,1,8,0:0:0:0:
248,184,62561,1,8,0:0:0:0:
248,192,62728,1,0,0:0:0:0:
248,192,63061,1,8,0:0:0:0:
248,192,63228,1,0,0:0:0:0:
248,192,63395,1,8,0:0:0:0:
248,192,63728,1,8,0:0:0:0:
248,192,64061,1,0,0:0:0:0:
248,192,64395,1,8,0:0:0:0:
282,194,64506,1,8,0:0:0:0:
328,198,64617,1,8,0:0:0:0:
374,202,64728,1,8,0:0:0:0:
248,192,65061,1,0,0:0:0:0:
248,192,65395,1,8,0:0:0:0:
248,192,65728,1,0,0:0:0:0:
248,200,65895,1,0,0:0:0:0:
248,192,66061,1,8,0:0:0:0:
248,192,66395,1,8,0:0:0:0:
248,192,66728,1,0,0:0:0:0:
256,192,67061,1,0,0:0:0:0:
256,192,67228,1,8,0:0:0:0:
256,192,67395,1,8,0:0:0:0:
256,192,67561,1,0,0:0:0:0:
256,192,67728,1,8,0:0:0:0:
256,192,67811,1,8,0:0:0:0:
256,184,67895,1,8,0:0:0:0:
256,192,68061,1,0,0:0:0:0:
256,192,68395,1,8,0:0:0:0:
256,192,68561,1,8,0:0:0:0:
256,192,68728,1,0,0:0:0:0:
256,192,69061,1,12,0:0:0:0:
256,192,69395,1,4,0:0:0:0:
256,192,69728,1,8,0:0:0:0:
256,192,69895,1,8,0:0:0:0:
256,192,70061,1,0,0:0:0:0:
256,192,70228,1,8,0:0:0:0:
256,192,70311,1,8,0:0:0:0:
256,192,70395,1,8,0:0:0:0:
256,192,70561,1,0,0:0:0:0:
256,192,70728,1,8,0:0:0:0:
256,200,71061,1,0,0:0:0:0:
256,192,71228,1,8,0:0:0:0:
256,200,71311,1,8,0:0:0:0:
256,200,71395,1,8,0:0:0:0:
256,200,71561,1,8,0:0:0:0:
256,200,71728,1,0,0:0:0:0:
256,200,71811,1,0,0:0:0:0:
256,200,71895,1,0,0:0:0:0:
256,200,72061,1,12,0:0:0:0:
256,200,72561,1,0,0:0:0:0:
256,200,73061,1,0,0:0:0:0:
256,208,73561,1,0,0:0:0:0:
256,208,74061,1,0,0:0:0:0:
256,208,74395,1,0,0:0:0:0:
256,208,74728,1,0,0:0:0:0:
256,208,75228,1,0,0:0:0:0:
256,208,75728,1,0,0:0:0:0:
256,208,76228,1,0,0:0:0:0:
256,208,76728,1,0,0:0:0:0:
256,208,77061,1,0,0:0:0:0:
256,208,77395,1,8,0:0:0:0:
256,208,77895,1,8,0:0:0:0:
256,208,78395,1,8,0:0:0:0:
256,208,78895,1,8,0:0:0:0:
256,208,79395,1,8,0:0:0:0:
256,208,79728,1,8,0:0:0:0:
256,208,80061,1,8,0:0:0:0:
256,208,80561,1,8,0:0:0:0:
256,208,81061,1,8,0:0:0:0:
256,208,81228,1,4,0:0:0:0:
256,208,81561,1,4,0:0:0:0:
256,208,81895,1,4,0:0:0:0:
256,208,82228,1,0,0:0:0:0:
256,208,82395,1,8,0:0:0:0:
256,208,82728,1,4,0:0:0:0:
256,208,83061,1,8,0:0:0:0:
256,208,83228,1,8,0:0:0:0:
256,208,83395,1,0,0:0:0:0:
256,208,83728,1,8,0:0:0:0:
256,208,83895,1,0,0:0:0:0:
256,208,83978,1,0,0:0:0:0:
256,208,84061,1,0,0:0:0:0:
256,208,84228,1,8,0:0:0:0:
256,208,84395,1,0,0:0:0:0:
256,208,84561,1,8,0:0:0:0:
256,208,84895,1,0,0:0:0:0:
256,208,85061,1,8,0:0:0:0:
256,208,85228,1,8,0:0:0:0:
256,208,85395,1,0,0:0:0:0:
256,208,85728,1,0,0:0:0:0:
256,208,85895,1,0,0:0:0:0:
256,208,86061,1,8,0:0:0:0:
256,208,86395,1,0,0:0:0:0:
256,208,86561,1,8,0:0:0:0:
256,208,86645,1,8,0:0:0:0:
256,208,86728,1,8,0:0:0:0:
256,208,86895,1,0,0:0:0:0:
256,208,87061,1,8,0:0:0:0:
256,208,87228,1,0,0:0:0:0:
256,208,87561,1,8,0:0:0:0:
256,208,87728,1,8,0:0:0:0:
276,178,87895,1,0,0:0:0:0:
256,208,88061,1,0,0:0:0:0:
256,208,88561,1,0,0:0:0:0:
256,208,88728,1,8,0:0:0:0:
256,208,88978,1,0,0:0:0:0:
256,208,89228,1,0,0:0:0:0:
256,216,89395,1,8,0:0:0:0:
256,208,89728,1,8,0:0:0:0:
256,208,89895,1,0,0:0:0:0:
256,216,90061,1,8,0:0:0:0:
256,216,90311,1,0,0:0:0:0:
256,216,90561,1,8,0:0:0:0:
256,216,90728,1,0,0:0:0:0:
256,216,91061,1,8,0:0:0:0:
256,216,91395,1,0,0:0:0:0:
256,216,91561,1,8,0:0:0:0:
256,216,91645,1,8,0:0:0:0:
256,216,91728,1,8,0:0:0:0:
256,224,91895,1,0,0:0:0:0:
256,216,92061,1,8,0:0:0:0:
256,224,92395,1,8,0:0:0:0:
257,154,92561,1,0,0:0:0:0:
257,154,92645,1,0,0:0:0:0:
257,154,92728,1,0,0:0:0:0:
256,224,92895,1,8,0:0:0:0:
256,224,92978,1,8,0:0:0:0:
310,180,93061,1,8,0:0:0:0:
310,180,93228,1,0,0:0:0:0:
256,224,93395,1,12,0:0:0:0:
256,224,93728,1,0,0:0:0:0:
256,224,93895,1,8,0:0:0:0:
256,200,94395,1,8,0:0:0:0:
256,200,94561,1,8,0:0:0:0:
256,200,94728,1,0,0:0:0:0:
256,200,94895,1,8,0:0:0:0:
256,200,95061,1,8,0:0:0:0:
256,200,95395,1,0,0:0:0:0:
256,208,95561,1,8,0:0:0:0:
256,200,95645,1,8,0:0:0:0:
256,208,95728,1,8,0:0:0:0:
256,208,95895,1,0,0:0:0:0:
256,208,96061,1,8,0:0:0:0:
256,208,96395,1,8,0:0:0:0:
256,208,96561,1,0,0:0:0:0:
256,208,96895,1,0,0:0:0:0:
256,208,96978,1,0,0:0:0:0:
256,208,97061,1,0,0:0:0:0:
256,208,97228,1,8,0:0:0:0:
256,208,97395,1,0,0:0:0:0:
256,208,97728,1,0,0:0:0:0:
256,208,97895,1,8,0:0:0:0:
256,208,98061,1,0,0:0:0:0:
256,208,98145,1,0,0:0:0:0:
256,208,98228,1,0,0:0:0:0:
256,208,98395,1,8,0:0:0:0:
256,208,98561,1,0,0:0:0:0:
256,208,98728,1,0,0:0:0:0:
256,208,99228,1,8,0:0:0:0:
256,208,99395,1,0,0:0:0:0:
256,208,99561,1,8,0:0:0:0:
256,208,99895,1,0,0:0:0:0:
256,208,100061,1,8,0:0:0:0:
256,216,100395,1,0,0:0:0:0:
256,208,100561,1,8,0:0:0:0:
256,208,100645,1,8,0:0:0:0:
256,216,100728,1,8,0:0:0:0:
256,216,100895,1,0,0:0:0:0:
256,208,101061,1,8,0:0:0:0:
256,208,101395,1,0,0:0:0:0:
256,208,101561,1,8,0:0:0:0:
256,200,101895,1,8,0:0:0:0:
256,200,102061,1,0,0:0:0:0:
256,200,102228,1,8,0:0:0:0:
256,200,102561,1,8,0:0:0:0:
256,200,102728,1,0,0:0:0:0:
256,200,102811,1,0,0:0:0:0:
256,200,102895,1,0,0:0:0:0:
256,200,103061,1,8,0:0:0:0:
240,233,103228,1,8,0:0:0:0:
240,233,103311,1,8,0:0:0:0:
256,200,103395,1,8,0:0:0:0:
256,200,103561,1,0,0:0:0:0:
256,200,103728,1,8,0:0:0:0:
256,200,104061,1,4,0:0:0:0:
256,200,104561,1,8,0:0:0:0:
256,192,104728,1,0,0:0:0:0:
256,200,104895,1,8,0:0:0:0:
256,200,104978,1,8,0:0:0:0:
256,200,105145,1,0,0:0:0:0:
256,200,105395,1,8,0:0:0:0:
256,200,105728,1,0,0:0:0:0:
256,200,105895,1,0,0:0:0:0:
256,200,106061,1,8,0:0:0:0:
256,200,106311,1,0,0:0:0:0:
256,200,106561,1,8,0:0:0:0:
256,200,106645,1,8,0:0:0:0:
256,200,106728,1,8,0:0:0:0:
256,200,107061,1,0,0:0:0:0:
256,200,107228,1,8,0:0:0:0:
256,200,107395,1,0,0:0:0:0:
256,200,107561,1,8,0:0:0:0:
256,200,107645,1,8,0:0:0:0:
256,200,107811,1,0,0:0:0:0:
285,220,107978,1,8,0:0:0:0:
256,200,108061,1,8,0:0:0:0:
256,200,108395,1,8,0:0:0:0:
326,198,108561,1,0,0:0:0:0:
326,198,108645,1,0,0:0:0:0:
326,198,108728,1,0,0:0:0:0:
285,220,108978,1,8,0:0:0:0:
256,200,109228,1,8,0:0:0:0:
256,200,109395,1,0,0:0:0:0:
256,200,109895,1,8,0:0:0:0:
256,192,110061,1,0,0:0:0:0:
256,200,110228,1,8,0:0:0:0:
256,200,110311,1,8,0:0:0:0:
256,200,110478,1,0,0:0:0:0:
256,200,110728,1,8,0:0:0:0:
256,200,111061,1,0,0:0:0:0:
256,200,111228,1,0,0:0:0:0:
256,200,111395,1,8,0:0:0:0:
256,200,111645,1,0,0:0:0:0:
256,200,111895,1,8,0:0:0:0:
256,200,111978,1,8,0:0:0:0:
256,200,112061,1,8,0:0:0:0:
256,200,112395,1,8,0:0:0:0:
256,200,112561,1,8,0:0:0:0:
256,200,112728,1,0,0:0:0:0:
256,200,112978,1,8,0:0:0:0:
256,200,113228,1,0,0:0:0:0:
256,200,113311,1,0,0:0:0:0:
256,200,113395,1,0,0:0:0:0:
256,200,113728,1,0,0:0:0:0:
256,200,113895,1,0,0:0:0:0:
256,200,114061,1,8,0:0:0:0:
256,200,114311,1,8,0:0:0:0:
256,200,114561,1,8,0:0:0:0:
256,200,114728,1,4,0:0:0:0:
256,200,115228,1,8,0:0:0:0:
256,192,115395,1,0,0:0:0:0:
256,200,115561,1,8,0:0:0:0:
256,200,115645,1,8,0:0:0:0:
256,200,115811,1,0,0:0:0:0:
256,200,116061,1,8,0:0:0:0:
256,200,116395,1,0,0:0:0:0:
256,200,116561,1,0,0:0:0:0:
256,200,116728,1,8,0:0:0:0:
256,200,116978,1,0,0:0:0:0:
256,200,117228,1,8,0:0:0:0:
256,200,117311,1,8,0:0:0:0:
256,200,117395,1,8,0:0:0:0:
256,200,117728,1,0,0:0:0:0:
256,200,117895,1,8,0:0:0:0:
256,200,118061,1,0,0:0:0:0:
256,200,118228,1,8,0:0:0:0:
256,200,118311,1,8,0:0:0:0:
256,200,118478,1,0,0:0:0:0:
285,220,118645,1,8,0:0:0:0:
256,200,118728,1,8,0:0:0:0:
256,200,119061,1,8,0:0:0:0:
326,198,119228,1,0,0:0:0:0:
326,198,119311,1,0,0:0:0:0:
326,198,119395,1,0,0:0:0:0:
285,220,119645,1,8,0:0:0:0:
256,200,119895,1,8,0:0:0:0:
256,200,120061,1,0,0:0:0:0:
256,200,120561,1,8,0:0:0:0:
256,192,120728,1,0,0:0:0:0:
256,200,120895,1,8,0:0:0:0:
256,200,120978,1,8,0:0:0:0:
256,200,121145,1,0,0:0:0:0:
256,200,121395,1,8,0:0:0:0:
256,200,121728,1,0,0:0:0:0:
256,200,121895,1,0,0:0:0:0:
256,200,122061,1,8,0:0:0:0:
256,200,122228,1,0,0:0:0:0:
256,200,122311,1,0,0:0:0:0:
256,200,122478,1,8,0:0:0:0:
256,200,122561,1,8,0:0:0:0:
256,200,122728,1,0,0:0:0:0:
256,200,123061,1,8,0:0:0:0:
256,200,123228,1,8,0:0:0:0:
256,200,123395,1,0,0:0:0:0:
325,196,123561,1,8,0:0:0:0:
256,200,123645,1,8,0:0:0:0:
256,200,123811,1,0,0:0:0:0:
256,200,123895,1,0,0:0:0:0:
256,200,124061,1,8,0:0:0:0:
256,200,124395,1,0,0:0:0:0:
256,200,124561,1,0,0:0:0:0:
256,200,124728,1,12,0:0:0:0:
256,200,124978,1,12,0:0:0:0:
256,200,125228,5,4,0:0:0:0:
256,192,125395,12,0,126561,0:0:0:0:
342,226,126728,5,12,0:0:0:0:
256,192,137395,5,12,0:0:0:0:
256,192,137895,1,0,0:0:0:0:
256,192,138395,1,0,0:0:0:0:
256,192,138728,1,8,0:0:0:0:
256,192,139228,1,8,0:0:0:0:
256,192,139728,1,8,0:0:0:0:
256,192,140061,1,0,0:0:0:0:
256,192,140561,1,0,0:0:0:0:
256,192,141061,1,0,0:0:0:0:
256,192,141395,1,8,0:0:0:0:
178,124,141561,1,0,0:0:0:0:
178,124,141728,1,0,0:0:0:0:
178,124,141895,1,0,0:0:0:0:
248,221,142061,1,8,0:0:0:0:
256,192,142395,1,8,0:0:0:0:
256,192,142561,1,0,0:0:0:0:
256,192,142645,1,0,0:0:0:0:
256,192,142728,1,0,0:0:0:0:
104,153,142895,1,8,0:0:0:0:
256,192,143228,1,8,0:0:0:0:
256,192,143395,1,0,0:0:0:0:
256,192,143728,1,8,0:0:0:0:
256,192,144061,1,0,0:0:0:0:
256,192,144228,1,8,0:0:0:0:
256,192,144561,1,8,0:0:0:0:
256,192,144728,1,0,0:0:0:0:
248,192,145061,1,8,0:0:0:0:
256,192,145228,1,0,0:0:0:0:
256,192,145311,1,0,0:0:0:0:
256,192,145395,1,0,0:0:0:0:
256,192,145728,1,8,0:0:0:0:
266,248,145895,1,0,0:0:0:0:
334,235,146061,1,8,0:0:0:0:
256,192,146395,1,0,0:0:0:0:
256,192,146561,1,8,0:0:0:0:
256,192,146645,1,8,0:0:0:0:
256,192,146728,1,8,0:0:0:0:
256,192,146895,1,0,0:0:0:0:
256,192,147228,1,8,0:0:0:0:
256,192,147395,1,0,0:0:0:0:
256,192,147728,1,8,0:0:0:0:
256,192,148061,1,4,0:0:0:0:
256,200,148728,1,8,0:0:0:0:
256,200,149395,1,0,0:0:0:0:
256,200,149728,1,0,0:0:0:0:
256,200,150061,1,8,0:0:0:0:
256,200,150728,1,0,0:0:0:0:
256,200,151395,1,8,0:0:0:0:
256,200,152061,1,0,0:0:0:0:
256,200,152561,1,0,0:0:0:0:
256,200,152728,1,8,0:0:0:0:
256,192,152895,12,12,156728,0:0:0:0:
256,192,157395,5,0,0:0:0:0:
256,192,157728,1,0,0:0:0:0:
256,192,157895,1,8,0:0:0:0:
256,192,158228,1,0,0:0:0:0:
256,192,158728,1,12,0:0:0:0:
256,192,167895,5,4,0:0:0:0:
256,192,168228,1,4,0:0:0:0:
256,192,168561,1,4,0:0:0:0:
256,208,168895,1,0,0:0:0:0:
256,208,169061,1,8,0:0:0:0:
256,208,169395,1,4,0:0:0:0:
256,208,169728,1,8,0:0:0:0:
256,208,169895,1,8,0:0:0:0:
256,208,170061,1,0,0:0:0:0:
256,208,170395,1,8,0:0:0:0:
256,208,170561,1,0,0:0:0:0:
256,208,170645,1,0,0:0:0:0:
256,208,170728,1,0,0:0:0:0:
256,208,170895,1,8,0:0:0:0:
256,208,171061,1,0,0:0:0:0:
256,208,171228,1,8,0:0:0:0:
256,208,171561,1,0,0:0:0:0:
256,208,171728,1,8,0:0:0:0:
256,208,171895,1,8,0:0:0:0:
256,208,172061,1,0,0:0:0:0:
256,208,172395,1,0,0:0:0:0:
256,208,172561,1,0,0:0:0:0:
256,208,172728,1,8,0:0:0:0:
256,208,173061,1,0,0:0:0:0:
256,208,173228,1,8,0:0:0:0:
256,208,173311,1,8,0:0:0:0:
256,208,173395,1,8,0:0:0:0:
256,208,173561,1,0,0:0:0:0:
256,208,173728,1,8,0:0:0:0:
256,208,173895,1,0,0:0:0:0:
256,208,174228,1,8,0:0:0:0:
256,208,174395,1,8,0:0:0:0:
276,178,174561,1,0,0:0:0:0:
256,208,174728,1,0,0:0:0:0:
256,208,175228,1,0,0:0:0:0:
256,208,175395,1,8,0:0:0:0:
256,208,175645,1,0,0:0:0:0:
256,208,175895,1,0,0:0:0:0:
256,216,176061,1,8,0:0:0:0:
256,208,176395,1,8,0:0:0:0:
256,208,176561,1,0,0:0:0:0:
256,216,176728,1,8,0:0:0:0:
256,216,176978,1,0,0:0:0:0:
256,216,177228,1,8,0:0:0:0:
256,216,177395,1,0,0:0:0:0:
256,216,177728,1,8,0:0:0:0:
256,216,178061,1,0,0:0:0:0:
256,216,178228,1,8,0:0:0:0:
256,216,178311,1,8,0:0:0:0:
256,216,178395,1,8,0:0:0:0:
256,224,178561,1,0,0:0:0:0:
256,216,178728,1,8,0:0:0:0:
256,224,179061,1,8,0:0:0:0:
257,154,179228,1,0,0:0:0:0:
257,154,179311,1,0,0:0:0:0:
257,154,179395,1,0,0:0:0:0:
256,224,179561,1,8,0:0:0:0:
256,224,179645,1,8,0:0:0:0:
310,180,179728,1,8,0:0:0:0:
310,180,179895,1,0,0:0:0:0:
256,224,180061,1,12,0:0:0:0:
256,224,180395,1,0,0:0:0:0:
256,224,180561,1,8,0:0:0:0:
256,200,181061,1,8,0:0:0:0:
256,200,181228,1,8,0:0:0:0:
256,200,181395,1,0,0:0:0:0:
256,200,181561,1,8,0:0:0:0:
256,200,181895,1,8,0:0:0:0:
256,200,182061,1,0,0:0:0:0:
256,208,182228,1,8,0:0:0:0:
256,200,182311,1,8,0:0:0:0:
256,208,182395,1,8,0:0:0:0:
256,208,182561,1,0,0:0:0:0:
256,208,182728,1,8,0:0:0:0:
256,208,183061,1,8,0:0:0:0:
256,208,183228,1,0,0:0:0:0:
256,208,183561,1,0,0:0:0:0:
256,208,183645,1,0,0:0:0:0:
256,208,183728,1,0,0:0:0:0:
256,208,183895,1,8,0:0:0:0:
256,208,184061,1,0,0:0:0:0:
256,208,184395,1,0,0:0:0:0:
256,208,184561,1,8,0:0:0:0:
256,208,184728,1,0,0:0:0:0:
256,208,184811,1,0,0:0:0:0:
256,208,184895,1,0,0:0:0:0:
256,208,185061,1,8,0:0:0:0:
256,208,185228,1,0,0:0:0:0:
256,208,185395,1,0,0:0:0:0:
256,208,185895,1,8,0:0:0:0:
256,208,186061,1,0,0:0:0:0:
256,208,186228,1,8,0:0:0:0:
256,208,186561,1,0,0:0:0:0:
256,208,186728,1,8,0:0:0:0:
256,216,187061,1,0,0:0:0:0:
256,208,187228,1,8,0:0:0:0:
256,208,187311,1,8,0:0:0:0:
256,216,187395,1,8,0:0:0:0:
256,216,187561,1,0,0:0:0:0:
256,208,187728,1,8,0:0:0:0:
256,208,188061,1,0,0:0:0:0:
256,208,188228,1,8,0:0:0:0:
283,272,188395,1,0,0:0:0:0:
296,304,188478,1,0,0:0:0:0:
296,304,188561,1,0,0:0:0:0:
324,213,188728,1,0,0:0:0:0:
254,247,188895,1,8,0:0:0:0:
256,200,189228,1,8,0:0:0:0:
256,200,189395,1,0,0:0:0:0:
256,200,189478,1,0,0:0:0:0:
256,200,189561,1,0,0:0:0:0:
256,200,189728,1,8,0:0:0:0:
240,233,189895,1,8,0:0:0:0:
240,233,189978,1,8,0:0:0:0:
256,200,190061,1,8,0:0:0:0:
256,200,190228,1,0,0:0:0:0:
256,200,190395,1,8,0:0:0:0:
325,197,190561,1,0,0:0:0:0:
360,196,190645,1,0,0:0:0:0:
256,192,192061,5,0,0:0:0:0:
256,192,192395,1,8,0:0:0:0:
256,192,192561,1,0,0:0:0:0:
256,192,192645,1,0,0:0:0:0:
256,192,192728,1,0,0:0:0:0:
311,164,192895,1,0,0:0:0:0:
256,192,193061,1,8,0:0:0:0:
256,200,193395,1,4,0:0:0:0:
256,200,193895,1,8,0:0:0:0:
256,192,194061,1,0,0:0:0:0:
256,200,194228,1,8,0:0:0:0:
256,200,194311,1,8,0:0:0:0:
256,200,194478,1,0,0:0:0:0:
256,200,194728,1,8,0:0:0:0:
256,200,195061,1,0,0:0:0:0:
256,200,195228,1,0,0:0:0:0:
256,200,195395,1,8,0:0:0:0:
256,200,195645,1,0,0:0:0:0:
256,200,195895,1,8,0:0:0:0:
256,200,195978,1,8,0:0:0:0:
256,200,196061,1,8,0:0:0:0:
256,200,196395,1,0,0:0:0:0:
256,200,196561,1,8,0:0:0:0:
256,200,196728,1,0,0:0:0:0:
256,200,196895,1,8,0:0:0:0:
256,200,196978,1,8,0:0:0:0:
256,200,197145,1,0,0:0:0:0:
285,220,197311,1,8,0:0:0:0:
256,200,197395,1,8,0:0:0:0:
256,200,197728,1,8,0:0:0:0:
326,198,197895,1,0,0:0:0:0:
326,198,197978,1,0,0:0:0:0:
326,198,198061,1,0,0:0:0:0:
285,220,198311,1,8,0:0:0:0:
256,200,198561,1,8,0:0:0:0:
256,200,198728,1,0,0:0:0:0:
256,200,199228,1,8,0:0:0:0:
256,192,199395,1,0,0:0:0:0:
256,200,199561,1,8,0:0:0:0:
256,200,199645,1,8,0:0:0:0:
256,200,199811,1,0,0:0:0:0:
256,200,200061,1,8,0:0:0:0:
256,200,200395,1,0,0:0:0:0:
256,200,200561,1,0,0:0:0:0:
256,200,200728,1,8,0:0:0:0:
256,200,200978,1,0,0:0:0:0:
256,200,201228,1,8,0:0:0:0:
256,200,201311,1,8,0:0:0:0:
256,200,201395,1,8,0:0:0:0:
256,200,201728,1,8,0:0:0:0:
256,200,201895,1,8,0:0:0:0:
256,200,202061,1,0,0:0:0:0:
256,200,202311,1,8,0:0:0:0:
256,200,202561,1,0,0:0:0:0:
256,200,202645,1,0,0:0:0:0:
256,200,202728,1,0,0:0:0:0:
256,200,203061,1,0,0:0:0:0:
256,200,203228,1,0,0:0:0:0:
256,200,203395,1,8,0:0:0:0:
256,200,203645,1,8,0:0:0:0:
256,200,203895,1,8,0:0:0:0:
256,200,204061,1,4,0:0:0:0:
256,200,204561,1,8,0:0:0:0:
256,192,204728,1,0,0:0:0:0:
256,200,204895,1,8,0:0:0:0:
256,200,204978,1,8,0:0:0:0:
256,200,205145,1,0,0:0:0:0:
256,200,205395,1,8,0:0:0:0:
256,200,205728,1,0,0:0:0:0:
256,200,205895,1,0,0:0:0:0:
256,200,206061,1,8,0:0:0:0:
256,200,206311,1,0,0:0:0:0:
256,200,206561,1,8,0:0:0:0:
256,200,206645,1,8,0:0:0:0:
256,200,206728,1,8,0:0:0:0:
256,200,207061,1,0,0:0:0:0:
256,200,207228,1,8,0:0:0:0:
256,200,207395,1,0,0:0:0:0:
256,200,207561,1,8,0:0:0:0:
256,200,207645,1,8,0:0:0:0:
256,200,207811,1,0,0:0:0:0:
285,220,207978,1,8,0:0:0:0:
256,200,208061,1,8,0:0:0:0:
256,200,208395,1,8,0:0:0:0:
326,198,208561,1,0,0:0:0:0:
326,198,208645,1,0,0:0:0:0:
326,198,208728,1,0,0:0:0:0:
285,220,208978,1,8,0:0:0:0:
256,200,209228,1,8,0:0:0:0:
256,200,209395,1,0,0:0:0:0:
256,200,209895,1,8,0:0:0:0:
256,192,210061,1,0,0:0:0:0:
256,200,210228,1,8,0:0:0:0:
256,200,210311,1,8,0:0:0:0:
256,200,210478,1,0,0:0:0:0:
256,200,210728,1,8,0:0:0:0:
256,200,211061,1,0,0:0:0:0:
256,200,211228,1,0,0:0:0:0:
256,200,211395,1,8,0:0:0:0:
256,200,211561,1,0,0:0:0:0:
256,200,211645,1,0,0:0:0:0:
256,200,211811,1,8,0:0:0:0:
256,200,211895,1,8,0:0:0:0:
256,200,212061,1,0,0:0:0:0:
256,200,212395,1,8,0:0:0:0:
256,200,212561,1,8,0:0:0:0:
256,200,212728,1,0,0:0:0:0:
325,196,212895,1,8,0:0:0:0:
256,200,212978,1,8,0:0:0:0:
256,200,213145,1,0,0:0:0:0:
256,200,213228,1,0,0:0:0:0:
256,200,213395,1,8,0:0:0:0:
256,200,213728,1,0,0:0:0:0:
256,200,213895,1,0,0:0:0:0:
256,200,214061,1,12,0:0:0:0:
256,200,214311,1,12,0:0:0:0:
256,200,214561,5,4,0:0:0:0:
256,200,215061,5,12,0:0:0:0:
256,200,215395,1,0,0:0:0:0:
256,200,215561,1,0,0:0:0:0:
256,200,215728,1,8,0:0:0:0:
256,200,216061,1,0,0:0:0:0:
256,200,216228,1,8,0:0:0:0:
256,200,216561,1,8,0:0:0:0:
256,200,216728,1,0,0:0:0:0:
256,200,216895,1,8,0:0:0:0:
256,200,217228,1,8,0:0:0:0:
256,200,217395,1,0,0:0:0:0:
256,200,217478,1,0,0:0:0:0:
256,200,217561,1,0,0:0:0:0:
256,200,217728,1,8,0:0:0:0:
256,200,217895,1,0,0:0:0:0:
256,200,218061,1,8,0:0:0:0:
256,200,218395,1,0,0:0:0:0:
360,276,218728,1,0,0:0:0:0:
256,200,218895,1,8,0:0:0:0:
256,200,218978,1,8,0:0:0:0:
256,200,219061,1,8,0:0:0:0:
256,200,219228,1,0,0:0:0:0:
231,268,219395,1,8,0:0:0:0:
256,200,219561,1,8,0:0:0:0:
256,200,219728,1,0,0:0:0:0:
256,200,220061,1,0,0:0:0:0:
256,200,220395,1,8,0:0:0:0:
256,200,220728,1,0,0:0:0:0:
256,200,220895,1,0,0:0:0:0:
256,200,221061,1,8,0:0:0:0:
256,200,221395,1,0,0:0:0:0:
264,200,221561,1,8,0:0:0:0:
256,192,221895,1,8,0:0:0:0:
256,200,222061,1,0,0:0:0:0:
256,200,222228,1,8,0:0:0:0:
310,329,222561,1,8,0:0:0:0:
256,192,222728,1,0,0:0:0:0:
223,179,222811,1,0,0:0:0:0:
223,179,222895,1,0,0:0:0:0:
256,208,223061,1,8,0:0:0:0:
256,208,223228,1,0,0:0:0:0:
256,208,223395,1,8,0:0:0:0:
256,208,223728,1,0,0:0:0:0:
372,149,224061,1,0,0:0:0:0:
310,165,224228,1,8,0:0:0:0:
256,208,224311,1,8,0:0:0:0:
256,208,224395,1,8,0:0:0:0:
248,208,224561,1,0,0:0:0:0:
256,208,224728,1,8,0:0:0:0:
256,208,224895,1,8,0:0:0:0:
256,208,225061,1,0,0:0:0:0:
256,208,225228,1,0,0:0:0:0:
256,208,225395,1,12,0:0:0:0:
256,208,226061,1,0,0:0:0:0:
299,318,226395,1,0,0:0:0:0:
126,235,226728,1,0,0:0:0:0:
256,208,226895,1,8,0:0:0:0:
256,208,227228,1,8,0:0:0:0:
256,208,227395,1,0,0:0:0:0:
259,74,227561,1,8,0:0:0:0:
215,196,227895,1,8,0:0:0:0:
256,208,228061,1,0,0:0:0:0:
379,231,228395,1,0,0:0:0:0:
256,208,228728,1,0,0:0:0:0:
300,206,228895,1,8,0:0:0:0:
170,258,229228,1,8,0:0:0:0:
256,208,229395,1,0,0:0:0:0:
256,208,229728,1,0,0:0:0:0:
190,223,230061,1,0,0:0:0:0:
256,208,230728,1,0,0:0:0:0:
256,208,231061,1,0,0:0:0:0:
256,208,231395,1,0,0:0:0:0:
256,208,231728,1,0,0:0:0:0:
256,208,232061,1,0,0:0:0:0:
256,208,232395,1,0,0:0:0:0:
256,208,232728,1,0,0:0:0:0:
144,140,233061,1,0,0:0:0:0:
256,200,233395,1,0,0:0:0:0:
256,200,233728,1,0,0:0:0:0:
256,200,234061,1,0,0:0:0:0:
256,200,234395,1,0,0:0:0:0:
256,200,234728,1,0,0:0:0:0:
256,200,235061,1,0,0:0:0:0:
256,200,235395,1,0,0:0:0:0:
256,200,235728,1,0,0:0:0:0:
391,216,235895,1,0,0:0:0:0:
