osu file format v13

[General]
AudioFilename: bgm.mp3
AudioLeadIn: 1600
PreviewTime: 73075
Countdown: 0
SampleSet: Soft
StackLeniency: 0.7
Mode: 0
LetterboxInBreaks: 1
WidescreenStoryboard: 1

[Editor]
DistanceSpacing: 1
BeatDivisor: 4
GridSize: 4
TimelineZoom: 1.5

[Metadata]
Title:Asphodelus (Short Ver.)
TitleUnicode:アスフォデルス (Short Ver.)
Artist:Ceui
ArtistUnicode:Ceui
Creator:Ushiro T
Version:Normal
Source:穢翼のユースティア
Tags:Kegare tsubasa no yusutia opening Aiyoku no Eustia
BeatmapID:455520
BeatmapSetID:190666

[Difficulty]
HPDrainRate:3
CircleSize:4
OverallDifficulty:4
ApproachRate:5
SliderMultiplier:1
SliderTickRate:1

[Events]
//Background and Video events
Video,-1200,"video.avi"
0,0,"bg.png",0,0
//Break Periods
//Storyboard Layer 0 (Background)
//Storyboard Layer 1 (Fail)
//Storyboard Layer 2 (Pass)
//Storyboard Layer 3 (Foreground)
//Storyboard Sound Samples
//Background Colour Transformations
3,100,255,255,255

[TimingPoints]
419,375,6,2,1,10,1,0
700,375,6,2,1,20,1,0
9700,-100,6,2,1,25,0,0
14200,-100,6,2,1,30,0,0
18700,-100,6,2,3,45,0,0
19075,-100,6,2,1,45,0,0
23200,-100,6,2,3,45,0,0
23575,-100,6,2,1,45,0,0
32200,-100,6,2,3,45,0,0
32575,-100,6,2,1,25,0,0
41200,-100,6,2,3,45,0,0
41575,-100,6,2,1,45,0,0
50200,-100,6,2,3,45,0,0
50575,-100,6,2,1,45,0,0
59200,-100,6,2,3,45,0,0
59575,-100,6,2,1,45,0,0
68200,-100,6,2,3,45,0,0
68575,-100,6,2,1,45,0,0
73450,-100,6,2,2,80,0,0
73825,-100,6,2,3,65,0,1
74387,-100,6,2,1,65,0,1
78325,-100,6,2,3,65,0,1
78700,-100,6,2,1,65,0,1
82825,-100,6,2,3,65,0,1
82918,-100,6,2,1,65,0,1
87325,-100,6,2,3,65,0,1
87418,-100,6,2,1,65,0,1
91825,-100,6,2,3,65,0,0
92200,-100,6,2,1,65,0,0
98575,-100,6,2,1,65,0,1
99700,-100,6,2,3,45,0,0
103450,-100,6,2,1,45,0,0
112075,-100,6,2,2,50,0,1
112450,-100,6,2,2,30,0,0
113200,-100,6,2,2,50,0,1
113575,-100,6,2,2,30,0,0
114325,-100,6,2,2,50,0,1
114700,-100,6,2,2,30,0,0
115450,-100,6,2,2,50,0,1
115825,-100,6,2,2,30,0,0

[Colours]
Combo1 : 255,238,187
Combo2 : 187,255,187
Combo3 : 0,56,125
Combo4 : 242,36,67

[HitObjects]
256,144,700,6,0,P|348:111|442:142,1,200,6|2,0:0|0:0,0:0:0:0:
504,220,1825,2,0,P|410:250|317:218,1,200,2|2,0:0|0:0,0:0:0:0:
256,144,2950,6,0,P|163:111|69:142,1,200,6|2,0:0|0:0,0:0:0:0:
8,220,4075,2,0,P|101:250|194:218,1,200,2|2,0:0|0:0,0:0:0:0:
256,296,5200,6,0,P|348:328|442:297,1,200,6|2,0:0|0:0,0:0:0:0:
504,220,6325,2,0,P|410:189|317:221,1,200,2|2,0:0|0:0,0:0:0:0:
256,296,7450,6,0,P|163:328|69:297,1,200,6|2,0:0|0:0,0:0:0:0:
8,220,8575,2,0,P|101:189|194:221,1,200,2|2,0:0|0:0,0:0:0:0:
296,240,9700,5,6,0:0:0:0:
304,140,10075,2,0,P|269:104|221:95,1,100,2|2,0:0|0:0,0:0:0:0:
125,130,10825,2,0,P|130:228|190:306,1,200,2|2,0:0|0:0,0:0:0:0:
276,360,11950,5,6,0:0:0:0:
372,332,12325,2,0,P|419:315|454:280,1,100,2|2,0:0|0:0,0:0:0:0:
439,179,13075,2,0,P|343:197|280:273,1,200,2|2,0:0|0:0,0:0:0:0:
192,316,14200,5,6,0:0:0:0:
104,264,14575,2,0,P|104:215|126:171,1,100,2|2,0:0|0:0,0:0:0:0:
227,160,15325,2,0,P|172:81|76:83,1,200,2|2,0:0|0:0,0:0:0:0:
256,192,16450,12,14,18700,0:0:0:0:
132,236,19262,6,0,B|152:224|196:248|230:236,1,100,10|8,0:0|0:0,0:0:0:0:
282,236,19825,2,0,B|316:248|360:224|380:236,1,100,10|10,0:0|0:0,0:0:0:0:
428,256,20387,1,8,0:0:0:0:
507,194,20762,1,10,0:0:0:0:
503,143,20950,6,0,P|484:99|439:80,1,100,14|2,0:0|0:0,0:0:0:0:
388,87,21512,2,0,P|339:80|303:46,1,100,10|8,0:0|0:0,0:0:0:0:
259,19,22075,2,0,P|169:46|155:140,1,200,10|8,0:0|0:0,0:0:0:0:
256,124,23200,6,0,L|235:221,1,100,12|2,0:0|0:0,0:0:0:0:
224,272,23762,2,0,L|321:247,1,100,10|8,0:0|0:0,0:0:0:0:
372,236,24325,1,10,0:0:0:0:
352,336,24700,2,0,L|255:362,1,100,10|0,0:0|0:0,0:0:0:0:
156,348,25450,6,0,P|107:341|67:311,1,100,14|2,0:0|0:0,0:0:0:0:
48,268,26012,2,0,P|39:218|49:170,1,100,10|10,0:0|0:0,0:0:0:0:
76,128,26575,2,0,B|136:80|136:80|192:108|255:80,1,200,8|2,0:0|0:0,0:0:0:0:
344,36,27700,1,12,0:0:0:0:
256,192,27887,12,6,32200,0:0:0:0:
392,144,32762,6,0,P|365:101|326:71,1,100,2|2,0:0|0:0,0:0:0:0:
276,64,33325,2,0,P|256:168|324:252,1,200,2|2,0:0|0:0,0:0:0:0:
256,328,34450,6,0,B|192:348|192:348|159:348,1,100,2|2,0:0|0:0,0:0:0:0:
112,336,35012,2,0,B|88:316|88:316|54:256,1,100,2|2,0:0|0:0,0:0:0:0:
40,208,35575,2,0,B|72:188|80:160|80:160|132:200|208:192,1,200,2|2,0:0|0:0,0:0:0:0:
304,160,36700,6,0,P|306:111|280:69,1,100,6|2,0:0|0:0,0:0:0:0:
232,56,37262,2,0,P|184:67|150:103,1,100,2|2,0:0|0:0,0:0:0:0:
128,148,37825,2,0,P|129:245|196:316,1,200,2|2,0:0|0:0,0:0:0:0:
288,348,38950,6,0,L|388:348,1,100,6|0,0:0|0:0,0:0:0:0:
436,344,39512,2,0,P|476:296|488:240,1,100,2|2,0:0|0:0,0:0:0:0:
484,212,40075,1,6,0:0:0:0:
484,112,40450,1,8,0:0:0:0:
456,16,40825,1,8,0:0:0:0:
356,12,41200,6,0,P|306:11|258:25,1,100,14|2,0:0|0:0,0:0:0:0:
216,50,41762,2,0,P|183:88|173:137,1,100,10|10,0:0|0:0,0:0:0:0:
196,180,42325,2,0,B|208:232|208:232|312:232|312:232|321:272,1,200,10|2,0:0|0:0,0:0:0:0:
256,348,43450,6,0,L|156:348,1,100,10|0,0:0|0:0,0:0:0:0:
116,316,44012,2,0,P|97:269|95:220,1,100,10|2,0:0|0:0,0:0:0:0:
116,172,44575,2,0,B|136:138|125:104|125:104|148:120|201:119,1,150,10|2,0:0|0:0,0:0:0:0:
251,115,45325,6,0,B|327:115|327:115|348:104,2,100,10|14|2,0:0|0:0|0:0,0:0:0:0:
205,95,46262,2,0,B|129:95|129:95|107:105,1,100,8|2,0:0|0:0,0:0:0:0:
64,132,46825,2,0,B|16:168|16:168|16:248|16:248|64:284,1,200,10|2,0:0|0:0,0:0:0:0:
144,340,47950,6,0,B|192:376|192:376|240:376,1,100,14|0,0:0|0:0,0:0:0:0:
276,352,48512,2,0,P|323:337|370:352,1,100,8|10,0:0|0:0,0:0:0:0:
416,372,49075,1,10,0:0:0:0:
456,280,49450,1,12,0:0:0:0:
460,180,49825,2,0,P|459:131|440:85,1,100,2|10,0:0|0:0,0:0:0:0:
356,28,50575,5,2,0:0:0:0:
256,36,50950,2,0,B|252:84|252:84|256:84|256:84|252:131,1,100,2|8,0:0|0:0,0:0:0:0:
352,132,51700,2,0,P|330:201|264:233,1,150,0|2,0:0|0:0,0:0:0:0:
216,224,52450,6,0,L|118:200,1,100,10|0,0:0|0:0,0:0:0:0:
69,200,53012,2,0,L|69:300,1,100,10|2,0:0|0:0,0:0:0:0:
69,350,53575,1,10,0:0:0:0:
148,288,53950,1,10,0:0:0:0:
232,348,54325,2,0,B|275:377|275:377|323:377,1,100,0|6,0:0|0:0,0:0:0:0:
332,276,55075,5,2,0:0:0:0:
428,303,55450,2,0,P|471:280|498:239,1,100,2|8,0:0|0:0,0:0:0:0:
472,144,56200,2,0,B|436:152|416:184|401:209|401:209|351:209,1,150,2|2,0:0|0:0,0:0:0:0:
300,209,56950,6,0,B|236:209|236:209|220:193|204:193,1,100,14|8,0:0|0:0,0:0:0:0:
124,139,57700,1,2,0:0:0:0:
132,39,58075,2,0,P|230:34|317:81,1,200,14|8,0:0|0:0,0:0:0:0:
356,172,59200,6,0,P|370:219|356:266,1,100,4|2,0:0|0:0,0:0:0:0:
308,279,59762,2,0,P|293:326|307:373,1,100,8|8,0:0|0:0,0:0:0:0:
356,379,60325,2,0,P|404:367|452:380,2,100,10|0|6,0:0|0:0|0:0,0:0:0:0:
256,360,61450,6,0,P|188:300|188:180,1,200,2|2,0:0|0:0,0:0:0:0:
227,107,62575,2,0,P|326:116|420:84,1,200,10|10,0:0|0:0,0:0:0:0:
402,183,63700,6,0,P|355:198|301:200,1,100,14|0,0:0|0:0,0:0:0:0:
255,197,64262,2,0,P|206:189|161:168,1,100,8|8,0:0|0:0,0:0:0:0:
112,154,64825,2,0,B|95:157|71:176|71:176|68:208|73:229,2,100,12|0|10,0:0|0:0|0:0,0:0:0:0:
144,60,65950,6,0,B|184:28|184:28|232:17,1,100,14|0,0:0|0:0,0:0:0:0:
278,17,66512,2,0,B|327:28|327:28|367:60,1,100,8|8,0:0|0:0,0:0:0:0:
391,103,67075,1,14,0:0:0:0:
391,202,67450,1,8,0:0:0:0:
320,273,67825,1,0,0:0:0:0:
244,336,68200,6,0,L|164:276,1,100,12|2,0:0|0:0,0:0:0:0:
156,228,68762,2,0,L|247:188,1,100,10|8,0:0|0:0,0:0:0:0:
300,192,69325,1,10,0:0:0:0:
364,116,69700,1,10,0:0:0:0:
320,28,70075,1,10,0:0:0:0:
256,104,70450,1,6,0:0:0:0:
256,192,70637,12,2,72700,0:0:0:0:
180,184,73450,5,14,0:0:0:0:
108,113,73825,6,0,P|161:60|233:46,1,150,14|8,0:0|0:0,0:0:0:0:
280,64,74575,1,2,0:0:0:0:
360,124,74950,2,0,B|424:144|464:84|464:84|473:111,1,150,10|8,0:0|0:0,0:0:0:0:
488,160,75700,1,2,0:0:0:0:
472,260,76075,6,0,B|376:312|376:312|356:347,1,150,12|10,0:0|0:0,0:0:0:0:
306,347,76825,2,0,B|270:327|270:327|239:276,1,100,2|14,0:0|0:0,0:0:0:0:
256,176,77575,1,8,0:0:0:0:
271,76,77950,2,0,P|316:55|360:75,2,100,8|12|2,0:0|0:0|0:0,0:0:0:0:
264,124,78887,6,0,P|219:144|175:124,1,100,8|8,0:0|0:0,0:0:0:0:
160,76,79450,1,10,0:0:0:0:
64,100,79825,1,2,0:0:0:0:
28,192,80200,1,2,0:0:0:0:
64,284,80575,6,0,B|136:320|172:252|172:252|183:270,1,150,12|10,0:0|0:0,0:0:0:0:
204,316,81325,1,2,0:0:0:0:
304,324,81700,1,14,0:0:0:0:
400,296,82075,2,0,B|416:248|416:248|416:198,1,100,8|10,0:0|0:0,0:0:0:0:
404,100,82825,6,0,B|392:52|392:52|344:72|293:52,1,150,14|8,0:0|0:0,0:0:0:0:
248,32,83575,1,2,0:0:0:0:
164,84,83950,2,0,B|114:103|66:83|66:83|54:131,1,150,10|8,0:0|0:0,0:0:0:0:
52,180,84700,1,2,0:0:0:0:
67,279,85075,6,0,P|116:335|188:350,1,150,14|10,0:0|0:0,0:0:0:0:
240,344,85825,1,2,0:0:0:0:
311,276,86200,2,0,P|345:239|392:224,2,100,14|8|8,0:0|0:0|0:0,0:0:0:0:
239,344,87325,6,0,P|191:333|151:304,1,100,12|2,0:0|0:0,0:0:0:0:
120,264,87887,2,0,P|108:200|120:160,1,100,10|10,0:0|0:0,0:0:0:0:
148,128,88450,1,10,0:0:0:0:
228,188,88825,1,2,0:0:0:0:
308,128,89200,1,10,0:0:0:0:
256,192,89575,12,6,91825,0:0:0:0:
256,132,92387,6,0,P|302:149|333:188,1,100,8|8,0:0|0:0,0:0:0:0:
324,240,92950,1,6,0:0:0:0:
256,312,93325,1,2,0:0:0:0:
188,240,93700,1,2,0:0:0:0:
140,152,94075,6,0,P|122:82|171:29,1,150,14|8,0:0|0:0,0:0:0:0:
220,40,94825,2,0,P|268:60|328:64,2,100,2|10|8,0:0|0:0|0:0,0:0:0:0:
200,140,95950,1,2,0:0:0:0:
300,164,96325,6,0,B|332:148|376:164|420:180|448:164,2,150,14|8|10,0:0|0:0|0:0,0:0:0:0:
212,220,97825,1,2,0:0:0:0:
116,192,98200,1,12,0:0:0:0:
256,192,98575,12,4,103075,0:0:0:0:
440,284,103637,6,0,P|416:228|376:192,1,100,2|8,0:0|0:0,0:0:0:0:
340,216,104200,2,2,L|264:284,2,100,10|8|0,0:0|0:0|0:0,0:0:0:0:
288,128,105325,6,0,P|239:120|190:128,1,100,14|2,0:0|0:0,0:0:0:0:
152,160,105887,2,0,P|102:168|53:160,1,100,10|10,0:0|0:0,0:0:0:0:
40,112,106450,1,10,0:0:0:0:
132,76,106825,1,2,0:0:0:0:
224,40,107200,1,10,0:0:0:0:
256,192,107575,12,2,111700,0:0:0:0:
256,144,112075,5,14,0:0:0:0:
344,96,112450,1,4,0:0:0:0:
432,144,112825,1,4,0:0:0:0:
432,244,113200,5,6,0:0:0:0:
344,292,113575,1,4,0:0:0:0:
256,244,113950,1,4,0:0:0:0:
256,144,114325,5,4,0:0:0:0:
168,96,114700,1,4,0:0:0:0:
80,144,115075,1,4,0:0:0:0:
80,244,115450,5,4,0:0:0:0:
168,292,115825,1,4,0:0:0:0:
256,244,116200,2,0,L|213:217,1,50,4|4,0:0|0:0,0:0:0:0:
168,192,116575,5,10,0:0:0:0:
