osu file format v13

[General]
AudioFilename: bgm.mp3
AudioLeadIn: 1600
PreviewTime: 73075
Countdown: 0
SampleSet: Soft
StackLeniency: 0.7
Mode: 0
LetterboxInBreaks: 0
WidescreenStoryboard: 1

[Editor]
DistanceSpacing: 1
BeatDivisor: 4
GridSize: 4
TimelineZoom: 1.5

[Metadata]
Title:Asphodelus (Short Ver.)
TitleUnicode:アスフォデルス (Short Ver.)
Artist:Ceui
ArtistUnicode:Ceui
Creator:Ushiro T
Version:Insane
Source:穢翼のユースティア
Tags:Kegare tsubasa no yusutia opening Aiyoku no Eustia
BeatmapID:454439
BeatmapSetID:190666

[Difficulty]
HPDrainRate:7
CircleSize:4
OverallDifficulty:6
ApproachRate:8
SliderMultiplier:1.7
SliderTickRate:2

[Events]
//Background and Video events
Video,-1200,"video.avi"
0,0,"bg.png",0,0
//Break Periods
//Storyboard Layer 0 (Background)
//Storyboard Layer 1 (Fail)
//Storyboard Layer 2 (Pass)
//Storyboard Layer 3 (Foreground)
//Storyboard Sound Samples
//Background Colour Transformations
3,100,255,255,255

[TimingPoints]
419,375,6,2,1,10,1,0
700,375,6,2,1,15,1,0
9700,-100,6,2,1,20,0,0
11950,-100,6,2,1,25,0,0
17012,-100,6,2,1,60,0,0
17387,-100,6,2,1,45,0,0
17575,-100,6,3,1,40,0,0
17950,-100,6,2,1,20,0,0
18700,-100,6,2,3,45,0,0
18887,-100,6,2,1,45,0,0
23200,-100,6,2,3,45,0,0
23387,-100,6,2,1,45,0,0
25450,-100,6,2,3,45,0,0
25825,-100,6,2,1,45,0,0
32200,-100,6,2,3,45,0,0
32387,-100,6,2,1,30,0,0
35950,-133.333333333333,6,2,1,20,0,0
36325,-200,6,2,1,20,0,0
36512,-100,6,2,1,20,0,0
36700,-100,6,2,1,30,0,0
40075,-100,6,2,1,40,0,0
41200,-100,6,2,3,40,0,0
41387,-100,6,2,1,40,0,0
50200,-100,6,2,3,40,0,0
50387,-100,6,2,1,40,0,0
59200,-100,6,2,3,40,0,0
59300,-100,6,2,1,40,0,0
68200,-100,6,2,3,40,0,0
68300,-100,6,2,1,40,0,0
71575,-100,6,2,1,50,0,0
72700,-100,6,2,1,20,0,0
73450,-100,6,2,2,80,0,0
73637,-100,6,2,1,45,0,0
73825,-83.3333333333333,6,2,3,60,0,1
73949,-83.3333333333333,6,2,1,60,0,1
77950,-133.333333333333,6,2,1,60,0,1
78325,-83.3333333333333,6,2,3,60,0,1
78418,-83.3333333333333,6,2,1,60,0,1
79825,-125,6,2,1,60,0,1
80200,-200,6,2,1,60,0,1
80387,-83.3333333333333,6,2,1,60,0,1
82825,-83.3333333333333,6,2,3,60,0,1
82925,-83.3333333333333,6,2,1,60,0,1
86950,-133.333333333333,6,2,1,60,0,1
87137,-83.3333333333333,6,2,1,60,0,1
87325,-83.3333333333333,6,2,3,60,0,1
87425,-83.3333333333333,6,2,1,60,0,1
88825,-125,6,2,1,60,0,1
89200,-200,6,2,1,60,0,1
89387,-83.3333333333333,6,2,1,60,0,1
91825,-100,6,2,2,60,0,0
93325,-100,6,2,1,60,0,0
94075,-100,6,2,3,60,0,0
94175,-100,6,2,1,60,0,0
96325,-66.6666666666667,6,2,3,60,0,0
96700,-100,6,2,1,70,0,0
97450,-100,6,2,1,70,0,0
98575,-100,6,2,3,70,0,1
99137,-100,6,2,1,70,0,1
99700,-100,6,2,1,70,0,0
103075,-100,6,2,3,70,0,0
103175,-100,6,2,1,70,0,0
106825,-133.333333333333,6,2,1,60,0,0
107200,-200,6,2,1,60,0,0
112075,-200,6,2,2,50,0,1
112262,-200,6,2,2,30,0,1
112450,-200,6,2,2,30,0,0
113200,-200,6,2,2,50,0,1
113387,-200,6,2,2,30,0,1
113575,-200,6,2,2,30,0,0
114325,-100,6,2,2,50,0,1
114512,-100,6,2,2,30,0,1
114700,-100,6,2,2,30,0,0
115450,-100,6,2,2,50,0,1
115637,-100,6,2,2,30,0,1
115825,-100,6,2,2,30,0,0

[Colours]
Combo1 : 255,238,187
Combo2 : 187,255,187
Combo3 : 0,56,125
Combo4 : 242,36,67

[HitObjects]
256,320,700,5,6,0:0:0:0:
324,268,887,1,2,0:0:0:0:
368,196,1075,1,2,0:0:0:0:
376,112,1262,1,2,0:0:0:0:
352,32,1450,2,0,L|436:42,1,85,2|2,0:0|0:0,0:0:0:0:
458,134,1825,2,0,L|376:112,1,85,2|2,0:0|0:0,0:0:0:0:
368,196,2200,2,0,L|445:230,1,85,2|2,0:0|0:0,0:0:0:0:
392,318,2575,2,0,L|324:268,1,85,2|2,0:0|0:0,0:0:0:0:
256,320,2950,5,6,0:0:0:0:
188,268,3137,1,2,0:0:0:0:
144,196,3325,1,2,0:0:0:0:
136,112,3512,1,2,0:0:0:0:
160,32,3700,2,0,L|75:42,1,85,2|2,0:0|0:0,0:0:0:0:
53,134,4075,2,0,L|136:112,1,85,2|2,0:0|0:0,0:0:0:0:
144,196,4450,2,0,L|66:230,1,85,2|2,0:0|0:0,0:0:0:0:
118,320,4825,2,0,L|187:270,1,85,2|2,0:0|0:0,0:0:0:0:
256,320,5200,5,6,0:0:0:0:
187,270,5387,1,2,0:0:0:0:
213,189,5575,1,2,0:0:0:0:
298,189,5762,1,2,0:0:0:0:
324,270,5950,2,0,L|397:313,1,85,2|2,0:0|0:0,0:0:0:0:
322,107,6325,2,0,L|298:189,1,85,2|2,0:0|0:0,0:0:0:0:
187,270,6700,2,0,L|113:313,1,85,2|2,0:0|0:0,0:0:0:0:
188,107,7075,2,0,L|213:189,1,85,2|2,0:0|0:0,0:0:0:0:
128,204,7450,6,0,L|45:181,1,85,6|2,0:0|0:0,0:0:0:0:
135,40,7825,2,0,L|188:107,1,85,2|2,0:0|0:0,0:0:0:0:
324,107,8200,2,0,L|376:40,1,85,2|2,0:0|0:0,0:0:0:0:
466,181,8575,2,0,L|384:204,1,85,2|2,0:0|0:0,0:0:0:0:
300,212,8950,1,2,0:0:0:0:
212,300,9137,1,2,0:0:0:0:
212,212,9325,1,2,0:0:0:0:
300,300,9512,1,2,0:0:0:0:
376,256,9700,5,6,0:0:0:0:
376,172,9887,1,2,0:0:0:0:
303,124,10075,2,0,P|335:95|376:86,1,85,2|2,0:0|0:0,0:0:0:0:
455,183,10450,2,0,P|417:165|375:172,1,85,2|2,0:0|0:0,0:0:0:0:
375,256,10825,2,0,P|416:263|444:295,1,85,2|2,0:0|0:0,0:0:0:0:
343,367,11200,2,0,P|331:327|300:300,1,85,2|2,0:0|0:0,0:0:0:0:
212,300,11575,1,2,0:0:0:0:
212,212,11762,1,2,0:0:0:0:
136,256,11950,5,4,0:0:0:0:
136,172,12137,1,0,0:0:0:0:
208,124,12325,2,0,P|176:95|135:86,1,85,2|2,0:0|0:0,0:0:0:0:
56,183,12700,2,0,P|94:165|136:172,1,85,2|2,0:0|0:0,0:0:0:0:
136,256,13075,2,0,P|95:263|67:295,1,85,2|2,0:0|0:0,0:0:0:0:
168,367,13450,2,0,P|180:327|212:300,1,85,2|2,0:0|0:0,0:0:0:0:
299,299,13825,1,2,0:0:0:0:
256,228,14012,1,2,0:0:0:0:
256,144,14200,6,0,L|256:59,1,85,6|2,0:0|0:0,0:0:0:0:
332,100,14575,2,0,L|332:185,1,85,2|2,0:0|0:0,0:0:0:0:
180,185,14950,2,0,L|180:100,1,85,2|2,0:0|0:0,0:0:0:0:
256,228,15325,2,0,L|256:313,1,85,2|2,0:0|0:0,0:0:0:0:
184,272,15700,1,2,0:0:0:0:
256,228,15887,1,2,0:0:0:0:
328,272,16075,1,2,0:0:0:0:
256,313,16262,1,2,0:0:0:0:
256,144,16450,5,6,0:0:0:0:
180,184,16637,1,2,0:0:0:0:
332,184,16825,1,2,0:0:0:0:
256,313,17012,1,2,0:0:0:0:
332,184,17200,2,0,L|372:96,1,85,8|8,0:0|0:0,0:0:0:0:
375,90,17481,1,8,0:0:0:0:
378,72,17575,6,0,B|340:40|304:80|252:108|217:81,1,170,4|0,0:0|0:0,0:0:0:0:
253,4,18137,1,8,0:0:0:0:
375,90,18325,1,8,0:0:0:0:
296,216,18512,1,8,0:0:0:0:
176,128,18700,5,14,0:0:0:0:
96,100,18887,1,0,0:0:0:0:
20,63,19075,2,0,P|48:32|87:16,1,85,0|0,0:0|0:0,0:0:0:0:
183,208,19450,2,0,P|101:227|20:208,1,170,8|10,0:0|0:0,0:0:0:0:
256,164,20012,1,0,0:0:0:0:
323,112,20200,2,0,P|361:93|404:90,1,85,10|8,0:0|0:0,0:0:0:0:
404,293,20575,2,0,P|361:290|323:271,1,85,0|8,0:0|0:0,0:0:0:0:
315,258,20856,1,0,0:0:0:0:
307,244,20950,6,0,P|233:278|157:245,1,170,10|0,0:0|0:0,0:0:0:0:
128,168,21512,2,0,L|52:207,2,85,10|0|10,0:0|0:0|0:0,0:0:0:0:
176,96,22075,2,0,P|204:127|213:168,1,85,10|0,0:0|0:0,0:0:0:0:
212,309,22450,2,0,P|225:269|256:240,1,85,8|2,0:0|0:0,0:0:0:0:
379,170,22825,2,0,P|337:179|297:166,1,85,8|2,0:0|0:0,0:0:0:0:
276,132,23106,1,0,0:0:0:0:
272,88,23200,5,12,0:0:0:0:
379,170,23387,1,0,0:0:0:0:
440,112,23575,2,0,P|416:76|380:52,1,85,0|10,0:0|0:0,0:0:0:0:
131,69,23950,2,0,P|210:38|295:35,1,170,8|10,0:0|0:0,0:0:0:0:
320,116,24512,1,0,0:0:0:0:
296,196,24700,1,10,0:0:0:0:
440,112,24887,1,2,0:0:0:0:
436,280,25075,1,0,0:0:0:0:
388,192,25262,6,0,L|408:229,1,42.5,10|0,0:0|0:0,0:0:0:0:
436,280,25450,2,0,B|444:300|436:332|436:332|376:308|323:332,1,170,12|0,0:0|0:0,0:0:0:0:
188,332,26012,2,0,B|136:308|76:332|76:332|64:304|76:280,1,170,10|10,0:0|0:0,0:0:0:0:
255,279,26575,2,0,P|272:318|265:360,1,85,10|0,0:0|0:0,0:0:0:0:
179,147,26950,2,0,P|138:142|105:116,1,85,8|10,0:0|0:0,0:0:0:0:
332,148,27325,2,0,P|357:114|396:99,1,85,10|0,0:0|0:0,0:0:0:0:
256,192,27700,5,14,0:0:0:0:
256,192,27793,12,4,29575,0:0:0:0:
200,208,29950,6,0,B|164:184|146:126|186:79|186:79|165:68,1,170,10|0,0:0|0:0,0:0:0:0:
312,208,30512,2,0,B|348:184|365:126|325:79|325:79|346:68,1,170,10|8,0:0|0:0,0:0:0:0:
256,140,31075,1,14,0:0:0:0:
256,192,31168,12,0,32012,0:0:0:0:
256,192,32200,6,0,P|338:174|421:190,1,170,2|2,0:0|0:0,0:0:0:0:
476,256,32762,1,2,0:0:0:0:
392,272,32950,1,0,0:0:0:0:
444,336,33137,1,2,0:0:0:0:
360,348,33325,2,0,P|277:365|194:349,2,170,2|2|2,0:0|0:0|0:0,0:0:0:0:
392,272,34262,1,0,0:0:0:0:
360,132,34450,6,0,P|277:114|194:130,1,170,2|2,0:0|0:0,0:0:0:0:
58,224,35012,2,0,P|99:215|133:191,2,85,2|0|2,0:0|0:0|0:0,0:0:0:0:
64,140,35575,2,0,L|30:62,1,85,2|0,0:0|0:0,0:0:0:0:
144,44,35950,6,0,L|144:108,1,63.7500024318696
232,112,36325,6,0,L|242:70,1,42.5,2|2,0:0|0:0,0:0:0:0:
288,244,36700,5,6,0:0:0:0:
356,196,36887,1,0,0:0:0:0:
440,216,37075,1,2,0:0:0:0:
507,164,37262,2,0,P|515:122|513:79,2,85,2|0|2,0:0|0:0|0:0,0:0:0:0:
356,196,37825,2,0,P|348:154|350:111,1,85,2|0,0:0|0:0,0:0:0:0:
440,216,38200,2,0,P|442:258|434:300,1,85,2|0,0:0|0:0,0:0:0:0:
293,328,38575,2,0,P|285:286|288:244,1,85,2|0,0:0|0:0,0:0:0:0:
268,160,38950,6,0,B|216:148|200:88|224:48|224:48|198:63,1,170,6|0,0:0|0:0,0:0:0:0:
288,88,39512,1,2,0:0:0:0:
136,120,39700,1,0,0:0:0:0:
268,160,39887,1,2,0:0:0:0:
168,256,40075,5,6,0:0:0:0:
168,256,40262,1,0,0:0:0:0:
344,192,40450,1,4,0:0:0:0:
344,192,40637,1,4,0:0:0:0:
308,376,40825,5,0,0:0:0:0:
308,376,40918,1,0,0:0:0:0:
308,376,41012,1,0,0:0:0:0:
308,376,41106,1,0,0:0:0:0:
308,376,41200,2,0,P|348:387|390:384,2,85,12|0|2,0:0|0:0|0:0,0:0:0:0:
204,340,41762,2,0,P|163:328|120:327,2,85,10|0|10,0:0|0:0|0:0,0:0:0:0:
256,272,42325,6,0,L|256:187,1,85,10|0,0:0|0:0,0:0:0:0:
333,69,42700,2,0,P|340:110|332:152,1,85,2|0,0:0|0:0,0:0:0:0:
180,152,43075,2,0,P|171:110|179:69,2,85,2|8|10,0:0|0:0|0:0,0:0:0:0:
256,112,43637,6,0,B|291:87|355:79|363:171|411:139|410:131,2,170,0|10|2,0:0|0:0|0:0,0:0:0:0:
179,152,44575,2,0,P|141:169|99:175,1,85,10|0,0:0|0:0,0:0:0:0:
180,68,44950,1,8,0:0:0:0:
256,192,45137,1,8,0:0:0:0:
332,68,45325,1,10,0:0:0:0:
332,68,45700,6,0,P|408:96|412:176,1,170,14|0,0:0|0:0,0:0:0:0:
342,309,46262,2,0,P|333:268|344:227,2,85,8|0|10,0:0|0:0|0:0,0:0:0:0:
332,148,46825,2,0,L|247:148,1,85,2|0,0:0|0:0,0:0:0:0:
416,268,47200,2,0,L|501:268,1,85,10|0,0:0|0:0,0:0:0:0:
456,344,47575,1,2,0:0:0:0:
456,192,47762,1,8,0:0:0:0:
415,116,47950,6,0,P|456:104|496:116,2,85,10|0|0,0:0|0:0|0:0,0:0:0:0:
175,147,48512,2,0,P|253:176|332:147,1,170,8|10,0:0|0:0,0:0:0:0:
342,134,48981,1,0,0:0:0:0:
352,120,49075,2,0,L|352:205,1,85,10|0,0:0|0:0,0:0:0:0:
352,292,49450,1,8,0:0:0:0:
256,192,49637,1,8,0:0:0:0:
160,292,49825,2,0,P|200:304|240:292,1,85,10|0,0:0|0:0,0:0:0:0:
256,88,50200,5,12,0:0:0:0:
184,40,50387,1,2,0:0:0:0:
104,72,50575,1,2,0:0:0:0:
72,152,50762,1,2,0:0:0:0:
100,234,50950,2,0,P|124:268|160:292,1,85,2|8,0:0|0:0,0:0:0:0:
256,192,51325,2,0,P|291:168|315:133,1,85,10|0,0:0|0:0,0:0:0:0:
412,236,51700,2,0,P|376:259|352:294,1,85,2|0,0:0|0:0,0:0:0:0:
344,336,51981,1,0,0:0:0:0:
344,336,52075,1,0,0:0:0:0:
428,316,52262,1,10,0:0:0:0:
256,336,52450,6,0,B|212:344|160:300|168:240|168:240|154:253,1,170,10|2,0:0|0:0,0:0:0:0:
45,380,53012,2,0,B|60:376|60:376|101:320,2,85,10|0|10,0:0|0:0|0:0,0:0:0:0:
12,304,53575,1,10,0:0:0:0:
72,244,53762,1,2,0:0:0:0:
248,256,53950,1,10,0:0:0:0:
168,100,54137,1,8,0:0:0:0:
204,23,54325,1,8,0:0:0:0:
222,35,54418,1,0,0:0:0:0:
237,50,54512,1,0,0:0:0:0:
248,68,54606,1,0,0:0:0:0:
256,88,54700,5,14,0:0:0:0:
328,40,54887,1,2,0:0:0:0:
408,72,55075,1,2,0:0:0:0:
440,152,55262,1,10,0:0:0:0:
412,234,55450,2,0,P|388:268|352:292,1,85,2|8,0:0|0:0,0:0:0:0:
256,192,55825,2,0,P|220:168|196:133,1,85,10|0,0:0|0:0,0:0:0:0:
100,236,56200,2,0,P|135:259|159:294,1,85,10|0,0:0|0:0,0:0:0:0:
168,336,56481,1,0,0:0:0:0:
168,336,56575,1,0,0:0:0:0:
84,316,56762,1,2,0:0:0:0:
256,336,56950,6,0,B|300:344|352:300|344:240|344:240|357:253,1,170,14|8,0:0|0:0,0:0:0:0:
264,256,57512,1,8,0:0:0:0:
184,288,57700,1,2,0:0:0:0:
256,336,57887,1,10,0:0:0:0:
256,336,57981,1,8,0:0:0:0:
256,336,58075,5,14,0:0:0:0:
272,176,58262,1,2,0:0:0:0:
396,280,58450,2,0,L|330:225,1,85,14|8,0:0|0:0,0:0:0:0:
298,197,58731,1,0,0:0:0:0:
298,197,58825,1,8,0:0:0:0:
416,157,59012,1,0,0:0:0:0:
395,280,59200,6,0,P|338:338|255:336,1,170,12|0,0:0|0:0,0:0:0:0:
184,288,59762,1,10,0:0:0:0:
104,312,59950,1,0,0:0:0:0:
40,256,60137,1,10,0:0:0:0:
116,105,60325,6,0,P|174:46|257:49,1,170,14|2,0:0|0:0,0:0:0:0:
328,96,60887,1,8,0:0:0:0:
408,72,61075,1,0,0:0:0:0:
472,128,61262,1,0,0:0:0:0:
391,151,61450,6,0,P|354:173|326:204,1,85,14|0,0:0|0:0,0:0:0:0:
221,329,61825,2,0,P|221:286|210:246,1,85,2|8,0:0|0:0,0:0:0:0:
152,93,62200,2,0,P|189:114|231:123,1,85,2|8,0:0|0:0,0:0:0:0:
302,74,62575,6,0,P|265:53|224:44,1,85,14|0,0:0|0:0,0:0:0:0:
129,210,62950,2,0,P|130:252|142:292,1,85,10|12,0:0|0:0,0:0:0:0:
333,289,63325,2,0,P|370:268|400:237,1,85,8|0,0:0|0:0,0:0:0:0:
256,192,63700,6,0,B|284:232|288:284|256:324|256:324|284:324,1,170,14|0,0:0|0:0,0:0:0:0:
368,316,64262,1,12,0:0:0:0:
379,157,64450,2,0,P|397:195|400:238,1,85,0|8,0:0|0:0,0:0:0:0:
256,192,64825,6,0,B|228:152|224:100|256:60|256:60|228:60,1,170,12|8,0:0|0:0,0:0:0:0:
144,68,65387,1,8,0:0:0:0:
112,145,65575,2,0,P|114:188|132:226,1,85,10|0,0:0|0:0,0:0:0:0:
160,260,65856,1,0,0:0:0:0:
160,260,65950,5,14,0:0:0:0:
228,212,66137,1,0,0:0:0:0:
236,296,66325,1,0,0:0:0:0:
376,204,66512,1,12,0:0:0:0:
236,296,66700,1,2,0:0:0:0:
316,328,66887,1,12,0:0:0:0:
296,164,67075,5,10,0:0:0:0:
304,248,67262,1,8,0:0:0:0:
364,116,67450,1,12,0:0:0:0:
388,292,67637,1,12,0:0:0:0:
376,204,67825,1,0,0:0:0:0:
396,376,68012,1,12,0:0:0:0:
464,324,68200,6,0,L|441:155,1,170,12|0,0:0|0:0,0:0:0:0:
375,31,68762,2,0,L|364:116,2,85,10|2|8,0:0|0:0|0:0,0:0:0:0:
376,204,69325,2,0,L|364:288,1,85,10|0,0:0|0:0,0:0:0:0:
148,288,69700,2,0,L|136:204,1,85,10|8,0:0|0:0,0:0:0:0:
256,24,70075,2,0,L|256:109,1,85,10|0,0:0|0:0,0:0:0:0:
256,196,70450,5,10,0:0:0:0:
332,156,70637,1,4,0:0:0:0:
406,281,70825,5,8,0:0:0:0:
332,241,71012,1,4,0:0:0:0:
256,366,71200,5,8,0:0:0:0:
332,326,71387,1,4,0:0:0:0:
408,364,71575,5,2,0:0:0:0:
256,284,71762,1,12,0:0:0:0:
180,326,71950,5,2,0:0:0:0:
256,196,72137,1,12,0:0:0:0:
332,240,72325,5,2,0:0:0:0:
256,108,72512,1,12,0:0:0:0:
256,26,72700,5,0,0:0:0:0:
256,26,72887,1,0,0:0:0:0:
408,31,73075,2,0,L|332:68,1,85
103,31,73450,2,0,L|180:68,1,85,14|8,0:0|0:0,0:0:0:0:
216,88,73731,1,8,0:0:0:0:
256,108,73825,6,0,B|292:164|372:164|408:108|408:108|408:130,1,203.999993774414,14|0,0:0|0:0,0:0:0:0:
408,232,74387,1,8,0:0:0:0:
235,324,74575,2,0,P|285:320|332:300,1,101.999996887207,2|8,0:0|0:0,0:0:0:0:
372,268,74856,1,0,0:0:0:0:
408,232,74950,6,0,P|335:250|261:232,1,152.999995330811,14|0,0:0|0:0,0:0:0:0:
248,156,75325,2,0,P|198:145|149:156,1,101.999996887207,0|8,0:0|0:0,0:0:0:0:
84,236,75700,1,10,0:0:0:0:
152,49,75887,1,0,0:0:0:0:
152,49,75981,1,0,0:0:0:0:
152,48,76075,6,0,P|150:149|208:231,1,203.999993774414,14|0,0:0|0:0,0:0:0:0:
284,164,76637,1,10,0:0:0:0:
361,235,76825,2,0,P|370:285|359:335,1,101.999996887207,10|0,0:0|0:0,0:0:0:0:
437,60,77200,2,0,P|427:110|436:160,1,101.999996887207,14|0,0:0|0:0,0:0:0:0:
256,68,77575,6,0,L|205:75,1,50.9999984436036,8|0,0:0|0:0,0:0:0:0:
284,164,77762,2,0,L|239:189,1,50.9999984436036,8|0,0:0|0:0,0:0:0:0:
361,235,77950,6,0,L|320:284,1,63.7500024318696,10|0,0:0|0:0,0:0:0:0:
312,294,78231,1,0,0:0:0:0:
305,305,78325,6,0,B|288:328|288:348|288:348|248:312|179:312|144:348,1,203.999993774414,12|2,0:0|0:0,0:0:0:0:
43,347,78887,2,0,P|93:339|144:348,1,101.999996887207,8|2,0:0|0:0,0:0:0:0:
128,248,79262,1,8,0:0:0:0:
69,74,79450,2,0,L|55:175,1,101.999996887207,14|0,0:0|0:0,0:0:0:0:
160,176,79825,6,0,L|160:108,1,68,2|8,0:0|0:0,0:0:0:0:
256,133,80200,6,0,L|260:176,1,42.5,10|0,0:0|0:0,0:0:0:0:
261,188,80481,1,0,0:0:0:0:
263,200,80575,6,0,B|312:232|364:216|392:188|392:128|392:128|400:142,1,203.999993774414,14|0,0:0|0:0,0:0:0:0:
432,240,81137,1,10,0:0:0:0:
316,140,81325,1,2,0:0:0:0:
291,290,81512,1,10,0:0:0:0:
291,290,81606,1,8,0:0:0:0:
291,290,81700,6,0,P|241:284|202:251,1,101.999996887207,14|8,0:0|0:0,0:0:0:0:
404,100,82075,2,0,P|354:107|316:139,1,101.999996887207,4|0,0:0|0:0,0:0:0:0:
432,288,82450,1,10,0:0:0:0:
432,276,82543,1,0,0:0:0:0:
432,264,82637,1,0,0:0:0:0:
432,252,82731,1,0,0:0:0:0:
432,239,82825,6,0,P|412:141|341:69,1,203.999993774414,14|0,0:0|0:0,0:0:0:0:
256,124,83387,1,8,0:0:0:0:
256,20,83575,1,2,0:0:0:0:
342,175,83762,1,8,0:0:0:0:
342,175,83856,1,8,0:0:0:0:
342,175,83950,6,0,P|279:217|205:204,1,152.999995330811,14|0,0:0|0:0,0:0:0:0:
168,140,84325,2,0,P|120:123|72:139,1,101.999996887207,0|8,0:0|0:0,0:0:0:0:
120,224,84700,1,10,0:0:0:0:
256,124,84887,1,0,0:0:0:0:
256,124,84981,1,0,0:0:0:0:
256,124,85075,6,0,B|288:64|360:56|408:100|408:100|408:75,1,203.999993774414,14|0,0:0|0:0,0:0:0:0:
436,280,85637,1,10,0:0:0:0:
342,175,85825,1,2,0:0:0:0:
480,147,86012,1,8,0:0:0:0:
436,280,86200,2,0,L|467:183,1,101.999996887207,14|0,0:0|0:0,0:0:0:0:
342,175,86575,6,0,L|325:223,1,50.9999984436036,8|0,0:0|0:0,0:0:0:0:
239,172,86762,2,0,L|256:124,1,50.9999984436036,8|0,0:0|0:0,0:0:0:0:
177,61,86950,6,0,L|154:121,1,63.7500024318696,10|2,0:0|0:0,0:0:0:0:
148,140,87231,1,0,0:0:0:0:
142,158,87325,6,0,P|102:189|52:195,2,101.999996887207,12|0|2,0:0|0:0|0:0,0:0:0:0:
370,158,87887,2,0,P|409:127|459:121,2,101.999996887207,10|0|10,0:0|0:0|0:0,0:0:0:0:
364,177,88356,1,0,0:0:0:0:
360,196,88450,2,0,L|268:151,1,101.999996887207,14|0,0:0|0:0,0:0:0:0:
212,236,88825,6,0,L|261:282,1,68,10|8,0:0|0:0,0:0:0:0:
148,344,89200,6,0,L|132:304,1,42.5,10|0,0:0|0:0,0:0:0:0:
128,292,89481,1,0,0:0:0:0:
124,280,89575,5,14,0:0:0:0:
144,228,89668,1,0,0:0:0:0:
156,172,89762,1,0,0:0:0:0:
144,116,89856,1,0,0:0:0:0:
123,63,89950,2,0,P|163:32|212:23,2,101.999996887207,0|8|2,0:0|0:0|0:0,0:0:0:0:
203,143,90512,1,10,0:0:0:0:
388,63,90700,6,0,P|324:28|256:56,1,152.999995330811,12|0,0:0|0:0,0:0:0:0:
228,100,91075,1,0,0:0:0:0:
296,280,91262,1,0,0:0:0:0:
404,119,91450,2,0,P|362:149|334:191,1,101.999996887207,8|8,0:0|0:0,0:0:0:0:
334,368,91825,1,12,0:0:0:0:
256,192,91918,12,10,92950,0:0:0:0:
312,108,93325,5,10,0:0:0:0:
304,232,93512,1,8,0:0:0:0:
387,144,93700,2,0,P|393:102|378:63,1,85,10|0,0:0|0:0,0:0:0:0:
348,32,93981,1,0,0:0:0:0:
303,28,94075,6,0,P|229:66|146:54,1,170,12|0,0:0|0:0,0:0:0:0:
47,172,94637,2,0,P|49:129|68:92,2,85,8|2|8,0:0|0:0|0:0,0:0:0:0:
283,312,95200,2,0,P|301:274|304:232,1,85,14|0,0:0|0:0,0:0:0:0:
228,71,95575,2,0,P|210:109|208:152,1,85,8|8,0:0|0:0,0:0:0:0:
443,292,95950,2,0,P|462:254|464:211,1,85,10|0,0:0|0:0,0:0:0:0:
454,81,96325,6,0,B|400:8|280:20|280:20|328:42|312:62,1,255.000009727478,12|0,0:0|0:0,0:0:0:0:
228,72,96887,1,8,0:0:0:0:
288,132,97075,1,2,0:0:0:0:
168,192,97262,1,8,0:0:0:0:
168,192,97356,1,0,0:0:0:0:
168,192,97450,5,14,0:0:0:0:
344,248,97637,1,0,0:0:0:0:
108,312,97825,1,10,0:0:0:0:
288,132,98012,1,12,0:0:0:0:
288,132,98106,1,0,0:0:0:0:
288,132,98200,2,0,L|324:208,1,85,10|4,0:0|0:0,0:0:0:0:
364,288,98575,6,0,P|432:188|366:88,1,255,14|10,0:0|0:0,0:0:0:0:
288,132,99325,1,0,0:0:0:0:
288,48,99512,1,8,0:0:0:0:
133,92,99700,2,0,P|174:100|215:92,1,85,14|0,0:0|0:0,0:0:0:0:
50,177,100075,2,0,P|91:169|133:177,1,85,10|0,0:0|0:0,0:0:0:0:
168,204,100356,1,0,0:0:0:0:
184,244,100450,5,0,0:0:0:0:
288,132,100637,1,10,0:0:0:0:
327,279,100825,2,0,L|407:249,2,85,14|0|2,0:0|0:0|0:0,0:0:0:0:
288,132,101387,2,0,L|312:50,2,85,10|0|10,0:0|0:0|0:0,0:0:0:0:
276,172,101856,1,0,0:0:0:0:
264,212,101950,5,14,0:0:0:0:
152,36,102325,1,2,0:0:0:0:
208,124,102512,1,8,0:0:0:0:
264,212,102700,1,10,0:0:0:0:
257,232,102793,1,0,0:0:0:0:
251,252,102887,1,0,0:0:0:0:
245,272,102981,1,0,0:0:0:0:
239,293,103075,5,12,0:0:0:0:
160,260,103262,1,0,0:0:0:0:
130,109,103450,2,0,L|108:192,1,85,2|10,0:0|0:0,0:0:0:0:
247,341,103825,2,0,L|330:320,1,85,2|8,0:0|0:0,0:0:0:0:
389,124,104200,2,0,L|330:63,1,85,12|0,0:0|0:0,0:0:0:0:
416,225,104575,6,0,P|380:202|339:192,1,85,10|0,0:0|0:0,0:0:0:0:
300,208,104856,1,0,0:0:0:0:
300,208,104950,1,0,0:0:0:0:
184,252,105137,1,10,0:0:0:0:
172,256,105231,1,0,0:0:0:0:
160,260,105325,6,0,B|92:284|92:284|79:284,2,85,14|0|2,0:0|0:0|0:0,0:0:0:0:
362,241,105887,2,0,B|417:288|417:288|424:299,2,85,10|0|10,0:0|0:0|0:0,0:0:0:0:
245,75,106450,2,0,B|225:157,1,85,10|0,0:0|0:0,0:0:0:0:
332,124,106825,6,0,L|332:60,1,63.7500024318696,2|8,0:0|0:0,0:0:0:0:
419,45,107200,6,0,L|426:86,1,42.5,10|0,0:0|0:0,0:0:0:0:
256,192,107575,12,2,109450,0:0:0:0:
256,192,109825,12,2,111700,0:0:0:0:
312,264,112075,6,0,L|272:247,1,42.5,6|4,0:0|0:0,0:0:0:0:
165,204,112450,2,0,L|199:179,1,42.5,4|4,0:0|0:0,0:0:0:0:
290,107,112825,2,0,L|295:149,1,42.5,4|4,0:0|0:0,0:0:0:0:
312,264,113200,6,0,L|317:306,1,42.5,6|4,0:0|0:0,0:0:0:0:
165,204,113575,2,0,L|126:187,1,42.5,4|4,0:0|0:0,0:0:0:0:
290,107,113950,2,0,L|324:82,1,42.5,0|0,0:0|0:0,0:0:0:0:
344,76,114231,1,0,0:0:0:0:
364,76,114325,6,0,L|344:158,1,85,6|4,0:0|0:0,0:0:0:0:
302,343,114700,2,0,L|240:285,1,85,4|4,0:0|0:0,0:0:0:0:
101,156,115075,2,0,L|183:132,1,85,4|4,0:0|0:0,0:0:0:0:
328,250,115450,5,4,0:0:0:0:
410,227,115637,1,6,0:0:0:0:
166,225,115825,5,4,0:0:0:0:
147,308,116012,1,4,0:0:0:0:
271,98,116200,5,4,0:0:0:0:
209,40,116387,1,4,0:0:0:0:
256,192,116575,5,2,0:0:0:0:
