osu file format v13

[General]
AudioFilename: bgm.mp3
AudioLeadIn: 1600
PreviewTime: 73075
Countdown: 0
SampleSet: Soft
StackLeniency: 0.7
Mode: 0
LetterboxInBreaks: 0
WidescreenStoryboard: 1

[Editor]
DistanceSpacing: 1
BeatDivisor: 4
GridSize: 4
TimelineZoom: 1.5

[Metadata]
Title:Asphodelus (Short Ver.)
TitleUnicode:アスフォデルス (Short Ver.)
Artist:Ceui
ArtistUnicode:Ceui
Creator:Ushiro T
Version:Hard
Source:穢翼のユースティア
Tags:Kegare tsubasa no yusutia opening Aiyoku no Eustia
BeatmapID:455077
BeatmapSetID:190666

[Difficulty]
HPDrainRate:5
CircleSize:4
OverallDifficulty:5
ApproachRate:7
SliderMultiplier:1.3
SliderTickRate:2

[Events]
//Background and Video events
Video,-1200,"video.avi"
0,0,"bg.png",0,0
//Break Periods
//Storyboard Layer 0 (Background)
//Storyboard Layer 1 (Fail)
//Storyboard Layer 2 (Pass)
//Storyboard Layer 3 (Foreground)
//Storyboard Sound Samples
//Background Colour Transformations
3,100,255,255,255

[TimingPoints]
419,375,6,2,1,10,1,0
700,375,6,2,1,15,1,0
9700,-100,6,2,1,20,0,0
14200,-100,6,2,1,25,0,0
17012,-100,6,2,1,45,0,0
17575,-100,6,3,0,45,0,0
18325,-100,6,2,1,45,0,0
18700,-100,6,2,3,60,0,0
18800,-100,6,2,1,45,0,0
32200,-100,6,2,3,35,0,0
32575,-100,6,2,1,30,0,0
41200,-100,6,2,1,35,0,0
52075,-100,6,2,1,20,0,0
52262,-100,6,2,1,35,0,0
59200,-100,6,2,1,45,0,0
68200,-100,6,2,1,55,0,0
68575,-100,6,2,1,45,0,0
71762,-100,6,2,1,65,0,0
72700,-100,6,2,1,20,0,0
73450,-100,6,2,2,70,0,0
73637,-100,6,2,1,45,0,0
73825,-100,6,2,3,65,0,1
74012,-100,6,2,1,65,0,1
78325,-100,6,2,3,65,0,1
78512,-100,6,2,1,65,0,1
82825,-100,6,2,3,65,0,1
83012,-100,6,2,1,65,0,1
87325,-100,6,2,3,65,0,1
87425,-100,6,2,1,65,0,1
91918,-100,6,2,1,65,0,0
98575,-100,6,2,3,65,0,1
98950,-100,6,2,1,65,0,1
99700,-100,6,2,1,65,0,0
112075,-100,6,2,2,50,0,1
112262,-100,6,2,2,30,0,1
112450,-100,6,2,2,30,0,0
113200,-100,6,2,2,50,0,1
113387,-100,6,2,2,30,0,1
113575,-100,6,2,2,30,0,0
114325,-100,6,2,2,50,0,1
114512,-100,6,2,2,30,0,1
114700,-100,6,2,2,30,0,0
115450,-100,6,2,2,50,0,1
115637,-100,6,2,2,30,0,1
115825,-100,6,2,2,30,0,0

[Colours]
Combo1 : 255,238,187
Combo2 : 187,255,187
Combo3 : 0,56,125
Combo4 : 242,36,67

[HitObjects]
371,80,700,6,0,P|400:136|372:192,2,130,6|2|2,0:0|0:0|0:0,0:0:0:0:
320,40,1637,1,2,0:0:0:0:
256,40,1825,2,0,L|192:56,1,65,2|2,0:0|0:0,0:0:0:0:
192,120,2200,2,0,L|256:104,1,65,2|2,0:0|0:0,0:0:0:0:
255,169,2575,2,0,L|191:185,1,65,2|2,0:0|0:0,0:0:0:0:
127,192,2950,6,0,P|97:246|128:300,2,130,6|2|2,0:0|0:0|0:0,0:0:0:0:
191,184,3887,1,2,0:0:0:0:
252,212,4075,2,0,L|316:196,1,65,2|2,0:0|0:0,0:0:0:0:
315,261,4450,2,0,L|251:277,1,65,2|2,0:0|0:0,0:0:0:0:
251,341,4825,2,0,L|315:325,1,65,2|2,0:0|0:0,0:0:0:0:
372,296,5200,6,0,B|416:252|416:252|436:187,2,130,6|2|2,0:0|0:0|0:0,0:0:0:0:
314,325,6137,1,2,0:0:0:0:
252,340,6325,2,0,L|188:325,1,65,2|2,0:0|0:0,0:0:0:0:
136,288,6700,2,0,L|90:242,1,65,2|2,0:0|0:0,0:0:0:0:
64,184,7075,2,0,L|56:119,1,65,2|2,0:0|0:0,0:0:0:0:
52,56,7450,6,0,B|108:24|108:24|174:24,2,130,6|2|2,0:0|0:0|0:0,0:0:0:0:
56,119,8387,1,2,0:0:0:0:
64,184,8575,2,0,L|140:200,1,65,2|2,0:0|0:0,0:0:0:0:
192,200,8950,2,0,L|256:180,1,65,2|2,0:0|0:0,0:0:0:0:
316,156,9325,2,0,L|364:100,2,65,2|2|6,0:0|0:0|0:0,0:0:0:0:
304,220,9887,5,2,0:0:0:0:
328,280,10075,1,2,0:0:0:0:
380,316,10262,1,2,0:0:0:0:
444,320,10450,2,0,L|461:257,1,65,2|2,0:0|0:0,0:0:0:0:
460,192,10825,2,0,L|446:128,1,65,2|2,0:0|0:0,0:0:0:0:
412,72,11200,2,0,L|362:29,1,65,2|2,0:0|0:0,0:0:0:0:
300,16,11575,2,0,L|235:8,2,65,2|2|6,0:0|0:0|0:0,0:0:0:0:
316,80,12137,5,2,0:0:0:0:
296,144,12325,1,2,0:0:0:0:
240,176,12512,1,2,0:0:0:0:
176,168,12700,2,0,L|113:148,1,65,2|2,0:0|0:0,0:0:0:0:
72,96,13075,2,0,L|53:33,1,65,2|2,0:0|0:0,0:0:0:0:
112,4,13450,2,0,L|174:23,1,65,2|2,0:0|0:0,0:0:0:0:
216,76,13825,2,0,L|234:138,1,65,2|2,0:0|0:0,0:0:0:0:
256,200,14200,6,0,L|304:252,1,65,6|2,0:0|0:0,0:0:0:0:
356,280,14575,2,0,L|428:292,1,65,2|2,0:0|0:0,0:0:0:0:
484,284,14950,1,2,0:0:0:0:
496,220,15137,1,2,0:0:0:0:
488,156,15325,2,0,L|472:80,1,65,2|2,0:0|0:0,0:0:0:0:
432,44,15700,2,0,L|368:8,1,65,2|2,0:0|0:0,0:0:0:0:
312,16,16075,2,0,L|248:24,1,65,2|2,0:0|0:0,0:0:0:0:
188,48,16450,6,0,L|136:96,2,65,6|2|2,0:0|0:0|0:0,0:0:0:0:
240,88,17012,1,10,0:0:0:0:
292,128,17200,1,10,0:0:0:0:
344,168,17387,2,0,L|368:146,2,32.5,8|0|4,0:0|0:0|0:0,0:0:0:0:
396,208,17762,1,0,0:0:0:0:
444,252,17950,2,0,L|493:293,1,65,8|8,0:0|0:0,0:0:0:0:
496,360,18325,6,0,B|432:312|432:312|382:312,1,130,0|14,0:0|0:0,0:0:0:0:
316,312,18887,5,0,0:0:0:0:
250,312,19075,2,0,L|185:312,1,65,2|10,0:0|0:0,0:0:0:0:
119,312,19450,2,0,B|72:268|72:268|72:202,2,130,2|10|10,0:0|0:0|0:0,0:0:0:0:
185,312,20387,2,0,L|250:312,2,65,8|0|10,0:0|0:0|0:0,0:0:0:0:
152,256,20950,6,0,B|152:200|152:200|197:141,1,130,14|0,0:0|0:0,0:0:0:0:
262,141,21512,1,10,0:0:0:0:
296,196,21700,1,0,0:0:0:0:
328,140,21887,1,8,0:0:0:0:
296,84,22075,6,0,L|263:27,1,65,10|0,0:0|0:0,0:0:0:0:
328,140,22450,2,0,L|392:139,1,65,2|8,0:0|0:0,0:0:0:0:
262,141,22825,2,0,L|229:197,1,65,10|0,0:0|0:0,0:0:0:0:
256,256,23200,6,0,B|264:348|316:362,1,130,12|2,0:0|0:0,0:0:0:0:
380,362,23762,2,0,B|432:347|440:255,1,130,10|8,0:0|0:0,0:0:0:0:
447,190,24325,2,0,L|382:190,1,65,10|0,0:0|0:0,0:0:0:0:
256,256,24700,2,0,L|321:256,2,65,14|0|0,0:0|0:0|0:0,0:0:0:0:
210,210,25262,1,10,0:0:0:0:
256,162,25450,6,0,P|273:101|255:39,1,130,14|2,0:0|0:0,0:0:0:0:
195,60,26012,2,0,P|164:68|133:60,2,65,10|0|10,0:0|0:0|0:0,0:0:0:0:
255,39,26575,2,0,P|318:26|382:39,1,130,14|10,0:0|0:0,0:0:0:0:
427,87,27137,2,0,P|442:116|446:148,1,65,8|10,0:0|0:0,0:0:0:0:
444,212,27512,1,8,0:0:0:0:
256,192,27700,12,8,29575,0:0:0:0:
256,192,29950,12,4,31825,0:0:0:0:
104,288,32200,6,0,P|158:322|222:333,1,130,2|2,0:0|0:0,0:0:0:0:
289,332,32762,2,0,P|352:321|407:287,1,130,2|2,0:0|0:0,0:0:0:0:
444,235,33325,2,0,P|454:204|456:171,1,65,2|0,0:0|0:0,0:0:0:0:
455,107,33700,2,0,P|447:75|429:48,1,65,2|0,0:0|0:0,0:0:0:0:
372,20,34075,2,0,P|340:12|307:13,1,65,2|0,0:0|0:0,0:0:0:0:
304,80,34450,6,0,P|335:87|368:86,2,65,6|0|2,0:0|0:0|0:0,0:0:0:0:
252,40,35012,1,2,0:0:0:0:
196,76,35200,1,0,0:0:0:0:
136,52,35387,1,2,0:0:0:0:
72,68,35575,2,0,B|64:120|64:120|72:144|72:144|64:195,2,130,2|0|2,0:0|0:0|0:0,0:0:0:0:
136,52,36512,1,2,0:0:0:0:
195,75,36700,6,0,P|228:73|257:60,2,65,6|0|2,0:0|0:0|0:0,0:0:0:0:
144,112,37262,2,0,P|130:141|126:173,2,65,2|0|2,0:0|0:0|0:0,0:0:0:0:
204,136,37825,2,0,L|249:181,1,65,2|0,0:0|0:0,0:0:0:0:
288,236,38200,2,0,L|242:281,1,65,2|0,0:0|0:0,0:0:0:0:
280,336,38575,2,0,L|325:381,1,65,2|0,0:0|0:0,0:0:0:0:
392,379,38950,6,0,B|440:340|440:340|462:275,1,130,6|0,0:0|0:0,0:0:0:0:
452,212,39512,1,2,0:0:0:0:
444,148,39700,2,0,L|428:76,1,65,0|2,0:0|0:0,0:0:0:0:
325,17,40075,2,0,L|388:36,1,65,14|8,0:0|0:0,0:0:0:0:
368,100,40450,5,12,0:0:0:0:
269,183,40637,1,8,0:0:0:0:
244,56,40825,2,0,L|212:49,3,32.5,0|8|8|8,0:0|0:0|0:0|0:0,0:0:0:0:
180,44,41200,6,0,L|116:29,1,65,14|0,0:0|0:0,0:0:0:0:
70,75,41575,1,2,0:0:0:0:
70,139,41762,2,0,L|133:124,1,65,10|0,0:0|0:0,0:0:0:0:
179,170,42137,1,10,0:0:0:0:
179,234,42324,2,0,L|115:219,1,65,10|0,0:0|0:0,0:0:0:0:
236,204,42700,2,0,L|280:156,1,65,2|0,0:0|0:0,0:0:0:0:
232,268,43075,2,0,L|250:330,1,65,2|8,0:0|0:0,0:0:0:0:
307,364,43450,6,0,P|371:355|423:316,1,130,14|0,0:0|0:0,0:0:0:0:
400,256,44012,2,0,P|348:294|284:303,1,130,10|2,0:0|0:0,0:0:0:0:
232,268,44575,1,2,0:0:0:0:
188,220,44762,1,0,0:0:0:0:
124,208,44950,2,0,L|64:244,2,65,8|8|10,0:0|0:0|0:0,0:0:0:0:
140,144,45512,1,0,0:0:0:0:
124,80,45700,6,0,L|64:44,2,65,14|0|0,0:0|0:0|0:0,0:0:0:0:
188,96,46262,2,0,P|252:90|314:71,1,130,8|10,0:0|0:0,0:0:0:0:
372,44,46825,2,0,L|440:44,1,65,10|0,0:0|0:0,0:0:0:0:
437,109,47200,2,0,L|372:109,1,65,2|8,0:0|0:0,0:0:0:0:
372,174,47575,2,0,L|440:174,1,65,2|8,0:0|0:0,0:0:0:0:
437,239,47950,6,0,P|374:257|310:263,1,130,14|0,0:0|0:0,0:0:0:0:
256,228,48512,1,12,0:0:0:0:
256,292,48700,1,0,0:0:0:0:
200,260,48887,1,14,0:0:0:0:
144,228,49075,2,0,P|137:196|143:163,1,65,14|0,0:0|0:0,0:0:0:0:
144,296,49450,2,0,P|119:317|88:328,1,65,8|8,0:0|0:0,0:0:0:0:
200,260,49825,2,0,P|230:270|256:292,1,65,10|0,0:0|0:0,0:0:0:0:
308,332,50200,5,14,0:0:0:0:
372,332,50387,1,2,0:0:0:0:
428,296,50575,1,2,0:0:0:0:
464,240,50762,1,2,0:0:0:0:
464,176,50950,2,0,L|400:192,1,65,2|8,0:0|0:0,0:0:0:0:
372,332,51325,6,0,L|436:316,1,65,6|0,0:0|0:0,0:0:0:0:
336,208,51700,2,0,L|272:224,1,65,2|0,0:0|0:0,0:0:0:0:
212,244,52075,2,0,L|212:288,2,32.5,2|0|10,0:0|0:0|0:0,0:0:0:0:
224,180,52450,6,0,P|224:112|196:40,1,130,14|0,0:0|0:0,0:0:0:0:
148,20,53012,2,0,L|76:20,2,65,10|0|10,0:0|0:0|0:0,0:0:0:0:
204,53,53575,1,10,0:0:0:0:
268,72,53762,1,2,0:0:0:0:
332,72,53950,2,0,L|400:72,2,65,14|8|8,0:0|0:0|0:0,0:0:0:0:
268,72,54512,1,2,0:0:0:0:
220,116,54700,5,14,0:0:0:0:
208,180,54887,1,2,0:0:0:0:
168,232,55075,1,2,0:0:0:0:
108,252,55262,1,10,0:0:0:0:
44,244,55450,2,0,L|44:179,1,65,2|8,0:0|0:0,0:0:0:0:
44,48,55825,6,0,L|44:113,1,65,10|0,0:0|0:0,0:0:0:0:
109,113,56200,2,0,L|109:48,2,65,2|8|0,0:0|0:0|0:0,0:0:0:0:
154,158,56762,1,10,0:0:0:0:
218,158,56950,6,0,P|278:133|310:78,1,130,14|0,0:0|0:0,0:0:0:0:
312,12,57512,1,8,0:0:0:0:
368,48,57700,1,2,0:0:0:0:
424,12,57887,2,0,L|454:0,2,32.5,10|0|14,0:0|0:0|0:0,0:0:0:0:
368,48,58262,1,2,0:0:0:0:
424,80,58450,2,0,L|479:114,1,65,10|8,0:0|0:0,0:0:0:0:
480,180,58825,2,0,L|424:214,1,65,8|0,0:0|0:0,0:0:0:0:
479,313,59200,6,0,L|424:279,2,65,14|0|2,0:0|0:0|0:0,0:0:0:0:
436,360,59762,1,8,0:0:0:0:
372,372,59950,1,0,0:0:0:0:
308,360,60137,1,10,0:0:0:0:
263,311,60325,2,0,P|242:251|264:191,1,130,14|2,0:0|0:0,0:0:0:0:
316,147,60887,2,0,P|324:116|316:85,2,65,8|0|8,0:0|0:0|0:0,0:0:0:0:
256,124,61450,6,0,L|201:87,1,65,14|0,0:0|0:0,0:0:0:0:
264,188,61825,2,0,L|259:252,1,65,2|8,0:0|0:0,0:0:0:0:
316,148,62200,2,0,L|374:119,1,65,2|8,0:0|0:0,0:0:0:0:
388,184,62575,2,0,L|316:220,1,65,14|0,0:0|0:0,0:0:0:0:
196,232,62950,2,0,L|200:151,1,65,10|8,0:0|0:0,0:0:0:0:
248,44,63325,2,0,L|315:88,2,65,10|0|6,0:0|0:0|0:0,0:0:0:0:
184,28,63887,5,0,0:0:0:0:
120,36,64075,1,0,0:0:0:0:
68,76,64262,2,0,L|26:26,2,65,8|0|8,0:0|0:0|0:0,0:0:0:0:
128,100,64825,2,0,B|146:166|88:184|88:184|92:207,1,130,12|0,0:0|0:0,0:0:0:0:
109,270,65387,1,8,0:0:0:0:
128,332,65575,2,0,L|196:344,1,65,10|0,0:0|0:0,0:0:0:0:
256,352,65950,6,0,P|235:291|256:231,1,130,14|0,0:0|0:0,0:0:0:0:
308,192,66512,1,8,0:0:0:0:
328,128,66700,1,2,0:0:0:0:
308,64,66887,1,8,0:0:0:0:
256,32,67075,6,0,L|191:42,1,65,14|8,0:0|0:0,0:0:0:0:
61,31,67450,2,0,L|126:42,1,65,0|12,0:0|0:0,0:0:0:0:
156,163,67825,2,0,L|156:98,1,65,0|8,0:0|0:0,0:0:0:0:
192,43,68200,6,0,P|254:24|315:43,1,130,14|0,0:0|0:0,0:0:0:0:
344,100,68762,1,2,0:0:0:0:
352,164,68950,2,0,L|352:248,1,65,2|8,0:0|0:0,0:0:0:0:
305,340,69325,2,0,L|305:275,1,65,10|0,0:0|0:0,0:0:0:0:
258,163,69700,2,0,L|258:228,2,65,10|0|6,0:0|0:0|0:0,0:0:0:0:
304,120,70262,1,8,0:0:0:0:
352,164,70450,6,0,L|406:128,1,65,10|4,0:0|0:0,0:0:0:0:
300,55,70825,2,0,L|304:120,1,65,8|4,0:0|0:0,0:0:0:0:
420,64,71200,2,0,L|362:34,1,65,8|4,0:0|0:0,0:0:0:0:
301,55,71575,5,2,0:0:0:0:
240,72,71762,1,4,0:0:0:0:
196,24,71950,1,2,0:0:0:0:
180,86,72137,1,4,0:0:0:0:
118,103,72325,1,2,0:0:0:0:
164,148,72512,1,4,0:0:0:0:
228,132,72700,6,0,L|300:132,1,65,0|0,0:0|0:0,0:0:0:0:
293,197,73075,2,0,L|365:197,1,65,0|8,0:0|0:0,0:0:0:0:
455,197,73450,1,14,0:0:0:0:
408,282,73637,1,8,0:0:0:0:
408,282,73731,1,8,0:0:0:0:
408,282,73825,5,14,0:0:0:0:
324,327,74012,2,0,P|262:345|200:328,1,130,0|8,0:0|0:0,0:0:0:0:
151,243,74575,2,0,P|120:237|88:243,1,65,2|8,0:0|0:0,0:0:0:0:
68,268,74856,1,8,0:0:0:0:
60,300,74950,5,10,0:0:0:0:
129,366,75137,2,0,P|156:308|152:244,1,130,8|8,0:0|0:0,0:0:0:0:
135,147,75700,2,0,P|127:116|135:85,1,65,14|0,0:0|0:0,0:0:0:0:
208,20,76075,6,0,B|260:56|316:20|316:20|316:34,1,130,14|0,0:0|0:0,0:0:0:0:
316,132,76637,1,10,0:0:0:0:
400,84,76825,2,0,P|407:115|408:148,1,65,10|0,0:0|0:0,0:0:0:0:
348,225,77200,2,0,B|284:250|240:201|240:201|232:208,1,130,14|0,0:0|0:0,0:0:0:0:
228,304,77762,1,8,0:0:0:0:
232,208,77950,2,0,L|235:143,1,65,10|0,0:0|0:0,0:0:0:0:
239,43,78325,6,0,P|178:61|140:113,1,130,12|2,0:0|0:0,0:0:0:0:
235,143,78887,1,8,0:0:0:0:
324,99,79075,2,0,P|356:95|388:100,1,65,2|0,0:0|0:0,0:0:0:0:
380,196,79450,2,0,P|347:200|315:195,1,65,10|0,0:0|0:0,0:0:0:0:
235,143,79825,1,2,0:0:0:0:
235,240,80012,1,8,0:0:0:0:
256,336,80200,2,0,P|285:350|317:355,1,65,2|8,0:0|0:0,0:0:0:0:
416,352,80575,6,0,P|468:308|492:240,1,130,14|0,0:0|0:0,0:0:0:0:
496,156,81137,1,10,0:0:0:0:
408,200,81325,1,2,0:0:0:0:
408,104,81512,1,10,0:0:0:0:
408,104,81606,1,8,0:0:0:0:
408,104,81700,6,0,L|408:39,1,65,6|8,0:0|0:0,0:0:0:0:
316,72,82075,2,0,L|270:26,1,65,8|0,0:0|0:0,0:0:0:0:
212,104,82450,2,0,L|147:104,1,65,14|0,0:0|0:0,0:0:0:0:
104,192,82825,5,14,0:0:0:0:
172,260,83012,2,0,P|188:320|148:372,1,130,0|8,0:0|0:0,0:0:0:0:
52,380,83575,1,2,0:0:0:0:
112,304,83762,1,8,0:0:0:0:
112,304,83856,1,8,0:0:0:0:
112,304,83950,6,0,P|168:331|225:305,1,130,10|8,0:0|0:0,0:0:0:0:
300,240,84512,1,8,0:0:0:0:
396,235,84700,2,0,P|440:247|472:271,1,65,2|8,0:0|0:0,0:0:0:0:
476,284,84981,1,0,0:0:0:0:
488,316,85075,5,14,0:0:0:0:
392,332,85262,2,0,P|348:320|316:296,2,65,0|0|14,0:0|0:0|0:0,0:0:0:0:
396,235,85825,2,0,P|391:203|375:176,1,65,2|8,0:0|0:0,0:0:0:0:
319,95,86200,2,0,P|267:59|203:62,1,130,14|8,0:0|0:0,0:0:0:0:
134,131,86762,1,8,0:0:0:0:
63,199,86950,2,0,P|45:173|36:142,1,65,10|6,0:0|0:0,0:0:0:0:
79,56,87325,6,0,P|142:44|203:62,1,130,12|2,0:0|0:0,0:0:0:0:
240,152,87887,2,0,P|260:176|289:190,2,65,10|0|10,0:0|0:0|0:0,0:0:0:0:
320,96,88450,2,0,L|384:84,1,65,10|0,0:0|0:0,0:0:0:0:
445,180,88825,2,0,L|380:180,1,65,10|0,0:0|0:0,0:0:0:0:
320,276,89200,2,0,L|384:288,1,65,2|8,0:0|0:0,0:0:0:0:
480,272,89575,6,0,L|512:264,2,32.5,14|0|0,0:0|0:0|0:0,0:0:0:0:
445,180,89950,2,0,L|445:111,1,65,0|8,0:0|0:0,0:0:0:0:
352,148,90325,2,0,L|336:76,1,65,2|10,0:0|0:0,0:0:0:0:
256,136,90700,2,0,B|206:95|206:95|140:95,1,130,12|8,0:0|0:0,0:0:0:0:
80,172,91262,1,8,0:0:0:0:
132,252,91450,1,0,0:0:0:0:
224,280,91637,2,0,L|289:280,1,65,8|6,0:0|0:0,0:0:0:0:
256,192,91918,12,10,92950,0:0:0:0:
284,68,93325,5,8,0:0:0:0:
256,188,93700,1,10,0:0:0:0:
412,72,94075,2,0,P|453:121|462:184,1,130,14|0,0:0|0:0,0:0:0:0:
444,248,94637,1,8,0:0:0:0:
408,304,94825,1,2,0:0:0:0:
352,336,95012,1,8,0:0:0:0:
288,344,95200,6,0,P|223:338|167:307,1,130,14|8,0:0|0:0,0:0:0:0:
128,216,95762,1,8,0:0:0:0:
224,216,95950,2,0,L|300:216,1,65,10|0,0:0|0:0,0:0:0:0:
386,216,96325,1,6,0:0:0:0:
256,192,96512,12,14,98575,0:0:0:0:
116,224,98950,5,2,0:0:0:0:
80,168,99137,1,2,0:0:0:0:
80,103,99325,2,2,P|89:73|109:47,1,65,2|8,0:0|0:0,0:0:0:0:
172,36,99700,2,0,L|244:48,1,65,14|0,0:0|0:0,0:0:0:0:
340,92,100075,2,0,L|276:96,1,65,10|8,0:0|0:0,0:0:0:0:
244,152,100450,1,8,0:0:0:0:
256,216,100637,1,2,0:0:0:0:
308,256,100825,6,0,P|370:272|432:256,1,130,14|2,0:0|0:0,0:0:0:0:
488,220,101387,2,0,P|508:180|512:144,2,65,10|0|10,0:0|0:0|0:0,0:0:0:0:
428,192,101950,2,0,L|384:120,1,65,14|0,0:0|0:0,0:0:0:0:
344,96,102325,2,0,L|279:97,1,65,2|8,0:0|0:0,0:0:0:0:
404,72,102700,2,0,L|435:14,2,65,10|0|12,0:0|0:0|0:0,0:0:0:0:
344,96,103262,5,0,0:0:0:0:
279,97,103450,2,0,P|240:96|208:88,1,65,2|2,0:0|0:0,0:0:0:0:
152,72,103825,2,0,P|112:73|80:81,1,65,2|8,0:0|0:0,0:0:0:0:
56,136,104200,2,0,P|64:167|78:196,1,65,14|0,0:0|0:0,0:0:0:0:
138,312,104575,2,0,P|129:281|116:252,1,65,10|0,0:0|0:0,0:0:0:0:
52,256,104950,1,0,0:0:0:0:
78,196,105137,1,10,0:0:0:0:
56,136,105325,6,0,P|89:83|152:72,1,130,14|2,0:0|0:0,0:0:0:0:
216,80,105887,2,0,P|268:76|300:60,2,65,10|0|10,0:0|0:0|0:0,0:0:0:0:
180,132,106450,6,0,L|184:216,1,65,14|0,0:0|0:0,0:0:0:0:
289,269,106825,2,0,L|232:240,1,65,2|8,0:0|0:0,0:0:0:0:
117,299,107200,2,0,L|172:264,1,65,10|0,0:0|0:0,0:0:0:0:
183,196,107575,1,4,0:0:0:0:
256,192,107762,12,8,109450,0:0:0:0:
256,192,109825,12,8,111700,0:0:0:0:
256,144,112075,6,0,L|316:120,1,65,6|4,0:0|0:0,0:0:0:0:
297,215,112450,2,0,L|288:279,1,65,4|4,0:0|0:0,0:0:0:0:
214,216,112825,2,0,L|163:176,1,65,4|4,0:0|0:0,0:0:0:0:
132,120,113200,5,6,0:0:0:0:
164,64,113387,1,4,0:0:0:0:
224,40,113575,1,4,0:0:0:0:
288,40,113762,1,4,0:0:0:0:
348,64,113950,1,4,0:0:0:0:
380,120,114137,1,4,0:0:0:0:
348,176,114325,6,0,L|297:216,1,65,4|4,0:0|0:0,0:0:0:0:
223,279,114700,2,0,L|214:215,1,65,4|4,0:0|0:0,0:0:0:0:
196,120,115075,2,0,L|256:144,1,65,4|4,0:0|0:0,0:0:0:0:
380,264,115450,5,6,0:0:0:0:
348,320,115637,1,4,0:0:0:0:
288,344,115825,1,4,0:0:0:0:
224,344,116012,1,4,0:0:0:0:
164,320,116200,1,4,0:0:0:0:
132,264,116387,6,0,L|132:192,1,65
