osu file format v14

[General]
AudioFilename: bgm.mp3
AudioLeadIn: 1600
PreviewTime: 73075
Countdown: 0
SampleSet: Soft
StackLeniency: 0.7
Mode: 0
LetterboxInBreaks: 0
WidescreenStoryboard: 1

[Editor]
DistanceSpacing: 1
BeatDivisor: 4
GridSize: 4
TimelineZoom: 1.5

[Metadata]
Title:Asphodelus (Short Ver.)
TitleUnicode:アスフォデルス (Short Ver.)
Artist:Ceui
ArtistUnicode:Ceui
Creator:Ushiro T
Version:BANG!!
Source:穢翼のユースティア
Tags:Kegare tsubasa no yusutia opening Aiyoku no Eustia
BeatmapID:453896
BeatmapSetID:190666

[Difficulty]
HPDrainRate:7
CircleSize:4.5
OverallDifficulty:8
ApproachRate:9.5
SliderMultiplier:2
SliderTickRate:2

[Events]
//Background and Video events
Video,-1200,"video.avi"
0,0,"bg.png",0,0
//Break Periods
//Storyboard Layer 0 (Background)
//Storyboard Layer 1 (Fail)
//Storyboard Layer 2 (Pass)
//Storyboard Layer 3 (Foreground)
//Storyboard Sound Samples

[TimingPoints]
419,375,6,2,1,30,1,0
419,-66.6666666666667,6,2,1,30,0,0
700,375,6,2,1,30,1,0
700,-100,6,2,1,15,0,0
2012,-133.333333333333,6,2,1,15,0,0
2200,-100,6,2,1,15,0,0
2762,-200,6,2,1,15,0,0
2950,-100,6,2,1,15,0,0
4262,-133.333333333333,6,2,1,15,0,0
4450,-100,6,2,1,15,0,0
5012,-200,6,2,1,15,0,0
5200,-100,6,2,1,15,0,0
6512,-133.333333333333,6,2,1,15,0,0
6700,-100,6,2,1,15,0,0
7075,-200,6,2,1,15,0,0
7262,-100,6,2,1,15,0,0
9512,-200,6,2,1,15,0,0
9700,-100,6,2,1,25,0,0
11762,-200,6,2,1,25,0,0
11950,-100,6,2,1,25,0,0
13825,-200,6,2,1,25,0,0
14950,-100,6,2,1,25,0,0
15325,-133.333333333333,6,2,1,25,0,0
16075,-200,6,2,1,25,0,0
16450,-100,6,2,1,25,0,0
17012,-100,6,2,1,50,0,0
17575,-66.6666666666667,6,3,0,40,0,0
17856,-66.6666666666667,6,3,0,25,0,0
17950,-200,6,3,0,40,0,0
18043,-200,6,3,0,15,0,0
18137,-200,6,3,0,40,0,0
18231,-200,6,3,0,15,0,0
18325,-100,6,3,0,40,0,0
18418,-100,6,3,0,15,0,0
18512,-100,6,3,0,40,0,0
18606,-100,6,3,0,15,0,0
18700,-100,6,2,3,45,0,0
23200,-100,6,2,2,60,0,0
23293,-100,6,2,3,45,0,0
27512,-200,6,2,3,45,0,0
27700,-100,6,2,3,45,0,0
29762,-133.333333333333,6,2,3,45,0,0
32575,-133.333333333333,6,2,0,25,0,0
35762,-133.333333333333,6,2,0,15,0,0
36325,-133.333333333333,6,2,0,25,0,0
38200,-200,6,2,0,25,0,0
38387,-133.333333333333,6,2,0,25,0,0
40450,-200,6,2,1,40,0,0
40825,-133.333333333333,6,2,1,40,0,0
41200,-133.333333333333,6,2,2,40,0,0
41387,-133.333333333333,6,2,1,40,0,0
41575,-80,6,2,1,40,0,0
42418,-80,6,2,1,20,0,0
42700,-133.333333333333,6,2,1,40,0,0
42793,-133.333333333333,6,2,1,20,0,0
43075,-133.333333333333,6,2,1,40,0,0
45043,-133.333333333333,6,2,1,20,0,0
45137,-133.333333333333,6,2,1,40,0,0
45231,-133.333333333333,6,2,1,20,0,0
45325,-133.333333333333,6,2,1,40,0,0
45700,-79.9999999999999,6,2,3,40,0,0
46637,-133.333333333333,6,2,1,40,0,0
46918,-133.333333333333,6,2,1,5,0,0
47012,-133.333333333333,6,2,1,40,0,0
48700,-100,6,2,1,40,0,0
49637,-133.333333333333,6,2,1,40,0,0
49731,-133.333333333333,6,2,1,5,0,0
49825,-200,6,2,1,40,0,0
50200,-100,6,2,3,40,0,0
50387,-100,6,2,1,40,0,0
50950,-200,6,2,1,40,0,0
51325,-100,6,2,1,40,0,0
51700,-66.6666666666667,6,2,1,40,0,0
51887,-100,6,2,1,40,0,0
51981,-100,6,2,1,30,0,0
52262,-100,6,2,1,40,0,0
54512,-100,6,2,1,40,0,0
54700,-100,6,2,3,40,0,0
54887,-100,6,2,1,40,0,0
56200,-80,6,2,1,40,0,0
56575,-100,6,2,1,40,0,0
58543,-100,6,2,1,5,0,0
58637,-100,6,2,1,40,0,0
58731,-100,6,2,1,5,0,0
58825,-100,6,2,1,40,0,0
59200,-100,6,2,3,40,0,0
59293,-100,6,2,1,40,0,0
61450,-100,6,2,3,40,0,0
61543,-100,6,2,1,40,0,0
63700,-100,6,2,3,40,0,0
63793,-100,6,2,1,40,0,0
64825,-200,6,2,1,40,0,0
64918,-200,6,2,1,5,0,0
65012,-200,6,2,1,40,0,0
65106,-200,6,2,1,5,0,0
65200,-200,6,2,1,40,0,0
65575,-100,6,2,1,40,0,0
65950,-100,6,2,3,40,0,0
66043,-100,6,2,1,40,0,0
68200,-80,6,2,3,50,0,0
68575,-80,6,2,1,50,0,0
69325,-80,6,2,1,60,0,0
71668,-80,6,2,1,80,0,0
72325,-133.333333333333,6,2,1,60,0,0
72700,-133.333333333333,6,2,2,30,0,0
73262,-200,6,2,2,30,0,0
73448,-200,6,2,2,90,0,0
73637,-200,6,2,3,60,0,0
73825,-100,6,2,3,65,0,1
74200,-66.6666666666667,6,2,3,65,0,1
76075,-100,6,2,3,65,0,1
76450,-66.6666666666667,6,2,3,65,0,1
76825,-66.6666666666667,6,2,3,75,0,1
77950,-133.333333333333,6,2,3,65,0,1
78325,-66.6666666666667,6,2,3,80,0,1
78606,-80,6,2,3,65,0,1
80950,-100,6,2,3,65,0,1
82825,-66.6666666666667,6,2,3,80,0,1
83200,-66.6666666666667,6,2,3,65,0,1
83950,-100,6,2,3,65,0,1
84325,-66.6666666666667,6,2,3,65,0,1
86387,-100,6,2,3,65,0,1
87137,-66.6666666666667,6,2,3,65,0,1
87325,-66.6666666666667,6,2,3,75,0,1
88450,-100,6,2,3,75,0,1
88825,-66.6666666666667,6,2,3,30,0,1
89012,-66.6666666666667,6,2,3,75,0,1
89950,-100,6,2,3,65,0,1
90231,-100,6,2,3,5,0,1
90325,-100,6,2,3,65,0,1
90419,-66.6666666666667,6,2,3,5,0,1
90512,-66.6666666666667,6,2,3,65,0,1
91825,-66.6666666666667,6,2,2,60,0,0
93137,-100,6,2,3,60,0,0
93325,-66.6666666666667,6,2,3,60,0,0
94075,-100,6,2,3,60,0,0
94450,-66.6666666666667,6,2,3,60,0,0
96325,-66.6666666666667,6,2,3,60,0,0
97450,-66.6666666666667,6,2,3,60,0,0
97825,-100,6,2,3,60,0,0
98575,-66.6666666666667,6,2,2,90,0,1
99137,-100,6,2,3,45,0,1
99700,-100,6,2,3,55,0,0
100825,-80,6,2,3,45,0,0
101200,-100,6,2,3,45,0,0
104200,-133.333333333333,6,2,3,45,0,0
104575,-80,6,2,3,45,0,0
104762,-100,6,2,3,45,0,0
107387,-133.333333333333,6,2,3,45,0,0
107481,-100,6,2,3,45,0,0
112075,-100,6,2,2,50,0,1
112262,-100,6,2,2,30,0,1
112450,-100,6,2,2,30,0,0
113200,-100,6,2,2,50,0,1
113293,-100,6,2,2,30,0,1
113575,-100,6,2,2,30,0,0
114325,-100,6,2,2,50,0,1
114418,-100,6,2,2,30,0,1
114700,-100,6,2,2,30,0,0
115450,-100,6,2,2,50,0,1
115543,-100,6,2,2,30,0,1
115825,-100,6,2,2,30,0,0

[Colours]
Combo1 : 255,238,187
Combo2 : 187,255,187
Combo3 : 0,56,125
Combo4 : 242,36,67

[HitObjects]
477,153,419,6,0,P|408:70|302:88,1,225.000008583069,0|6,0:0|0:0,0:0:0:0:
272,184,887,5,2,0:0:0:0:
96,216,1075,1,2,0:0:0:0:
176,148,1262,1,2,0:0:0:0:
368,168,1450,1,2,0:0:0:0:
392,265,1637,2,0,L|415:362,1,100,2|2,0:0|0:0,0:0:0:0:
296,281,2012,2,0,L|288:355,1,75.0000028610231,2|2,0:0|0:0,0:0:0:0:
176,148,2387,1,2,0:0:0:0:
192,248,2575,1,2,0:0:0:0:
256,88,2762,2,0,L|274:104,1,25,2|0,0:0|0:0,0:0:0:0:
336,152,2950,6,0,P|382:168|428:151,1,100,6|2,0:0|0:0,0:0:0:0:
192,248,3325,2,0,P|145:231|99:248,1,100,2|2,0:0|0:0,0:0:0:0:
256,88,3700,1,2,0:0:0:0:
156,80,3887,2,0,L|56:72,1,100,2|2,0:0|0:0,0:0:0:0:
357,79,4262,2,0,L|431:72,1,75.0000028610231,2|2,0:0|0:0,0:0:0:0:
256,88,4637,1,2,0:0:0:0:
192,248,4825,1,2,0:0:0:0:
336,152,5012,2,0,L|311:152,1,25,2|0,0:0|0:0,0:0:0:0:
176,152,5200,5,6,0:0:0:0:
320,248,5387,1,2,0:0:0:0:
412,212,5575,1,2,0:0:0:0:
488,272,5762,1,2,0:0:0:0:
256,328,5950,1,2,0:0:0:0:
352,348,6137,2,0,L|450:366,1,100,2|2,0:0|0:0,0:0:0:0:
160,348,6512,2,0,L|86:362,1,75.0000028610231,2|2,0:0|0:0,0:0:0:0:
256,328,6887,1,2,0:0:0:0:
256,178,7075,6,0,L|256:228,1,50,2|2,0:0|0:0,0:0:0:0:
256,328,7356,1,0,0:0:0:0:
256,328,7450,5,6,0:0:0:0:
184,260,7637,1,2,0:0:0:0:
328,192,7825,1,2,0:0:0:0:
144,128,8012,1,2,0:0:0:0:
356,40,8200,1,2,0:0:0:0:
156,40,8387,5,2,0:0:0:0:
368,128,8575,1,2,0:0:0:0:
184,192,8762,1,2,0:0:0:0:
328,260,8950,1,2,0:0:0:0:
256,328,9137,1,2,0:0:0:0:
352,356,9325,1,2,0:0:0:0:
160,300,9512,2,0,L|184:306,1,25,2|0,0:0|0:0,0:0:0:0:
256,328,9700,5,6,0:0:0:0:
356,316,9887,1,2,0:0:0:0:
437,259,10075,1,2,0:0:0:0:
474,165,10262,1,2,0:0:0:0:
451,67,10450,1,2,0:0:0:0:
385,141,10637,1,2,0:0:0:0:
451,67,10825,5,2,0:0:0:0:
474,165,11012,1,2,0:0:0:0:
407,93,11200,1,2,0:0:0:0:
437,259,11387,1,2,0:0:0:0:
385,141,11575,1,2,0:0:0:0:
356,316,11762,2,0,L|351:339,1,25,2|0,0:0|0:0,0:0:0:0:
256,328,11950,5,6,0:0:0:0:
156,316,12137,1,2,0:0:0:0:
75,259,12325,1,2,0:0:0:0:
38,165,12512,1,2,0:0:0:0:
61,67,12700,1,2,0:0:0:0:
127,141,12887,1,2,0:0:0:0:
61,67,13075,5,2,0:0:0:0:
38,165,13262,1,2,0:0:0:0:
105,93,13450,1,2,0:0:0:0:
75,259,13637,1,2,0:0:0:0:
127,141,13825,1,2,0:0:0:0:
156,316,14012,2,0,L|160:339,1,25,2|0,0:0|0:0,0:0:0:0:
256,348,14200,5,6,0:0:0:0:
256,220,14387,1,2,0:0:0:0:
288,368,14575,1,2,0:0:0:0:
224,200,14762,1,2,0:0:0:0:
156,316,14950,2,0,L|164:216,1,100,2|2,0:0|0:0,0:0:0:0:
356,68,15325,2,0,L|349:142,1,75.0000028610231,2|2,0:0|0:0,0:0:0:0:
136,96,15700,2,0,L|210:102,1,75.0000028610231,2|2,0:0|0:0,0:0:0:0:
248,108,15981,1,2,0:0:0:0:
284,112,16075,6,0,L|308:114,1,25,2|0,0:0|0:0,0:0:0:0:
392,189,16262,2,0,L|368:192,1,25,2|0,0:0|0:0,0:0:0:0:
288,248,16450,5,6,0:0:0:0:
224,324,16637,1,2,0:0:0:0:
164,244,16825,1,2,0:0:0:0:
356,68,17012,1,8,0:0:0:0:
356,328,17200,1,8,0:0:0:0:
392,188,17387,1,8,0:0:0:0:
388,164,17481,1,8,0:0:0:0:
380,140,17575,6,0,P|301:61|192:49,1,225.000008583069,12|0,0:0|0:0,0:0:0:0:
148,72,17950,2,0,L|173:72,1,25,4|0,0:0|0:0,0:0:0:0:
112,108,18137,2,0,L|137:108,1,25,8|0,0:0|0:0,0:0:0:0:
384,164,18325,6,0,L|334:167,1,50,4|0,0:0|0:0,0:0:0:0:
100,156,18512,2,0,L|156:152,1,50,4|0,0:0|0:0,0:0:0:0:
232,148,18700,5,12,0:0:0:0:
233,177,18793,1,0,0:0:0:0:
234,207,18887,1,0,0:0:0:0:
235,237,18981,1,0,0:0:0:0:
236,267,19075,1,0,0:0:0:0:
384,164,19262,1,8,0:0:0:0:
237,297,19450,5,8,0:0:0:0:
308,140,19637,1,0,0:0:0:0:
420,272,19825,2,0,B|448:328|448:328|480:345,1,100,8|0,0:0|0:0,0:0:0:0:
148,72,20200,2,0,B|204:100|204:100|221:133,1,100,8|8,0:0|0:0,0:0:0:0:
260,208,20481,1,0,0:0:0:0:
266,225,20575,1,8,0:0:0:0:
368,80,20762,1,8,0:0:0:0:
368,80,20856,1,0,0:0:0:0:
368,80,20950,6,0,B|392:48|392:24|392:24|392:162,1,200,12|0,0:0|0:0,0:0:0:0:
412,264,21512,1,8,0:0:0:0:
256,188,21700,1,0,0:0:0:0:
296,356,21887,1,8,0:0:0:0:
312,356,21981,1,0,0:0:0:0:
328,356,22075,6,0,L|377:342,2,50,8|0|0,0:0|0:0|0:0,0:0:0:0:
176,220,22450,1,8,0:0:0:0:
336,156,22637,1,8,0:0:0:0:
144,80,22825,2,0,L|96:93,1,50,8|0,0:0|0:0,0:0:0:0:
176,220,23012,2,0,L|225:206,1,50,0|0,0:0|0:0,0:0:0:0:
336,156,23200,5,14,0:0:0:0:
331,185,23293,1,0,0:0:0:0:
326,215,23387,1,0,0:0:0:0:
321,244,23481,1,0,0:0:0:0:
316,274,23575,1,8,0:0:0:0:
480,220,23762,5,8,0:0:0:0:
313,303,23950,1,8,0:0:0:0:
340,124,24137,1,0,0:0:0:0:
208,254,24325,2,0,B|200:276|200:276|190:351,1,100,12|0,0:0|0:0,0:0:0:0:
352,24,24700,6,0,B|352:52|352:52|340:124,1,100,8|8,0:0|0:0,0:0:0:0:
312,200,24981,1,0,0:0:0:0:
304,216,25075,1,0,0:0:0:0:
174,47,25262,1,0,0:0:0:0:
163,48,25356,1,0,0:0:0:0:
152,50,25450,2,14,B|108:62|88:62|88:62|222:62,1,200,12|8,0:0|0:0,0:0:0:0:
320,36,26012,1,8,0:0:0:0:
124,180,26200,2,0,B|164:160|204:168|204:168|216:155,1,100,0|8,0:0|0:0,0:0:0:0:
296,120,26481,1,0,0:0:0:0:
312,124,26575,6,0,B|352:132|352:132|361:130,2,50,8|0|0,0:0|0:0|0:0,0:0:0:0:
140,92,26950,1,8,0:0:0:0:
156,308,27137,1,8,0:0:0:0:
372,292,27325,2,0,L|368:242,1,50,8|0,0:0|0:0,0:0:0:0:
356,76,27512,2,0,L|358:100,1,25,0|0,0:0|0:0,0:0:0:0:
256,192,27700,12,8,28825,0:0:0:0:
256,192,29012,5,0,0:0:0:0:
305,106,29200,1,8,0:0:0:0:
157,192,29387,1,8,0:0:0:0:
157,192,29481,1,0,0:0:0:0:
157,192,29575,1,8,0:0:0:0:
305,278,29762,6,0,L|380:278,1,75.0000028610231,0|12,0:0|0:0,0:0:0:0:
256,192,30137,12,8,30887,0:0:0:0:
256,192,31075,12,2,32200,0:0:0:0:
380,92,32575,5,2,0:0:0:0:
416,191,32762,2,0,P|379:199|343:191,2,75.0000028610231,2|0|2,0:0|0:0|0:0,0:0:0:0:
280,124,33325,1,2,0:0:0:0:
248,192,33512,1,0,0:0:0:0:
320,328,33700,5,2,0:0:0:0:
277,266,33887,1,0,0:0:0:0:
124,262,34075,5,2,0:0:0:0:
200,256,34262,1,0,0:0:0:0:
320,328,34450,2,0,B|360:352|392:328|428:304|464:328,1,150.000005722046,2|2,0:0|0:0,0:0:0:0:
500,264,35012,1,2,0:0:0:0:
432,236,35200,1,0,0:0:0:0:
500,264,35387,1,2,0:0:0:0:
500,120,35575,5,2,0:0:0:0:
500,125,35762,1,0,0:0:0:0:
376,192,35950,5,0,0:0:0:0:
376,197,36137,1,0,0:0:0:0:
256,116,36325,5,2,0:0:0:0:
192,76,36512,1,2,0:0:0:0:
91,193,36700,2,0,B|59:230|76:278|97:293|97:293|96:298|96:298|97:293|97:293|117:309|121:306,1,150.000005722046,6|0,0:0|0:0,0:0:0:0:
226,192,37262,2,0,B|231:192|240:216|240:216|244:212|244:212|240:216|240:216|251:239|242:289|196:306,1,150.000005722046,2|2,0:0|0:0,0:0:0:0:
160,320,37731,1,0,0:0:0:0:
160,320,37825,6,0,L|234:329,1,75.0000028610231,2|0,0:0|0:0,0:0:0:0:
91,193,38200,2,0,L|41:201,1,50,2|0,0:0|0:0,0:0:0:0:
164,88,38575,2,0,L|238:78,1,75.0000028610231,2|0,0:0|0:0,0:0:0:0:
335,56,38950,6,0,P|268:81|256:152,1,150.000005722046,4|0,0:0|0:0,0:0:0:0:
251,290,39512,2,0,P|273:260|275:223,2,75.0000028610231,2|0|2,0:0|0:0|0:0,0:0:0:0:
328,132,40075,5,6,0:0:0:0:
368,304,40262,1,0,0:0:0:0:
204,236,40450,2,0,L|181:226,1,25,4|0,0:0|0:0,0:0:0:0:
308,236,40637,2,0,L|332:244,1,25,4|0,0:0|0:0,0:0:0:0:
456,288,40825,1,0,0:0:0:0:
468,240,40918,1,0,0:0:0:0:
456,192,41012,1,8,0:0:0:0:
468,144,41106,1,8,0:0:0:0:
456,95,41200,6,0,P|419:129|376:136,1,75.0000028610231,6|0,0:0|0:0,0:0:0:0:
328,132,41481,1,0,0:0:0:0:
328,132,41575,2,0,P|268:115|208:131,1,125,2|2,0:0|0:0,0:0:0:0:
167,223,41950,1,0,0:0:0:0:
264,208,42137,1,10,0:0:0:0:
396,60,42325,1,10,0:0:0:0:
424,44,42418,1,0,0:0:0:0:
456,40,42512,1,0,0:0:0:0:
380,148,42700,5,2,0:0:0:0:
352,144,42793,1,0,0:0:0:0:
328,132,42887,1,0,0:0:0:0:
468,120,43075,1,2,0:0:0:0:
264,208,43262,1,0,0:0:0:0:
268,224,43356,1,0,0:0:0:0:
272,240,43450,2,0,B|300:308|264:356|264:356|257:328,1,150.000005722046,10|0,0:0|0:0,0:0:0:0:
376,304,44012,1,10,0:0:0:0:
420,224,44200,1,0,0:0:0:0:
376,304,44387,5,2,0:0:0:0:
287,315,44575,2,0,B|256:304|224:316|224:316|217:307,1,75.0000028610231,10|0,0:0|0:0,0:0:0:0:
204,264,44856,1,0,0:0:0:0:
204,264,44950,2,0,L|166:269,1,37.5000014305115,8|0,0:0|0:0,0:0:0:0:
345,197,45137,2,0,L|308:192,1,37.5000014305115,8|0,0:0|0:0,0:0:0:0:
264,184,45325,1,6,0:0:0:0:
373,81,45512,1,0,0:0:0:0:
424,212,45700,6,0,B|420:212|420:212|415:220|415:220|414:211|414:211|332:204|260:156|265:105|268:52|268:52|212:72|172:25,1,375,12|0,0:0|0:0,0:0:0:0:
136,112,46450,1,0,0:0:0:0:
264,184,46637,1,2,0:0:0:0:
373,81,46825,2,0,L|385:45,2,37.5000014305115,10|0|0,0:0|0:0|0:0,0:0:0:0:
264,184,47200,1,2,0:0:0:0:
300,40,47387,1,8,0:0:0:0:
180,184,47575,1,2,0:0:0:0:
136,112,47762,1,0,0:0:0:0:
168,128,47856,1,0,0:0:0:0:
200,144,47950,5,10,0:0:0:0:
269,356,48137,2,0,P|256:322|255:285,1,75.0000028610231
312,144,48512,1,8,0:0:0:0:
110,298,48700,2,0,P|140:259|183:234,1,100,0|2,0:0|0:0,0:0:0:0:
325,233,49075,1,6,0:0:0:0:
376,76,49262,1,0,0:0:0:0:
327,82,49356,1,0,0:0:0:0:
279,89,49450,2,0,L|294:41,1,50,8|0,0:0|0:0,0:0:0:0:
219,131,49637,6,0,L|230:95,1,37.5000014305115,8|0,0:0|0:0,0:0:0:0:
348,331,49825,2,0,L|325:233,1,100,10|14,0:0|0:0,0:0:0:0:
256,304,50387,1,2,0:0:0:0:
156,284,50575,1,2,0:0:0:0:
80,216,50762,1,2,0:0:0:0:
68,116,50950,2,0,P|89:129|113:135,1,50,2|0,0:0|0:0,0:0:0:0:
187,115,51231,1,0,0:0:0:0:
206,99,51325,6,0,P|239:62|253:15,1,100,10|0,0:0|0:0,0:0:0:0:
348,332,51700,2,0,P|312:266|311:192,1,150.000005722046,2|0,0:0|0:0,0:0:0:0:
356,132,51981,1,0,0:0:0:0:
380,124,52075,1,0,0:0:0:0:
408,244,52262,1,2,0:0:0:0:
164,332,52450,5,10,0:0:0:0:
184,236,52637,1,0,0:0:0:0:
256,304,52825,1,0,0:0:0:0:
92,264,53012,1,10,0:0:0:0:
112,168,53200,1,0,0:0:0:0:
256,304,53387,1,10,0:0:0:0:
213,328,53481,1,0,0:0:0:0:
164,332,53575,5,10,0:0:0:0:
338,352,53762,1,2,0:0:0:0:
324,176,53950,2,0,L|320:126,1,50,10|0,0:0|0:0,0:0:0:0:
462,188,54137,2,0,L|412:192,1,50,8|0,0:0|0:0,0:0:0:0:
208,88,54325,1,0,0:0:0:0:
220,87,54418,1,0,0:0:0:0:
232,86,54512,1,10,0:0:0:0:
245,85,54606,1,0,0:0:0:0:
257,84,54700,5,14,0:0:0:0:
224,188,54887,1,2,0:0:0:0:
324,176,55075,1,2,0:0:0:0:
404,116,55262,1,2,0:0:0:0:
439,20,55450,2,0,P|439:69|461:113,1,100,2|0,0:0|0:0,0:0:0:0:
386,365,55825,2,0,P|408:321|408:272,1,100,10|0,0:0|0:0,0:0:0:0:
311,293,56200,2,0,B|299:253|322:220|322:220|252:181|275:104|275:104|250:129,1,250,2|8,0:0|0:0,0:0:0:0:
348,140,56762,1,2,0:0:0:0:
360,136,56856,1,0,0:0:0:0:
372,132,56950,5,14,0:0:0:0:
336,40,57137,1,0,0:0:0:0:
436,224,57325,1,0,0:0:0:0:
472,132,57512,1,8,0:0:0:0:
336,224,57700,1,2,0:0:0:0:
372,316,57887,1,10,0:0:0:0:
324,320,57981,1,8,0:0:0:0:
280,300,58075,1,14,0:0:0:0:
232,84,58262,5,2,0:0:0:0:
184,208,58450,2,0,L|193:257,1,50,10|0,0:0|0:0,0:0:0:0:
336,224,58637,2,0,L|343:174,1,50,8|0,0:0|0:0,0:0:0:0:
160,128,58825,2,0,L|116:153,1,50,0|0,0:0|0:0,0:0:0:0:
232,84,59012,5,0,0:0:0:0:
325,317,59200,2,0,B|332:304|332:304|334:320|334:320|336:304|336:304|400:304|428:240|412:198,1,200,12|2,0:0|0:0,0:0:0:0:
364,112,59762,1,8,0:0:0:0:
336,224,59950,1,0,0:0:0:0:
304,64,60137,1,10,0:0:0:0:
316,48,60231,1,0,0:0:0:0:
336,35,60325,6,0,B|344:36|344:36|346:24|346:24|348:36|348:36|396:20|472:76|428:160,1,200,10|0,0:0|0:0,0:0:0:0:
336,224,60887,1,8,0:0:0:0:
364,112,61075,1,0,0:0:0:0:
176,192,61262,1,8,0:0:0:0:
148,204,61356,1,0,0:0:0:0:
117,218,61450,6,0,B|112:224|112:224|104:228|104:228|112:232|112:232|92:280|116:328|154:350|201:339,1,200,12|2,0:0|0:0,0:0:0:0:
256,256,62012,1,8,0:0:0:0:
252,136,62200,1,2,0:0:0:0:
148,204,62387,1,8,0:0:0:0:
312,340,62575,6,0,B|319:343|319:343|326:349|326:349|327:340|327:340|379:341|414:300|420:257|393:218,1,200,10|2,0:0|0:0,0:0:0:0:
252,136,63137,1,8,0:0:0:0:
368,84,63325,1,2,0:0:0:0:
327,261,63512,1,8,0:0:0:0:
291,266,63606,1,0,0:0:0:0:
256,256,63700,5,12,0:0:0:0:
332,164,63887,1,0,0:0:0:0:
360,280,64075,1,0,0:0:0:0:
192,196,64262,5,8,0:0:0:0:
340,80,64450,1,0,0:0:0:0:
392,288,64637,1,8,0:0:0:0:
392,288,64731,1,0,0:0:0:0:
392,288,64825,6,0,L|398:312,1,25,8|0,0:0|0:0,0:0:0:0:
328,260,65012,2,0,L|334:284,1,25,2|0,0:0|0:0,0:0:0:0:
408,128,65200,1,8,0:0:0:0:
256,224,65387,1,0,0:0:0:0:
168,284,65575,5,10,0:0:0:0:
256,224,65762,1,0,0:0:0:0:
408,328,65950,2,0,B|410:319|410:319|417:320|417:320|410:319|410:319|428:228|428:228|444:236|444:236|444:170,1,200,12|0,0:0|0:0,0:0:0:0:
360,68,66512,1,8,0:0:0:0:
352,220,66700,1,2,0:0:0:0:
440,100,66887,1,8,0:0:0:0:
452,80,66981,1,0,0:0:0:0:
456,57,67075,5,10,0:0:0:0:
264,79,67262,1,8,0:0:0:0:
428,184,67450,1,8,0:0:0:0:
168,90,67637,2,0,L|120:74,2,50,8|0|8,0:0|0:0|0:0,0:0:0:0:
344,294,68012,1,0,0:0:0:0:
368,299,68106,1,0,0:0:0:0:
393,308,68200,6,0,B|392:318|392:318|396:326|396:326|388:322|388:322|356:382|272:386|224:342|224:286,1,250,12|0,0:0|0:0,0:0:0:0:
256,44,68762,1,10,0:0:0:0:
342,311,68950,1,2,0:0:0:0:
220,124,69137,2,0,L|185:71,2,62.5,8|0|10,0:0|0:0|0:0,0:0:0:0:
408,192,69512,1,0,0:0:0:0:
184,204,69700,1,10,0:0:0:0:
408,68,69887,1,0,0:0:0:0:
148,284,70075,1,2,0:0:0:0:
388,284,70262,1,8,0:0:0:0:
400,281,70356,1,2,0:0:0:0:
408,272,70450,5,8,0:0:0:0:
380,136,70637,1,8,0:0:0:0:
232,116,70825,5,8,0:0:0:0:
377,162,71012,1,8,0:0:0:0:
496,11,71200,5,8,0:0:0:0:
384,112,71387,1,8,0:0:0:0:
368,100,71481,1,0,0:0:0:0:
352,88,71575,6,0,L|408:61,1,62.5,10|0,0:0|0:0,0:0:0:0:
232,116,71762,2,0,L|205:59,1,62.5,8|0,0:0|0:0,0:0:0:0:
320,208,71950,2,0,L|346:264,1,62.5,10|0,0:0|0:0,0:0:0:0:
165,264,72137,2,0,L|192:208,1,62.5,12|0,0:0|0:0,0:0:0:0:
256,184,72325,5,2,0:0:0:0:
248,228,72418,1,0,0:0:0:0:
256,272,72512,1,12,0:0:0:0:
248,316,72606,1,0,0:0:0:0:
256,360,72700,6,0,L|291:348,1,37.5000014305115,4|0,0:0|0:0,0:0:0:0:
360,292,72887,2,0,L|396:301,1,37.5000014305115
248,228,73075,2,0,L|223:234,1,25,4|0,0:0|0:0,0:0:0:0:
72,316,73262,6,0,L|85:294,1,25,8|0,0:0|0:0,0:0:0:0:
256,40,73450,1,14,0:0:0:0:
440,316,73637,1,8,0:0:0:0:
440,316,73731,1,0,0:0:0:0:
440,316,73825,6,0,L|444:340,6,25,12|0|0|0|0|0|0,0:0|0:0|0:0|0:0|0:0|0:0|0:0,0:0:0:0:
428,248,74200,1,0,0:0:0:0:
332,304,74387,1,8,0:0:0:0:
388,72,74575,5,0,0:0:0:0:
428,248,74762,1,8,0:0:0:0:
428,248,74856,1,0,0:0:0:0:
428,248,74950,1,8,0:0:0:0:
256,292,75137,2,0,B|208:332|152:292|116:260|40:292,1,225.000008583069,0|0,0:0|0:0,0:0:0:0:
92,364,75512,1,8,0:0:0:0:
212,232,75700,1,0,0:0:0:0:
36,192,75887,2,0,L|109:207,1,75.0000028610231,8|0,0:0|0:0,0:0:0:0:
212,232,76075,6,0,L|196:212,6,25,12|0|0|0|0|0|0,0:0|0:0|0:0|0:0|0:0|0:0|0:0,0:0:0:0:
256,292,76450,1,0,0:0:0:0:
332,192,76637,1,8,0:0:0:0:
256,32,76825,1,8,0:0:0:0:
220,45,76918,1,0,0:0:0:0:
185,58,77012,1,0,0:0:0:0:
416,140,77200,5,8,0:0:0:0:
416,140,77293,1,0,0:0:0:0:
416,140,77387,2,0,P|446:117|465:85,1,75.0000028610231
468,40,77575,1,8,0:0:0:0:
424,28,77668,1,0,0:0:0:0:
380,36,77762,1,8,0:0:0:0:
336,28,77856,1,0,0:0:0:0:
256,68,77950,6,0,L|221:83,1,37.5000014305115,8|0,0:0|0:0,0:0:0:0:
139,204,78137,2,0,L|173:187,1,37.5000014305115,0|0,0:0|0:0,0:0:0:0:
360,201,78325,6,0,B|416:240|464:220|500:192|496:132|496:132|510:156,1,225.000008583069,14|0,0:0|0:0,0:0:0:0:
500,248,78700,1,0,0:0:0:0:
468,40,78887,1,8,0:0:0:0:
256,68,79075,1,0,0:0:0:0:
416,140,79262,5,8,0:0:0:0:
416,140,79356,1,0,0:0:0:0:
416,140,79450,1,8,0:0:0:0:
236,144,79637,1,0,0:0:0:0:
388,48,79825,1,8,0:0:0:0:
420,256,80012,1,8,0:0:0:0:
320,52,80200,1,8,0:0:0:0:
283,60,80293,1,0,0:0:0:0:
247,69,80387,1,0,0:0:0:0:
210,78,80481,1,0,0:0:0:0:
174,87,80575,6,0,L|115:66,3,62.5,12|0|0|0,0:0|0:0|0:0|0:0,0:0:0:0:
24,157,80950,2,0,L|71:142,1,50,8|0,0:0|0:0,0:0:0:0:
303,176,81137,2,0,L|256:192,1,50,8|0,0:0|0:0,0:0:0:0:
112,207,81325,2,0,L|160:192,1,50
256,280,81512,5,8,0:0:0:0:
256,280,81606,1,8,0:0:0:0:
256,280,81700,1,12,0:0:0:0:
416,148,81887,1,8,0:0:0:0:
356,348,82075,1,8,0:0:0:0:
316,80,82262,2,0,L|322:129,1,50,8|0,0:0|0:0,0:0:0:0:
262,329,82450,2,0,L|256:280,1,50,8|0,0:0|0:0,0:0:0:0:
359,237,82637,1,0,0:0:0:0:
372,244,82731,1,0,0:0:0:0:
384,252,82825,6,0,B|316:156|380:40|380:40|316:80,1,300.000011444092,12|0,0:0|0:0,0:0:0:0:
484,148,83387,1,8,0:0:0:0:
356,348,83575,1,0,0:0:0:0:
256,136,83762,1,8,0:0:0:0:
256,136,83856,2,0,L|221:122,1,37.5000014305115
184,108,83950,6,0,L|176:84,6,25,8|0|0|0|0|0|0,0:0|0:0|0:0|0:0|0:0|0:0|0:0,0:0:0:0:
152,176,84325,1,0,0:0:0:0:
248,64,84512,1,8,0:0:0:0:
256,292,84700,1,0,0:0:0:0:
416,16,84887,5,8,0:0:0:0:
388,52,84981,1,0,0:0:0:0:
364,91,85075,2,0,P|466:96|473:199,1,225.000008583069,12|0,0:0|0:0,0:0:0:0:
412,264,85450,1,0,0:0:0:0:
364,92,85637,1,8,0:0:0:0:
256,292,85825,1,8,0:0:0:0:
124,52,86012,1,0,0:0:0:0:
110,54,86106,1,0,0:0:0:0:
95,57,86200,6,0,L|127:124,1,75.0000028610231,8|0,0:0|0:0,0:0:0:0:
135,259,86387,2,0,L|158:215,1,50
228,84,86575,1,8,0:0:0:0:
232,112,86668,1,0,0:0:0:0:
228,140,86762,1,8,0:0:0:0:
232,168,86856,1,0,0:0:0:0:
236,196,86950,6,0,L|279:171,1,50,8|0,0:0|0:0,0:0:0:0:
256,292,87137,2,0,L|319:252,1,75.0000028610231,0|0,0:0|0:0,0:0:0:0:
424,192,87325,2,0,P|344:188|344:44,1,225.000008583069,14|0,0:0|0:0,0:0:0:0:
396,16,87700,1,0,0:0:0:0:
424,192,87887,1,8,0:0:0:0:
348,28,88075,5,0,0:0:0:0:
292,200,88262,1,8,0:0:0:0:
472,180,88450,2,0,L|494:164,4,25,8|0|0|0|0,0:0|0:0|0:0|0:0|0:0,0:0:0:0:
324,284,88825,1,2,0:0:0:0:
396,120,89012,1,8,0:0:0:0:
216,112,89200,1,0,0:0:0:0:
67,212,89387,2,8,P|43:240|36:276,1,75.0000028610231,8|0,0:0|0:0,0:0:0:0:
128,284,89575,5,8,0:0:0:0:
144,272,89668,1,0,0:0:0:0:
168,268,89762,1,0,0:0:0:0:
192,256,89856,1,0,0:0:0:0:
212,232,89950,2,0,L|201:280,1,50,0|0,0:0|0:0,0:0:0:0:
310,103,90137,6,0,L|300:152,1,50,8|0,0:0|0:0,0:0:0:0:
394,255,90325,2,0,L|345:246,1,50,0|0,0:0|0:0,0:0:0:0:
216,148,90512,1,8,0:0:0:0:
396,120,90700,6,0,B|448:136|484:98|484:98|345:246,1,300.000011444092,8|0,0:0|0:0,0:0:0:0:
184,328,91262,1,8,0:0:0:0:
174,61,91450,1,8,0:0:0:0:
409,186,91637,1,0,0:0:0:0:
256,192,91825,5,12,0:0:0:0:
256,192,91918,12,10,92950,0:0:0:0:
204,266,93137,6,0,L|162:239,1,50
88,192,93325,5,8,0:0:0:0:
256,124,93512,1,8,0:0:0:0:
424,56,93700,2,0,B|504:16|504:16|469:65,1,150.000005722046,8|0,0:0|0:0,0:0:0:0:
440,100,93981,1,0,0:0:0:0:
408,132,94075,6,0,L|386:119,6,25,12|0|0|0|0|0|0,0:0|0:0|0:0|0:0|0:0|0:0|0:0,0:0:0:0:
400,176,94450,1,0,0:0:0:0:
236,24,94637,1,8,0:0:0:0:
224,204,94825,1,0,0:0:0:0:
299,110,95012,1,8,0:0:0:0:
277,117,95106,1,0,0:0:0:0:
256,124,95200,5,8,0:0:0:0:
256,296,95387,1,0,0:0:0:0:
424,56,95575,1,8,0:0:0:0:
88,56,95762,1,8,0:0:0:0:
368,136,95950,1,8,0:0:0:0:
224,204,96137,1,0,0:0:0:0:
233,241,96231,1,0,0:0:0:0:
241,278,96325,6,0,B|312:360|312:360|353:352,2,150.000005722046,12|0|0,0:0|0:0|0:0,0:0:0:0:
158,31,96887,2,0,B|200:24|200:24|270:105,1,150.000005722046,8|0,0:0|0:0,0:0:0:0:
116,196,97262,1,8,0:0:0:0:
128,152,97356,1,0,0:0:0:0:
140,108,97450,6,0,L|72:140,1,75.0000028610231,12|0,0:0|0:0,0:0:0:0:
220,248,97637,2,0,L|287:215,1,75.0000028610231,8|0,0:0|0:0,0:0:0:0:
408,68,97825,2,0,L|360:56,1,50,8|0,0:0|0:0,0:0:0:0:
416,88,98012,1,8,0:0:0:0:
424,112,98106,1,8,0:0:0:0:
432,142,98200,6,0,L|455:134,1,25,8|0,0:0|0:0,0:0:0:0:
440,177,98293,2,0,L|472:172,1,25,0|0,0:0|0:0,0:0:0:0:
447,218,98387,2,0,L|480:224,1,25,12|0,0:0|0:0,0:0:0:0:
448,264,98481,2,0,L|480:288,1,25,0|0,0:0|0:0,0:0:0:0:
430,337,98575,6,0,B|358:352|290:316|278:248|330:232|360:240|360:240|374:252|374:252|370:232|370:232|366:204|406:160|456:180|464:272|458:291,1,450.000017166138,14|8,0:0|0:0,0:0:0:0:
256,352,99325,1,8,0:0:0:0:
168,272,99512,1,0,0:0:0:0:
150,58,99700,2,0,P|173:102|176:152,1,100,12|0,0:0|0:0,0:0:0:0:
373,237,100075,2,0,P|329:214|280:212,1,100,0|0,0:0|0:0,0:0:0:0:
200,240,100356,1,0,0:0:0:0:
168,272,100450,6,0,L|217:266,1,50,8|0,0:0|0:0,0:0:0:0:
305,346,100637,2,0,L|256:352,1,50,0|0,0:0|0:0,0:0:0:0:
235,169,100825,2,0,B|312:116|256:32|256:32|244:60|256:80,1,187.5,12|0,0:0|0:0,0:0:0:0:
359,79,101200,1,0,0:0:0:0:
440,168,101387,5,8,0:0:0:0:
368,8,101575,1,0,0:0:0:0:
384,216,101762,1,0,0:0:0:0:
385,240,101856,1,0,0:0:0:0:
386,265,101950,2,0,L|440:252,2,50,12|0|0,0:0|0:0|0:0,0:0:0:0:
292,192,102325,5,8,0:0:0:0:
276,312,102512,1,8,0:0:0:0:
277,336,102606,1,0,0:0:0:0:
278,361,102700,2,0,L|224:347,1,50,8|0,0:0|0:0,0:0:0:0:
40,192,102887,2,0,L|88:204,1,50,0|0,0:0|0:0,0:0:0:0:
160,252,103075,5,12,0:0:0:0:
163,217,103168,1,0,0:0:0:0:
166,182,103262,1,0,0:0:0:0:
170,147,103356,1,0,0:0:0:0:
173,112,103450,1,0,0:0:0:0:
292,192,103637,1,8,0:0:0:0:
177,78,103825,5,0,0:0:0:0:
335,306,104012,1,8,0:0:0:0:
403,161,104200,2,0,P|400:198|382:231,1,75.0000028610231,12|0,0:0|0:0,0:0:0:0:
107,28,104575,6,0,P|122:87|169:127,1,125,8|0,0:0|0:0,0:0:0:0:
252,144,104856,1,0,0:0:0:0:
272,140,104950,1,0,0:0:0:0:
260,260,105137,1,8,0:0:0:0:
240,264,105231,1,0,0:0:0:0:
223,276,105325,6,0,B|208:308|216:336|216:336|178:203,1,200,12|0,0:0|0:0,0:0:0:0:
256,112,105887,1,8,0:0:0:0:
360,280,106075,2,0,B|360:232|312:216|312:216|325:210,1,100,0|8,0:0|0:0,0:0:0:0:
392,160,106356,1,0,0:0:0:0:
404,143,106450,2,0,P|406:119|404:94,2,50,8|0|0,0:0|0:0|0:0,0:0:0:0:
323,43,106825,5,0,0:0:0:0:
107,125,107012,1,8,0:0:0:0:
406,260,107200,2,0,L|360:280,1,50
189,341,107387,2,0,L|228:328,1,37.5000014305115,8|8,0:0|0:0,0:0:0:0:
256,192,107575,12,4,108700,0:0:0:0:
144,272,108887,5,0,0:0:0:0:
256,192,109075,1,8,0:0:0:0:
368,272,109262,1,8,0:0:0:0:
368,272,109356,1,0,0:0:0:0:
368,272,109450,1,0,0:0:0:0:
256,72,109637,5,8,0:0:0:0:
256,192,109825,12,8,110762,0:0:0:0:
420,120,110950,6,0,L|321:135,1,100,8|0,0:0|0:0,0:0:0:0:
190,135,111231,1,0,0:0:0:0:
190,135,111325,2,0,L|92:120,1,100,8|8,0:0|0:0,0:0:0:0:
32,192,111606,1,0,0:0:0:0:
68,228,111700,1,8,0:0:0:0:
116,216,111793,1,0,0:0:0:0:
164,232,111887,1,0,0:0:0:0:
200,268,111981,1,0,0:0:0:0:
212,316,112075,6,0,L|252:286,1,50,6|0,0:0|0:0,0:0:0:0:
385,168,112262,2,0,L|332:144,1,50,4|0,0:0|0:0,0:0:0:0:
170,91,112450,2,0,L|184:140,1,50,4|0,0:0|0:0,0:0:0:0:
385,168,112637,6,0,L|422:134,1,50,4|0,0:0|0:0,0:0:0:0:
171,91,112825,2,0,L|123:75,1,50,4|0,0:0|0:0,0:0:0:0:
212,316,113012,2,0,L|222:364,1,50,4|0,0:0|0:0,0:0:0:0:
308,360,113200,1,6,0:0:0:0:
352,340,113293,1,0,0:0:0:0:
328,296,113387,1,4,0:0:0:0:
324,248,113481,1,0,0:0:0:0:
344,199,113575,6,0,P|360:181|382:169,1,50,4|0,0:0|0:0,0:0:0:0:
167,184,113762,2,0,P|151:202|129:214,1,50,4|0,0:0|0:0,0:0:0:0:
48,192,113950,1,4,0:0:0:0:
52,144,114043,1,0,0:0:0:0:
76,100,114137,1,4,0:0:0:0:
124,80,114231,1,0,0:0:0:0:
171,91,114325,6,0,L|218:106,1,50,6|0,0:0|0:0,0:0:0:0:
385,168,114512,2,0,L|348:202,1,50,4|0,0:0|0:0,0:0:0:0:
211,316,114700,2,0,L|200:267,1,50,4|0,0:0|0:0,0:0:0:0:
312,51,114887,6,0,L|317:101,1,50,4|0,0:0|0:0,0:0:0:0:
349,310,115075,2,0,L|303:290,1,50,4|0,0:0|0:0,0:0:0:0:
106,213,115262,2,0,L|146:183,1,50,4|0,0:0|0:0,0:0:0:0:
178,13,115450,6,0,L|219:41,1,50,6|0,0:0|0:0,0:0:0:0:
449,214,115637,2,0,L|404:236,1,50,4|0,0:0|0:0,0:0:0:0:
140,348,115825,2,0,L|143:298,1,50,4|0,0:0|0:0,0:0:0:0:
368,298,116012,6,0,L|371:348,1,50,4|0,0:0|0:0,0:0:0:0:
107,236,116200,2,0,L|62:214,1,50,4|0,0:0|0:0,0:0:0:0:
292,41,116387,2,0,L|333:13,1,50,4|0,0:0|0:0,0:0:0:0:
256,192,116575,5,0,0:0:0:0:
