osu file format v14

[General]
AudioFilename: Amorossia_192k.mp3
AudioLeadIn: 0
PreviewTime: 71196
Countdown: 0
SampleSet: None
StackLeniency: 0.7
Mode: 3
LetterboxInBreaks: 0
SpecialStyle: 0
WidescreenStoryboard: 1

[Editor]
Bookmarks: 186990
DistanceSpacing: 1.1
BeatDivisor: 4
GridSize: 4
TimelineZoom: 1

[Metadata]
Title:Amorossia
TitleUnicode:Amorossia
Artist:Ceui
ArtistUnicode:Ceui
Creator:[CSGA]Ar3sgice
Version:TOKI no koi
Source:Koi to Senkyo to Chocolate
Tags:kaze no naka no primrose 風の中のプリムローズ TOKI
BeatmapID:2680850
BeatmapSetID:67632

[Difficulty]
HPDrainRate:7
CircleSize:8
OverallDifficulty:8
ApproachRate:9
SliderMultiplier:1.8
SliderTickRate:1

[Events]
//Background and Video events
0,0,"darkness.jpg",0,0
//Break Periods
//Storyboard Layer 0 (Background)
//Storyboard Layer 1 (Fail)
//Storyboard Layer 2 (Pass)
//Storyboard Layer 3 (Foreground)
//Storyboard Layer 4 (Overlay)
//Storyboard Sound Samples

[TimingPoints]
639,352.941176470588,3,2,1,75,1,0
19344,352.941176470588,4,2,1,75,1,0
34520,352.941176470588,4,2,1,75,1,0
34520,-200,4,2,1,75,0,0
36284,-200,4,2,1,35,0,0
36637,-200,4,2,1,75,0,0
38755,-200,4,2,1,45,0,0
39108,-200,4,2,1,25,0,0
39461,-200,4,2,1,45,0,0
40167,-200,4,2,1,75,0,0
45814,-100,4,2,2,75,0,0
48637,-100,4,2,2,75,0,0
49167,-100,4,2,2,75,0,0
51990,-100,4,2,2,75,0,0
52519,-100,4,2,2,75,0,0
53931,-100,4,2,2,50,0,0
54284,-100,4,2,2,55,0,0
54637,-100,4,2,2,60,0,0
54990,-100,4,2,2,65,0,0
55343,-100,4,2,2,70,0,0
55696,-100,4,2,2,75,0,0
56049,-100,4,2,2,80,0,0
56402,-100,4,2,2,85,0,0
56755,-100,4,2,2,90,0,0
57108,-166.666666666667,4,2,1,75,0,0
58167,-166.666666666667,4,2,1,65,0,0
59931,-166.666666666667,4,2,1,55,0,0
60990,-166.666666666667,4,2,1,65,0,0
62755,-166.666666666667,4,2,1,75,0,0
68402,-125,4,2,1,75,0,0
69814,-111.111111111111,4,2,1,90,0,0
71225,-100,4,2,1,75,0,1
72284,-100,4,2,3,55,0,1
74049,-100,4,2,3,65,0,1
80931,-100,4,2,3,65,0,1
81284,-100,4,2,3,45,0,1
81461,-100,4,2,3,65,0,1
82519,-100,4,2,3,75,0,1
83402,-100,4,2,3,75,0,1
83931,-100,4,2,3,75,0,1
87814,-100,4,2,3,75,0,1
88167,-100,4,2,3,75,0,1
88696,-100,4,2,3,45,0,1
88872,-100,4,2,3,75,0,1
89578,-100,4,2,3,75,0,1
91167,-100,4,2,3,75,0,1
91519,-100,4,2,3,75,0,1
92049,-100,4,2,1,95,0,0
92755,-100,4,2,1,75,0,0
93284,-100,4,2,1,75,0,1
93372,-100,4,2,1,75,0,0
105108,-100,4,2,1,25,0,0
106167,-100,4,2,1,25,0,0
107225,-100,4,2,1,30,0,0
107578,-100,4,2,1,35,0,0
108637,-100,4,2,1,40,0,0
108990,-100,4,2,1,45,0,0
110049,-100,4,2,1,50,0,0
110402,-100,4,2,1,55,0,0
111461,-100,4,2,1,50,0,0
111637,-100,4,2,1,60,0,0
111814,-100,4,2,1,65,0,0
112872,-100,4,2,1,70,0,0
113225,-100,4,2,1,75,0,0
114284,-100,4,2,1,80,0,0
114637,-100,4,2,1,85,0,0
114990,-100,4,2,1,60,0,0
115343,-100,4,2,1,70,0,0
115696,-100,4,2,1,80,0,0
116049,-100,4,2,1,90,0,0
116402,-200,4,2,1,75,0,0
117108,-200,4,2,1,35,0,0
117461,-200,4,2,1,75,0,0
118167,-200,4,2,1,35,0,0
118519,-200,4,2,1,75,0,0
118872,-200,4,2,1,35,0,0
119225,-200,4,2,1,75,0,0
127696,-100,4,2,2,60,0,0
131931,-100,4,2,2,70,0,0
136167,-100,4,2,2,50,0,0
136519,-100,4,2,1,55,0,0
136872,-100,4,2,1,60,0,0
137225,-100,4,2,1,65,0,0
137578,-100,4,2,1,70,0,0
137931,-100,4,2,1,75,0,0
138284,-100,4,2,1,80,0,0
138637,-100,4,2,1,85,0,0
141108,-166.666666666667,4,2,1,75,0,0
145872,-166.666666666667,4,2,1,75,0,0
150284,-125,4,2,1,75,0,0
151696,-111.111111111111,4,2,1,85,0,0
153108,-200,4,2,1,95,0,0
155931,-100,4,2,1,75,0,1
156990,-100,4,2,3,55,0,1
161578,-100,4,2,3,65,0,1
167225,-100,4,2,3,75,0,1
176755,-100,4,2,1,95,0,0
177461,-100,4,2,1,75,0,0
177990,-100,4,2,1,75,0,1
178078,-100,4,2,1,75,0,0
186990,-100,4,2,1,25,0,0
189814,-100,4,2,1,45,0,0
190519,-100,4,2,1,45,0,0
195461,-100,4,2,1,55,0,0
198284,-100,4,2,1,65,0,0
199519,-100,4,2,1,45,0,0
199872,-100,4,2,1,75,0,0
200931,-125,4,2,1,75,0,0
201637,-125,4,2,1,35,0,0
202343,-125,4,2,1,75,0,0
203049,-125,4,2,1,5,0,0
203225,-125,4,2,1,75,0,0
203578,-125,4,2,1,35,0,0
203931,-125,4,2,1,75,0,0
207284,-125,4,2,1,35,0,0
207461,-125,4,2,1,75,0,0
208696,-125,4,2,1,5,0,0
208872,-125,4,2,1,75,0,0
209225,-125,4,2,1,35,0,0
209578,-125,4,2,1,75,0,0
210284,-125,4,2,1,35,0,0
210637,-125,4,2,1,75,0,0
211519,-125,4,2,1,5,0,0
211696,-125,4,2,1,75,0,0
212049,-125,4,2,1,35,0,0
212225,-125,4,2,1,75,0,0
212931,-125,4,2,1,35,0,0
213637,-125,4,2,1,75,0,0
214343,-125,4,2,1,5,0,0
214519,-125,4,2,1,75,0,0
218578,-125,4,2,1,35,0,0
219461,-125,4,2,1,75,0,0
221931,-125,4,2,1,5,0,0
234990,-125,4,2,1,100,0,0
240637,-125,4,2,1,90,0,0
241872,-125,4,2,1,90,0,1
242402,-125,4,2,1,5,0,0
246284,-100,4,2,1,75,0,1
247343,-100,4,2,3,75,0,1
257578,-100,4,2,1,85,0,1
257755,-100,4,2,3,85,0,1
267108,-100,4,2,1,95,0,0
267814,-100,4,2,1,85,0,0
267990,-100,4,2,1,90,0,0
268167,-100,4,2,1,95,0,0
268343,-100,4,2,1,100,0,1
268431,-100,4,2,1,75,0,0

[Colours]
Combo1 : 210,255,106
Combo2 : 123,68,32
Combo3 : 136,232,255

[HitObjects]
352,192,639,5,0,0:0:0:0:
224,192,991,1,0,0:0:0:0:
288,192,1344,1,0,0:0:0:0:
224,192,1697,1,0,0:0:0:0:
160,192,2050,1,0,0:0:0:0:
96,192,2403,1,0,0:0:0:0:
352,192,2756,1,0,0:0:0:0:
224,192,3109,1,0,0:0:0:0:
288,192,3462,1,0,0:0:0:0:
160,192,3815,1,0,0:0:0:0:
224,192,4168,1,0,0:0:0:0:
96,192,4521,1,0,0:0:0:0:
288,192,4874,1,0,0:0:0:0:
160,192,5227,1,0,0:0:0:0:
352,192,5580,1,0,0:0:0:0:
480,192,5756,1,0,0:0:0:0:
96,192,5933,1,0,0:0:0:0:
416,192,6109,1,0,0:0:0:0:
96,192,6286,1,0,0:0:0:0:
352,192,6462,1,0,0:0:0:0:
96,192,6638,1,0,0:0:0:0:
480,192,6815,1,0,0:0:0:0:
96,192,6991,1,0,0:0:0:0:
416,192,7168,1,0,0:0:0:0:
96,192,7344,1,0,0:0:0:0:
352,192,7521,1,0,0:0:0:0:
96,192,7697,1,0,0:0:0:0:
480,192,7874,1,0,0:0:0:0:
96,192,8050,1,0,0:0:0:0:
416,192,8227,1,0,0:0:0:0:
96,192,8403,1,0,0:0:0:0:
352,192,8580,1,0,0:0:0:0:
96,192,8756,1,0,0:0:0:0:
480,192,8933,1,0,0:0:0:0:
224,192,9109,1,0,0:0:0:0:
416,192,9286,1,0,0:0:0:0:
160,192,9462,1,0,0:0:0:0:
352,192,9638,1,0,0:0:0:0:
96,192,9815,1,0,0:0:0:0:
480,192,9991,1,0,0:0:0:0:
224,192,10168,1,0,0:0:0:0:
416,192,10344,1,0,0:0:0:0:
160,192,10521,1,0,0:0:0:0:
352,192,10697,1,0,0:0:0:0:
96,192,10874,1,0,0:0:0:0:
480,192,11050,1,0,0:0:0:0:
224,192,11227,1,0,0:0:0:0:
416,192,11403,1,0,0:0:0:0:
160,192,11580,1,0,0:0:0:0:
352,192,11756,1,0,0:0:0:0:
96,192,11933,1,0,0:0:0:0:
480,192,12109,1,0,0:0:0:0:
224,192,12286,1,0,0:0:0:0:
416,192,12462,1,0,0:0:0:0:
160,192,12638,1,0,0:0:0:0:
352,192,12815,1,0,0:0:0:0:
96,192,12991,1,0,0:0:0:0:
480,192,13168,1,0,0:0:0:0:
224,192,13344,1,0,0:0:0:0:
416,192,13521,1,0,0:0:0:0:
160,192,13697,1,0,0:0:0:0:
352,192,13874,1,0,0:0:0:0:
96,192,14050,1,0,0:0:0:0:
480,192,14227,1,0,0:0:0:0:
224,192,14403,1,0,0:0:0:0:
416,192,14580,1,0,0:0:0:0:
160,192,14756,1,0,0:0:0:0:
352,192,14933,1,0,0:0:0:0:
96,192,15109,1,0,0:0:0:0:
480,192,15286,1,0,0:0:0:0:
224,192,15462,1,0,0:0:0:0:
416,192,15638,1,0,0:0:0:0:
160,192,15815,1,0,0:0:0:0:
352,192,15991,1,0,0:0:0:0:
96,192,16168,1,0,0:0:0:0:
480,192,16344,1,0,0:0:0:0:
352,192,16521,1,0,0:0:0:0:
480,192,16697,1,0,0:0:0:0:
352,192,16874,1,0,0:0:0:0:
96,192,16874,1,0,0:0:0:0:
160,192,17050,1,0,0:0:0:0:
224,192,17227,1,0,0:0:0:0:
288,192,17403,1,0,0:0:0:0:
352,192,17580,1,0,0:0:0:0:
160,192,17756,1,0,0:0:0:0:
352,192,17933,1,0,0:0:0:0:
160,192,18109,1,0,0:0:0:0:
352,192,18286,1,0,0:0:0:0:
160,192,18462,1,0,0:0:0:0:
352,192,18638,1,0,0:0:0:0:
160,192,18815,1,0,0:0:0:0:
352,192,18991,1,0,0:0:0:0:
160,192,19168,1,0,0:0:0:0:
352,192,19344,1,0,0:0:0:0:
160,192,19520,1,0,0:0:0:0:
352,192,19696,1,0,0:0:0:0:
480,192,20049,1,0,0:0:0:0:
416,192,20402,1,0,0:0:0:0:
288,192,20755,1,0,0:0:0:0:
224,192,21108,1,0,0:0:0:0:
352,192,21461,1,0,0:0:0:0:
288,192,21814,1,0,0:0:0:0:
224,192,22167,1,0,0:0:0:0:
160,192,22520,1,0,0:0:0:0:
288,192,22873,1,0,0:0:0:0:
224,192,23226,1,0,0:0:0:0:
160,192,23579,1,0,0:0:0:0:
288,192,23932,1,0,0:0:0:0:
480,192,24285,1,0,0:0:0:0:
352,192,24638,1,0,0:0:0:0:
160,192,24991,1,0,0:0:0:0:
224,192,25343,1,0,0:0:0:0:
416,192,25696,1,0,0:0:0:0:
352,192,26049,1,0,0:0:0:0:
160,192,26402,1,0,0:0:0:0:
224,192,26755,1,0,0:0:0:0:
416,192,27108,1,0,0:0:0:0:
352,192,27461,1,0,0:0:0:0:
224,192,27814,1,0,0:0:0:0:
352,192,28167,1,0,0:0:0:0:
480,192,28520,1,0,0:0:0:0:
352,192,28873,1,0,0:0:0:0:
160,192,29226,1,0,0:0:0:0:
224,192,29579,1,0,0:0:0:0:
416,192,29932,1,0,0:0:0:0:
352,192,30285,1,0,0:0:0:0:
224,192,30638,1,0,0:0:0:0:
160,192,30991,1,0,0:0:0:0:
352,192,31343,1,0,0:0:0:0:
160,192,31696,1,0,0:0:0:0:
224,192,32049,1,0,0:0:0:0:
352,192,32402,1,0,0:0:0:0:
480,192,32755,1,0,0:0:0:0:
352,192,33108,1,0,0:0:0:0:
96,192,33461,1,0,0:0:0:0:
224,192,33814,1,0,0:0:0:0:
352,192,34167,1,0,0:0:0:0:
480,192,34520,1,0,0:0:0:0:
288,192,34520,1,0,0:0:0:0:
416,192,37343,1,0,0:0:0:0:
352,192,38402,1,0,0:0:0:0:
224,192,39108,1,0,0:0:0:0:
352,192,39814,1,0,0:0:0:0:
480,192,40167,1,0,0:0:0:0:
352,192,41578,1,0,0:0:0:0:
96,192,42990,1,0,0:0:0:0:
160,192,42990,1,0,0:0:0:0:
160,192,44402,1,0,0:0:0:0:
288,192,44402,1,0,0:0:0:0:
96,192,45108,1,0,0:0:0:0:
96,192,45814,1,0,0:0:0:0:
352,192,46167,1,0,0:0:0:0:
160,192,46519,1,0,0:0:0:0:
224,192,46696,1,0,0:0:0:0:
480,192,46872,1,0,0:0:0:0:
96,192,47225,1,0,0:0:0:0:
352,192,47578,1,0,0:0:0:0:
160,192,47931,1,0,0:0:0:0:
224,192,48108,1,0,0:0:0:0:
480,192,48284,1,0,0:0:0:0:
96,192,48637,1,0,0:0:0:0:
352,192,48990,1,0,0:0:0:0:
160,192,49343,1,0,0:0:0:0:
224,192,49519,1,0,0:0:0:0:
480,192,49696,1,0,0:0:0:0:
96,192,50049,1,0,0:0:0:0:
352,192,50402,1,0,0:0:0:0:
160,192,50755,1,0,0:0:0:0:
224,192,50931,1,0,0:0:0:0:
480,192,51108,1,0,0:0:0:0:
96,192,51461,1,0,0:0:0:0:
352,192,51814,1,0,0:0:0:0:
160,192,52167,1,0,0:0:0:0:
224,192,52343,1,0,0:0:0:0:
480,192,52519,1,0,0:0:0:0:
96,192,52872,1,0,0:0:0:0:
352,192,53225,1,0,0:0:0:0:
160,192,53578,1,0,0:0:0:0:
224,192,53755,1,0,0:0:0:0:
480,192,53931,1,0,0:0:0:0:
96,192,54284,1,0,0:0:0:0:
352,192,54637,1,0,0:0:0:0:
160,192,54990,1,0,0:0:0:0:
224,192,55167,1,0,0:0:0:0:
480,192,55343,1,0,0:0:0:0:
96,192,55696,1,0,0:0:0:0:
352,192,56049,1,0,0:0:0:0:
160,192,56402,1,0,0:0:0:0:
224,192,56578,1,0,0:0:0:0:
480,192,56755,1,0,0:0:0:0:
96,192,57108,1,0,0:0:0:0:
416,192,57814,1,0,0:0:0:0:
96,192,58167,1,0,0:0:0:0:
416,192,58343,1,0,0:0:0:0:
32,192,58519,1,0,0:0:0:0:
416,192,59225,1,0,0:0:0:0:
96,192,59931,1,0,0:0:0:0:
416,192,60637,1,0,0:0:0:0:
96,192,60990,1,0,0:0:0:0:
416,192,61167,1,0,0:0:0:0:
32,192,61343,1,0,0:0:0:0:
416,192,62049,1,0,0:0:0:0:
224,192,62755,1,0,0:0:0:0:
352,192,62931,1,0,0:0:0:0:
224,192,63284,1,0,0:0:0:0:
352,192,63461,1,0,0:0:0:0:
224,192,63814,1,0,0:0:0:0:
352,192,63990,1,0,0:0:0:0:
224,192,64343,1,0,0:0:0:0:
352,192,64872,1,0,0:0:0:0:
352,192,65402,1,0,0:0:0:0:
224,192,65578,1,0,0:0:0:0:
352,192,65755,1,0,0:0:0:0:
224,192,66108,1,0,0:0:0:0:
352,192,66284,1,0,0:0:0:0:
224,192,66637,1,0,0:0:0:0:
352,192,66814,1,0,0:0:0:0:
224,192,67167,1,0,0:0:0:0:
96,192,67343,1,0,0:0:0:0:
352,192,67696,1,0,0:0:0:0:
352,192,68225,1,0,0:0:0:0:
96,192,68402,1,0,0:0:0:0:
96,192,69814,1,0,0:0:0:0:
32,192,71225,1,0,0:0:0:0:
96,192,71225,1,0,0:0:0:0:
480,192,71225,1,0,0:0:0:0:
224,192,71578,1,0,0:0:0:0:
480,192,71755,1,0,0:0:0:0:
480,192,72284,1,0,0:0:0:0:
96,192,72637,1,0,0:0:0:0:
480,192,72637,1,0,0:0:0:0:
224,192,72990,1,0,0:0:0:0:
480,192,73167,1,0,0:0:0:0:
480,192,73696,1,0,0:0:0:0:
96,192,74049,1,0,0:0:0:0:
416,192,74049,1,0,0:0:0:0:
224,192,74402,1,0,0:0:0:0:
416,192,74578,1,0,0:0:0:0:
416,192,75108,1,0,0:0:0:0:
96,192,75461,1,0,0:0:0:0:
480,192,75461,1,0,0:0:0:0:
224,192,75814,1,0,0:0:0:0:
480,192,75990,1,0,0:0:0:0:
480,192,76343,1,0,0:0:0:0:
352,192,76519,1,0,0:0:0:0:
32,192,76872,1,0,0:0:0:0:
96,192,76872,1,0,0:0:0:0:
480,192,76872,1,0,0:0:0:0:
224,192,77225,1,0,0:0:0:0:
480,192,77402,1,0,0:0:0:0:
480,192,77931,1,0,0:0:0:0:
480,192,78284,1,0,0:0:0:0:
96,192,78284,1,0,0:0:0:0:
224,192,78637,1,0,0:0:0:0:
480,192,78814,1,0,0:0:0:0:
480,192,79343,1,0,0:0:0:0:
96,192,79696,1,0,0:0:0:0:
480,192,79696,1,0,0:0:0:0:
224,192,80049,1,0,0:0:0:0:
480,192,80225,1,0,0:0:0:0:
480,192,80755,1,0,0:0:0:0:
96,192,81108,1,0,0:0:0:0:
480,192,81108,1,0,0:0:0:0:
224,192,81461,1,0,0:0:0:0:
480,192,81637,1,0,0:0:0:0:
480,192,81990,1,0,0:0:0:0:
352,192,82166,1,0,0:0:0:0:
32,192,82519,1,0,0:0:0:0:
96,192,82519,1,0,0:0:0:0:
480,192,82519,1,0,0:0:0:0:
288,192,82872,1,0,0:0:0:0:
480,192,83049,1,0,0:0:0:0:
160,192,83402,1,0,0:0:0:0:
288,192,83578,1,0,0:0:0:0:
416,192,83755,1,0,0:0:0:0:
96,192,83931,1,0,0:0:0:0:
480,192,83931,1,0,0:0:0:0:
288,192,84284,1,0,0:0:0:0:
480,192,84461,1,0,0:0:0:0:
160,192,84813,1,0,0:0:0:0:
480,192,84902,1,0,0:0:0:0:
288,192,84990,1,0,0:0:0:0:
416,192,85166,1,0,0:0:0:0:
96,192,85343,1,0,0:0:0:0:
480,192,85343,1,0,0:0:0:0:
288,192,85696,1,0,0:0:0:0:
480,192,85872,1,0,0:0:0:0:
160,192,86225,1,0,0:0:0:0:
288,192,86402,1,0,0:0:0:0:
416,192,86578,1,0,0:0:0:0:
480,192,86755,1,0,0:0:0:0:
96,192,86755,1,0,0:0:0:0:
288,192,87108,1,0,0:0:0:0:
480,192,87284,1,0,0:0:0:0:
480,192,87637,1,0,0:0:0:0:
288,192,87814,1,0,0:0:0:0:
32,192,88167,1,0,0:0:0:0:
96,192,88167,1,0,0:0:0:0:
480,192,88167,1,0,0:0:0:0:
288,192,88520,1,0,0:0:0:0:
480,192,88697,1,0,0:0:0:0:
160,192,89050,1,0,0:0:0:0:
288,192,89226,1,0,0:0:0:0:
416,192,89403,1,0,0:0:0:0:
480,192,89579,1,0,0:0:0:0:
96,192,89579,1,0,0:0:0:0:
288,192,89932,1,0,0:0:0:0:
480,192,90109,1,0,0:0:0:0:
160,192,90461,1,0,0:0:0:0:
288,192,90638,1,0,0:0:0:0:
416,192,90814,1,0,0:0:0:0:
96,192,90990,1,0,0:0:0:0:
480,192,90990,1,0,0:0:0:0:
288,192,91343,1,0,0:0:0:0:
480,192,91519,1,0,0:0:0:0:
160,192,91872,1,0,0:0:0:0:
288,192,92049,1,0,0:0:0:0:
416,192,92225,1,0,0:0:0:0:
480,192,92402,1,0,0:0:0:0:
96,192,92402,1,0,0:0:0:0:
288,192,92755,1,0,0:0:0:0:
480,192,92931,1,0,0:0:0:0:
480,192,93284,1,0,0:0:0:0:
288,192,93461,1,0,0:0:0:0:
32,192,93814,1,0,0:0:0:0:
224,192,93814,1,0,0:0:0:0:
160,192,94167,1,0,0:0:0:0:
352,192,94519,1,0,0:0:0:0:
480,192,94872,1,0,0:0:0:0:
352,192,95225,1,0,0:0:0:0:
224,192,95578,1,0,0:0:0:0:
352,192,95931,1,0,0:0:0:0:
480,192,96284,1,0,0:0:0:0:
352,192,96637,1,0,0:0:0:0:
160,192,96990,1,0,0:0:0:0:
224,192,97343,1,0,0:0:0:0:
416,192,97696,1,0,0:0:0:0:
352,192,98049,1,0,0:0:0:0:
224,192,98225,1,0,0:0:0:0:
352,192,98402,1,0,0:0:0:0:
224,192,98578,1,0,0:0:0:0:
352,192,98755,1,0,0:0:0:0:
224,192,98931,1,0,0:0:0:0:
352,192,99108,1,0,0:0:0:0:
224,192,99284,1,0,0:0:0:0:
352,192,99461,1,0,0:0:0:0:
224,192,99637,1,0,0:0:0:0:
352,192,99814,1,0,0:0:0:0:
224,192,99990,1,0,0:0:0:0:
352,192,100167,1,0,0:0:0:0:
480,192,100519,1,0,0:0:0:0:
352,192,100872,1,0,0:0:0:0:
160,192,101225,1,0,0:0:0:0:
224,192,101578,1,0,0:0:0:0:
416,192,101931,1,0,0:0:0:0:
352,192,102284,1,0,0:0:0:0:
224,192,102637,1,0,0:0:0:0:
352,192,102990,1,0,0:0:0:0:
480,192,103343,1,0,0:0:0:0:
352,192,103696,1,0,0:0:0:0:
224,192,104049,1,0,0:0:0:0:
352,192,104402,1,0,0:0:0:0:
480,192,104755,1,0,0:0:0:0:
416,192,105108,1,0,0:0:0:0:
288,192,105284,1,0,0:0:0:0:
160,192,105461,1,0,0:0:0:0:
416,192,105637,1,0,0:0:0:0:
288,192,105814,1,0,0:0:0:0:
160,192,105990,1,0,0:0:0:0:
416,192,106167,1,0,0:0:0:0:
288,192,106343,1,0,0:0:0:0:
160,192,106519,1,0,0:0:0:0:
96,192,106519,1,0,0:0:0:0:
416,192,106696,1,0,0:0:0:0:
288,192,106872,1,0,0:0:0:0:
160,192,107049,1,0,0:0:0:0:
416,192,107225,1,0,0:0:0:0:
288,192,107402,1,0,0:0:0:0:
160,192,107578,1,0,0:0:0:0:
416,192,107755,1,0,0:0:0:0:
288,192,107931,1,0,0:0:0:0:
224,192,107931,1,0,0:0:0:0:
160,192,108108,1,0,0:0:0:0:
416,192,108284,1,0,0:0:0:0:
288,192,108461,1,0,0:0:0:0:
160,192,108637,1,0,0:0:0:0:
416,192,108814,1,0,0:0:0:0:
288,192,108990,1,0,0:0:0:0:
160,192,109167,1,0,0:0:0:0:
416,192,109343,1,0,0:0:0:0:
288,192,109519,1,0,0:0:0:0:
160,192,109696,1,0,0:0:0:0:
416,192,109872,1,0,0:0:0:0:
288,192,110049,1,0,0:0:0:0:
160,192,110225,1,0,0:0:0:0:
416,192,110402,1,0,0:0:0:0:
288,192,110578,1,0,0:0:0:0:
160,192,110755,1,0,0:0:0:0:
352,192,110755,1,0,0:0:0:0:
416,192,110931,1,0,0:0:0:0:
288,192,111108,1,0,0:0:0:0:
160,192,111284,1,0,0:0:0:0:
416,192,111461,1,0,0:0:0:0:
288,192,111637,1,0,0:0:0:0:
160,192,111814,1,0,0:0:0:0:
416,192,111990,1,0,0:0:0:0:
288,192,112167,1,0,0:0:0:0:
224,192,112167,1,0,0:0:0:0:
160,192,112343,1,0,0:0:0:0:
416,192,112519,1,0,0:0:0:0:
288,192,112696,1,0,0:0:0:0:
160,192,112872,1,0,0:0:0:0:
416,192,113049,1,0,0:0:0:0:
288,192,113225,1,0,0:0:0:0:
160,192,113402,1,0,0:0:0:0:
416,192,113578,1,0,0:0:0:0:
480,192,113578,1,0,0:0:0:0:
288,192,113755,1,0,0:0:0:0:
160,192,113931,1,0,0:0:0:0:
416,192,114108,1,0,0:0:0:0:
288,192,114284,1,0,0:0:0:0:
160,192,114461,1,0,0:0:0:0:
416,192,114637,1,0,0:0:0:0:
288,192,114814,1,0,0:0:0:0:
160,192,114990,1,0,0:0:0:0:
96,192,114990,1,0,0:0:0:0:
352,192,115167,1,0,0:0:0:0:
224,192,115343,1,0,0:0:0:0:
96,192,115519,1,0,0:0:0:0:
352,192,115696,1,0,0:0:0:0:
224,192,115872,1,0,0:0:0:0:
480,192,116049,1,0,0:0:0:0:
352,192,116225,1,0,0:0:0:0:
416,192,116402,1,0,0:0:0:0:
160,192,116402,1,0,0:0:0:0:
288,192,117284,1,0,0:0:0:0:
160,192,117637,1,0,0:0:0:0:
352,192,117814,1,0,0:0:0:0:
480,192,117814,1,0,0:0:0:0:
160,192,118167,1,0,0:0:0:0:
288,192,118519,1,0,0:0:0:0:
160,192,118872,1,0,0:0:0:0:
352,192,119225,1,0,0:0:0:0:
480,192,119225,1,0,0:0:0:0:
160,192,119579,1,0,0:0:0:0:
288,192,119755,1,0,0:0:0:0:
288,192,120108,1,0,0:0:0:0:
160,192,120284,1,0,0:0:0:0:
352,192,120637,1,0,0:0:0:0:
480,192,120637,1,0,0:0:0:0:
160,192,120991,1,0,0:0:0:0:
288,192,121167,1,0,0:0:0:0:
288,192,121519,1,0,0:0:0:0:
160,192,121696,1,0,0:0:0:0:
480,192,122049,1,0,0:0:0:0:
352,192,122049,1,0,0:0:0:0:
160,192,122402,1,0,0:0:0:0:
288,192,122578,1,0,0:0:0:0:
288,192,122931,1,0,0:0:0:0:
160,192,123107,1,0,0:0:0:0:
352,192,123460,1,0,0:0:0:0:
480,192,123460,1,0,0:0:0:0:
160,192,123814,1,0,0:0:0:0:
288,192,123990,1,0,0:0:0:0:
288,192,124343,1,0,0:0:0:0:
160,192,124519,1,0,0:0:0:0:
480,192,124872,1,0,0:0:0:0:
352,192,124872,1,0,0:0:0:0:
160,192,125226,1,0,0:0:0:0:
288,192,125402,1,0,0:0:0:0:
288,192,125755,1,0,0:0:0:0:
160,192,125931,1,0,0:0:0:0:
352,192,126284,1,0,0:0:0:0:
480,192,126284,1,0,0:0:0:0:
160,192,126638,1,0,0:0:0:0:
288,192,126814,1,0,0:0:0:0:
288,192,127167,1,0,0:0:0:0:
160,192,127343,1,0,0:0:0:0:
96,192,127696,1,0,0:0:0:0:
224,192,127872,1,0,0:0:0:0:
288,192,128049,1,0,0:0:0:0:
416,192,128225,1,0,0:0:0:0:
480,192,128402,1,0,0:0:0:0:
96,192,129108,1,0,0:0:0:0:
160,192,129284,1,0,0:0:0:0:
288,192,129461,1,0,0:0:0:0:
416,192,129637,1,0,0:0:0:0:
480,192,129814,1,0,0:0:0:0:
96,192,130519,1,0,0:0:0:0:
160,192,130696,1,0,0:0:0:0:
224,192,130872,1,0,0:0:0:0:
352,192,131049,1,0,0:0:0:0:
416,192,131225,1,0,0:0:0:0:
96,192,131931,1,0,0:0:0:0:
160,192,132108,1,0,0:0:0:0:
288,192,132284,1,0,0:0:0:0:
416,192,132461,1,0,0:0:0:0:
288,192,132637,1,0,0:0:0:0:
416,192,132814,1,0,0:0:0:0:
480,192,132990,1,0,0:0:0:0:
416,192,133167,1,0,0:0:0:0:
96,192,133343,1,0,0:0:0:0:
352,192,133343,1,0,0:0:0:0:
224,192,133519,1,0,0:0:0:0:
288,192,133696,1,0,0:0:0:0:
352,192,133872,1,0,0:0:0:0:
416,192,134049,1,0,0:0:0:0:
416,192,134755,1,0,0:0:0:0:
96,192,134755,1,0,0:0:0:0:
224,192,134931,1,0,0:0:0:0:
416,192,135284,1,0,0:0:0:0:
416,192,135637,1,0,0:0:0:0:
224,192,135814,1,0,0:0:0:0:
416,192,135990,1,0,0:0:0:0:
480,192,136167,1,0,0:0:0:0:
224,192,136519,1,0,0:0:0:0:
352,192,136696,1,0,0:0:0:0:
352,192,137049,1,0,0:0:0:0:
224,192,137225,1,0,0:0:0:0:
160,192,137578,1,0,0:0:0:0:
288,192,137931,1,0,0:0:0:0:
480,192,138108,1,0,0:0:0:0:
416,192,138284,1,0,0:0:0:0:
288,192,138461,1,0,0:0:0:0:
160,192,138637,1,0,0:0:0:0:
288,192,138814,1,0,0:0:0:0:
96,192,138990,1,0,0:0:0:0:
416,192,139696,1,0,0:0:0:0:
96,192,140049,1,0,0:0:0:0:
416,192,140225,1,0,0:0:0:0:
32,192,140402,1,0,0:0:0:0:
416,192,141107,1,0,0:0:0:0:
96,192,141814,1,0,0:0:0:0:
416,192,141990,1,0,0:0:0:0:
416,192,142520,1,0,0:0:0:0:
96,192,142873,1,0,0:0:0:0:
416,192,143050,1,0,0:0:0:0:
32,192,143225,1,0,0:0:0:0:
416,192,143932,1,0,0:0:0:0:
96,192,144637,1,0,0:0:0:0:
416,192,144814,1,0,0:0:0:0:
96,192,145167,1,0,0:0:0:0:
416,192,145343,1,0,0:0:0:0:
96,192,145696,1,0,0:0:0:0:
416,192,145872,1,0,0:0:0:0:
96,192,146225,1,0,0:0:0:0:
416,192,146755,1,0,0:0:0:0:
416,192,147285,1,0,0:0:0:0:
96,192,147461,1,0,0:0:0:0:
416,192,147638,1,0,0:0:0:0:
96,192,147991,1,0,0:0:0:0:
416,192,148167,1,0,0:0:0:0:
96,192,148520,1,0,0:0:0:0:
416,192,148697,1,0,0:0:0:0:
96,192,149049,1,0,0:0:0:0:
96,192,149225,1,0,0:0:0:0:
416,192,149578,1,0,0:0:0:0:
416,192,150107,1,0,0:0:0:0:
224,192,150284,128,0,150814:0:0:0:0:
352,192,150814,128,0,151696:0:0:0:0:
288,192,151696,1,0,0:0:0:0:
416,192,152225,128,0,153108:0:0:0:0:
160,192,152225,128,0,153108:0:0:0:0:
96,192,153108,1,0,0:0:0:0:
224,192,153108,1,0,0:0:0:0:
352,192,153108,1,0,0:0:0:0:
480,192,153108,1,0,0:0:0:0:
32,192,155931,1,0,0:0:0:0:
96,192,155931,1,0,0:0:0:0:
480,192,155931,1,0,0:0:0:0:
224,192,156284,1,0,0:0:0:0:
480,192,156461,1,0,0:0:0:0:
480,192,156990,1,0,0:0:0:0:
96,192,157343,1,0,0:0:0:0:
480,192,157343,1,0,0:0:0:0:
224,192,157696,1,0,0:0:0:0:
480,192,157873,1,0,0:0:0:0:
480,192,158402,1,0,0:0:0:0:
96,192,158755,1,0,0:0:0:0:
480,192,158755,1,0,0:0:0:0:
224,192,159108,1,0,0:0:0:0:
480,192,159284,1,0,0:0:0:0:
480,192,159814,1,0,0:0:0:0:
96,192,160167,1,0,0:0:0:0:
480,192,160167,1,0,0:0:0:0:
224,192,160520,1,0,0:0:0:0:
480,192,160696,1,0,0:0:0:0:
480,192,161049,1,0,0:0:0:0:
352,192,161225,1,0,0:0:0:0:
32,192,161578,1,0,0:0:0:0:
96,192,161578,1,0,0:0:0:0:
480,192,161578,1,0,0:0:0:0:
224,192,161931,1,0,0:0:0:0:
480,192,162108,1,0,0:0:0:0:
480,192,162637,1,0,0:0:0:0:
480,192,162990,1,0,0:0:0:0:
96,192,162990,1,0,0:0:0:0:
224,192,163343,1,0,0:0:0:0:
480,192,163520,1,0,0:0:0:0:
480,192,164049,1,0,0:0:0:0:
96,192,164402,1,0,0:0:0:0:
480,192,164402,1,0,0:0:0:0:
224,192,164755,1,0,0:0:0:0:
480,192,164931,1,0,0:0:0:0:
480,192,165461,1,0,0:0:0:0:
96,192,165814,1,0,0:0:0:0:
480,192,165814,1,0,0:0:0:0:
224,192,166167,1,0,0:0:0:0:
480,192,166343,1,0,0:0:0:0:
480,192,166696,1,0,0:0:0:0:
352,192,166872,1,0,0:0:0:0:
32,192,167225,1,0,0:0:0:0:
96,192,167225,1,0,0:0:0:0:
480,192,167225,1,0,0:0:0:0:
288,192,167578,1,0,0:0:0:0:
480,192,167755,1,0,0:0:0:0:
160,192,168108,1,0,0:0:0:0:
288,192,168284,1,0,0:0:0:0:
416,192,168461,1,0,0:0:0:0:
480,192,168637,1,0,0:0:0:0:
96,192,168637,1,0,0:0:0:0:
288,192,168990,1,0,0:0:0:0:
480,192,169167,1,0,0:0:0:0:
160,192,169519,1,0,0:0:0:0:
288,192,169696,1,0,0:0:0:0:
416,192,169872,1,0,0:0:0:0:
480,192,170049,1,0,0:0:0:0:
96,192,170049,1,0,0:0:0:0:
288,192,170402,1,0,0:0:0:0:
480,192,170578,1,0,0:0:0:0:
160,192,170931,1,0,0:0:0:0:
288,192,171108,1,0,0:0:0:0:
416,192,171284,1,0,0:0:0:0:
480,192,171461,1,0,0:0:0:0:
96,192,171461,1,0,0:0:0:0:
288,192,171814,1,0,0:0:0:0:
480,192,171990,1,0,0:0:0:0:
480,192,172343,1,0,0:0:0:0:
288,192,172519,1,0,0:0:0:0:
32,192,172872,1,0,0:0:0:0:
96,192,172872,1,0,0:0:0:0:
480,192,172872,1,0,0:0:0:0:
288,192,173225,1,0,0:0:0:0:
480,192,173402,1,0,0:0:0:0:
160,192,173755,1,0,0:0:0:0:
288,192,173931,1,0,0:0:0:0:
416,192,174108,1,0,0:0:0:0:
480,192,174284,1,0,0:0:0:0:
96,192,174284,1,0,0:0:0:0:
288,192,174637,1,0,0:0:0:0:
480,192,174814,1,0,0:0:0:0:
160,192,175167,1,0,0:0:0:0:
288,192,175343,1,0,0:0:0:0:
416,192,175519,1,0,0:0:0:0:
480,192,175696,1,0,0:0:0:0:
96,192,175696,1,0,0:0:0:0:
288,192,176049,1,0,0:0:0:0:
480,192,176225,1,0,0:0:0:0:
160,192,176578,1,0,0:0:0:0:
288,192,176755,1,0,0:0:0:0:
416,192,176931,1,0,0:0:0:0:
480,192,177108,1,0,0:0:0:0:
96,192,177108,1,0,0:0:0:0:
288,192,177461,1,0,0:0:0:0:
480,192,177637,1,0,0:0:0:0:
480,192,177990,5,0,0:0:0:0:
288,192,178167,1,0,0:0:0:0:
224,192,178519,5,0,0:0:0:0:
32,192,178519,1,0,0:0:0:0:
224,192,178872,1,0,0:0:0:0:
224,192,179049,1,0,0:0:0:0:
224,192,179225,1,0,0:0:0:0:
224,192,179402,1,0,0:0:0:0:
352,192,179755,1,0,0:0:0:0:
352,192,180108,1,0,0:0:0:0:
352,192,180284,1,0,0:0:0:0:
160,192,181343,1,0,0:0:0:0:
160,192,181696,1,0,0:0:0:0:
160,192,181872,1,0,0:0:0:0:
160,192,182049,1,0,0:0:0:0:
160,192,182225,1,0,0:0:0:0:
288,192,182578,1,0,0:0:0:0:
288,192,182931,1,0,0:0:0:0:
288,192,183108,1,0,0:0:0:0:
352,192,184167,1,0,0:0:0:0:
352,192,184519,1,0,0:0:0:0:
352,192,184696,1,0,0:0:0:0:
352,192,184872,1,0,0:0:0:0:
352,192,185049,1,0,0:0:0:0:
480,192,185402,1,0,0:0:0:0:
480,192,185755,1,0,0:0:0:0:
480,192,185931,1,0,0:0:0:0:
96,192,186637,128,0,186990:0:0:0:0:
480,192,186990,128,0,187608:0:0:0:0:
160,192,187608,128,0,190078:0:0:0:0:
288,192,190078,128,0,190519:0:0:0:0:
416,192,190519,128,0,191225:0:0:0:0:
352,192,191225,128,0,191931:0:0:0:0:
480,192,191931,128,0,192637:0:0:0:0:
32,192,192637,1,0,0:0:0:0:
352,192,192637,1,0,0:0:0:0:
352,192,192990,1,0,0:0:0:0:
352,192,193167,1,0,0:0:0:0:
352,192,193343,1,0,0:0:0:0:
352,192,193519,1,0,0:0:0:0:
480,192,193872,1,0,0:0:0:0:
480,192,194225,1,0,0:0:0:0:
480,192,194402,1,0,0:0:0:0:
160,192,195461,1,0,0:0:0:0:
160,192,195814,1,0,0:0:0:0:
160,192,195990,1,0,0:0:0:0:
160,192,196167,1,0,0:0:0:0:
160,192,196343,1,0,0:0:0:0:
288,192,196696,1,0,0:0:0:0:
288,192,197049,1,0,0:0:0:0:
288,192,197225,1,0,0:0:0:0:
352,192,198284,1,0,0:0:0:0:
352,192,198461,1,0,0:0:0:0:
352,192,198637,1,0,0:0:0:0:
352,192,198814,1,0,0:0:0:0:
352,192,198990,1,0,0:0:0:0:
352,192,199167,1,0,0:0:0:0:
480,192,199519,1,0,0:0:0:0:
480,192,199872,1,0,0:0:0:0:
480,192,200049,1,0,0:0:0:0:
224,192,201108,1,0,0:0:0:0:
352,192,201284,1,0,0:0:0:0:
416,192,201461,1,0,0:0:0:0:
160,192,202519,1,0,0:0:0:0:
352,192,202696,1,0,0:0:0:0:
416,192,202872,1,0,0:0:0:0:
96,192,203931,1,0,0:0:0:0:
224,192,204108,1,0,0:0:0:0:
416,192,204284,1,0,0:0:0:0:
160,192,205343,1,0,0:0:0:0:
352,192,205519,1,0,0:0:0:0:
416,192,205696,1,0,0:0:0:0:
224,192,206755,1,0,0:0:0:0:
352,192,206931,1,0,0:0:0:0:
416,192,207108,1,0,0:0:0:0:
160,192,208167,1,0,0:0:0:0:
352,192,208343,1,0,0:0:0:0:
416,192,208519,1,0,0:0:0:0:
96,192,209578,1,0,0:0:0:0:
224,192,209755,1,0,0:0:0:0:
416,192,209931,1,0,0:0:0:0:
160,192,210990,1,0,0:0:0:0:
352,192,211167,1,0,0:0:0:0:
416,192,211343,1,0,0:0:0:0:
96,192,212402,1,0,0:0:0:0:
32,192,212402,1,0,0:0:0:0:
288,192,212755,1,0,0:0:0:0:
480,192,213108,1,0,0:0:0:0:
288,192,213461,1,0,0:0:0:0:
32,192,213814,1,0,0:0:0:0:
96,192,213814,1,0,0:0:0:0:
288,192,214167,1,0,0:0:0:0:
480,192,214519,1,0,0:0:0:0:
288,192,214872,1,0,0:0:0:0:
96,192,215225,1,0,0:0:0:0:
288,192,215578,1,0,0:0:0:0:
480,192,215931,1,0,0:0:0:0:
288,192,216284,1,0,0:0:0:0:
96,192,216637,1,0,0:0:0:0:
32,192,216637,1,0,0:0:0:0:
288,192,216990,1,0,0:0:0:0:
480,192,217343,1,0,0:0:0:0:
288,192,217696,1,0,0:0:0:0:
32,192,218049,1,0,0:0:0:0:
96,192,218049,1,0,0:0:0:0:
288,192,218402,1,0,0:0:0:0:
480,192,218755,1,0,0:0:0:0:
32,192,219461,1,0,0:0:0:0:
96,192,219461,1,0,0:0:0:0:
288,192,219814,1,0,0:0:0:0:
480,192,220167,1,0,0:0:0:0:
416,192,220519,1,0,0:0:0:0:
32,192,220872,1,0,0:0:0:0:
96,192,220872,1,0,0:0:0:0:
160,192,221225,1,0,0:0:0:0:
224,192,221578,1,0,0:0:0:0:
352,192,221931,1,0,0:0:0:0:
416,192,222108,1,0,0:0:0:0:
480,192,222284,1,0,0:0:0:0:
32,192,222284,1,0,0:0:0:0:
32,192,223696,1,0,0:0:0:0:
224,192,223696,128,0,226519:0:0:0:0:
480,192,225108,1,0,0:0:0:0:
352,192,226519,128,0,229343:0:0:0:0:
32,192,226519,1,0,0:0:0:0:
288,192,227931,1,0,0:0:0:0:
32,192,229343,1,0,0:0:0:0:
480,192,229343,1,0,0:0:0:0:
160,192,229343,128,0,232167:0:0:0:0:
224,192,230049,1,0,0:0:0:0:
352,192,230755,1,0,0:0:0:0:
480,192,231461,1,0,0:0:0:0:
416,192,232167,128,0,234990:0:0:0:0:
96,192,234990,1,0,0:0:0:0:
224,192,234990,1,0,0:0:0:0:
352,192,235343,1,0,0:0:0:0:
480,192,235519,1,0,0:0:0:0:
416,192,235872,1,0,0:0:0:0:
288,192,236225,1,0,0:0:0:0:
224,192,236578,1,0,0:0:0:0:
352,192,236755,1,0,0:0:0:0:
480,192,236931,1,0,0:0:0:0:
96,192,237461,1,0,0:0:0:0:
96,192,237814,1,0,0:0:0:0:
352,192,238167,1,0,0:0:0:0:
480,192,238343,1,0,0:0:0:0:
352,192,238696,1,0,0:0:0:0:
96,192,239049,1,0,0:0:0:0:
96,192,239225,1,0,0:0:0:0:
224,192,239225,1,0,0:0:0:0:
352,192,239578,1,0,0:0:0:0:
96,192,240108,1,0,0:0:0:0:
96,192,240284,1,0,0:0:0:0:
352,192,240637,1,0,0:0:0:0:
480,192,240637,1,0,0:0:0:0:
288,192,240990,1,0,0:0:0:0:
96,192,241167,1,0,0:0:0:0:
352,192,241519,1,0,0:0:0:0:
352,192,241696,1,0,0:0:0:0:
32,192,241872,1,0,0:0:0:0:
96,192,243461,128,0,243814:0:0:0:0:
288,192,243814,128,0,244167:0:0:0:0:
160,192,244167,128,0,244519:0:0:0:0:
352,192,244519,128,0,244872:0:0:0:0:
224,192,244872,128,0,245225:0:0:0:0:
416,192,245225,128,0,245578:0:0:0:0:
96,192,245578,128,0,245931:0:0:0:0:
288,192,245931,128,0,246284:0:0:0:0:
32,192,246284,1,0,0:0:0:0:
96,192,246284,1,0,0:0:0:0:
480,192,246284,1,0,0:0:0:0:
224,192,246637,1,0,0:0:0:0:
480,192,246814,1,0,0:0:0:0:
480,192,247343,1,0,0:0:0:0:
96,192,247696,1,0,0:0:0:0:
480,192,247696,1,0,0:0:0:0:
224,192,248049,1,0,0:0:0:0:
480,192,248226,1,0,0:0:0:0:
480,192,248755,1,0,0:0:0:0:
480,192,249108,1,0,0:0:0:0:
96,192,249108,1,0,0:0:0:0:
224,192,249461,1,0,0:0:0:0:
480,192,249637,1,0,0:0:0:0:
480,192,250167,1,0,0:0:0:0:
480,192,250520,1,0,0:0:0:0:
96,192,250520,1,0,0:0:0:0:
224,192,250873,1,0,0:0:0:0:
480,192,251049,1,0,0:0:0:0:
480,192,251402,1,0,0:0:0:0:
352,192,251578,1,0,0:0:0:0:
32,192,251931,1,0,0:0:0:0:
96,192,251931,1,0,0:0:0:0:
480,192,251931,1,0,0:0:0:0:
224,192,252284,1,0,0:0:0:0:
480,192,252461,1,0,0:0:0:0:
480,192,252990,1,0,0:0:0:0:
480,192,253343,1,0,0:0:0:0:
96,192,253343,1,0,0:0:0:0:
224,192,253696,1,0,0:0:0:0:
480,192,253873,1,0,0:0:0:0:
480,192,254402,1,0,0:0:0:0:
480,192,254755,1,0,0:0:0:0:
96,192,254755,1,0,0:0:0:0:
224,192,255108,1,0,0:0:0:0:
480,192,255284,1,0,0:0:0:0:
480,192,255814,1,0,0:0:0:0:
480,192,256167,1,0,0:0:0:0:
96,192,256167,1,0,0:0:0:0:
224,192,256520,1,0,0:0:0:0:
480,192,256696,1,0,0:0:0:0:
480,192,257049,1,0,0:0:0:0:
352,192,257225,1,0,0:0:0:0:
32,192,257578,1,0,0:0:0:0:
96,192,257578,1,0,0:0:0:0:
480,192,257578,1,0,0:0:0:0:
288,192,257931,1,0,0:0:0:0:
480,192,258108,1,0,0:0:0:0:
160,192,258461,1,0,0:0:0:0:
288,192,258637,1,0,0:0:0:0:
416,192,258814,1,0,0:0:0:0:
480,192,258990,1,0,0:0:0:0:
96,192,258990,1,0,0:0:0:0:
288,192,259343,1,0,0:0:0:0:
480,192,259520,1,0,0:0:0:0:
160,192,259872,1,0,0:0:0:0:
288,192,260049,1,0,0:0:0:0:
416,192,260225,1,0,0:0:0:0:
480,192,260402,1,0,0:0:0:0:
96,192,260402,1,0,0:0:0:0:
288,192,260755,1,0,0:0:0:0:
480,192,260931,1,0,0:0:0:0:
160,192,261284,1,0,0:0:0:0:
288,192,261461,1,0,0:0:0:0:
416,192,261637,1,0,0:0:0:0:
96,192,261814,1,0,0:0:0:0:
480,192,261814,1,0,0:0:0:0:
288,192,262167,1,0,0:0:0:0:
480,192,262343,1,0,0:0:0:0:
480,192,262696,1,0,0:0:0:0:
288,192,262873,1,0,0:0:0:0:
32,192,263225,1,0,0:0:0:0:
96,192,263225,1,0,0:0:0:0:
480,192,263225,1,0,0:0:0:0:
288,192,263578,1,0,0:0:0:0:
480,192,263755,1,0,0:0:0:0:
160,192,264108,1,0,0:0:0:0:
288,192,264284,1,0,0:0:0:0:
416,192,264461,1,0,0:0:0:0:
96,192,264637,1,0,0:0:0:0:
480,192,264637,1,0,0:0:0:0:
288,192,264990,1,0,0:0:0:0:
480,192,265167,1,0,0:0:0:0:
160,192,265519,1,0,0:0:0:0:
288,192,265696,1,0,0:0:0:0:
416,192,265872,1,0,0:0:0:0:
96,192,266048,1,0,0:0:0:0:
480,192,266048,1,0,0:0:0:0:
288,192,266401,1,0,0:0:0:0:
480,192,266577,1,0,0:0:0:0:
160,192,266930,1,0,0:0:0:0:
288,192,267107,1,0,0:0:0:0:
416,192,267283,1,0,0:0:0:0:
96,192,267460,1,0,0:0:0:0:
480,192,267460,1,0,0:0:0:0:
288,192,267813,1,0,0:0:0:0:
480,192,267989,1,0,0:0:0:0:
480,192,268342,5,0,0:0:0:0:
288,192,268519,1,0,0:0:0:0:
416,192,268872,1,0,0:0:0:0:
480,192,269049,1,0,0:0:0:0:
224,192,269225,1,0,0:0:0:0:
288,192,269402,1,0,0:0:0:0:
352,192,269578,1,0,0:0:0:0:
416,192,269755,1,0,0:0:0:0:
288,192,269931,1,0,0:0:0:0:
224,192,270108,1,0,0:0:0:0:
160,192,270284,1,0,0:0:0:0:
96,192,270461,1,0,0:0:0:0:
224,192,270637,1,0,0:0:0:0:
288,192,270814,1,0,0:0:0:0:
352,192,270990,1,0,0:0:0:0:
416,192,271167,1,0,0:0:0:0:
352,192,271343,1,0,0:0:0:0:
288,192,271519,1,0,0:0:0:0:
224,192,271696,1,0,0:0:0:0:
160,192,271872,1,0,0:0:0:0:
96,192,272049,1,0,0:0:0:0:
288,192,272225,1,0,0:0:0:0:
352,192,272402,1,0,0:0:0:0:
416,192,272578,1,0,0:0:0:0:
480,192,272755,1,0,0:0:0:0:
288,192,272931,1,0,0:0:0:0:
224,192,273108,1,0,0:0:0:0:
160,192,273284,1,0,0:0:0:0:
96,192,273461,1,0,0:0:0:0:
160,192,273637,1,0,0:0:0:0:
224,192,273814,1,0,0:0:0:0:
416,192,273990,1,0,0:0:0:0:
480,192,274167,1,0,0:0:0:0:
416,192,274343,1,0,0:0:0:0:
352,192,274519,1,0,0:0:0:0:
288,192,274696,1,0,0:0:0:0:
96,192,274872,1,0,0:0:0:0:
160,192,275049,1,0,0:0:0:0:
224,192,275225,1,0,0:0:0:0:
288,192,275402,1,0,0:0:0:0:
480,192,275578,1,0,0:0:0:0:
416,192,275755,1,0,0:0:0:0:
352,192,275931,1,0,0:0:0:0:
288,192,276108,1,0,0:0:0:0:
224,192,276284,1,0,0:0:0:0:
96,192,276461,1,0,0:0:0:0:
160,192,276637,1,0,0:0:0:0:
224,192,276814,1,0,0:0:0:0:
288,192,276990,1,0,0:0:0:0:
480,192,277167,1,0,0:0:0:0:
416,192,277343,1,0,0:0:0:0:
352,192,277519,1,0,0:0:0:0:
288,192,277696,1,0,0:0:0:0:
224,192,277872,1,0,0:0:0:0:
96,192,278049,1,0,0:0:0:0:
160,192,278225,1,0,0:0:0:0:
224,192,278402,1,0,0:0:0:0:
480,192,278578,1,0,0:0:0:0:
416,192,278755,1,0,0:0:0:0:
352,192,278931,1,0,0:0:0:0:
288,192,279108,1,0,0:0:0:0:
224,192,279284,1,0,0:0:0:0:
160,192,279461,1,0,0:0:0:0:
224,192,279637,1,0,0:0:0:0:
288,192,279814,1,0,0:0:0:0:
224,192,279990,1,0,0:0:0:0:
