osu file format v14

[General]
AudioFilename: audio.mp3
AudioLeadIn: 0
PreviewTime: 273647
Countdown: 1
SampleSet: Soft
StackLeniency: 0.6
Mode: 0
LetterboxInBreaks: 0
WidescreenStoryboard: 0

[Editor]
Bookmarks: 17709,51995,73424,116281,137709,171995,193424,231995,249138,274852,291995,313424,330567,339138,347709
DistanceSpacing: 0.8
BeatDivisor: 4
GridSize: 32
TimelineZoom: 1.9

[Metadata]
Title:After snow -Shiroki Towa-
TitleUnicode:After snow -白き永遠-
Artist:Ceui
ArtistUnicode:Ceui
Creator:Shikibe Mayu
Version:Snowdrop
Source:アストラエアの白き永遠
Tags:Shizuku- Kazato Asa White Eternity of AstralAir no Shiroki Towa FVS-ASTBT FVG-ASTD2 Favorite オリジナルボーカルアルバムAstralAria アストラルアリア Original Vocal Album-ETERNAL BEST- 氷原さくら Sakura Nagahara 小高光太郎 Kotaro Kotarou Odaka eroge galgame visual novel vn Yuuki 雪々grand true ed ending full version pop japanese jpop j-pop video game
BeatmapID:3300102
BeatmapSetID:1616329

[Difficulty]
HPDrainRate:6
CircleSize:4
OverallDifficulty:9
ApproachRate:9
SliderMultiplier:2.16
SliderTickRate:1

[Events]
//Background and Video events
0,0,"f38d140bd.jpg",0,0
//Break Periods
2,116481,123984
2,133624,136641
2,274852,282556
//Storyboard Layer 0 (Background)
//Storyboard Layer 1 (Fail)
//Storyboard Layer 2 (Pass)
//Storyboard Layer 3 (Foreground)
//Storyboard Layer 4 (Overlay)
//Storyboard Sound Samples

[TimingPoints]
567,535.714285714286,4,2,1,55,1,0
2531,-125,4,2,1,55,0,0
51995,-125,4,2,2,55,0,0
68334,-125,4,2,1,60,0,0
70209,-76.9230769230769,4,2,1,70,0,0
72352,-250,4,2,1,70,0,0
73424,-55.5555555555556,4,2,1,80,0,1
73959,-71.4285714285714,4,2,1,80,0,1
77709,-55.5555555555556,4,2,1,80,0,1
78245,-71.4285714285714,4,2,1,80,0,1
94852,-55.5555555555556,4,2,1,80,0,1
95388,-71.4285714285714,4,2,1,80,0,1
97799,-55.5555555555556,4,2,1,80,0,1
99674,-71.4285714285714,4,2,1,80,0,1
99942,-62.5,4,2,1,80,0,1
101817,-71.4285714285714,4,2,1,80,0,1
107709,-55.5555555555556,4,2,1,80,0,1
108781,-62.5,4,2,1,80,0,1
109852,-83.3333333333333,4,2,1,80,0,1
111995,-125,4,2,1,70,0,0
116281,-125,4,2,1,60,0,0
138781,-100,4,2,1,60,0,0
139317,-125,4,2,1,60,0,0
143067,-100,4,2,1,60,0,0
151102,-125,4,2,1,60,0,0
153781,-71.4285714285714,4,2,1,60,0,0
154852,-83.3333333333333,4,2,1,60,0,0
181102,-125,4,2,2,60,0,0
188334,-125,4,2,1,60,0,0
191281,-125,4,2,1,70,0,0
193424,-55.5555555555556,4,2,1,80,0,1
193959,-71.4285714285714,4,2,1,80,0,1
197709,-55.5555555555556,4,2,1,80,0,1
198245,-71.4285714285714,4,2,1,80,0,1
214852,-55.5555555555556,4,2,1,80,0,1
215388,-71.4285714285714,4,2,1,80,0,1
216995,-62.5,4,2,1,80,0,1
217799,-55.5555555555556,4,2,1,80,0,1
219674,-71.4285714285714,4,2,1,80,0,1
219942,-62.5,4,2,1,80,0,1
221817,-71.4285714285714,4,2,1,80,0,1
227709,-55.5555555555556,4,2,1,80,0,1
228781,-62.5,4,2,1,80,0,1
229852,-83.3333333333333,4,2,1,80,0,1
231995,-83.3333333333333,4,2,1,60,0,0
238424,-125,4,2,1,60,0,0
239495,-100,4,2,1,60,0,0
241638,-76.9230769230769,4,2,1,60,0,0
242977,-100,4,2,1,60,0,0
248200,-100,4,2,2,60,0,0
248602,-76.9230769230769,4,2,1,70,0,0
283424,-125,4,2,1,70,0,0
291459,-71.4285714285714,4,2,1,70,0,0
291995,-71.4285714285714,4,2,1,80,0,1
294138,-62.5,4,2,1,80,0,1
296281,-55.5555555555556,4,2,1,80,0,1
296817,-71.4285714285714,4,2,1,80,0,1
298424,-62.5,4,2,1,80,0,1
300031,-55.5555555555556,4,2,1,80,0,1
301102,-71.4285714285714,4,2,1,80,0,1
301370,-62.5,4,2,1,80,0,1
303513,-55.5555555555556,4,2,1,80,0,1
304049,-71.4285714285714,4,2,1,80,0,1
309138,-55.5555555555556,4,2,1,80,0,1
310209,-62.5,4,2,1,80,0,1
311281,-83.3333333333333,4,2,1,80,0,1
313424,-71.4285714285714,4,2,1,70,0,0
330567,-83.3333333333333,4,2,1,65,0,0
339138,-125,4,2,1,60,0,0
347442,-125,4,2,1,50,0,0

[Colours]
Combo1 : 180,220,200
Combo2 : 220,160,200
Combo3 : 200,192,233
Combo4 : 159,191,215

[HitObjects]
31,296,567,5,6,2:1:0:0:
115,265,834,1,0,2:0:0:0:
196,277,1102,1,0,2:0:0:0:
252,336,1370,1,2,2:0:0:0:
252,336,2531,6,0,L|245:365,2,28.8,2|2|4,2:0|2:0|2:1,2:0:0:0:
196,277,2977,1,2,2:0:0:0:
217,193,3245,2,0,P|201:103|164:26,2,172.8,2|2|2,2:0|2:0|2:0,2:0:0:0:
217,193,4674,6,0,L|245:187,2,28.8,2|2|4,2:0|2:0|2:1,2:0:0:0:
139,147,5120,1,0,2:0:0:0:
54,181,5388,1,0,2:0:0:0:
129,238,5656,1,2,2:0:0:0:
129,238,6727,5,2,2:0:0:0:
203,384,6995,2,0,P|187:343|185:300,1,86.4,2|0,2:0|2:0,2:0:0:0:
240,166,7531,2,0,P|255:206|257:249,1,86.4,0|0,2:0|2:0,2:0:0:0:
322,320,8067,2,0,P|402:353|491:337,1,172.8,2|2,2:0|2:0,2:0:0:0:
485,339,8959,6,0,L|493:369,2,28.8,2|2|4,2:0|2:0|2:1,2:0:0:0:
499,265,9406,1,0,2:0:0:0:
447,202,9674,2,0,P|405:219|361:229,1,86.4,0|0,2:0|2:0,2:0:0:0:
244,100,10209,5,2,2:0:0:0:
182,40,10477,1,0,2:0:0:0:
101,77,10745,2,0,P|118:119|128:163,1,86.4,0|0,2:0|2:0,2:0:0:0:
203,384,11281,6,0,P|204:298|244:212,1,172.8,2|0,2:0|2:0,2:0:0:0:
238,219,12352,2,0,P|195:238|152:244,1,86.4,2|0,2:0|2:0,2:0:0:0:
127,158,12888,2,0,P|170:139|213:133,1,86.4,0|0,2:0|2:0,2:0:0:0:
319,256,13424,5,2,2:0:0:0:
399,267,13692,1,0,2:0:0:0:
472,231,13959,1,0,2:0:0:0:
501,154,14227,1,0,2:0:0:0:
428,77,14495,6,0,P|416:121|416:165,1,86.4,2|0,2:0|2:0,2:0:0:0:
319,256,15031,1,2,2:0:0:0:
235,236,15299,1,0,2:0:0:0:
164,299,15567,1,6,2:1:0:0:
164,299,17174,2,0,P|121:295|78:280,1,86.4,0|2,2:0|2:0,2:0:0:0:
0,128,17709,6,0,P|87:107|157:58,1,172.8,2|0,2:0|2:0,2:0:0:0:
227,106,18513,1,0,2:0:0:0:
227,106,19317,2,0,P|242:152|245:193,1,86.4,0|0,2:0|2:0,2:0:0:0:
157,379,19852,6,0,P|134:297|134:210,1,172.8,2|0,2:0|2:0,2:0:0:0:
71,155,20656,1,0,2:0:0:0:
236,295,21192,5,0,2:0:0:0:
236,295,21459,2,0,P|278:295|328:280,1,86.4,2|0,2:0|2:0,2:0:0:0:
511,333,21995,6,0,P|469:333|419:348,1,86.4,2|0,2:0|2:0,2:0:0:0:
426,344,22397,1,0,2:0:0:0:
426,344,22531,1,0,2:0:0:0:
348,384,22799,6,0,P|379:300|378:211,1,172.8,2|0,2:0|2:0,2:0:0:0:
430,149,23602,2,0,P|473:149|513:166,1,86.4,0|0,2:0|2:0,2:0:0:0:
512,165,24004,1,0,2:0:0:0:
512,165,24138,2,0,P|496:77|429:24,1,172.8,2|0,2:0|2:0,2:0:0:0:
269,52,24942,2,0,P|311:61|354:72,1,86.4,2|0,2:0|2:0,2:0:0:0:
354,72,25343,1,0,2:0:0:0:
354,72,25477,1,0,2:0:0:0:
302,230,25745,2,0,P|293:180|293:139,1,86.4,0|0,2:0|2:0,2:0:0:0:
292,144,26147,1,0,2:0:0:0:
292,144,26281,5,2,2:0:0:0:
213,111,26549,2,0,P|206:85|204:66,2,43.2,0|0|0,2:0|2:0|2:0,2:0:0:0:
132,158,27084,1,2,2:0:0:0:
113,247,27352,2,0,P|113:313|87:373,2,129.6,2|0|0,2:0|2:0|2:0,2:0:0:0:
113,247,28290,1,0,2:0:0:0:
113,247,28424,1,2,2:0:0:0:
50,192,28692,1,0,2:0:0:0:
50,192,28825,2,0,L|1:202,1,43.2,2|0,2:0|2:0,2:0:0:0:
213,111,29227,6,0,P|260:111|306:99,1,86.4,2|0,2:0|2:0,2:0:0:0:
309,97,29629,1,0,2:0:0:0:
320,90,29763,1,0,2:0:0:0:
470,24,30031,2,0,P|427:14|384:14,1,86.4,2|0,2:0|2:0,2:0:0:0:
384,14,30433,1,0,2:0:0:0:
384,14,30567,6,0,P|362:91|351:188,1,172.8,2|0,2:0|2:0,2:0:0:0:
365,272,31370,1,0,2:0:0:0:
428,217,31638,2,0,P|470:220|512:233,1,86.4,2|0,2:0|2:0,2:0:0:0:
496,370,32174,2,0,P|453:366|411:353,1,86.4,0|0,2:0|2:0,2:0:0:0:
411,353,32575,1,0,2:0:0:0:
411,353,32709,6,0,P|360:360|284:385,1,129.6,2|0,2:0|2:0,2:0:0:0:
215,352,33245,2,0,P|201:308|195:263,1,86.4,0|0,2:0|2:0,2:0:0:0:
256,192,33781,1,2,2:0:0:0:
107,28,34317,2,0,P|60:28|19:44,1,86.4,0|0,2:0|2:0,2:0:0:0:
0,125,34852,6,0,P|83:130|164:85,1,172.8,2|0,2:0|2:0,2:0:0:0:
214,34,35656,1,2,2:0:0:0:
304,206,35924,6,0,P|373:212|437:240,1,129.6,8|8,2:3|2:3,2:0:0:0:
502,161,36459,2,0,L|510:117,1,43.2,4|0,2:3|2:0,2:0:0:0:
506,324,36727,1,4,2:3:0:0:
506,324,36861,1,4,2:3:0:0:
506,324,36995,2,0,P|421:340|342:372,1,172.8,2|0,2:0|2:0,2:0:0:0:
255,351,37799,2,0,P|240:306|239:263,1,86.4,2|4,2:3|2:3,2:3:0:0:
320,122,38334,1,2,2:0:0:0:
320,122,38468,1,4,2:3:0:0:
320,122,38602,2,0,P|317:165|303:205,1,86.4,4|4,2:3|2:3,2:3:0:0:
160,224,39138,5,4,2:3:0:0:
76,201,39406,1,2,2:0:0:0:
11,257,39674,1,2,2:0:0:0:
94,283,39942,1,0,2:0:0:0:
216,158,40209,6,0,P|222:110|234:70,1,86.4,8|0,2:3|2:0,2:0:0:0:
312,90,40611,1,8,2:3:0:0:
312,90,40745,2,0,P|306:138|294:178,1,86.4,4|4,2:3|2:3,2:0:0:0:
400,286,41281,6,0,P|334:237|247:237,1,172.8,2|2,2:0|2:0,2:0:0:0:
195,312,42084,1,8,2:3:0:0:
62,248,42352,2,0,P|104:234|148:229,1,86.4,2|0,2:0|2:0,2:0:0:0:
152,236,42754,1,0,2:0:0:0:
152,236,42888,2,0,P|166:194|171:150,1,86.4,10|0,2:3|2:0,2:0:0:0:
109,5,43424,6,0,P|95:47|90:91,1,86.4,2|0,2:0|2:0,2:0:0:0:
238,197,43959,1,0,2:0:0:0:
311,146,44227,2,0,P|389:121|484:114,1,172.8,4|0,2:1|2:0,2:0:0:0:
451,205,45031,2,0,P|412:217|363:222,1,86.4,2|0,2:0|2:0,2:0:0:0:
211,129,45567,5,2,2:0:0:0:
119,104,45834,1,0,2:0:0:0:
119,104,45968,1,0,2:0:0:0:
119,104,46102,1,2,2:0:0:0:
51,171,46370,1,0,2:0:0:0:
147,193,46638,5,2,2:0:0:0:
192,0,47040,1,2,2:0:0:0:
384,32,47442,1,2,2:0:0:0:
388,200,47709,6,0,P|371:160|365:116,1,86.4,2|8,2:0|2:3,2:0:0:0:
444,98,48111,1,8,2:3:0:0:
444,98,48245,2,0,P|461:138|467:182,1,86.4,2|0,2:0|2:0,2:0:0:0:
512,352,48781,6,0,P|470:308|403:291,1,129.6,2|0,2:0|2:0,2:0:0:0:
394,294,49317,1,8,2:3:0:0:
284,323,49584,1,4,2:3:0:0:
199,212,49852,2,0,P|215:132|223:80,1,129.6,2|0,3:2|2:0,2:0:0:0:
225,66,50388,1,0,1:0:0:0:
118,12,50656,2,0,P|77:26|34:32,1,86.4,2|0,3:2|2:0,2:0:0:0:
34,31,51058,1,0,2:0:0:0:
34,31,51192,2,0,L|26:74,2,43.2,0|0|8,2:0|2:0|2:3,2:0:0:0:
9,169,51727,5,2,2:0:0:0:
9,169,51861,1,2,2:0:0:0:
9,169,51995,2,0,P|80:169|136:197,1,129.6,10|0,1:3|2:0,2:0:0:0:
143,201,52531,1,4,2:3:0:0:
281,152,52799,2,0,P|295:104|295:65,1,86.4,6|8,2:3|2:3,2:0:0:0:
211,53,53334,1,4,2:3:0:0:
211,53,53468,1,4,2:3:0:0:
211,53,53602,2,0,P|197:101|197:140,1,86.4,8|0,2:3|1:0,2:0:0:0:
309,238,54138,6,0,P|349:221|393:213,1,86.4,6|0,2:1|2:0,2:0:0:0:
448,160,54674,1,4,2:3:0:0:
512,200,54942,6,0,P|421:183|382:91,1,172.8,10|0,2:3|1:0,2:0:0:0:
291,2,55745,2,0,P|291:48|274:90,1,86.4,0|4,1:0|2:3,2:0:0:0:
276,85,56147,1,4,2:3:0:0:
276,85,56281,5,6,2:1:0:0:
297,262,56549,2,0,P|296:219|311:178,1,86.4,0|4,2:0|2:3,2:0:0:0:
176,147,57084,2,0,P|97:180|11:190,1,172.8,10|0,2:3|2:0,2:0:0:0:
154,263,57888,1,0,2:0:0:0:
52,350,58156,2,0,L|43:304,1,43.2,0|0,1:3|1:3,2:0:0:0:
154,263,58424,6,0,P|192:276|242:281,1,86.4,6|2,1:0|2:0,2:0:0:0:
308,229,58959,1,0,2:0:0:0:
181,367,59227,2,0,P|263:321|344:312,1,172.8,8|0,2:3|2:0,2:0:0:0:
471,354,60031,1,2,2:0:0:0:
390,384,60299,1,2,2:0:0:0:
449,192,60567,5,2,2:0:0:0:
449,192,61102,2,0,P|461:149|461:107,1,86.4,8|8,2:3|2:3,2:0:0:0:
461,107,61504,1,8,2:3:0:0:
432,21,61772,1,4,2:3:0:0:
432,21,61906,1,8,2:3:0:0:
512,39,62174,1,8,2:3:0:0:
370,83,62442,1,4,2:3:0:0:
256,0,62709,1,6,2:3:0:0:
224,160,63111,5,4,2:3:0:0:
224,160,63245,2,0,P|239:202|242:248,1,86.4,8|8,2:3|2:3,2:0:0:0:
242,243,63647,1,8,2:3:0:0:
242,243,63781,2,0,L|288:232,1,43.2,0|0,3:0|2:0,2:0:0:0:
322,308,64049,2,0,L|279:318,1,43.2,2|0,2:0|2:0,2:0:0:0:
141,368,64317,2,0,P|183:373|232:385,1,86.4,0|2,3:0|2:0,2:0:0:0:
10,189,64852,6,0,P|96:180|176:147,1,172.8,2|2,1:2|2:0,2:0:0:0:
176,147,65522,1,2,2:0:0:0:
176,147,65656,1,0,1:0:0:0:
137,0,65924,2,0,P|123:43|120:85,1,86.4,8|4,2:3|2:3,2:0:0:0:
264,108,66459,2,0,P|278:65|281:23,1,86.4,8|2,2:3|2:0,2:0:0:0:
512,160,66995,6,0,P|425:160|343:187,1,172.8,2|0,1:2|1:0,2:0:0:0:
386,354,67799,2,0,P|397:310|397:268,1,86.4,8|0,2:3|2:0,2:0:0:0:
397,269,68200,1,0,2:0:0:0:
397,269,68334,1,8,2:0:0:0:
266,111,68602,2,0,P|255:152|254:195,1,86.4,8|8,2:0|2:0,2:0:0:0:
288,266,69004,1,8,2:0:0:0:
263,338,69138,6,0,P|200:353|139:375,1,129.6,2|0,1:2|2:0,2:0:0:0:
19,287,69674,2,0,P|25:264|33:225,1,43.2,2|0,2:0|2:0,2:0:0:0:
103,262,69942,2,0,P|97:284|89:323,1,43.2,0|0,1:0|2:0,2:0:0:0:
253,194,70209,6,0,P|352:175|449:121,1,210.6,12|0,2:0|2:0,2:0:0:0:
448,123,70745,1,2,2:0:0:0:
452,301,71013,5,0,1:0:0:0:
452,301,71147,1,0,1:0:0:0:
452,301,71281,2,0,P|389:273|316:275,1,140.4,10|0,2:0|2:0,2:0:0:0:
254,195,71683,2,0,P|187:214|133:262,1,140.4,10|0,2:0|2:0,2:0:0:0:
245,370,72084,2,0,P|233:337|231:302,1,70.2,10|0,2:0|2:0,2:0:0:0:
297,98,72352,6,0,P|272:81|291:103,1,86.4,2|0,2:0|2:0,2:0:0:0:
285,88,73424,6,0,B|269:199|342:165|315:287,1,194.4,6|2,1:2|2:0,2:0:0:0:
160,168,73825,1,0,1:0:0:0:
151,257,73959,2,0,P|186:244|226:233,1,75.6,8|0,2:0|2:0,2:0:0:0:
512,384,74227,6,0,P|438:356|365:341,1,151.2,2|0,2:0|2:0,2:0:0:0:
318,273,74629,1,0,1:0:0:0:
410,180,74763,2,0,P|411:227|399:268,1,75.6,8|0,2:3|2:0,2:0:0:0:
263,384,75031,2,0,P|249:348|244:311,1,75.6,8|0,2:0|2:0,2:0:0:0:
82,109,75299,5,2,2:0:0:0:
82,109,75433,1,0,1:0:0:0:
33,186,75567,2,0,P|103:157|180:143,1,151.2,8|2,2:3|2:0,2:0:0:0:
331,65,75968,1,0,1:0:0:0:
265,5,76102,2,0,P|253:44|245:90,1,75.6,8|0,2:0|2:0,2:0:0:0:
377,260,76370,2,0,P|358:181|290:142,1,151.2,6|0,2:1|1:0,2:0:0:0:
144,347,76772,5,8,2:0:0:0:
222,375,76906,2,0,P|264:361|303:352,1,75.6,8|0,2:3|2:0,2:0:0:0:
482,201,77174,5,8,2:0:0:0:
319,270,77308,1,2,2:0:0:0:
335,173,77442,1,2,2:0:0:0:
466,300,77575,1,8,2:3:0:0:
401,236,77709,6,0,P|305:251|213:282,1,194.4,2|0,1:2|2:0,2:0:0:0:
53,45,78111,1,0,1:0:0:0:
142,17,78245,2,0,P|141:68|127:106,1,75.6,8|0,2:0|2:0,2:0:0:0:
0,219,78513,6,0,P|58:225|111:248,1,113.4,2|0,1:2|2:0,2:0:0:0:
118,253,78781,2,0,P|155:247|193:233,1,75.6,2|0,2:0|2:0,2:0:0:0:
276,84,79049,2,0,P|262:119|254:159,1,75.6,0|0,1:3|2:0,2:0:0:0:
343,305,79317,2,0,P|319:275|288:249,1,75.6,8|0,2:0|2:0,2:0:0:0:
53,45,79584,5,2,2:0:0:0:
26,125,79718,1,8,2:0:0:0:
88,189,79852,2,0,P|170:162|261:146,1,151.2,8|0,2:3|2:0,2:0:0:0:
354,166,80254,1,2,1:2:0:0:
238,56,80388,2,0,P|277:67|311:86,1,75.6,8|0,2:0|2:0,2:0:0:0:
450,202,80656,6,0,P|431:122|427:38,1,151.2,4|0,2:1|2:3,2:0:0:0:
354,166,81058,1,8,2:3:0:0:
512,270,81192,2,0,P|474:277|434:293,1,75.6,0|0,1:0|2:0,2:0:0:0:
209,206,81459,2,0,P|285:192|365:160,1,151.2,8|4,2:0|2:3,2:0:0:0:
305,274,81861,1,4,2:3:0:0:
119,251,81995,6,0,P|112:210|113:177,1,75.6,4|0,1:2|2:0,2:0:0:0:
177,47,82263,2,0,P|184:88|183:121,1,75.6,2|0,2:0|1:0,2:0:0:0:
30,295,82531,6,0,P|137:323|168:365,1,151.2,8|0,2:0|2:0,2:0:0:0:
305,274,82933,2,0,P|266:285|226:298,1,75.6,8|0,2:3|2:0,2:0:0:0:
297,363,83200,1,2,2:0:0:0:
378,219,83334,2,0,P|391:260|393:296,1,75.6,0|0,1:0|2:0,2:0:0:0:
209,206,83602,6,0,P|209:120|227:47,1,151.2,8|0,2:0|2:0,2:0:0:0:
291,12,84004,1,2,2:0:0:0:
384,69,84138,2,0,P|343:85|302:92,1,75.6,8|0,1:3|2:0,2:0:0:0:
209,206,84406,5,2,2:0:0:0:
182,121,84540,1,0,1:0:0:0:
54,209,84674,2,0,P|88:194|125:186,1,75.6,8|0,2:0|2:0,2:0:0:0:
406,342,84942,1,2,2:0:0:0:
333,384,85075,6,0,P|303:309|303:237,1,151.2,8|0,2:3|2:0,2:0:0:0:
404,97,85477,1,2,2:0:0:0:
491,145,85611,1,0,1:3:0:0:
394,255,85745,2,0,P|394:213|413:173,1,75.6,8|0,2:0|2:0,2:0:0:0:
243,12,86013,5,2,2:0:0:0:
268,93,86147,1,2,2:0:0:0:
190,147,86281,2,0,P|104:117|25:111,1,151.2,8|0,2:3|2:0,2:0:0:0:
136,38,86683,1,2,2:0:0:0:
110,216,86817,2,0,P|62:225|25:245,1,75.6,8|0,2:0|2:0,2:0:0:0:
60,318,87084,2,0,P|108:309|145:289,1,75.6,2|0,1:2|2:0,2:0:0:0:
407,127,87352,6,0,P|315:124|254:76,1,151.2,2|0,2:0|2:0,2:0:0:0:
243,12,87754,1,2,1:2:0:0:
111,93,87888,2,0,P|158:75|202:70,1,75.6,8|0,2:0|2:0,2:0:0:0:
374,217,88156,2,0,P|327:235|283:240,1,75.6,2|0,2:0|2:0,2:0:0:0:
104,329,88424,5,8,2:3:0:0:
118,244,88558,1,8,2:3:0:0:
39,273,88692,1,2,2:0:0:0:
186,296,88825,1,2,1:2:0:0:
39,273,88959,6,0,P|27:235|24:182,1,75.6,8|0,2:0|2:0,2:0:0:0:
210,147,89227,2,0,P|222:185|225:238,1,75.6,8|0,2:3|2:0,2:0:0:0:
453,369,89495,5,8,2:3:0:0:
471,275,89629,1,4,2:3:0:0:
381,307,89763,2,0,P|343:319|290:322,1,75.6,4|0,2:3|2:0,2:0:0:0:
68,156,90031,5,8,2:0:0:0:
39,273,90165,1,8,2:3:0:0:
157,302,90299,1,8,2:3:0:0:
185,184,90433,1,8,2:3:0:0:
112,228,90567,1,4,1:2:0:0:
381,307,90834,6,0,P|421:291|471:280,1,75.6,2|0,2:0|2:0,2:0:0:0:
324,157,91102,2,0,P|317:199|302:248,1,75.6,8|0,2:0|2:0,2:0:0:0:
401,211,91370,1,2,2:0:0:0:
235,108,91504,6,0,P|317:101|402:55,1,151.2,10|0,2:3|2:0,2:0:0:0:
512,115,91906,2,0,P|467:120|425:143,1,75.6,0|0,1:3|2:0,2:0:0:0:
307,322,92174,2,0,P|331:248|330:173,1,151.2,8|2,2:0|2:0,2:0:0:0:
330,175,92575,1,4,2:3:0:0:
147,64,92709,6,0,P|138:118|148:152,1,75.6,8|0,2:3|2:0,2:0:0:0:
212,194,92977,1,2,2:0:0:0:
235,108,93111,1,4,1:3:0:0:
124,228,93245,6,0,P|79:217|23:207,1,75.6,8|0,2:0|2:0,2:0:0:0:
307,322,93513,2,0,P|397:300|509:280,2,151.2,4|2|2,1:0|2:0|1:2,2:0:0:0:
451,66,94317,5,8,2:0:0:0:
301,107,94450,1,2,2:0:0:0:
320,32,94584,1,2,1:2:0:0:
432,141,94718,1,2,2:0:0:0:
376,87,94852,6,0,B|266:73|304:153|186:133,1,194.4,8|2,2:3|2:0,2:0:0:0:
304,257,95254,1,0,1:0:0:0:
211,288,95388,2,0,P|220:249|226:210,1,75.6,8|0,2:0|2:0,2:0:0:0:
55,30,95656,5,2,2:0:0:0:
1,99,95790,1,2,2:0:0:0:
48,171,95924,2,0,P|128:149|217:130,1,151.2,8|0,2:3|2:0,2:0:0:0:
388,274,96325,1,2,2:0:0:0:
320,330,96459,2,0,P|307:290|303:244,1,75.6,8|0,2:0|2:0,2:0:0:0:
482,71,96727,5,2,2:0:0:0:
512,173,96861,1,8,2:0:0:0:
400,146,96995,2,0,P|323:166|242:193,1,151.2,8|2,2:3|2:0,2:0:0:0:
388,274,97397,1,0,1:0:0:0:
289,331,97531,2,0,P|294:298|304:249,1,75.6,8|0,2:0|2:0,2:0:0:0:
177,36,97799,6,0,P|167:102|142:233,2,194.4,4|2|2,1:0|2:0|2:0,2:0:0:0:
177,36,98602,2,0,P|127:51|77:62,1,97.1999999999999,8|0,2:0|2:0,2:0:0:0:
254,188,98870,5,2,2:0:0:0:
362,153,99004,1,2,2:0:0:0:
493,291,99138,6,0,P|396:299|322:209,1,194.4,4|2,1:2|2:0,2:0:0:0:
419,52,99540,1,2,1:2:0:0:
472,116,99674,2,0,P|461:154|453:189,1,75.6,8|0,2:0|2:0,2:0:0:0:
256,384,99942,2,0,P|235:295|210:208,1,172.8,4|0,1:2|2:0,2:0:0:0:
272,142,100343,1,2,2:0:0:0:
200,90,100477,2,0,P|204:42|223:-3,1,86.4,0|0,1:0|2:0,2:0:0:0:
378,27,100745,2,0,P|374:75|355:120,1,86.4,8|0,2:0|2:0,2:0:0:0:
205,306,101013,6,0,P|119:280|28:268,1,172.8,6|0,2:0|1:0,2:0:0:0:
133,94,101549,1,2,2:0:0:0:
199,145,101683,1,8,2:3:0:0:
136,259,101817,2,0,P|121:211|118:180,1,75.6,8|0,2:0|2:0,2:0:0:0:
351,0,102084,6,0,P|355:74|319:149,1,151.2,6|0,1:2|2:0,2:0:0:0:
324,142,102620,2,0,P|368:148|417:172,1,75.6,2|0,1:2|2:0,2:0:0:0:
472,114,102888,1,8,2:0:0:0:
383,372,103022,6,0,P|370:297|339:229,1,151.2,8|0,2:3|2:0,2:0:0:0:
255,287,103424,2,0,P|261:324|276:365,1,75.6,8|0,2:3|2:0,2:0:0:0:
339,229,103692,5,2,2:0:0:0:
220,200,103825,1,0,1:0:0:0:
132,306,103959,2,0,P|94:299|54:285,1,75.6,8|0,2:0|2:0,2:0:0:0:
184,53,104227,6,0,P|205:117|220:201,1,151.199995385742,6|0,2:1|2:0,2:0:0:0:
306,156,104629,1,2,2:0:0:0:
371,254,104763,2,0,P|333:255|277:234,1,75.6,8|0,2:3|2:0,2:0:0:0:
321,70,105031,2,0,P|359:69|415:90,1,75.6,8|0,2:0|2:0,2:0:0:0:
346,162,105299,1,2,2:0:0:0:
346,162,105433,1,8,2:0:0:0:
485,285,105567,6,0,P|419:300|338:342,1,151.2,8|2,2:3|2:0,2:0:0:0:
214,271,105968,1,2,2:0:0:0:
327,176,106102,2,0,P|308:209|297:245,1,75.6,8|0,2:0|2:0,2:0:0:0:
178,115,106370,2,0,P|215:115|252:107,1,75.6,0|0,1:0|2:0,2:0:0:0:
63,349,106638,6,0,P|166:362|230:401,1,151.2,2|0,2:0|2:0,2:0:0:0:
297,245,107040,1,2,1:2:0:0:
208,196,107174,2,0,P|207:249|222:289,1,75.6,8|0,2:0|2:0,2:0:0:0:
486,143,107442,5,2,2:0:0:0:
512,40,107575,1,2,2:0:0:0:
403,75,107709,2,0,P|332:55|270:19,1,145.8,4|0,1:0|2:0,2:0:0:0:
270,19,107977,6,0,P|216:25|170:44,1,97.1999999999999,8|0,2:0|2:0,2:0:0:0:
243,334,108245,2,0,P|297:328|343:309,1,97.1999999999999,8|0,2:0|2:0,2:0:0:0:
256,176,108513,5,0,1:0:0:0:
256,176,108647,1,0,1:0:0:0:
347,119,108781,2,0,P|296:101|253:96,1,86.4,8|0,2:0|2:0,2:0:0:0:
165,233,109049,2,0,P|216:251|259:256,1,86.4,8|0,2:0|2:0,2:0:0:0:
256,176,109317,1,8,2:0:0:0:
256,176,109584,5,8,2:0:0:0:
218,342,109718,1,8,2:0:0:0:
64,288,109852,2,0,P|46:189|12:91,1,194.4,6|2,1:2|2:0,2:0:0:0:
15,100,110388,2,0,P|51:94|90:79,1,64.8,0|0,3:0|2:0,2:0:0:0:
143,142,110656,2,0,P|179:148|218:163,1,64.8,0|0,1:0|2:0,2:0:0:0:
256,32,110924,5,8,2:3:0:0:
416,199,111325,1,8,2:3:0:0:
420,203,111459,2,0,P|465:189|503:178,1,64.8,4|0,2:3|2:0,2:0:0:0:
458,106,111727,2,0,P|413:120|375:131,1,64.8,4|0,2:3|2:0,2:0:0:0:
290,243,111995,6,0,P|274:304|267:386,1,129.6,4|0,1:0|2:0,2:0:0:0:
267,370,112531,1,2,2:0:0:0:
185,194,112799,1,2,2:0:0:0:
185,194,112933,1,2,2:0:0:0:
185,194,113067,2,0,P|140:149|72:102,1,129.6,8|0,2:0|2:0,2:0:0:0:
34,174,113602,1,2,2:0:0:0:
123,28,113870,1,0,1:0:0:0:
279,127,114138,6,0,P|339:110|414:75,2,129.6,8|0|0,2:3|1:0|1:0,2:0:0:0:
290,243,115209,2,0,P|345:262|387:269,1,86.4,8|2,2:0|2:0,2:0:0:0:
496,208,115745,5,10,2:3:0:0:
434,185,115879,1,10,2:3:0:0:
497,166,116013,1,2,2:0:0:0:
455,217,116147,1,2,2:0:0:0:
458,152,116281,1,4,2:1:0:0:
440,344,124584,6,0,L|447:374,3,28.8,0|0|0|2,2:0|2:0|2:0|2:0,2:0:0:0:
499,268,125120,1,0,2:0:0:0:
499,268,125254,1,0,2:0:0:0:
499,268,125388,2,0,P|418:257|332:208,1,172.8,0|0,2:0|2:0,2:0:0:0:
190,46,126192,5,10,2:3:0:0:
321,100,126459,1,10,2:3:0:0:
212,192,126727,1,4,2:3:0:0:
239,113,126995,1,6,2:3:0:0:
93,20,127263,5,0,2:0:0:0:
93,20,127531,2,0,P|94:66|112:109,1,86.4,0|2,2:0|2:0,2:0:0:0:
341,109,128067,6,0,P|274:55|189:45,1,172.8,2|2,2:0|2:0,2:0:0:0:
78,193,128870,1,0,2:0:0:0:
78,193,129004,1,8,2:3:0:0:
78,193,129138,2,0,P|125:194|173:179,1,86.4,6|0,2:3|2:0,2:0:0:0:
238,141,129674,1,0,2:0:0:0:
271,310,129942,6,0,P|249:263|243:221,1,86.4,2|0,2:0|2:0,2:0:0:0:
243,229,130343,1,0,2:0:0:0:
243,229,130477,2,0,P|266:223|292:209,1,43.2,0|0,2:0|2:0,2:0:0:0:
260,58,130745,6,0,P|241:105|239:155,1,86.4,2|0,2:0|2:0,2:0:0:0:
366,238,131147,1,0,2:0:0:0:
366,238,131281,2,0,P|412:223|455:222,1,86.4,10|0,2:3|2:0,2:0:0:0:
398,99,131683,1,0,2:0:0:0:
398,99,131817,2,0,P|394:120|389:145,1,43.2,0|0,2:0|2:0,2:0:0:0:
469,315,132084,6,0,P|423:330|380:331,1,86.4,10|0,2:3|2:0,2:0:0:0:
318,377,132486,1,0,2:0:0:0:
303,337,132620,1,0,2:0:0:0:
259,318,132754,1,0,2:0:0:0:
207,320,132888,1,10,2:3:0:0:
166,354,133022,1,0,2:0:0:0:
91,366,133156,1,0,2:0:0:0:
17,322,133290,1,0,2:0:0:0:
0,240,133424,5,2,2:0:0:0:
272,333,137241,6,0,P|320:325|360:309,1,86.4,0|0,2:0|2:0,2:0:0:0:
419,384,137709,6,0,B|377:285|443:318|403:210,1,172.8,2|0,1:2|2:0,2:0:0:0:
380,60,138513,1,0,1:0:0:0:
499,177,138781,2,0,P|402:164|330:119,1,162,10|0,2:0|2:0,2:0:0:0:
278,8,139317,2,0,P|270:56|262:99,1,86.4,2|0,2:0|1:0,2:0:0:0:
313,296,139852,6,0,P|226:310|154:355,1,172.8,2|0,1:2|2:0,2:0:0:0:
76,333,140656,2,0,P|57:290|52:243,1,86.4,0|10,1:0|2:0,2:0:0:0:
115,189,141192,1,0,2:0:0:0:
202,205,141459,2,0,P|221:248|226:295,1,86.4,2|0,2:0|3:0,2:0:0:0:
322,384,141995,5,0,1:0:0:0:
446,297,142263,1,0,2:0:0:0:
365,317,142531,1,2,2:0:0:0:
512,338,142799,1,0,1:0:0:0:
335,233,143067,6,0,B|303:113|372:150|331:15,1,216,10|2,2:0|2:0,2:0:0:0:
332,21,143870,1,0,3:0:0:0:
235,159,144138,5,2,1:2:0:0:
185,95,144406,1,0,2:0:0:0:
102,85,144674,1,2,2:0:0:0:
32,134,144942,1,0,1:0:0:0:
103,278,145209,6,0,P|96:254|87:223,1,54,8|0,2:0|2:0,2:0:0:0:
158,200,145477,2,0,P|165:225|173:251,1,54,0|0,3:0|2:0,2:0:0:0:
36,335,145745,6,0,P|100:335|140:354,1,108,2|0,3:2|3:0,2:0:0:0:
138,353,146147,1,0,2:0:0:0:
138,353,146281,1,2,1:2:0:0:
257,367,146549,1,0,2:0:0:0:
381,315,146817,1,2,2:0:0:0:
429,191,147084,1,0,1:0:0:0:
343,4,147352,6,0,P|325:92|310:166,1,162,10|0,2:0|2:0,2:0:0:0:
353,231,147888,2,0,P|344:199|338:176,1,54,2|0,2:0|2:0,2:0:0:0:
230,121,148156,2,0,P|221:89|215:66,1,54,0|0,1:0|2:0,2:0:0:0:
160,243,148424,6,0,P|103:272|45:266,1,108,0|0,1:0|2:0,2:0:0:0:
26,229,148825,1,0,2:0:0:0:
35,176,148959,2,0,P|92:147|150:153,1,108,2|0,2:0|1:0,2:0:0:0:
299,331,149495,6,0,L|289:387,2,54,8|2|2,2:0|2:0|2:0,2:0:0:0:
249,266,150031,1,8,2:0:0:0:
52,384,150299,5,0,1:0:0:0:
52,384,150433,1,2,2:0:0:0:
52,384,150567,2,0,P|137:362|217:342,1,162,0|0,1:0|2:0,2:0:0:0:
332,251,151102,2,0,P|371:259|433:273,1,86.4,2|0,2:0|1:0,2:0:0:0:
249,266,151638,5,2,3:2:0:0:
222,163,151906,1,0,2:0:0:0:
162,243,152174,1,8,2:0:0:0:
311,196,152442,1,2,1:2:0:0:
311,196,152531,2,0,L|344:204,1,28.8,2|2,2:0|2:0,2:0:0:0:
488,104,152709,5,2,1:2:0:0:
378,23,152977,1,2,2:0:0:0:
378,23,153111,2,0,P|388:70|397:115,1,86.4,0|0,1:0|2:0,2:0:0:0:
411,182,153513,2,0,P|416:158|420:136,1,43.2,0|0,1:0|2:0,2:0:0:0:
288,48,153781,6,0,B|222:29|187:71|192:85|196:99|158:146|89:122,1,226.8,2|0,2:0|2:0,2:0:0:0:
22,185,154317,5,2,2:0:0:0:
7,218,154406,1,2,2:0:0:0:
8,252,154495,1,2,2:0:0:0:
21,278,154584,1,2,1:2:0:0:
47,296,154674,1,2,2:0:0:0:
82,298,154763,1,2,2:0:0:0:
114,285,154852,6,0,P|214:303|340:330,1,194.4,2|0,1:0|1:0,2:0:0:0:
332,327,155388,1,2,2:0:0:0:
196,384,155656,1,0,1:0:0:0:
405,384,155924,6,0,P|434:321|421:256,1,129.6,8|0,2:0|2:0,2:0:0:0:
263,127,156325,1,8,2:0:0:0:
358,70,156459,2,0,P|351:103|342:149,1,64.8,0|0,1:0|2:0,2:0:0:0:
423,180,156727,2,0,P|429:148|436:116,1,64.8,2|0,1:2|2:0,2:0:0:0:
262,127,156995,6,0,B|157:114|184:190|72:175,1,194.4,2|0,1:2|2:0,2:0:0:0:
228,278,157531,1,2,2:0:0:0:
254,246,157665,1,2,2:0:0:0:
234,209,157799,1,0,1:0:0:0:
376,379,158067,6,0,P|466:354|517:340,1,129.6,8|0,2:0|2:0,2:0:0:0:
362,226,158468,1,2,2:0:0:0:
440,205,158602,2,0,P|440:236|428:273,1,64.8,0|0,1:0|2:0,2:0:0:0:
259,382,158870,1,4,2:3:0:0:
191,338,159004,1,4,2:3:0:0:
105,363,159138,6,0,P|90:300|72:238,1,129.6,4|0,2:3|2:0,2:0:0:0:
244,164,159540,2,0,P|259:227|277:289,1,129.6,4|0,2:3|2:0,2:0:0:0:
159,260,159942,2,0,P|190:252|221:243,1,64.8,0|0,1:3|2:0,2:0:0:0:
324,367,160209,6,0,P|423:382|501:295,1,194.4,10|0,2:0|2:0,2:0:0:0:
491,313,160745,2,0,L|474:238,1,64.8,2|0,2:0|2:0,2:0:0:0:
356,36,161013,5,10,2:3:0:0:
321,111,161147,1,4,2:3:0:0:
377,174,161281,2,0,P|445:154|511:137,1,129.6,4|0,2:3|2:0,2:0:0:0:
321,111,161683,2,0,P|287:101|254:92,1,64.8,4|0,2:3|2:0,2:0:0:0:
188,142,161950,1,2,2:0:0:0:
224,219,162084,2,0,P|258:229|291:237,1,64.8,4|0,2:3|2:0,2:0:0:0:
184,24,162352,6,0,P|86:34|34:111,1,194.4,8|0,2:0|2:0,2:0:0:0:
24,192,162888,1,10,2:3:0:0:
32,216,162977,1,2,2:0:0:0:
40,240,163067,1,2,2:0:0:0:
48,264,163156,1,8,2:3:0:0:
80,384,163290,1,4,2:3:0:0:
3,336,163424,6,0,P|59:303|140:295,1,129.6,4|0,2:3|2:0,2:0:0:0:
307,184,163825,2,0,P|243:174|187:141,1,129.6,4|0,2:3|2:0,2:0:0:0:
187,141,164227,2,0,P|198:186|205:222,1,64.8,4|0,2:3|2:0,2:0:0:0:
405,384,164495,6,0,B|369:274|445:314|406:187,1,194.4,8|0,2:0|2:0,2:0:0:0:
450,126,165031,2,0,P|481:134|519:144,1,64.8,8|0,2:3|2:0,2:0:0:0:
368,8,165299,1,4,2:3:0:0:
302,57,165433,1,4,2:3:0:0:
220,20,165567,6,0,P|156:31|92:53,1,129.6,4|0,2:3|2:0,2:0:0:0:
129,261,165968,2,0,P|193:250|257:228,1,129.6,4|0,2:3|2:0,2:0:0:0:
184,111,166370,2,0,P|176:140|171:178,1,64.8,0|0,1:0|2:0,2:0:0:0:
372,291,166638,6,0,P|410:201|425:105,1,194.4,8|0,2:0|2:0,2:0:0:0:
316,24,167174,2,0,P|320:56|328:87,1,64.8,8|0,2:3|2:0,2:0:0:0:
372,291,167442,5,0,1:0:0:0:
290,273,167575,1,0,1:0:0:0:
229,331,167709,2,0,P|199:343|165:352,1,64.8,2|0,1:2|2:0,2:0:0:0:
313,359,167977,5,2,2:0:0:0:
290,273,168111,2,0,B|257:193|301:223|271:144,1,129.6,4|0,2:3|2:0,2:0:0:0:
187,200,168513,2,0,L|119:216,1,64.8,0|0,1:0|2:0,2:0:0:0:
22,44,168781,6,0,P|140:60|198:124,1,194.4,10|0,2:0|2:0,2:0:0:0:
272,147,169317,2,0,L|337:132,1,64.8,4|0,2:3|2:0,2:0:0:0:
505,311,169584,5,4,2:3:0:0:
428,337,169718,1,4,2:3:0:0:
376,272,169852,2,0,P|381:238|386:206,1,64.8,0|0,1:0|2:0,2:0:0:0:
256,328,170120,5,2,2:0:0:0:
182,274,170254,2,0,P|114:290|49:303,1,129.6,4|0,2:3|2:0,2:0:0:0:
102,378,170656,2,0,P|135:371|180:362,1,64.8,0|0,1:0|2:0,2:0:0:0:
259,241,170924,1,8,2:0:0:0:
96,16,171192,6,0,P|91:43|85:81,1,64.8,8|0,2:3|2:0,2:0:0:0:
163,94,171459,2,0,P|168:61|173:30,1,64.8,8|0,2:3|2:0,2:0:0:0:
8,208,171727,5,4,2:3:0:0:
78,260,171861,1,4,2:3:0:0:
160,232,171995,2,0,B|270:203|232:272|350:238,1,194.4,4|0,1:2|2:0,2:0:0:0:
505,351,172531,1,2,2:0:0:0:
467,380,172665,1,2,2:0:0:0:
419,373,172799,2,0,P|410:341|400:305,1,64.8,0|0,1:0|2:0,2:0:0:0:
481,196,173067,6,0,P|508:137|496:76,1,129.6,8|0,2:0|2:0,2:0:0:0:
419,51,173468,1,2,2:0:0:0:
368,113,173602,2,4,P|337:122|295:133,2,64.8,0|0|0,2:0|2:0|1:0,2:3:0:0:
268,297,174138,6,0,P|188:241|92:260,1,194.4,4|0,2:3|2:0,2:0:0:0:
93,267,174674,2,0,P|101:299|108:336,1,64.8,2|0,2:0|2:0,2:0:0:0:
27,347,174942,2,0,P|19:315|12:278,1,64.8,4|0,2:3|2:0,2:0:0:0:
163,94,175209,6,0,P|235:111|292:120,1,129.6,8|2,2:0|2:0,2:0:0:0:
276,36,175611,1,2,2:0:0:0:
276,36,175745,2,0,P|239:27|211:22,1,64.8,0|2,1:0|2:0,2:0:0:0:
243,197,176013,5,2,2:0:0:0:
321,199,176147,1,2,2:0:0:0:
372,142,176281,2,0,P|434:151|501:164,1,129.6,4|0,2:3|2:0,2:0:0:0:
485,74,176683,2,0,P|454:69|420:63,1,64.8,4|0,2:3|2:0,2:0:0:0:
321,199,176950,1,2,2:0:0:0:
378,264,177084,2,0,P|409:270|441:274,1,64.8,4|0,2:3|2:0,2:0:0:0:
289,119,177352,6,0,P|222:50|100:89,1,194.4,8|0,2:0|2:0,2:0:0:0:
112,79,177888,2,0,P|121:115|129:156,1,64.8,0|0,1:0|2:0,2:0:0:0:
14,348,178156,2,0,P|7:316|0:284,1,64.8,0|0,1:0|2:0,2:0:0:0:
39,215,178424,6,0,P|101:227|175:240,1,129.6,6|0,1:3|3:0,2:0:0:0:
311,295,178825,2,0,P|323:324|326:358,1,64.8,0|0,1:2|2:0,2:0:0:0:
247,379,179093,1,2,2:0:0:0:
247,379,179227,2,0,P|235:350|232:316,1,64.8,0|0,1:2|2:0,2:0:0:0:
371,223,179495,5,8,2:0:0:0:
450,241,179629,1,0,2:0:0:0:
511,184,179763,1,0,1:0:0:0:
427,160,179897,1,8,2:0:0:0:
457,254,180031,6,0,P|450:285|442:328,1,64.8,8|0,2:0|2:0,2:0:0:0:
232,187,180299,5,8,2:0:0:0:
166,238,180433,1,8,2:0:0:0:
84,220,180567,1,2,2:0:0:0:
125,63,181102,6,0,P|135:102|143:156,1,86.4,8|8,2:3|2:3,2:0:0:0:
142,147,181504,1,8,2:3:0:0:
113,345,181772,1,4,2:3:0:0:
113,345,181906,2,0,P|108:325|104:298,2,43.2,8|4|8,2:3|2:3|2:3,2:0:0:0:
84,220,182442,1,2,2:0:0:0:
232,187,182709,6,0,B|318:167|298:227|410:201,1,172.8,2|8,2:0|2:3,2:0:0:0:
496,288,183513,1,8,2:3:0:0:
496,288,183647,1,8,2:3:0:0:
496,288,183781,2,0,P|411:301|384:333,2,129.6,2|0|2,2:0|2:0|2:0,2:0:0:0:
304,368,184852,6,0,B|280:272|344:296|312:184,1,172.8,2|8,2:0|2:3,2:0:0:0:
316,199,185522,1,4,2:3:0:0:
316,199,185656,1,8,2:3:0:0:
379,53,185924,2,0,P|425:44|470:22,1,86.4,2|0,2:0|2:0,2:0:0:0:
495,116,186459,2,0,P|448:124|403:146,1,86.4,2|0,2:0|2:0,2:0:0:0:
288,0,186995,6,0,P|182:26|166:165,1,259.2,2|2,1:0|3:2,2:0:0:0:
227,198,188067,1,0,2:0:0:0:
413,140,188334,6,0,L|366:131,1,43.2,8|0,2:0|2:0,2:0:0:0:
352,208,188602,2,0,L|394:216,1,43.2,8|0,2:0|2:0,2:0:0:0:
502,305,188870,5,10,2:0:0:0:
442,363,189004,1,10,2:0:0:0:
360,341,189138,2,0,B|215:303|263:405|104:360,1,259.2,2|0,1:2|1:2,2:0:0:0:
0,156,190209,2,0,P|115:156|175:276,1,259.2,12|0,2:0|2:0,2:0:0:0:
470,210,191281,5,10,2:0:0:0:
430,31,191683,1,10,2:0:0:0:
294,154,192084,1,10,2:0:0:0:
294,154,193424,6,0,B|191:135|226:237|91:210,1,194.4,4|2,1:2|2:0,2:0:0:0:
286,354,193825,1,0,1:0:0:0:
196,384,193959,2,0,P|200:346|208:309,1,75.6,8|0,2:0|2:0,2:0:0:0:
405,104,194227,6,0,P|395:178|380:253,1,151.2,2|0,1:2|2:0,2:0:0:0:
422,384,194629,1,8,2:0:0:0:
512,323,194763,2,0,P|474:308|432:303,1,75.6,8|0,2:3|2:0,2:0:0:0:
294,154,195031,2,0,P|332:169|374:174,1,75.6,8|0,2:0|2:0,2:0:0:0:
276,252,195299,1,2,2:0:0:0:
280,256,195433,1,0,1:0:0:0:
132,212,195567,6,0,P|113:170|107:136,1,75.6,8|0,2:3|2:0,2:0:0:0:
141,65,195834,1,2,2:0:0:0:
366,173,195968,6,0,P|385:131|391:97,1,75.6,2|8,1:2|2:0,2:0:0:0:
357,26,196236,1,2,2:0:0:0:
208,152,196370,6,0,P|227:226|242:318,1,151.2,4|0,1:0|2:0,2:0:0:0:
226,384,196772,1,8,2:0:0:0:
86,355,196906,2,0,P|122:344|166:328,1,75.6,4|0,2:3|2:0,2:0:0:0:
416,207,197174,5,8,2:0:0:0:
391,286,197308,1,2,2:0:0:0:
263,219,197442,1,2,2:0:0:0:
288,140,197575,1,2,2:0:0:0:
500,309,197709,6,0,P|413:322|305:350,1,194.4,4|2,1:0|2:0,2:0:0:0:
154,196,198111,1,0,1:0:0:0:
24,242,198245,2,0,P|61:248|97:258,1,75.6,8|0,2:0|2:0,2:0:0:0:
247,55,198513,6,0,P|329:35|385:15,1,113.4,2|0,3:2|2:0,2:0:0:0:
356,25,198781,2,0,P|346:65|342:112,1,75.6,2|0,2:0|2:0,2:0:0:0:
422,238,199049,2,0,P|432:198|436:151,1,75.6,0|0,1:0|2:0,2:0:0:0:
273,162,199317,2,0,P|310:178|356:190,1,75.6,8|0,2:0|2:0,2:0:0:0:
446,319,199584,5,2,2:0:0:0:
343,283,199718,1,8,2:0:0:0:
270,344,199852,2,0,P|237:364|201:377,1,75.6,10|0,2:3|2:0,2:0:0:0:
35,233,200120,5,2,0:0:0:0:
119,204,200254,1,0,1:0:0:0:
179,302,200388,2,0,P|140:296|104:282,1,75.6,10|0,2:0|2:0,2:0:0:0:
343,283,200656,6,0,P|426:239|485:229,2,151.2,4|2|2,1:0|2:0|2:0,2:0:0:0:
239,196,201325,1,0,1:0:0:0:
332,109,201459,2,0,P|333:156|318:200,1,75.6,8|0,2:0|2:0,2:0:0:0:
261,284,201727,1,2,2:0:0:0:
261,284,201861,1,2,2:0:0:0:
60,185,201995,6,0,P|107:170|149:171,1,75.6,4|0,1:2|2:0,2:0:0:0:
167,350,202263,2,0,P|120:365|78:364,1,75.6,2|0,2:0|2:0,2:0:0:0:
239,196,202531,6,0,P|256:115|272:44,1,151.2,8|2,2:0|2:0,2:0:0:0:
434,191,202933,2,0,P|480:177|514:171,1,75.6,8|0,2:3|2:0,2:0:0:0:
406,111,203200,1,8,2:0:0:0:
375,261,203334,2,0,P|329:247|295:241,1,75.6,0|0,1:0|2:0,2:0:0:0:
119,78,203602,2,0,P|73:143|85:214,1,151.2,8|8,2:0|2:3,2:0:0:0:
152,156,204004,1,8,2:3:0:0:
0,247,204138,6,0,P|74:262|156:286,1,151.2,2|2,1:2|2:0,2:0:0:0:
292,228,204540,1,0,1:0:0:0:
265,384,204674,2,0,P|255:341|241:300,1,75.6,8|0,2:0|2:0,2:0:0:0:
395,147,204942,5,2,2:0:0:0:
505,241,205075,2,0,P|468:230|431:223,1,75.6,8|2,2:3|2:0,2:0:0:0:
241,20,205343,5,8,2:0:0:0:
186,82,205477,2,0,P|196:123|207:176,1,75.6,2|0,1:2|2:0,2:0:0:0:
265,384,205745,6,0,P|303:311|283:237,1,151.2,8|2,2:0|2:0,2:0:0:0:
119,181,206147,1,2,2:0:0:0:
74,257,206281,2,0,P|25:272|-15:285,1,75.6,8|0,2:3|2:0,2:0:0:0:
293,142,206549,5,2,2:0:0:0:
364,183,206683,1,0,1:0:0:0:
483,94,206817,2,0,P|441:100|401:118,1,75.6,8|0,2:0|2:0,2:0:0:0:
436,243,207084,2,0,P|478:237|518:219,1,75.6,10|0,1:3|2:0,2:0:0:0:
335,0,207352,6,0,P|302:68|293:142,1,151.2,2|0,2:0|1:0,2:0:0:0:
361,367,207754,1,2,2:0:0:0:
423,316,207888,2,0,P|436:255|430:217,1,75.6,8|0,2:0|2:0,2:0:0:0:
325,224,208156,2,0,P|312:285|318:323,1,75.6,2|0,2:0|2:0,2:0:0:0:
147,382,208424,5,4,2:3:0:0:
127,291,208558,1,4,2:3:0:0:
56,349,208692,1,2,2:0:0:0:
217,311,208825,1,4,2:3:0:0:
34,255,208959,6,0,P|33:195|47:154,1,75.6,8|0,2:0|2:0,2:0:0:0:
233,200,209227,2,0,P|234:260|220:301,1,75.6,8|0,2:3|2:0,2:0:0:0:
373,379,209495,5,8,2:0:0:0:
404,242,209629,1,8,2:0:0:0:
506,337,209763,1,4,2:3:0:0:
428,320,209897,1,4,2:3:0:0:
325,224,210031,6,0,P|333:180|332:144,1,75.6,8|0,2:0|2:0,2:0:0:0:
181,11,210299,5,4,2:3:0:0:
110,77,210433,1,4,2:3:0:0:
11,55,210567,1,4,1:2:0:0:
11,55,210834,6,0,B|-9:143|51:111|25:213,1,151.2,2|8,2:0|2:0,2:0:0:0:
114,243,211236,1,8,2:3:0:0:
40,293,211370,1,2,2:0:0:0:
116,155,211504,6,0,P|194:145|267:113,1,151.2,6|0,2:3|2:0,2:0:0:0:
481,207,211906,2,0,P|443:205|407:193,1,75.6,6|0,2:3|2:0,2:0:0:0:
324,58,212174,2,0,P|341:91|348:128,1,75.6,10|0,2:0|2:0,2:0:0:0:
275,268,212442,2,0,P|295:236|323:211,1,75.6,2|0,1:2|2:0,2:0:0:0:
500,349,212709,6,0,P|425:310|354:297,1,151.2,10|0,2:3|2:0,2:0:0:0:
114,243,213111,1,2,1:2:0:0:
186,298,213245,2,0,P|205:253|202:214,1,75.6,8|0,2:0|2:0,2:0:0:0:
70,73,213513,6,0,P|93:153|110:231,2,151.2,6|2|0,1:0|2:0|1:0,2:0:0:0:
337,12,214317,5,8,2:0:0:0:
315,101,214450,1,2,2:0:0:0:
476,131,214584,1,2,2:0:0:0:
498,42,214718,1,8,2:3:0:0:
385,164,214852,6,0,B|277:148|300:215|192:201,1,194.4,6|2,1:0|2:0,2:0:0:0:
306,53,215254,1,0,1:0:0:0:
206,33,215388,2,0,P|218:79|224:112,1,75.6,8|0,2:0|2:0,2:0:0:0:
51,363,215656,5,2,2:0:0:0:
73,266,215790,1,10,2:3:0:0:
213,303,215924,2,0,P|162:314|114:339,1,75.6,2|0,2:0|2:0,2:0:0:0:
12,192,216192,2,0,P|63:181|111:156,1,75.6,2|0,1:2|2:0,2:0:0:0:
377,152,216459,6,0,P|394:67|411:1,1,151.2,10|2,2:0|2:0,2:0:0:0:
306,56,216861,1,0,1:0:0:0:
472,179,216995,6,0,P|387:199|298:229,1,172.8,8|2,2:3|2:0,2:0:0:0:
107,66,217397,1,0,1:0:0:0:
29,107,217531,2,0,P|19:152|9:203,1,86.4,8|0,2:0|2:0,2:0:0:0:
166,329,217799,6,0,P|164:225|99:159,2,194.4,4|2|2,1:1|2:0|2:0,2:0:0:0:
82,294,218468,1,0,1:0:0:0:
225,250,218602,2,0,P|290:262|334:280,1,97.1999999999999,8|0,2:0|2:0,2:0:0:0:
511,124,218870,1,2,2:0:0:0:
358,86,219004,1,2,2:0:0:0:
377,331,219138,6,0,P|429:236|400:129,1,194.4,4|2,1:2|2:0,2:0:0:0:
205,22,219540,1,0,1:0:0:0:
155,96,219674,2,0,P|155:137|180:199,1,75.6,8|0,2:0|2:0,2:0:0:0:
415,154,219942,6,0,P|333:136|207:124,1,172.8,4|2,1:2|2:0,2:0:0:0:
96,352,220343,1,8,2:3:0:0:
7,316,220477,2,0,P|92:306|177:287,1,172.8,2|10,1:2|2:0,2:0:0:0:
241,352,220879,1,0,2:0:0:0:
326,327,221013,2,0,P|336:282|337:239,1,86.4,6|0,1:2|2:0,2:0:0:0:
120,14,221281,6,0,P|120:109|171:175,1,172.8,8|2,2:3|2:0,2:0:0:0:
244,125,221683,1,0,1:0:0:0:
150,263,221817,2,0,P|188:249|234:240,1,75.6,8|0,2:0|2:0,2:0:0:0:
512,64,222084,6,0,P|436:51|363:29,1,151.2,6|0,2:0|1:0,2:0:0:0:
365,29,222620,2,0,P|353:67|352:117,1,75.6,10|0,2:3|2:0,2:0:0:0:
388,172,222888,1,8,2:0:0:0:
242,133,223022,2,0,P|258:213|298:273,1,151.2,2|0,1:2|2:0,2:0:0:0:
224,384,223424,6,0,P|150:370|67:354,1,151.2,4|2,2:3|2:0,2:0:0:0:
33,201,223825,1,0,1:0:0:0:
16,285,223959,2,0,P|54:280|91:266,1,75.6,8|0,2:0|2:0,2:0:0:0:
169,0,224227,6,0,P|136:65|123:145,1,151.2,4|2,1:0|2:0,2:0:0:0:
154,217,224629,1,8,2:0:0:0:
278,172,224763,2,0,P|242:156|197:151,1,75.6,0|0,1:0|2:0,2:0:0:0:
413,142,225031,6,0,P|451:54|458:-13,1,151.2,8|2,2:0|2:0,2:0:0:0:
333,106,225433,1,0,1:0:0:0:
362,209,225567,2,0,P|358:248|345:291,1,75.6,8|0,2:3|2:0,2:0:0:0:
171,384,225834,1,2,2:0:0:0:
135,289,225968,1,0,1:0:0:0:
73,355,226102,2,0,P|34:359|-9:372,1,75.6,8|0,2:0|2:0,2:0:0:0:
121,193,226370,2,0,P|157:203|194:206,1,75.6,8|0,2:3|2:0,2:0:0:0:
453,286,226638,6,0,P|425:215|412:138,1,151.2,2|0,2:0|1:0,2:0:0:0:
500,165,227040,1,2,2:0:0:0:
333,106,227174,2,0,P|339:70|359:28,1,75.6,8|0,2:0|2:0,2:0:0:0:
376,333,227442,5,2,2:0:0:0:
308,384,227575,1,2,2:0:0:0:
219,376,227709,2,0,P|163:337|82:320,1,145.8,4|0,1:2|2:0,2:0:0:0:
88,320,227977,2,0,P|139:320|191:296,1,97.1999999999999,8|0,2:0|2:0,2:0:0:0:
128,37,228245,2,0,P|77:37|25:61,1,97.1999999999999,8|0,2:0|2:0,2:0:0:0:
108,178,228513,5,0,1:0:0:0:
108,178,228647,1,0,1:0:0:0:
209,189,228781,6,0,P|200:138|183:96,1,86.4,8|0,2:0|2:0,2:0:0:0:
6,166,229049,2,0,P|14:217|31:259,1,86.4,8|0,2:0|2:0,2:0:0:0:
137,276,229317,1,8,2:0:0:0:
137,38,229584,5,8,2:0:0:0:
266,71,229718,1,8,2:0:0:0:
384,0,229852,2,0,P|458:23|505:128,1,194.4,4|0,1:2|2:0,2:0:0:0:
504,133,230388,2,0,L|490:205,1,64.8,2|0,2:0|2:0,2:0:0:0:
371,174,230656,2,0,L|383:110,1,64.8,0|0,1:0|2:0,2:0:0:0:
423,254,230924,6,0,P|350:274|270:301,1,129.6,8|0,2:3|2:0,2:0:0:0:
382,348,231325,1,0,1:0:0:0:
225,237,231459,2,0,P|218:271|211:310,1,64.8,8|0,2:3|2:0,2:0:0:0:
286,354,231727,2,0,P|291:322|298:290,1,64.8,0|0,1:0|2:0,2:0:0:0:
144,208,231995,1,4,1:0:0:0:
256,192,232062,12,0,236013,2:0:0:0:
460,72,236281,5,2,2:0:0:0:
382,47,236415,1,0,2:0:0:0:
310,80,236549,1,0,2:0:0:0:
288,159,236683,1,8,2:3:0:0:
211,126,236817,5,2,2:0:0:0:
207,179,236950,1,0,2:0:0:0:
231,220,237084,1,4,2:3:0:0:
277,241,237218,1,0,2:0:0:0:
270,319,237352,5,14,2:0:0:0:
308,316,237486,1,0,2:0:0:0:
338,299,237620,1,0,2:0:0:0:
357,270,237754,1,0,2:0:0:0:
437,286,237888,5,10,2:3:0:0:
443,266,238022,1,0,2:0:0:0:
441,245,238156,1,0,2:0:0:0:
433,230,238290,1,0,2:0:0:0:
277,241,238424,6,0,P|217:258|151:277,2,129.6,8|4|8,2:3|2:3|2:3,2:0:0:0:
488,88,239495,6,0,B|426:59|375:104|405:113|359:163|288:140,1,216,12|4,2:0|2:3,2:0:0:0:
290,130,240165,1,4,2:3:0:0:
287,116,240299,1,4,2:3:0:0:
283,102,240433,1,4,2:3:0:0:
279,88,240567,1,4,2:3:0:0:
96,64,240968,5,4,2:3:0:0:
17,62,241102,2,0,P|23:96|36:117,1,54,2|0,2:0|2:0,2:0:0:0:
174,65,241370,2,0,P|167:30|154:9,1,54,4|0,2:3|2:0,2:0:0:0:
0,188,241638,6,0,P|85:197|219:229,1,210.6,12|0,2:0|2:0,2:0:0:0:
339,128,242174,1,6,2:3:0:0:
349,95,242308,1,6,2:3:0:0:
343,63,242442,1,2,2:0:0:0:
311,32,242575,1,0,2:0:0:0:
277,26,242709,1,4,2:3:0:0:
277,26,242977,6,0,L|266:80,1,54,2|4,2:0|2:3,2:0:0:0:
408,192,243245,2,0,P|465:181|512:164,1,108,2|4,2:0|2:3,2:0:0:0:
211,227,243781,6,0,P|104:200|0:188,1,216,12|4,2:0|2:3,2:0:0:0:
0,188,244584,2,0,P|26:181|52:174,1,54,4|0,2:3|2:0,2:0:0:0:
179,67,244852,5,2,2:0:0:0:
257,42,244986,1,0,2:0:0:0:
329,75,245120,1,0,2:0:0:0:
351,154,245254,1,8,2:3:0:0:
428,121,245388,5,2,2:0:0:0:
432,174,245522,1,0,2:0:0:0:
408,215,245656,1,4,2:3:0:0:
362,236,245790,1,0,2:0:0:0:
369,314,245924,5,14,2:0:0:0:
331,311,246058,1,0,2:0:0:0:
301,294,246192,1,0,2:0:0:0:
282,265,246325,1,0,2:0:0:0:
202,281,246459,5,10,2:3:0:0:
196,261,246593,1,8,2:3:0:0:
198,240,246727,1,4,2:3:0:0:
206,225,246861,1,4,2:3:0:0:
294,189,246995,6,0,P|287:230|283:257,1,54,6|0,1:2|2:0,2:0:0:0:
369,314,247263,2,0,P|376:273|380:246,1,54,4|0,2:3|2:0,2:0:0:0:
246,356,247531,6,0,P|205:366|179:372,1,54,4|0,2:3|2:0,2:0:0:0:
384,169,247799,2,0,P|424:179|450:185,1,54,4|0,2:3|2:0,2:0:0:0:
183,96,248067,5,12,2:3:0:0:
99,77,248200,1,10,2:3:0:0:
37,134,248334,1,10,2:3:0:0:
126,156,248468,1,10,2:3:0:0:
183,96,248602,2,0,P|189:63|197:15,1,70.2,4|0,2:3|2:0,2:0:0:0:
5,287,248870,5,4,2:3:0:0:
100,265,249004,1,4,2:3:0:0:
176,343,249138,2,0,P|248:348|320:371,1,140.4,4|0,1:2|2:0,2:0:0:0:
423,312,249540,1,2,2:0:0:0:
318,224,249674,2,0,P|336:261|344:305,1,70.2,0|0,3:0|2:0,2:0:0:0:
447,377,249942,2,0,L|422:311,1,70.2,2|0,2:0|2:0,2:0:0:0:
249,175,250209,6,0,P|152:168|50:93,1,210.6,12|0,2:0|3:0,2:0:0:0:
60,105,250745,1,4,2:3:0:0:
244,262,251013,5,2,2:0:0:0:
318,224,251147,1,0,3:0:0:0:
399,242,251281,2,0,P|481:211|515:158,1,140.4,4|0,2:3|2:0,2:0:0:0:
429,384,251683,2,0,P|384:331|317:312,1,140.4,4|0,2:3|2:0,2:0:0:0:
317,312,252084,2,0,L|300:383,1,70.2,4|0,2:3|2:0,2:0:0:0:
139,233,252352,6,0,B|92:103|166:151|118:24,1,210.6,12|0,2:0|3:0,2:0:0:0:
119,28,252888,1,2,2:0:0:0:
298,147,253156,5,2,2:0:0:0:
376,109,253290,1,0,3:0:0:0:
497,221,253424,6,0,P|430:221|358:176,1,140.4,2|0,1:2|2:0,2:0:0:0:
292,0,253825,1,2,3:2:0:0:
292,0,253959,2,0,P|303:37|303:73,1,70.2,0|0,2:0|2:0,2:0:0:0:
298,147,254227,1,0,1:0:0:0:
368,384,254495,6,0,P|282:305|190:298,1,210.6,12|0,2:0|2:0,2:0:0:0:
125,335,255031,1,0,1:0:0:0:
48,108,255299,1,2,2:0:0:0:
48,108,255433,1,2,2:0:0:0:
0,191,255567,6,0,P|63:162|136:153,1,140.4,8|0,2:3|2:0,2:0:0:0:
216,194,255968,1,2,1:2:0:0:
232,51,256102,2,0,P|213:83|204:123,1,70.2,2|0,2:0|2:0,2:0:0:0:
279,258,256370,2,0,P|298:226|307:186,1,70.2,8|0,2:3|2:0,2:0:0:0:
125,335,256638,6,0,P|207:350|262:382,1,140.4,12|8,2:0|2:3,2:0:0:0:
339,325,257040,1,8,2:0:0:0:
216,194,257174,1,8,2:0:0:0:
216,194,257442,5,8,2:0:0:0:
379,142,257575,1,8,2:0:0:0:
279,258,257709,6,0,P|185:226|159:110,1,210.6,4|8,1:2|2:3,2:0:0:0:
308,17,258245,2,0,P|300:55|290:107,1,70.2,2|0,2:0|2:0,2:0:0:0:
216,69,258513,2,0,P|222:34|230:0,1,70.2,0|0,1:0|2:0,2:0:0:0:
497,125,258781,6,0,P|412:144|341:165,1,140.4,12|8,2:0|2:3,2:0:0:0:
442,52,259183,1,8,2:0:0:0:
424,229,259317,1,8,2:0:0:0:
424,229,259584,5,2,0:0:0:0:
308,95,259718,1,0,3:0:0:0:
241,157,259852,6,0,P|178:150|93:111,1,140.4,4|2,2:3|2:0,2:0:0:0:
176,64,260254,1,4,2:3:0:0:
44,187,260388,2,0,P|23:147|19:106,1,70.2,2|0,2:0|2:0,2:0:0:0:
151,0,260656,2,0,P|172:40|176:81,1,70.2,4|0,2:3|2:0,2:0:0:0:
160,241,260924,6,0,P|246:190|358:170,1,210.6,12|8,2:0|2:3,2:0:0:0:
446,105,261459,2,0,P|493:118|523:139,1,70.2,0|0,1:0|2:0,2:0:0:0:
419,222,261727,5,8,2:0:0:0:
373,63,261861,1,8,2:0:0:0:
253,162,261995,2,0,P|211:160|173:144,1,70.2,8|0,2:3|2:0,2:0:0:0:
69,25,262263,2,0,P|111:27|149:43,1,70.2,0|0,1:3|2:0,2:0:0:0:
113,243,262531,2,0,P|92:187|92:108,1,140.4,2|0,1:2|2:0,2:0:0:0:
184,150,262933,1,0,1:0:0:0:
22,278,263067,6,0,P|95:289|161:323,1,140.4,12|2,2:0|2:0,2:0:0:0:
283,77,263602,2,0,P|356:66|422:32,1,140.4,8|2,2:3|2:0,2:0:0:0:
456,208,264004,1,2,2:0:0:0:
512,149,264138,6,0,P|480:133|445:128,1,70.2,4|0,2:3|2:0,2:0:0:0:
400,267,264406,2,0,P|431:282|466:287,1,70.2,4|0,2:3|2:0,2:0:0:0:
293,162,264674,2,0,P|311:239|310:307,1,140.4,4|0,2:3|2:0,2:0:0:0:
255,358,265075,1,2,2:0:0:0:
157,299,265209,6,0,P|194:285|228:285,1,70.2,12|0,2:0|2:0,2:0:0:0:
376,136,265477,1,2,2:0:0:0:
409,66,265611,1,2,2:0:0:0:
352,11,265745,2,0,P|331:50|333:93,1,70.2,4|0,2:3|2:0,2:0:0:0:
504,184,266013,2,0,P|480:146|442:126,1,70.2,2|0,2:3|2:0,2:0:0:0:
344,216,266281,5,4,2:3:0:0:
282,163,266549,1,4,2:3:0:0:
199,153,266817,1,4,2:3:0:0:
123,200,267084,1,4,2:3:0:0:
107,288,267352,5,4,2:3:0:0:
51,168,267620,1,4,2:3:0:0:
177,9,267888,1,4,2:3:0:0:
372,20,268156,1,4,2:3:0:0:
479,155,268424,6,0,P|463:225|448:291,1,140.4,4|4,2:3|2:3,2:3:0:0:
462,373,268825,1,2,2:0:0:0:
386,347,268959,2,0,P|353:361|317:371,1,70.2,4|0,2:3|2:0,2:0:0:0:
271,227,269227,2,0,P|303:212|339:202,1,70.2,4|0,2:3|2:0,2:0:0:0:
189,357,269495,6,0,P|123:334|29:314,1,140.4,8|4,2:0|2:3,2:0:0:0:
0,384,269897,1,8,2:0:0:0:
209,275,270031,1,8,2:0:0:0:
24,80,270299,5,8,2:3:0:0:
51,194,270433,1,0,1:0:0:0:
137,114,270567,1,4,1:2:0:0:
256,192,270700,12,2,272709,2:0:0:0:
207,354,283156,5,2,0:0:0:0:
242,322,283290,1,2,0:0:0:0:
256,368,283424,2,0,P|344:368|424:328,1,172.8,4|2,1:2|2:0,2:0:0:0:
419,331,284227,1,8,2:3:0:0:
345,140,284763,1,4,2:3:0:0:
281,200,285031,1,4,2:3:0:0:
193,167,285299,5,4,2:3:0:0:
201,175,285433,1,4,2:3:0:0:
201,175,285567,2,0,P|190:80|127:2,1,172.8,4|0,1:2|2:0,2:0:0:0:
68,45,286370,1,4,1:0:0:0:
41,310,286906,5,8,2:3:0:0:
117,357,287174,2,0,P|129:315|122:269,1,86.4,4|4,2:3|2:3,2:0:0:0:
123,273,287575,1,4,2:3:0:0:
123,273,287709,1,4,1:2:0:0:
216,303,287977,1,0,1:0:0:0:
300,274,288245,1,0,1:0:0:0:
352,198,288513,1,4,2:3:0:0:
474,331,288781,5,8,2:0:0:0:
338,365,289049,1,8,2:0:0:0:
216,303,289317,1,8,2:0:0:0:
182,139,289584,1,12,2:0:0:0:
360,0,289852,5,8,2:3:0:0:
360,0,290254,5,8,2:3:0:0:
397,72,290388,2,0,P|390:101|384:127,2,43.2,0|4|8,1:0|2:3|2:3,2:0:0:0:
205,221,290924,5,8,2:3:0:0:
110,190,291058,1,4,2:3:0:0:
33,256,291192,1,4,2:3:0:0:
133,278,291325,1,4,2:3:0:0:
182,139,291459,6,0,P|187:99|201:58,1,75.6,8|0,2:0|2:0,2:0:0:0:
362,170,291727,5,8,2:0:0:0:
421,246,291861,1,8,2:0:0:0:
512,201,291995,1,4,1:2:0:0:
201,378,292263,6,0,P|163:366|117:361,1,75.6,2|0,2:0|2:0,2:0:0:0:
248,230,292531,2,0,P|256:268|275:311,1,75.6,8|0,2:0|2:0,2:0:0:0:
176,281,292799,1,2,2:0:0:0:
331,186,292933,6,0,P|231:176|166:137,1,151.2,10|0,2:3|2:0,2:0:0:0:
46,233,293334,2,0,P|80:216|117:210,1,75.6,6|0,2:3|2:0,2:0:0:0:
287,67,293602,2,0,P|283:104|270:139,1,75.6,10|0,2:0|2:0,2:0:0:0:
310,358,293870,2,0,P|279:336|254:307,1,75.6,2|0,2:0|2:0,2:0:0:0:
390,111,294138,6,0,P|459:94|502:75,1,86.4,6|0,2:3|2:0,2:0:0:0:
176,281,294406,1,2,2:0:0:0:
117,210,294540,2,0,P|76:196|33:187,1,86.4,4|8,2:3|2:0,2:0:0:0:
225,0,294808,1,2,2:0:0:0:
287,67,294942,2,0,P|269:157|260:237,2,172.8,6|2|2,1:0|2:0|2:0,2:0:0:0:
483,366,295745,5,8,2:0:0:0:
350,308,295879,1,2,2:0:0:0:
496,275,296013,1,2,2:0:0:0:
393,384,296147,1,4,2:3:0:0:
413,247,296281,6,0,P|402:151|372:47,1,194.4,6|2,2:3|2:0,2:0:0:0:
205,24,296683,1,8,2:3:0:0:
124,92,296817,2,0,P|159:100|200:113,1,75.6,8|0,2:0|2:0,2:0:0:0:
413,247,297084,5,2,2:0:0:0:
383,160,297218,1,4,2:3:0:0:
467,174,297352,2,0,P|397:203|323:219,1,151.2,10|2,2:3|2:0,2:0:0:0:
243,182,297754,1,0,1:0:0:0:
235,332,297888,6,0,P|253:272|252:239,1,75.6,10|0,2:0|2:0,2:0:0:0:
32,31,298156,5,2,1:0:0:0:
10,123,298290,1,8,2:0:0:0:
74,195,298424,2,0,P|159:189|229:141,1,172.8,2|2,1:2|2:0,2:0:0:0:
383,160,298825,1,8,2:3:0:0:
351,2,298959,2,0,P|330:44|325:90,1,86.4,8|0,2:0|2:0,2:0:0:0:
221,384,299227,6,0,P|200:300|171:218,2,172.8,6|2|0,1:0|2:0|1:0,2:0:0:0:
221,384,300031,2,0,P|273:366|318:356,1,97.1999999999999,8|0,2:0|2:0,2:0:0:0:
512,190,300299,1,2,2:0:0:0:
357,164,300433,1,2,2:0:0:0:
385,384,300567,6,0,P|439:306|402:181,1,194.4,4|2,1:2|2:0,2:0:0:0:
248,0,300968,1,0,1:0:0:0:
184,48,301102,2,0,P|183:85|197:124,1,75.6,8|0,2:0|2:0,2:0:0:0:
440,128,301370,6,0,P|358:146|271:167,1,172.8,6|2,1:2|2:0,2:0:0:0:
76,268,301772,1,8,2:3:0:0:
14,202,301906,2,0,P|57:183|105:181,1,86.4,2|0,2:0|2:0,2:0:0:0:
138,334,302174,2,0,P|95:353|47:355,1,86.4,8|0,2:0|2:0,2:0:0:0:
127,83,302442,2,0,P|211:108|271:166,1,172.8,6|8,2:0|2:3,2:0:0:0:
270,166,302977,5,2,2:0:0:0:
358,145,303111,1,8,2:3:0:0:
416,82,303245,2,0,P|425:34|443:-5,1,86.4,8|0,2:0|2:0,2:0:0:0:
512,304,303513,6,0,P|426:321|336:384,1,194.4,6|0,2:0|1:2,2:0:0:0:
339,380,304049,2,0,P|321:343|316:298,1,75.6,10|0,2:3|2:0,2:0:0:0:
338,232,304317,1,8,2:0:0:0:
184,272,304450,2,0,P|189:187|224:133,1,151.2,2|0,2:0|2:0,2:0:0:0:
500,187,304852,6,0,P|418:208|352:229,1,151.2,4|2,2:3|2:0,2:0:0:0:
453,284,305254,1,0,1:0:0:0:
405,128,305388,2,0,P|415:77|424:42,1,75.6,8|0,2:0|2:0,2:0:0:0:
260,200,305656,6,0,P|186:219|105:241,1,151.2,6|2,1:0|2:0,2:0:0:0:
239,286,306058,1,8,2:0:0:0:
322,138,306192,2,0,P|343:184|337:232,1,75.6,8|0,2:3|2:0,2:0:0:0:
69,319,306459,6,0,P|28:243|53:170,1,151.2,8|2,2:0|2:0,2:0:0:0:
110,129,306861,1,0,1:0:0:0:
239,286,306995,6,0,P|193:274|156:266,1,75.6,8|0,2:3|2:0,2:0:0:0:
326,6,307263,5,2,2:0:0:0:
352,85,307397,1,2,2:0:0:0:
235,197,307531,1,10,2:0:0:0:
209,118,307665,2,0,P|265:124|299:137,1,75.6,2|0,2:0|2:0,2:0:0:0:
410,23,307933,1,8,2:3:0:0:
491,129,308067,6,0,P|409:119|344:77,1,151.2,2|0,2:0|2:0,2:0:0:0:
326,6,308468,1,2,2:0:0:0:
235,197,308602,2,0,P|243:249|258:280,1,75.6,8|0,2:0|2:0,2:0:0:0:
351,84,308870,5,2,2:0:0:0:
261,66,309004,1,4,2:3:0:0:
188,122,309138,2,0,P|112:111|52:75,1,145.8,4|0,1:2|2:0,2:0:0:0:
53,76,309406,6,0,P|33:121|29:169,1,97.1999999999999,8|0,2:0|2:0,2:0:0:0:
272,384,309674,2,0,P|292:339|296:291,1,97.1999999999999,8|0,2:0|2:0,2:0:0:0:
162,230,309942,1,4,2:3:0:0:
162,230,310075,1,4,2:3:0:0:
16,280,310209,6,0,P|64:280|128:304,1,86.4,8|0,2:0|2:0,2:0:0:0:
308,180,310477,2,0,P|260:180|196:156,1,86.4,8|0,2:0|2:0,2:0:0:0:
162,230,310745,1,8,2:0:0:0:
272,384,311013,5,8,2:0:0:0:
350,326,311147,1,8,2:0:0:0:
449,341,311281,2,0,P|487:260|487:155,1,194.4,4|0,1:2|1:0,2:0:0:0:
487,156,311817,2,0,P|458:173|420:182,1,64.8,2|0,3:2|2:0,2:0:0:0:
364,52,312084,2,0,P|332:43|305:26,1,64.8,0|0,1:2|2:0,2:0:0:0:
256,96,312352,1,8,2:3:0:0:
108,290,312754,5,8,2:3:0:0:
108,290,312888,2,0,L|121:225,1,64.8,4|0,2:3|2:0,2:0:0:0:
49,176,313156,2,0,L|36:239,1,64.8,4|0,2:3|2:0,2:0:0:0:
214,361,313424,6,0,P|299:324|386:311,1,151.2,4|2,1:2|2:0,2:0:0:0:
406,247,313825,1,0,1:0:0:0:
429,351,313959,2,0,P|467:363|506:399,1,75.6,8|0,2:0|2:0,2:0:0:0:
314,165,314227,5,2,2:0:0:0:
240,131,314361,1,0,3:0:0:0:
177,235,314495,2,0,P|218:225|267:202,1,75.6,2|0,2:0|2:0,2:0:0:0:
322,13,314763,2,0,P|310:53|305:107,1,75.6,8|0,2:3|2:0,2:0:0:0:
441,249,315031,2,0,P|411:218|367:187,1,75.6,10|0,2:0|2:0,2:0:0:0:
214,361,315299,5,2,2:0:0:0:
127,381,315433,1,2,3:2:0:0:
62,318,315567,2,0,P|83:241|82:163,1,151.2,2|2,1:2|2:0,2:0:0:0:
4,229,315968,1,0,1:0:0:0:
156,279,316102,6,0,P|202:269|235:245,1,75.6,10|0,2:0|2:0,2:0:0:0:
159,35,316370,2,0,P|143:79|148:120,1,75.6,8|0,2:3|2:0,2:0:0:0:
344,220,316638,6,0,P|419:196|498:183,1,151.2,2|0,3:2|2:0,2:0:0:0:
490,183,317040,1,0,1:0:0:0:
230,126,317174,6,0,P|158:148|83:162,1,151.2,8|8,2:0|2:3,2:0:0:0:
84,163,317575,1,0,1:0:0:0:
229,304,317709,6,0,P|235:266|244:229,1,75.6,2|0,1:2|2:0,2:0:0:0:
355,32,317977,1,2,2:0:0:0:
375,122,318111,1,0,1:0:0:0:
512,72,318245,2,0,P|475:63|437:57,1,75.6,8|0,2:0|2:0,2:0:0:0:
243,229,318513,6,0,P|167:258|91:277,1,151.2,6|0,2:0|2:0,2:0:0:0:
4,216,318915,1,8,2:0:0:0:
79,111,319049,2,0,P|92:159|94:189,1,75.6,8|0,2:3|2:0,2:0:0:0:
192,370,319317,2,0,P|179:322|177:292,1,75.6,8|0,2:0|2:0,2:0:0:0:
424,164,319584,1,2,2:0:0:0:
498,197,319718,1,0,3:0:0:0:
379,243,319852,6,0,P|336:176|325:83,1,151.2,10|2,2:3|2:0,2:0:0:0:
343,26,320254,1,0,1:0:0:0:
469,52,320388,2,0,P|424:78|387:84,1,75.6,8|0,2:0|2:0,2:0:0:0:
243,229,320656,2,0,P|288:203|325:197,1,75.6,8|2,2:3|2:0,2:0:0:0:
161,1,320924,6,0,P|155:73|133:159,1,151.2,2|2,1:2|2:0,2:0:0:0:
137,150,321325,1,8,2:3:0:0:
333,275,321459,6,0,P|339:203|361:117,1,151.2,10|2,2:0|2:0,2:0:0:0:
357,126,321861,1,8,2:3:0:0:
198,226,321995,6,0,P|117:240|49:195,1,151.2,4|2,1:2|2:0,2:0:0:0:
220,19,322397,1,8,2:3:0:0:
269,82,322531,2,0,P|259:117|247:173,1,75.6,8|0,2:0|2:0,2:0:0:0:
381,384,322799,6,0,P|461:331|548:351,1,151.2,4|8,2:1|2:3,2:0:0:0:
356,194,323200,1,8,2:0:0:0:
439,164,323334,2,0,P|436:201|427:243,1,75.6,2|0,1:2|2:0,2:0:0:0:
193,208,323602,2,0,P|196:171|205:129,1,75.6,10|0,2:0|2:0,2:0:0:0:
347,289,323870,2,0,P|310:295|269:307,1,75.6,2|0,2:0|2:0,2:0:0:0:
209,122,324138,5,2,1:2:0:0:
295,143,324272,1,2,2:0:0:0:
319,21,324406,1,2,2:0:0:0:
233,0,324540,1,2,1:2:0:0:
372,91,324674,6,0,P|410:79|461:81,1,75.6,8|0,2:0|2:0,2:0:0:0:
476,300,324942,2,0,P|438:312|387:310,1,75.6,8|0,2:3|2:0,2:0:0:0:
209,122,325209,6,0,B|225:207|186:181|201:277,1,151.2,2|8,2:0|2:3,2:0:0:0:
279,236,325611,1,0,1:0:0:0:
113,312,325745,2,0,P|190:316|247:367,1,151.2,10|2,2:0|2:0,2:0:0:0:
244,362,326147,1,0,1:0:0:0:
348,208,326281,6,0,P|309:229|258:237,1,75.6,2|0,1:2|2:0,2:0:0:0:
220,95,326549,2,0,P|252:76|289:66,1,75.6,2|0,2:0|1:0,2:0:0:0:
414,142,326817,2,0,P|396:204|375:316,1,151.2,8|2,2:0|1:2,2:0:0:0:
278,235,327218,1,2,2:0:0:0:
461,322,327352,6,0,P|376:329|315:389,1,151.2,2|0,3:2|1:0,2:0:0:0:
177,169,327754,1,2,2:0:0:0:
252,109,327888,2,0,P|265:153|265:204,1,75.6,8|0,2:0|2:0,2:0:0:0:
69,378,328156,5,2,2:0:0:0:
32,272,328290,1,8,2:0:0:0:
147,305,328424,2,0,P|228:289|299:261,1,151.2,2|2,1:2|2:0,2:0:0:0:
477,76,328825,1,8,2:3:0:0:
486,162,328959,2,0,P|445:154|410:140,1,75.6,8|0,2:0|2:0,2:0:0:0:
288,8,329227,2,0,P|301:47|306:84,1,75.6,8|0,2:3|2:0,2:0:0:0:
375,290,329495,5,2,2:0:0:0:
296,330,329629,1,8,2:0:0:0:
254,257,329763,2,0,P|281:225|311:202,1,75.6,8|0,2:3|2:0,2:0:0:0:
176,64,330031,6,0,P|100:51|29:20,1,151.2,10|0,2:0|1:0,2:0:0:0:
32,21,330433,1,0,3:0:0:0:
96,165,330567,6,0,P|170:118|283:123,1,194.4,4|0,1:2|3:0,2:0:0:0:
424,88,331102,2,0,P|439:57|438:7,1,64.8,2|0,2:0|2:0,2:0:0:0:
367,3,331370,2,0,P|352:34|353:84,1,64.8,0|0,1:0|2:0,2:0:0:0:
512,192,331638,6,0,P|400:272|280:248,1,259.2,8|2,2:0|2:0,2:0:0:0:
287,252,332442,1,8,2:3:0:0:
114,105,332709,6,0,P|103:143|95:174,1,64.8,8|0,2:3|2:0,2:0:0:0:
184,155,332977,1,2,2:0:0:0:
24,222,333111,6,0,P|99:220|158:263,1,129.6,8|0,2:3|2:0,2:0:0:0:
144,247,333513,2,0,P|152:281|163:330,1,64.8,4|0,2:3|2:0,2:0:0:0:
301,384,333781,6,0,B|323:261|262:314|289:175,1,194.4,8|8,2:0|2:0,2:0:0:0:
343,128,334317,2,0,P|348:89|355:55,1,64.8,8|0,2:3|2:0,2:0:0:0:
269,48,334584,2,0,P|264:87|257:121,1,64.8,4|0,2:3|2:0,2:0:0:0:
396,235,334852,6,0,B|291:228|327:299|203:281,1,194.4,4|8,1:2|2:3,2:0:0:0:
210,289,335388,2,0,P|201:246|190:217,1,64.8,2|0,2:0|2:0,2:0:0:0:
110,249,335656,2,0,P|119:292|130:321,1,64.8,0|0,1:0|2:0,2:0:0:0:
187,384,335924,6,0,P|155:240|110:88,1,259.2,8|2,2:0|2:0,2:0:0:0:
214,12,336727,1,0,2:0:0:0:
214,12,336861,1,2,2:0:0:0:
214,12,336995,2,0,P|277:5|339:44,1,129.6,4|0,1:0|2:0,2:0:0:0:
374,134,337397,1,8,2:3:0:0:
472,41,337531,2,0,P|432:49|400:69,1,64.8,2|0,2:0|2:0,2:0:0:0:
446,170,337799,2,0,P|485:161|517:141,1,64.8,0|0,1:0|2:0,2:0:0:0:
279,107,338067,6,0,B|178:93|209:171|83:155,1,194.4,8|0,2:0|2:0,2:0:0:0:
30,84,338602,2,0,P|53:165|74:285,1,194.4,2|0,2:0|2:0,2:0:0:0:
72,360,339138,6,0,B|47:397|-43:426|-121:303|41:176|144:237|137:300|140:315|145:334|188:381|312:369|377:292|318:201|243:191|207:258,1,604.8,2|0,2:0|2:1,2:0:0:0:
352,384,341281,1,2,2:0:0:0:
400,232,341683,1,2,2:0:0:0:
512,336,342084,1,0,2:0:0:0:
424,328,342352,1,2,2:0:0:0:
424,328,342486,1,0,2:0:0:0:
424,328,342620,1,0,2:0:0:0:
470,178,342888,2,0,P|482:126|476:76,1,86.4,2|0,2:0|2:0,2:0:0:0:
479,93,343290,1,0,2:0:0:0:
479,93,343424,6,0,B|312:139|352:-2|180:26|180:26|239:46|273:100|257:183|189:210|127:166|138:116|172:102,1,604.8,2|0,2:0|2:0,2:0:0:0:
312,168,345567,2,0,B|216:98|72:160|68:266|68:266|151:261|174:343|130:388|74:372|65:321,1,518.4,2|0,2:0|2:0,2:0:0:0:
224,232,347442,5,2,2:0:0:0:
227,250,347531,1,2,2:0:0:0:
231,269,347620,1,2,2:0:0:0:
234,288,347709,1,6,2:1:0:0:
