osu file format v14

[General]
AudioFilename: e4de845cc3.mp3
AudioLeadIn: 0
PreviewTime: 910
Countdown: 0
SampleSet: Soft
StackLeniency: 0.7
Mode: 0
LetterboxInBreaks: 0
WidescreenStoryboard: 0

[Editor]
Bookmarks: 910,17711,20111,22512,39313,41714,60916
DistanceSpacing: 1.5
BeatDivisor: 6
GridSize: 8
TimelineZoom: 1.8

[Metadata]
Title:Transcendence
TitleUnicode:Transcendence
Artist:Cerulean Veyron
ArtistUnicode:Cerulean Veyron
Creator:Nerova Riuz GX
Version:LEVEL 4
Source:
Tags:The Promise Gray electronic dubstep car bugatti
BeatmapID:847370
BeatmapSetID:388441

[Difficulty]
HPDrainRate:6
CircleSize:4.3
OverallDifficulty:7.5
ApproachRate:9
SliderMultiplier:2.8
SliderTickRate:1

[Events]
//Background and Video events
0,0,"veyron.jpg",0,0
//Break Periods
2,20310,21910
//Storyboard Layer 0 (Background)
//Storyboard Layer 1 (Fail)
//Storyboard Layer 2 (Pass)
//Storyboard Layer 3 (Foreground)
//Storyboard Sound Samples

[TimingPoints]
910,600,4,2,0,80,1,0
2710,-83.3333333333333,4,2,0,80,0,0
3310,-100,4,2,0,80,0,0
4810,-83.3333333333333,4,2,0,80,0,0
5710,-100,4,2,0,80,0,0
7510,-83.3333333333333,4,2,0,80,0,0
8110,-100,4,2,0,80,0,0
12310,-83.3333333333333,4,2,0,80,0,0
12910,-100,4,2,0,80,0,0
14410,-83.3333333333333,4,2,0,80,0,0
15310,-100,4,2,0,80,0,0
17110,-83.3333333333333,4,2,0,80,0,0
17710,-55.5555555555556,4,2,0,80,0,0
18310,-66.6666666666667,4,2,0,80,0,0
18910,-83.3333333333333,4,2,0,80,0,0
19510,-100,4,2,0,80,0,0
39310,-55.5555555555556,4,2,0,80,0,0
39910,-66.6666666666667,4,2,0,80,0,0
40510,-83.3333333333333,4,2,0,80,0,0
41110,-100,4,2,0,80,0,0
43510,-83.3333333333333,4,2,0,80,0,0
44110,-100,4,2,0,80,0,0
45610,-83.3333333333333,4,2,0,80,0,0
46510,-100,4,2,0,80,0,0
48310,-83.3333333333333,4,2,0,80,0,0
48910,-100,4,2,0,80,0,0
53110,-83.3333333333333,4,2,0,80,0,0
53710,-100,4,2,0,80,0,0
55210,-83.3333333333333,4,2,0,80,0,0
56110,-100,4,2,0,80,0,0
58510,-55.5555555555556,4,2,0,80,0,0
59110,-66.6666666666667,4,2,0,80,0,0
59710,-83.3333333333333,4,2,0,80,0,0
60310,-100,4,2,0,80,0,0
61010,-100,4,2,0,30,0,0

[Colours]
Combo1 : 240,181,0
Combo2 : 43,143,219
Combo3 : 181,74,94
Combo4 : 68,198,149

[HitObjects]
256,26,310,5,0,0:0:0:0:
242,37,385,1,0,0:0:0:0:
231,51,460,1,0,0:0:0:0:
224,66,535,1,0,0:0:0:0:
220,83,610,1,0,0:0:0:0:
220,101,685,1,0,0:0:0:0:
224,118,760,1,0,0:0:0:0:
231,134,835,1,0,0:0:0:0:
242,148,910,6,0,L|381:131,1,140,4|0,0:0|0:0,0:0:0:0:
353,339,1510,2,0,P|316:292|320:206,1,140,8|0,0:0|0:0,0:0:0:0:
472,74,2110,2,0,L|463:170,1,93.3333333333334
481,234,2410,1,0,0:0:0:0:
163,123,2710,6,0,L|186:13,1,111.999996582031,8|0,0:0|0:0,0:0:0:0:
254,63,3010,2,0,L|222:205,1,111.999996582031
174,257,3310,6,0,P|234:215|266:282,1,140,4|0,0:0|0:0,0:0:0:0:
88,161,3910,1,8,0:0:0:0:
297,172,4210,2,0,L|399:183,1,93.3333333333334
455,158,4510,1,0,0:0:0:0:
320,28,4710,1,0,0:0:0:0:
271,78,4810,6,0,B|264:126|264:126|276:162|276:162|255:201|269:240,1,167.999994873047,0|8,0:0|0:0,0:0:0:0:
80,350,5410,2,0,P|124:323|150:368,1,111.999996582031
59,332,5710,6,0,B|50:275|50:275|32:241|32:241|37:197,1,140,4|0,0:0|0:0,0:0:0:0:
152,21,6310,2,0,B|164:109|164:109|148:157,1,140,8|0,0:0|0:0,0:0:0:0:
316,32,6910,2,0,P|371:29|417:49,1,93.3333333333334
420,110,7210,1,0,0:0:0:0:
358,354,7510,6,0,B|344:300|344:300|357:245,1,111.999996582031,8|0,0:0|0:0,0:0:0:0:
424,195,7810,2,0,B|438:249|438:249|424:303,1,111.999996582031
342,348,8110,6,0,P|275:324|224:380,1,140,4|0,0:0|0:0,0:0:0:0:
312,172,8710,1,8,0:0:0:0:
110,230,9010,2,0,B|154:239|154:239|202:235,1,93.3333333333334
271,246,9310,2,0,P|247:225|232:160,1,93.3333333333333
233,97,9610,1,0,0:0:0:0:
447,53,9910,5,8,0:0:0:0:
444,70,9985,1,0,0:0:0:0:
442,87,10060,1,0,0:0:0:0:
440,105,10135,1,0,0:0:0:0:
438,122,10210,1,0,0:0:0:0:
436,139,10285,1,0,0:0:0:0:
434,157,10360,1,0,0:0:0:0:
432,174,10435,1,0,0:0:0:0:
430,191,10510,6,0,B|411:255|411:255|426:280|426:280|430:329,1,140,4|0,0:0|0:0,0:0:0:0:
314,147,11110,2,0,P|251:159|161:146,1,140,8|0,0:0|0:0,0:0:0:0:
28,299,11710,2,0,P|85:299|122:319,1,93.3333333333334
185,300,12010,1,0,0:0:0:0:
396,162,12310,6,0,P|352:129|298:139,1,111.999996582031,8|0,0:0|0:0,0:0:0:0:
364,89,12610,2,0,P|414:67|432:16,1,111.999996582031
444,99,12910,6,0,L|411:272,1,140,4|0,0:0|0:0,0:0:0:0:
241,350,13510,1,8,0:0:0:0:
41,283,13810,2,0,L|139:290,1,93.3333333333334
198,263,14110,1,0,0:0:0:0:
173,77,14310,1,0,0:0:0:0:
162,146,14410,6,0,P|111:203|46:161,1,167.999994873047,0|8,0:0|0:0,0:0:0:0:
263,33,15010,2,0,L|393:47,1,111.999996582031
436,11,15310,6,0,B|421:68|421:68|431:184,1,140,4|0,0:0|0:0,0:0:0:0:
492,348,15910,2,0,B|476:291|476:291|409:195,1,140,8|0,0:0|0:0,0:0:0:0:
222,195,16510,2,0,P|244:239|308:256,1,93.3333333333334
292,187,16810,1,0,0:0:0:0:
107,15,17110,6,0,B|113:67|113:67|104:93|104:93|108:147,1,111.999996582031,8|0,0:0|0:0,0:0:0:0:
50,187,17410,2,0,B|44:239|44:239|53:265|53:265|49:319,1,111.999996582031
101,363,17710,6,0,P|92:293|177:287,1,167.999994873047,2|0,0:0|0:0,0:0:0:0:
171,282,18010,1,0,0:0:0:0:
191,302,18310,6,0,P|249:352|276:267,1,140.000005340576,2|0,0:0|0:0,0:0:0:0:
287,319,18610,1,0,0:0:0:0:
308,301,18910,6,0,L|434:295,1,111.999996582031,2|0,0:0|0:0,0:0:0:0:
419,295,19210,1,0,0:0:0:0:
390,116,19510,6,0,L|403:10,1,93.3333333333334,2|0,0:0|0:0,0:0:0:0:
475,80,19810,2,0,L|463:172,1,93.3333333333334
378,208,20110,5,2,0:0:0:0:
161,187,22510,5,4,0:0:0:0:
26,26,22810,2,0,L|37:124,1,93.3333333333333
25,197,23110,1,8,0:0:0:0:
103,58,23310,5,0,0:0:0:0:
171,94,23410,2,0,L|160:192,1,93.3333333333333
172,265,23710,2,0,B|191:278|199:302|199:302|195:326|177:343,1,93.3333333333333
106,309,24010,1,0,0:0:0:0:
259,203,24210,1,0,0:0:0:0:
281,279,24310,1,8,0:0:0:0:
326,45,24610,2,0,P|337:93|345:53,1,93.3333333333333
406,45,24910,5,4,0:0:0:0:
473,188,25110,1,0,0:0:0:0:
497,263,25210,2,0,L|482:355,1,93.3333333333333
404,344,25510,2,0,B|369:358|369:358|347:336|319:335,1,93.3333333333333,8|0,0:0|0:0,0:0:0:0:
244,361,25810,1,0,0:0:0:0:
30,254,26110,6,0,L|125:262,1,93.3333333333333
195,229,26410,1,0,0:0:0:0:
267,87,26610,1,0,0:0:0:0:
276,165,26710,2,0,L|266:276,1,93.3333333333333,8|0,0:0|0:0,0:0:0:0:
206,309,27010,1,0,0:0:0:0:
201,42,27210,1,0,0:0:0:0:
267,87,27310,6,0,P|309:104|368:80,1,93.3333333333333,4|0,0:0|0:0,0:0:0:0:
402,29,27610,2,0,B|412:51|430:64|430:64|429:139,1,93.3333333333333
374,168,27910,2,0,B|367:216|367:216|387:270,1,93.3333333333333,8|0,0:0|0:0,0:0:0:0:
442,206,28210,1,0,0:0:0:0:
252,348,28510,6,0,L|143:340,1,93.3333333333333
110,278,28810,1,0,0:0:0:0:
243,147,29010,1,0,0:0:0:0:
301,200,29110,2,0,P|310:259|289:308,1,93.3333333333333,8|0,0:0|0:0,0:0:0:0:
357,235,29410,2,0,L|462:230,1,93.3333333333333
507,285,29710,1,4,0:0:0:0:
370,158,29910,5,0,0:0:0:0:
320,95,30010,2,0,P|306:63|322:-3,1,93.3333333333333
260,63,30310,2,0,L|151:71,1,93.3333333333333,8|0,0:0|0:0,0:0:0:0:
106,18,30610,1,0,0:0:0:0:
246,240,30910,2,0,L|228:360,1,93.3333333333333
159,364,31210,2,0,P|103:324|106:268,1,93.3333333333333
158,232,31510,5,8,0:0:0:0:
175,233,31585,1,0,0:0:0:0:
192,234,31660,1,0,0:0:0:0:
210,235,31735,1,0,0:0:0:0:
227,236,31810,1,0,0:0:0:0:
245,238,31885,1,0,0:0:0:0:
262,239,31960,1,0,0:0:0:0:
280,240,32035,1,0,0:0:0:0:
297,241,32110,5,4,0:0:0:0:
464,72,32410,2,0,B|425:61|425:61|398:75|373:72,1,93.3333333333333
322,12,32710,1,8,0:0:0:0:
432,162,32910,5,0,0:0:0:0:
396,233,33010,2,0,L|405:339,1,93.3333333333333
344,378,33310,2,0,P|290:352|229:371,1,93.3333333333333
181,374,33610,2,0,P|134:374|95:351,1,93.3333333333333
154,299,33910,1,8,0:0:0:0:
36,92,34210,2,0,P|44:55|71:84,1,93.3333333333333
69,161,34510,6,0,B|59:206|59:206|70:258,1,93.3333333333333,4|0,0:0|0:0,0:0:0:0:
136,211,34810,2,0,B|146:166|146:166|135:114,1,93.3333333333333
139,40,35110,2,0,P|179:56|234:35,1,93.3333333333333,8|0,0:0|0:0,0:0:0:0:
300,17,35410,1,0,0:0:0:0:
221,186,35610,5,0,0:0:0:0:
186,257,35710,2,0,P|191:307|157:364,1,93.3333333333333
243,307,36010,2,0,L|348:303,1,93.3333333333333
415,300,36310,1,8,0:0:0:0:
484,126,36510,1,0,0:0:0:0:
422,175,36610,2,0,L|293:165,1,93.3333333333333
274,110,36910,6,0,P|210:118|193:166,1,93.3333333333333,4|0,0:0|0:0,0:0:0:0:
200,217,37210,2,0,B|213:260|213:260|199:277|191:321,1,93.3333333333333
140,362,37510,2,0,P|92:338|86:284,1,93.3333333333333,8|0,0:0|0:0,0:0:0:0:
120,233,37810,1,0,0:0:0:0:
281,327,38110,6,0,L|375:338,1,93.3333333333333
445,304,38410,1,0,0:0:0:0:
476,148,38610,5,0,0:0:0:0:
405,181,38710,2,0,L|312:170,1,93.3333333333333,8|0,0:0|0:0,0:0:0:0:
250,120,39010,2,0,L|157:130,1,93.3333333333333
89,81,39310,6,0,P|137:158|75:185,1,167.999994873047,2|0,0:0|0:0,0:0:0:0:
88,186,39610,1,0,0:0:0:0:
100,204,39910,6,0,P|62:245|123:295,1,140.000005340576,2|0,0:0|0:0,0:0:0:0:
109,297,40210,1,0,0:0:0:0:
122,307,40510,6,0,L|235:295,1,111.999996582031,2|0,0:0|0:0,0:0:0:0:
233,295,40810,1,0,0:0:0:0:
201,86,41110,5,2,0:0:0:0:
188,97,41185,1,0,0:0:0:0:
181,113,41260,1,0,0:0:0:0:
183,130,41335,1,0,0:0:0:0:
193,145,41410,1,0,0:0:0:0:
208,153,41485,1,0,0:0:0:0:
225,154,41560,1,0,0:0:0:0:
241,146,41635,1,0,0:0:0:0:
251,132,41710,6,0,L|84:117,1,140,4|0,0:0|0:0,0:0:0:0:
295,221,42310,2,0,L|462:205,1,140,8|0,0:0|0:0,0:0:0:0:
343,18,42910,2,0,P|327:64|335:115,1,93.3333333333333
392,143,43210,1,0,0:0:0:0:
247,349,43510,6,0,B|301:339|301:339|357:345,1,111.999996582031,8|0,0:0|0:0,0:0:0:0:
423,293,43810,2,0,B|369:303|369:303|312:296,1,111.999996582031
238,266,44110,6,0,P|191:278|173:360,1,140,4|0,0:0|0:0,0:0:0:0:
222,154,44710,1,8,0:0:0:0:
430,199,45010,2,0,L|421:308,1,93.3333333333333
387,352,45310,1,0,0:0:0:0:
353,168,45510,1,0,0:0:0:0:
361,98,45610,6,0,B|321:108|321:108|279:98|279:98|241:111|241:111|199:98,1,167.999994873047,0|8,0:0|0:0,0:0:0:0:
439,20,46210,2,0,P|437:69|496:50,1,111.999996582031
429,105,46510,6,0,B|436:162|436:162|426:191|426:191|442:213|444:252,1,140,4|0,0:0|0:0,0:0:0:0:
267,354,47110,2,0,P|294:278|371:254,1,140,8|0,0:0|0:0,0:0:0:0:
149,333,47710,2,0,L|55:338,1,93.3333333333333
0,295,48010,1,0,0:0:0:0:
247,245,48310,6,0,B|280:252|280:252|366:237,1,111.999996582031,8|0,0:0|0:0,0:0:0:0:
421,184,48610,2,0,P|376:197|394:155,1,111.999996582031
385,144,48910,6,0,L|245:153,1,140,4|0,0:0|0:0,0:0:0:0:
416,32,49510,1,8,0:0:0:0:
212,84,49810,2,0,L|105:72,1,93.3333333333333
54,101,50110,2,0,P|73:147|50:212,1,93.3333333333333
63,258,50410,1,0,0:0:0:0:
253,345,50710,5,8,0:0:0:0:
259,328,50785,1,0,0:0:0:0:
263,311,50860,1,0,0:0:0:0:
264,294,50935,1,0,0:0:0:0:
262,277,51010,1,0,0:0:0:0:
257,260,51085,1,0,0:0:0:0:
249,244,51160,1,0,0:0:0:0:
238,231,51235,1,0,0:0:0:0:
225,219,51310,6,0,B|153:225|153:225|127:215|127:215|88:223,1,140,4|0,0:0|0:0,0:0:0:0:
273,324,51910,2,0,B|345:330|345:330|371:320|371:320|409:328,1,140,8|0,0:0|0:0,0:0:0:0:
346,128,52510,2,0,B|337:158|337:158|338:224,1,93.3333333333333
398,254,52810,1,0,0:0:0:0:
277,32,53110,6,0,B|287:84|287:84|268:106|268:138,1,111.999996582031,8|0,0:0|0:0,0:0:0:0:
193,175,53410,2,0,B|183:227|183:227|202:249|201:281,1,111.999996582031
250,344,53710,6,0,P|191:315|116:360,1,140,4|0,0:0|0:0,0:0:0:0:
4,172,54310,1,8,0:0:0:0:
138,10,54610,2,0,B|136:52|136:52|155:112,1,93.3333333333333
136,169,54910,1,0,0:0:0:0:
210,340,55110,1,0,0:0:0:0:
247,280,55210,6,0,P|311:282|277:353,1,167.999994873047,0|8,0:0|0:0,0:0:0:0:
220,125,55810,2,0,L|338:134,1,111.999996582031
365,204,56110,6,0,B|437:201|437:201|490:169|477:123,1,140,4|0,0:0|0:0,0:0:0:0:
277,208,56710,2,0,B|275:242|300:269|300:269|279:346,1,140,8|0,0:0|0:0,0:0:0:0:
57,257,57310,2,0,L|150:262,1,93.3333333333333
205,218,57610,1,0,0:0:0:0:
60,65,57910,2,0,P|47:109|-9:98,1,93.3333333333333,8|0,0:0|0:0,0:0:0:0:
57,46,58210,2,0,B|99:56|99:56|177:45,1,93.3333333333333
229,26,58510,6,0,B|261:42|301:34|301:34|317:18|317:18|357:10|389:26,1,167.999994873047,2|0,0:0|0:0,0:0:0:0:
386,25,58810,1,0,0:0:0:0:
193,110,59110,6,0,B|209:134|240:145|240:145|258:140|258:140|290:151|306:175,1,140.000005340576,2|0,0:0|0:0,0:0:0:0:
306,175,59410,1,0,0:0:0:0:
139,168,59710,6,0,B|140:191|158:211|158:211|172:215|172:215|190:235|191:259,1,111.999996582031,2|0,0:0|0:0,0:0:0:0:
191,259,60010,1,0,0:0:0:0:
64,199,60310,6,0,P|53:231|76:291,1,93.3333333333333,2|0,0:0|0:0,0:0:0:0:
56,354,60610,2,0,P|117:341|160:367,1,93.3333333333333
210,330,60910,5,2,0:0:0:0:
256,192,61010,12,0,63310,0:0:0:0:
