osu file format v14

[General]
AudioFilename: e4de845cc3.mp3
AudioLeadIn: 0
PreviewTime: 910
Countdown: 0
SampleSet: Soft
StackLeniency: 0.7
Mode: 0
LetterboxInBreaks: 0
WidescreenStoryboard: 0

[Editor]
Bookmarks: 910,17711,20111,22512,39313,41714,60916
DistanceSpacing: 1.8
BeatDivisor: 6
GridSize: 8
TimelineZoom: 3.299999

[Metadata]
Title:Transcendence
TitleUnicode:Transcendence
Artist:Cerulean Veyron
ArtistUnicode:Cerulean Veyron
Creator:Nerova Riuz GX
Version:LEVEL 3
Source:
Tags:The Promise Gray electronic dubstep car bugatti
BeatmapID:847368
BeatmapSetID:388441

[Difficulty]
HPDrainRate:5
CircleSize:4
OverallDifficulty:6
ApproachRate:7.5
SliderMultiplier:2.5
SliderTickRate:1

[Events]
//Background and Video events
0,0,"veyron.jpg",0,0
//Break Periods
2,20311,21685
//Storyboard Layer 0 (Background)
//Storyboard Layer 1 (Fail)
//Storyboard Layer 2 (Pass)
//Storyboard Layer 3 (Foreground)
//Storyboard Sound Samples

[TimingPoints]
910,600,4,2,0,80,1,0
61010,-100,4,2,0,30,0,0

[Colours]
Combo1 : 240,181,0
Combo2 : 43,143,219
Combo3 : 181,74,94
Combo4 : 68,198,149

[HitObjects]
82,255,309,5,0,0:0:0:0:
97,250,384,1,0,0:0:0:0:
112,246,459,1,0,0:0:0:0:
127,242,534,1,0,0:0:0:0:
142,238,609,2,0,L|184:245,3,31.25,0|0|0|0,0:0|0:0|0:0|0:0,0:0:0:0:
217,258,910,6,0,L|350:247,1,125,4|0,0:0|0:0,0:0:0:0:
497,169,1510,2,0,L|372:158,1,125,8|0,0:0|0:0,0:0:0:0:
264,20,2110,2,0,P|274:70|254:121,1,83.3333333333333,0|0,0:0|0:0,0:0:0:0:
266,101,2410,1,0,0:0:0:0:
147,230,2710,1,8,0:0:0:0:
11,83,3010,2,0,L|99:81,1,83.3333333333333,0|0,0:0|0:0,0:0:0:0:
137,41,3310,6,0,P|130:109|168:156,1,125,4|0,0:0|0:0,0:0:0:0:
336,143,3910,2,0,P|343:75|305:28,1,125,8|0,0:0|0:0,0:0:0:0:
230,187,4510,2,0,P|251:226|244:288,1,83.3333333333333,0|0,0:0|0:0,0:0:0:0:
241,321,4810,2,0,B|262:315|279:327|279:327|298:316|298:316|324:335|359:325,1,125,0|8,0:0|0:0,0:0:0:0:
484,170,5410,2,0,L|480:263,1,83.3333333333333,0|0,0:0|0:0,0:0:0:0:
427,277,5710,6,0,P|379:238|376:177,1,125,4|0,0:0|0:0,0:0:0:0:
483,38,6310,2,0,P|427:65|367:52,1,125,8|0,0:0|0:0,0:0:0:0:
203,112,6910,2,0,L|300:122,1,83.3333333333333,0|0,0:0|0:0,0:0:0:0:
285,120,7210,1,0,0:0:0:0:
147,13,7510,1,8,0:0:0:0:
73,198,7810,2,0,L|80:295,1,83.3333333333333,0|0,0:0|0:0,0:0:0:0:
121,314,8110,6,0,P|166:269|154:197,1,125,4|0,0:0|0:0,0:0:0:0:
6,133,8710,2,0,B|64:149|64:149|136:138,1,125,8|0,0:0|0:0,0:0:0:0:
272,40,9310,2,0,L|188:35,1,83.3333333333333,0|0,0:0|0:0,0:0:0:0:
188,35,9610,1,0,0:0:0:0:
261,221,9910,5,8,0:0:0:0:
277,224,9985,1,0,0:0:0:0:
292,226,10060,1,0,0:0:0:0:
308,228,10135,1,0,0:0:0:0:
323,230,10210,2,0,L|371:224,3,31.25
396,235,10510,6,0,P|400:179|350:122,1,125,4|0,0:0|0:0,0:0:0:0:
354,302,11110,2,0,B|397:313|397:313|496:307,1,125,8|0,0:0|0:0,0:0:0:0:
322,229,11710,2,0,L|235:232,1,83.3333333333333,0|0,0:0|0:0,0:0:0:0:
238,231,12010,1,0,0:0:0:0:
79,157,12310,1,8,0:0:0:0:
272,106,12610,2,0,L|363:107,1,83.3333333333333,0|0,0:0|0:0,0:0:0:0:
412,96,12910,6,0,P|435:136|525:127,1,125,4|0,0:0|0:0,0:0:0:0:
384,17,13510,2,0,B|323:28|323:28|260:17,1,125,8|0,0:0|0:0,0:0:0:0:
90,58,14110,2,0,P|140:73|162:115,1,83.3333333333333,0|0,0:0|0:0,0:0:0:0:
153,154,14410,2,0,B|145:181|150:205|150:205|161:216|161:216|170:244|159:272,1,125,0|8,0:0|0:0,0:0:0:0:
254,96,15010,2,0,L|339:109,1,83.3333333333333,0|0,0:0|0:0,0:0:0:0:
391,88,15310,6,0,B|388:142|388:142|415:164|416:204,1,125,4|0,0:0|0:0,0:0:0:0:
294,329,15910,2,0,B|312:293|300:260|300:260|329:215,1,125,8|0,0:0|0:0,0:0:0:0:
482,300,16510,2,0,L|394:304,1,83.3333333333333,0|0,0:0|0:0,0:0:0:0:
398,303,16810,1,0,0:0:0:0:
224,293,17110,1,8,0:0:0:0:
254,96,17410,2,0,L|164:89,1,83.3333333333333,0|0,0:0|0:0,0:0:0:0:
130,131,17710,6,0,L|46:137,1,83.3333333333333,2|0,0:0|0:0,0:0:0:0:
46,137,18010,1,0,0:0:0:0:
207,206,18310,6,0,L|290:212,1,83.3333333333333,2|0,0:0|0:0,0:0:0:0:
290,212,18610,1,0,0:0:0:0:
114,278,18910,6,0,L|30:284,1,83.3333333333333,2|0,0:0|0:0,0:0:0:0:
31,284,19210,1,0,0:0:0:0:
217,355,19510,6,0,P|283:342|340:370,2,125,2|0|2,0:0|0:0|0:0,0:0:0:0:
476,77,22510,5,4,0:0:0:0:
317,151,22810,2,0,L|214:143,1,83.3333333333333,0|0,0:0|0:0,0:0:0:0:
233,144,23110,1,8,0:0:0:0:
373,39,23410,1,0,0:0:0:0:
470,184,23710,2,0,L|467:273,1,83.3333333333333,0|0,0:0|0:0,0:0:0:0:
490,320,24010,2,0,P|453:350|397:352,1,83.3333333333333,0|0,0:0|0:0,0:0:0:0:
418,355,24310,1,8,0:0:0:0:
250,307,24610,1,0,0:0:0:0:
82,358,24910,5,4,0:0:0:0:
11,197,25210,2,0,L|93:209,1,83.3333333333333,0|0,0:0|0:0,0:0:0:0:
137,171,25510,2,0,L|219:158,1,83.3333333333333,8|0,0:0|0:0,0:0:0:0:
219,158,25810,1,0,0:0:0:0:
350,273,26110,2,0,P|366:228|355:189,1,83.3333333333333,0|0,0:0|0:0,0:0:0:0:
367,137,26410,2,0,P|351:92|362:53,1,83.3333333333333,0|0,0:0|0:0,0:0:0:0:
358,58,26710,1,8,0:0:0:0:
483,181,27010,1,0,0:0:0:0:
436,349,27310,5,4,0:0:0:0:
264,316,27610,2,0,L|173:326,1,83.3333333333333,0|0,0:0|0:0,0:0:0:0:
129,352,27910,2,0,P|80:335|54:295,1,83.3333333333333,8|0,0:0|0:0,0:0:0:0:
60,311,28210,1,0,0:0:0:0:
173,178,28510,2,0,L|264:188,1,83.3333333333333,0|0,0:0|0:0,0:0:0:0:
308,214,28810,2,0,P|357:197|383:157,1,83.3333333333333,0|0,0:0|0:0,0:0:0:0:
376,174,29110,1,8,0:0:0:0:
219,95,29410,1,0,0:0:0:0:
84,205,29710,5,4,0:0:0:0:
82,30,30010,2,0,P|130:47|173:33,1,83.3333333333333,0|0,0:0|0:0,0:0:0:0:
214,17,30310,2,0,L|300:30,1,83.3333333333333,8|0,0:0|0:0,0:0:0:0:
296,30,30610,1,0,0:0:0:0:
456,100,30910,2,0,L|465:194,1,83.3333333333333,0|0,0:0|0:0,0:0:0:0:
491,234,31210,2,0,L|482:328,1,83.3333333333333,0|0,0:0|0:0,0:0:0:0:
459,370,31510,6,0,L|424:358,7,31.25,8|0|0|0|0|0|0|0,0:0|0:0|0:0|0:0|0:0|0:0|0:0|0:0,0:0:0:0:
386,352,32110,5,4,0:0:0:0:
214,316,32410,2,0,L|131:324,1,83.3333333333333,0|0,0:0|0:0,0:0:0:0:
131,324,32710,1,8,0:0:0:0:
12,196,33010,1,0,0:0:0:0:
104,47,33310,2,0,P|155:57|200:39,1,83.3333333333333,0|0,0:0|0:0,0:0:0:0:
233,79,33610,2,0,L|219:179,1,83.3333333333333,0|0,0:0|0:0,0:0:0:0:
221,161,33910,1,8,0:0:0:0:
239,334,34210,1,0,0:0:0:0:
413,330,34510,5,4,0:0:0:0:
458,160,34810,2,0,P|465:110|436:71,1,83.3333333333333,0|0,0:0|0:0,0:0:0:0:
392,73,35110,2,0,P|342:80|303:51,1,83.3333333333333,8|0,0:0|0:0,0:0:0:0:
314,64,35410,1,0,0:0:0:0:
146,14,35710,2,0,L|137:111,1,83.3333333333333,0|0,0:0|0:0,0:0:0:0:
108,147,36010,2,0,L|117:244,1,83.3333333333333,0|0,0:0|0:0,0:0:0:0:
115,229,36310,1,8,0:0:0:0:
222,368,36610,1,0,0:0:0:0:
257,196,36910,5,4,0:0:0:0:
342,348,37210,2,0,L|438:344,1,83.3333333333333,0|0,0:0|0:0,0:0:0:0:
482,354,37510,2,0,P|498:307|484:266,1,83.3333333333333,8|0,0:0|0:0,0:0:0:0:
489,275,37810,1,0,0:0:0:0:
365,152,38110,2,0,P|352:107|362:62,1,83.3333333333333,0|0,0:0|0:0,0:0:0:0:
393,25,38410,2,0,L|486:20,1,83.3333333333333,0|0,0:0|0:0,0:0:0:0:
476,21,38710,1,8,0:0:0:0:
505,193,39010,2,0,L|418:209,1,83.3333333333333,0|0,0:0|0:0,0:0:0:0:
377,244,39310,6,0,L|255:233,1,83.3333333333333,2|0,0:0|0:0,0:0:0:0:
294,236,39610,1,0,0:0:0:0:
129,176,39910,6,0,L|211:168,1,83.3333333333333,2|0,0:0|0:0,0:0:0:0:
212,169,40210,1,0,0:0:0:0:
392,119,40510,6,0,L|309:111,1,83.3333333333333,2|0,0:0|0:0,0:0:0:0:
309,112,40810,1,0,0:0:0:0:
119,45,41110,5,2,0:0:0:0:
134,41,41185,1,0,0:0:0:0:
149,38,41260,1,0,0:0:0:0:
164,34,41335,1,0,0:0:0:0:
179,31,41410,2,0,L|227:38,3,31.25,0|0|0|0,0:0|0:0|0:0|0:0,0:0:0:0:
257,20,41710,6,0,P|312:35|383:9,1,125,4|0,0:0|0:0,0:0:0:0:
229,112,42310,2,0,L|241:253,1,125,8|0,0:0|0:0,0:0:0:0:
355,368,42910,2,0,L|363:281,1,83.3333333333333,0|0,0:0|0:0,0:0:0:0:
362,285,43210,1,0,0:0:0:0:
313,117,43510,1,8,0:0:0:0:
491,206,43810,2,0,L|480:114,1,83.3333333333333,0|0,0:0|0:0,0:0:0:0:
498,67,44110,6,0,P|430:95|363:60,1,125,4|0,0:0|0:0,0:0:0:0:
213,41,44710,2,0,L|58:66,1,125,8|0,0:0|0:0,0:0:0:0:
5,214,45310,2,0,L|97:222,1,83.3333333333333,0|0,0:0|0:0,0:0:0:0:
139,248,45610,2,0,P|175:215|261:231,1,125,0|8,0:0|0:0,0:0:0:0:
410,335,46210,2,0,L|318:327,1,83.3333333333333,0|0,0:0|0:0,0:0:0:0:
276,301,46510,6,0,P|240:334|154:318,1,125,4|0,0:0|0:0,0:0:0:0:
269,186,47110,2,0,B|312:201|312:201|417:191,1,125,8|0,0:0|0:0,0:0:0:0:
325,31,47710,2,0,L|321:117,1,83.3333333333333,0|0,0:0|0:0,0:0:0:0:
321,114,48010,1,0,0:0:0:0:
210,249,48310,1,8,0:0:0:0:
39,144,48610,2,0,L|35:60,1,83.3333333333333,0|0,0:0|0:0,0:0:0:0:
78,21,48910,6,0,P|119:39|144:136,1,125,4|0,0:0|0:0,0:0:0:0:
23,230,49510,2,0,L|154:221,1,125,8|0,0:0|0:0,0:0:0:0:
283,111,50110,2,0,L|282:202,1,83.3333333333333,0|0,0:0|0:0,0:0:0:0:
282,194,50410,1,0,0:0:0:0:
402,353,50710,5,8,0:0:0:0:
401,337,50785,1,0,0:0:0:0:
399,322,50860,1,0,0:0:0:0:
397,306,50935,1,0,0:0:0:0:
395,290,51010,2,0,L|391:250,3,31.25,0|0|0|0,0:0|0:0|0:0|0:0,0:0:0:0:
366,223,51310,6,0,P|340:155|361:112,1,125,4|0,0:0|0:0,0:0:0:0:
483,237,51910,2,0,L|474:390,1,125,8|0,0:0|0:0,0:0:0:0:
300,370,52510,2,0,L|288:276,1,83.3333333333333,0|0,0:0|0:0,0:0:0:0:
289,287,52810,1,0,0:0:0:0:
219,126,53110,1,8,0:0:0:0:
54,240,53410,2,0,L|146:244,1,83.3333333333333,0|0,0:0|0:0,0:0:0:0:
194,231,53710,6,0,P|212:289|188:345,1,125,4|0,0:0|0:0,0:0:0:0:
14,365,54310,2,0,P|-4:306|19:250,1,125,8|0,0:0|0:0,0:0:0:0:
165,154,54910,2,0,L|158:69,1,83.3333333333333,0|0,0:0|0:0,0:0:0:0:
121,25,55210,2,0,P|66:44|-5:26,1,125,0|8,0:0|0:0,0:0:0:0:
43,225,55810,2,0,L|127:230,1,83.3333333333333,0|0,0:0|0:0,0:0:0:0:
172,265,56110,6,0,P|243:241|311:276,1,125,4|0,0:0|0:0,0:0:0:0:
419,371,56710,2,0,B|392:325|392:325|397:238,1,125,8|0,0:0|0:0,0:0:0:0:
481,100,57310,2,0,L|488:184,1,83.3333333333333,0|0,0:0|0:0,0:0:0:0:
487,183,57610,1,0,0:0:0:0:
317,142,57910,1,8,0:0:0:0:
448,27,58210,1,0,0:0:0:0:
381,215,58510,6,0,L|293:227,1,83.3333333333333,2|0,0:0|0:0,0:0:0:0:
298,226,58810,1,0,0:0:0:0:
213,72,59110,6,0,L|267:142,1,83.3333333333333,2|0,0:0|0:0,0:0:0:0:
264,138,59410,1,0,0:0:0:0:
173,288,59710,6,0,L|207:206,1,83.3333333333333,2|0,0:0|0:0,0:0:0:0:
205,211,60010,1,0,0:0:0:0:
381,215,60310,6,0,P|401:264|383:337,2,125,2|0|2,0:0|0:0|0:0,0:0:0:0:
256,192,61010,12,0,63310,0:0:0:0:
