osu file format v14

[General]
AudioFilename: e4de845cc3.mp3
AudioLeadIn: 0
PreviewTime: 910
Countdown: 0
SampleSet: Soft
StackLeniency: 0.7
Mode: 0
LetterboxInBreaks: 0
WidescreenStoryboard: 0

[Editor]
Bookmarks: 910,17711,20111,22512,39313,41714,60916
DistanceSpacing: 1.6
BeatDivisor: 4
GridSize: 8
TimelineZoom: 1

[Metadata]
Title:Transcendence
TitleUnicode:Transcendence
Artist:Cerulean Veyron
ArtistUnicode:Cerulean Veyron
Creator:Nerova Riuz GX
Version:LEVEL 2
Source:
Tags:The Promise Gray electronic dubstep car bugatti
BeatmapID:847367
BeatmapSetID:388441

[Difficulty]
HPDrainRate:4
CircleSize:3.7
OverallDifficulty:4.5
ApproachRate:6
SliderMultiplier:2.2
SliderTickRate:1

[Events]
//Background and Video events
0,0,"veyron.jpg",0,0
//Break Periods
2,20310,21460
//Storyboard Layer 0 (Background)
//Storyboard Layer 1 (Fail)
//Storyboard Layer 2 (Pass)
//Storyboard Layer 3 (Foreground)
//Storyboard Sound Samples

[TimingPoints]
910,600,4,2,0,80,1,0

[Colours]
Combo1 : 240,181,0
Combo2 : 43,143,219
Combo3 : 181,74,94
Combo4 : 68,198,149

[HitObjects]
180,49,310,6,0,L|208:56,7,27.5
242,44,910,6,0,P|296:57|357:27,1,110,4|0,0:0|0:0,0:0:0:0:
223,132,1510,2,0,L|228:250,1,110,8|0,0:0|0:0,0:0:0:0:
350,335,2110,2,0,P|348:288|302:238,1,110
173,315,2710,1,8,0:0:0:0:
20,229,3010,2,0,L|34:158,1,73.3333333333333
17,108,3310,6,0,B|63:126|63:126|144:118,1,110,4|0,0:0|0:0,0:0:0:0:
277,111,3910,2,0,B|385:94,1,110,8|0,0:0|0:0,0:0:0:0:
260,3,4510,1,0,0:0:0:0:
220,174,4810,2,0,P|182:217|285:212,1,220,0|0,0:0|0:0,0:0:0:0:
438,249,5710,6,0,B|456:322|456:322|442:374,1,110,4|0,0:0|0:0,0:0:0:0:
362,226,6310,2,0,P|395:182|447:170,1,110,8|0,0:0|0:0,0:0:0:0:
372,304,6910,2,0,L|257:308,1,110,0|0,0:0|0:0,0:0:0:0:
304,159,7510,1,8,0:0:0:0:
174,277,7810,2,0,L|89:285,1,73.3333333333333
53,267,8110,6,0,P|20:217|30:164,1,110,4|0,0:0|0:0,0:0:0:0:
156,87,8710,2,0,P|189:137|179:190,1,110,8|0,0:0|0:0,0:0:0:0:
40,79,9310,1,0,0:0:0:0:
180,15,9610,1,0,0:0:0:0:
350,60,9910,6,0,L|385:64,7,27.5,8|0|0|0|0|0|0|0,0:0|0:0|0:0|0:0|0:0|0:0|0:0|0:0,0:0:0:0:
411,46,10510,6,0,L|423:162,1,110,4|0,0:0|0:0,0:0:0:0:
328,278,11110,2,0,P|321:224|356:167,1,110,8|0,0:0|0:0,0:0:0:0:
499,172,11710,2,0,L|487:288,1,110,0|0,0:0|0:0,0:0:0:0:
357,363,12310,1,8,0:0:0:0:
194,296,12610,2,0,L|108:305,1,73.3333333333333
80,271,12910,6,0,P|85:209|137:171,1,110,4|0,0:0|0:0,0:0:0:0:
268,145,13510,2,0,B|277:89|277:89|259:28,1,110,8|0,0:0|0:0,0:0:0:0:
112,76,14110,1,0,0:0:0:0:
222,213,14410,2,0,B|263:236|315:231|315:231|335:208|335:208|380:201|425:221,1,220,0|0,0:0|0:0,0:0:0:0:
502,354,15310,6,0,L|379:366,1,110,4|0,0:0|0:0,0:0:0:0:
245,319,15910,2,0,P|187:335|152:377,1,110,8|0,0:0|0:0,0:0:0:0:
230,236,16510,2,0,L|227:113,1,110,0|0,0:0|0:0,0:0:0:0:
102,36,17110,1,8,0:0:0:0:
137,208,17410,1,0,0:0:0:0:
256,192,17710,12,2,20110,0:0:0:0:
255,42,22510,6,0,B|242:91|242:91|251:153,1,110,4|0,0:0|0:0,0:0:0:0:
321,286,23110,2,0,B|334:237|334:237|325:175,1,110,8|0,0:0|0:0,0:0:0:0:
164,106,23710,2,0,L|40:104,2,110,0|0|8,0:0|0:0|0:0,0:0:0:0:
457,13,24910,6,0,P|431:60|444:113,1,110,4|0,0:0|0:0,0:0:0:0:
494,258,25510,2,0,L|475:372,1,110,8|0,0:0|0:0,0:0:0:0:
366,257,26110,2,0,P|393:213|449:194,1,110
384,358,26710,1,8,0:0:0:0:
231,339,27010,1,0,0:0:0:0:
300,177,27310,6,0,L|166:186,1,110,4|0,0:0|0:0,0:0:0:0:
76,80,27910,2,0,L|210:89,1,110,8|0,0:0|0:0,0:0:0:0:
352,30,28510,2,0,P|390:48|463:31,2,110,0|0|8,0:0|0:0|0:0,0:0:0:0:
29,100,29710,6,0,L|39:219,1,110,4|0,0:0|0:0,0:0:0:0:
190,234,30310,2,0,P|163:187|94:163,1,110,8|0,0:0|0:0,0:0:0:0:
10,306,30910,1,0,0:0:0:0:
162,329,31210,1,0,0:0:0:0:
253,178,31510,6,0,L|291:184,7,27.5,8|0|0|0|0|0|0|0,0:0|0:0|0:0|0:0|0:0|0:0|0:0|0:0,0:0:0:0:
318,177,32110,6,0,P|335:240|314:292,1,110,4|0,0:0|0:0,0:0:0:0:
393,144,32710,2,0,L|504:152,1,110,8|0,0:0|0:0,0:0:0:0:
492,327,33310,2,0,L|381:335,1,110,0|0,0:0|0:0,0:0:0:0:
251,255,33910,1,8,0:0:0:0:
20,50,34510,6,0,L|139:56,1,110,4|0,0:0|0:0,0:0:0:0:
280,22,35110,2,0,P|284:78|248:132,1,110,8|0,0:0|0:0,0:0:0:0:
150,233,35710,2,0,P|146:177|182:123,1,110
342,175,36310,1,8,0:0:0:0:
222,272,36610,1,0,0:0:0:0:
48,247,36910,6,0,P|65:195|49:143,1,110,4|0,0:0|0:0,0:0:0:0:
170,47,37510,2,0,L|280:42,1,110,8|0,0:0|0:0,0:0:0:0:
388,180,38110,2,0,L|278:175,1,110,0|0,0:0|0:0,0:0:0:0:
386,36,38710,1,8,0:0:0:0:
494,144,39010,1,0,0:0:0:0:
256,192,39310,12,2,41110,0:0:0:0:
312,31,41710,6,0,B|321:69|321:69|314:153,1,110,4|0,0:0|0:0,0:0:0:0:
188,226,42310,2,0,P|192:177|248:132,1,110,8|0,0:0|0:0,0:0:0:0:
374,198,42910,2,0,L|485:189,1,110,0|0,0:0|0:0,0:0:0:0:
369,85,43510,1,8,0:0:0:0:
291,244,43810,2,0,L|302:316,1,73.3333333333333,0|0,0:0|0:0,0:0:0:0:
325,362,44110,6,0,P|276:338|222:342,1,110,4|0,0:0|0:0,0:0:0:0:
71,373,44710,2,0,P|35:332|19:269,1,110,8|0,0:0|0:0,0:0:0:0:
70,134,45310,1,0,0:0:0:0:
204,248,45610,2,0,P|163:318|133:220,1,220,0|0,0:0|0:0,0:0:0:0:
257,167,46510,6,0,B|326:177|326:177|365:169,1,110,4|0,0:0|0:0,0:0:0:0:
506,106,47110,2,0,B|462:160|462:160|449:198,1,110,8|0,0:0|0:0,0:0:0:0:
434,352,47710,2,0,B|408:287|408:287|381:256,1,110,0|0,0:0|0:0,0:0:0:0:
228,245,48310,1,8,0:0:0:0:
96,362,48610,2,0,L|93:272,1,73.3333333333333,0|0,0:0|0:0,0:0:0:0:
92,237,48910,6,0,P|116:188|105:135,1,110,4|0,0:0|0:0,0:0:0:0:
8,16,49510,2,0,B|61:27|61:27|120:16,1,110,8|0,0:0|0:0,0:0:0:0:
270,100,50110,1,0,0:0:0:0:
144,189,50410,1,0,0:0:0:0:
204,24,50710,6,0,L|237:20,7,27.5,8|0|0|0|0|0|0|0,0:0|0:0|0:0|0:0|0:0|0:0|0:0|0:0,0:0:0:0:
269,12,51310,6,0,P|323:26|383:9,1,110,4|0,0:0|0:0,0:0:0:0:
248,101,51910,2,0,L|255:225,1,110,8|0,0:0|0:0,0:0:0:0:
360,321,52510,2,0,B|360:264|360:264|330:216,1,110,0|0,0:0|0:0,0:0:0:0:
178,210,53110,1,8,0:0:0:0:
280,354,53410,2,0,L|360:348,1,73.3333333333333
403,356,53710,6,0,P|447:328|461:251,1,110,4|0,0:0|0:0,0:0:0:0:
348,174,54310,2,0,B|348:234|348:234|386:279,1,110,8|0,0:0|0:0,0:0:0:0:
450,134,54910,1,0,0:0:0:0:
275,106,55210,2,0,P|197:117|272:182,1,220,0|0,0:0|0:0,0:0:0:0:
339,53,56110,6,0,P|293:22|240:10,1,110,4|0,0:0|0:0,0:0:0:0:
114,99,56710,2,0,L|104:214,1,110,8|0,0:0|0:0,0:0:0:0:
250,256,57310,2,0,P|255:206|228:150,1,110,0|0,0:0|0:0,0:0:0:0:
119,290,57910,1,8,0:0:0:0:
287,339,58210,1,0,0:0:0:0:
256,192,58510,12,2,60910,0:0:0:0:
