osu file format v14

[General]
AudioFilename: e4de845cc3.mp3
AudioLeadIn: 0
PreviewTime: 910
Countdown: 0
SampleSet: Soft
StackLeniency: 0.7
Mode: 0
LetterboxInBreaks: 0
WidescreenStoryboard: 0

[Editor]
Bookmarks: 910,17711,20111,22512,39313,41714,60916
DistanceSpacing: 1.1
BeatDivisor: 6
GridSize: 8
TimelineZoom: 1

[Metadata]
Title:Transcendence
TitleUnicode:Transcendence
Artist:Cerulean Veyron
ArtistUnicode:Cerulean Veyron
Creator:Nerova Riuz GX
Version:LEVEL 1
Source:
Tags:The Promise Gray electronic dubstep car bugatti
BeatmapID:847369
BeatmapSetID:388441

[Difficulty]
HPDrainRate:3
CircleSize:3.5
OverallDifficulty:3
ApproachRate:4.5
SliderMultiplier:1.8
SliderTickRate:1

[Events]
//Background and Video events
0,0,"veyron.jpg",0,0
//Break Periods
2,20310,21250
2,39313,40450
//Storyboard Layer 0 (Background)
//Storyboard Layer 1 (Fail)
//Storyboard Layer 2 (Pass)
//Storyboard Layer 3 (Foreground)
//Storyboard Sound Samples

[TimingPoints]
910,600,4,2,0,80,1,0

[Colours]
Combo1 : 240,181,0
Combo2 : 43,143,219
Combo3 : 181,74,94
Combo4 : 68,198,149

[HitObjects]
151,55,910,6,0,P|220:84|316:35,1,180,4|8,0:0|0:0,0:0:0:0:
405,13,1810,1,0,0:0:0:0:
490,63,2110,2,0,L|483:158,1,89.9999999999999,0|0,0:0|0:0,0:0:0:0:
391,190,2710,2,0,L|398:285,1,89.9999999999999,8|0,0:0|0:0,0:0:0:0:
460,355,3310,6,0,P|411:325|286:355,1,180,4|8,0:0|0:0,0:0:0:0:
200,372,4210,2,0,L|100:355,1,89.9999999999999,0|0,0:0|0:0,0:0:0:0:
34,294,4810,2,0,P|12:210|68:144,1,180,0|0,0:0|0:0,0:0:0:0:
150,199,5710,6,0,B|214:209|214:209|252:199|252:199|327:209,1,180,4|8,0:0|0:0,0:0:0:0:
425,194,6610,1,0,0:0:0:0:
483,114,6910,2,0,P|483:64|447:22,1,89.9999999999999,0|0,0:0|0:0,0:0:0:0:
362,36,7510,2,0,L|269:48,1,89.9999999999999,8|0,0:0|0:0,0:0:0:0:
174,27,8110,6,0,P|244:78|241:165,1,180,4|8,0:0|0:0,0:0:0:0:
220,261,9010,1,0,0:0:0:0:
268,347,9310,2,0,L|372:355,2,89.9999999999999,0|0|8,0:0|0:0|0:0,0:0:0:0:
70,353,10510,6,0,B|69:328|78:305|78:305|66:282|66:282|97:257|98:209|66:175,1,180,4|8,0:0|0:0,0:0:0:0:
42,94,11410,1,0,0:0:0:0:
110,22,11710,2,0,L|203:34,1,90
257,113,12310,2,0,L|350:101,1,90,8|0,0:0|0:0,0:0:0:0:
418,33,12910,6,0,P|477:51|442:154,1,180,4|8,0:0|0:0,0:0:0:0:
369,193,13810,2,0,P|363:237|372:280,1,90,0|0,0:0|0:0,0:0:0:0:
454,337,14410,2,0,L|264:324,1,180,0|0,0:0|0:0,0:0:0:0:
195,264,15310,6,0,B|152:291|111:286|111:286|92:269|92:269|50:288|14:265,1,180,4|8,0:0|0:0,0:0:0:0:
16,173,16210,1,0,0:0:0:0:
40,77,16510,2,0,B|83:64|83:64|136:71,1,90,0|0,0:0|0:0,0:0:0:0:
223,94,17110,2,0,B|236:137|236:137|229:190,1,90,8|0,0:0|0:0,0:0:0:0:
256,192,17710,12,2,20110,0:0:0:0:
405,168,22510,6,0,P|470:133|459:22,1,180,4|8,0:0|0:0,0:0:0:0:
371,31,23410,1,0,0:0:0:0:
307,106,23710,2,0,L|304:202,2,90,0|0|8,0:0|0:0|0:0,0:0:0:0:
130,15,24910,6,0,B|143:48|140:85|140:85|116:115|116:115|105:151|117:183,1,180,4|8,0:0|0:0,0:0:0:0:
82,276,25810,1,0,0:0:0:0:
139,356,26110,2,0,L|235:348,1,90,0|0,0:0|0:0,0:0:0:0:
326,366,26710,2,0,P|363:353|393:302,1,90,8|0,0:0|0:0,0:0:0:0:
346,223,27310,6,0,P|355:141|450:110,1,180,4|8,0:0|0:0,0:0:0:0:
498,184,28210,1,0,0:0:0:0:
473,279,28510,2,0,L|489:373,2,90,0|0|8,0:0|0:0|0:0,0:0:0:0:
308,169,29710,6,0,P|245:186|126:167,1,180,4|8,0:0|0:0,0:0:0:0:
76,88,30610,1,0,0:0:0:0:
152,24,30910,2,0,L|255:26,1,90,0|0,0:0|0:0,0:0:0:0:
340,35,31510,1,8,0:0:0:0:
395,225,32110,6,0,P|398:293|298:340,1,180,4|8,0:0|0:0,0:0:0:0:
216,308,33010,1,0,0:0:0:0:
127,352,33310,2,0,L|19:360,2,90,0|0|8,0:0|0:0|0:0,0:0:0:0:
229,182,34510,6,0,B|206:119|239:66|239:66|199:21,1,180,4|8,0:0|0:0,0:0:0:0:
100,22,35410,1,0,0:0:0:0:
31,92,35710,2,0,P|20:136|30:180,1,90,0|0,0:0|0:0,0:0:0:0:
120,220,36310,2,0,P|130:263|120:307,1,90,8|0,0:0|0:0,0:0:0:0:
37,360,36910,6,0,B|82:353|82:353|121:364|121:364|161:355|161:355|213:364,1,180,4|8,0:0|0:0,0:0:0:0:
294,308,37810,1,0,0:0:0:0:
390,287,38110,2,0,P|424:302|484:293,2,90,0|0|8,0:0|0:0|0:0,0:0:0:0:
342,200,39010,1,0,0:0:0:0:
55,40,41710,6,0,P|48:124|123:164,1,180,4|8,0:0|0:0,0:0:0:0:
219,139,42610,1,0,0:0:0:0:
310,176,42910,2,0,L|408:184,1,90,0|0,0:0|0:0,0:0:0:0:
444,271,43510,2,0,L|354:278,1,90,8|0,0:0|0:0,0:0:0:0:
255,266,44110,6,0,P|203:332|96:317,1,180,4|8,0:0|0:0,0:0:0:0:
37,265,45010,2,0,L|48:166,1,90,0|0,0:0|0:0,0:0:0:0:
30,77,45610,2,0,B|68:70|101:87|101:87|121:75|121:75|159:100|201:86,1,180,0|0,0:0|0:0,0:0:0:0:
284,34,46510,6,0,P|385:26|437:89,1,180,4|8,0:0|0:0,0:0:0:0:
486,162,47410,1,0,0:0:0:0:
473,260,47710,2,0,L|460:354,1,90,0|0,0:0|0:0,0:0:0:0:
362,364,48310,2,0,L|349:274,1,90,8|0,0:0|0:0,0:0:0:0:
334,177,48910,6,0,P|281:214|187:160,1,180,4|8,0:0|0:0,0:0:0:0:
161,69,49810,1,0,0:0:0:0:
62,82,50110,2,0,B|27:111|27:111|15:154,2,90,0|0|8,0:0|0:0|0:0,0:0:0:0:
254,34,51310,6,0,B|290:49|290:49|320:34|361:55|388:32|388:32|422:51,1,180,4|8,0:0|0:0,0:0:0:0:
490,122,52210,1,0,0:0:0:0:
439,207,52510,2,0,L|451:307,1,90,0|0,0:0|0:0,0:0:0:0:
387,373,53110,2,0,P|345:359|294:373,1,90,8|0,0:0|0:0,0:0:0:0:
202,366,53710,6,0,P|130:359|108:245,1,180,4|8,0:0|0:0,0:0:0:0:
158,189,54610,2,0,L|257:198,1,90,0|0,0:0|0:0,0:0:0:0:
345,184,55210,2,0,P|407:128|366:31,1,180,0|0,0:0|0:0,0:0:0:0:
285,33,56110,6,0,P|216:62|120:13,1,180,4|8,0:0|0:0,0:0:0:0:
26,14,57010,1,0,0:0:0:0:
34,112,57310,2,0,L|41:207,1,89.9999999999999,0|0,0:0|0:0,0:0:0:0:
129,245,57910,2,0,L|122:340,1,89.9999999999999,8|0,0:0|0:0,0:0:0:0:
256,192,58510,12,2,60910,0:0:0:0:
