osu file format v14

[General]
AudioFilename: audio.ogg
AudioLeadIn: 0
PreviewTime: 123633
Countdown: 0
SampleSet: Soft
StackLeniency: 0.5
Mode: 0
LetterboxInBreaks: 0
WidescreenStoryboard: 1

[Editor]
Bookmarks: 727,15352,27352,39352,54352,78352,85852,97852,109852,124852,148852,160852,171352,183352,195352
DistanceSpacing: 1.4
BeatDivisor: 4
GridSize: 32
TimelineZoom: 1.5

[Metadata]
Title:Suisai Sekai
TitleUnicode:水彩世界
Artist:Cerise Bouquet
ArtistUnicode:スリーズブーケ
Creator:caps
Version:In Our Colors
Source:ラブライブ!蓮ノ空女学院スクールアイドルクラブ
Tags:full size ver. version Love Live! Hasunosora Jogakuin School Idol Club 103期 103rd Hasu no Sora Girls' High Link!Like!ラブライブ! virtual idols Link! Like! LoveLive! リンクラ linkura linklike Dream Believers 日野下花帆 Hinoshita Kaho 楡井希実 Nirei Nozomi 乙宗梢 Otomune Kozue 花宮初奈 Hanamiya Nina Niina ケリー Kelly 栗原暁 Kurihara Satoru Jazzin’park Jazzin'park 前田佑 Maeda Tasuku 門脇大輔 Kadowaki Daisuke japanese pop jpop j-pop video game watercolor world watercolour ceribu ceribou スリブ kozukaho kahokozu こずかほ かほこず stcapricorn
BeatmapID:4019767
BeatmapSetID:1943275

[Difficulty]
HPDrainRate:5
CircleSize:4
OverallDifficulty:8.4
ApproachRate:9
SliderMultiplier:1.6
SliderTickRate:1

[Events]
//Background and Video events
Video,-47,"mv.mp4"
0,0,"bg.jpg",0,0
//Break Periods
//Storyboard Layer 0 (Background)
//Storyboard Layer 1 (Fail)
//Storyboard Layer 2 (Pass)
//Storyboard Layer 3 (Foreground)
//Storyboard Layer 4 (Overlay)
//Storyboard Sound Samples

[TimingPoints]
-4148,375,4,2,1,40,1,0
727,-250,4,2,1,40,0,0
13195,-250,4,2,1,30,0,0
13477,-250,4,2,1,40,0,0
13570,-250,4,2,1,30,0,0
13852,-250,4,2,1,40,0,0
15352,375,4,2,1,60,1,0
15352,-125,4,2,1,60,0,0
22383,-125,4,2,99,5,0,0
22477,-125,4,2,1,60,0,0
22758,-125,4,2,99,5,0,0
22852,-125,4,2,1,60,0,0
27070,-125,4,2,2,60,0,0
27164,-125,4,2,3,60,0,0
27352,-100,4,2,1,70,0,0
31383,-100,4,2,1,5,0,0
31477,-100,4,2,1,70,0,0
33633,-100,4,2,99,5,0,0
33727,-100,4,2,1,70,0,0
34008,-100,4,2,99,5,0,0
34102,-100,4,2,1,70,0,0
39352,-100,4,2,6,60,0,0
39727,-166.666666666667,4,2,6,60,0,0
42633,-166.666666666667,4,2,99,5,0,0
42727,-166.666666666667,4,2,1,60,0,0
45352,-125,4,2,1,70,0,0
48539,-125,4,2,99,70,0,0
48633,-125,4,2,1,70,0,0
48820,-125,4,2,99,5,0,0
48914,-125,4,2,1,70,0,0
49289,-125,4,2,99,70,0,0
49383,-125,4,2,1,70,0,0
49570,-125,4,2,99,5,0,0
49664,-125,4,2,1,70,0,0
52289,-125,4,2,5,70,0,0
53977,-125,4,2,5,60,0,0
54352,375,4,2,5,80,1,1
54352,-83.3333333333333,4,2,5,80,0,1
65789,-83.3333333333333,4,2,2,80,0,1
65977,-83.3333333333333,4,2,3,80,0,1
66164,-83.3333333333333,4,2,4,80,0,1
66352,-83.3333333333333,4,2,5,80,0,1
69539,-83.3333333333333,4,2,99,80,0,1
69633,-83.3333333333333,4,2,5,80,0,1
69820,-83.3333333333333,4,2,99,5,0,1
69914,-83.3333333333333,4,2,5,80,0,1
70289,-83.3333333333333,4,2,99,80,0,1
70383,-83.3333333333333,4,2,5,80,0,1
70570,-83.3333333333333,4,2,99,5,0,1
70664,-83.3333333333333,4,2,5,80,0,1
71039,-83.3333333333333,4,2,99,80,0,1
71133,-83.3333333333333,4,2,5,80,0,1
71320,-83.3333333333333,4,2,99,5,0,1
71414,-83.3333333333333,4,2,5,80,0,1
78352,-166.666666666667,4,2,5,60,0,0
80601,-166.666666666667,4,2,1,60,0,0
81352,-166.666666666667,4,2,6,60,0,0
84352,-166.666666666667,4,2,6,30,0,0
85664,-166.666666666667,4,2,6,40,0,0
85852,375,4,2,6,40,1,0
85852,-250,4,2,6,40,0,0
97102,-250,4,2,6,60,0,0
97664,-250,4,2,3,60,0,0
97852,-100,4,2,1,70,0,0
102633,-100,4,2,99,5,0,0
102727,-100,4,2,1,70,0,0
109852,-100,4,2,6,60,0,0
110227,-166.666666666667,4,2,6,60,0,0
110414,-166.666666666667,4,2,1,60,0,0
110508,-166.666666666667,4,2,99,5,0,0
110602,-166.666666666667,4,2,1,60,0,0
110883,-166.666666666667,4,2,99,5,0,0
110977,-166.666666666667,4,2,1,60,0,0
113133,-166.666666666667,4,2,99,5,0,0
113227,-166.666666666667,4,2,1,60,0,0
115852,-125,4,2,1,70,0,0
119039,-125,4,2,99,70,0,0
119133,-125,4,2,1,70,0,0
119320,-125,4,2,99,5,0,0
119414,-125,4,2,1,70,0,0
119789,-125,4,2,99,70,0,0
119883,-125,4,2,1,70,0,0
120070,-125,4,2,99,5,0,0
120164,-125,4,2,1,70,0,0
124477,-125,4,2,1,60,0,0
124852,375,4,2,1,80,1,1
124852,-83.3333333333333,4,2,1,80,0,1
125227,-83.3333333333333,4,2,5,80,0,1
136289,-83.3333333333333,4,2,2,80,0,1
136477,-83.3333333333333,4,2,3,80,0,1
136664,-83.3333333333333,4,2,4,80,0,1
136852,-83.3333333333333,4,2,5,80,0,1
140039,-83.3333333333333,4,2,99,80,0,1
140133,-83.3333333333333,4,2,5,80,0,1
140320,-83.3333333333333,4,2,99,5,0,1
140414,-83.3333333333333,4,2,5,80,0,1
140789,-83.3333333333333,4,2,99,80,0,1
140883,-83.3333333333333,4,2,5,80,0,1
141070,-83.3333333333333,4,2,99,5,0,1
141164,-83.3333333333333,4,2,5,80,0,1
141539,-83.3333333333333,4,2,99,80,0,1
141633,-83.3333333333333,4,2,5,80,0,1
141820,-83.3333333333333,4,2,99,5,0,1
141914,-83.3333333333333,4,2,5,80,0,1
148852,-100,4,2,5,80,0,0
149227,-100,4,2,1,80,0,0
150539,-100,4,2,99,80,0,0
150633,-100,4,2,1,80,0,0
150820,-100,4,2,99,5,0,0
150914,-100,4,2,1,80,0,0
154477,-100,4,2,6,80,0,0
156539,-100,4,2,99,80,0,0
156633,-100,4,2,1,80,0,0
156820,-100,4,2,99,5,0,0
156914,-100,4,2,1,80,0,0
158602,-100,4,2,6,80,0,0
160148,-100,4,2,6,70,0,0
160477,-100,4,2,6,80,0,0
160523,-100,4,2,6,70,0,0
160852,-100,4,2,1,70,0,0
161414,-100,4,2,1,60,0,0
161602,-125,4,2,1,60,0,0
161883,-125,4,2,99,5,0,0
161977,-125,4,2,1,60,0,0
166289,-125,4,2,99,5,0,0
166383,-125,4,2,2,60,0,0
166570,-125,4,2,99,5,0,0
166664,-125,4,2,3,60,0,0
167133,-125,4,2,99,5,0,0
167227,-125,4,2,1,60,0,0
167508,-125,4,2,99,5,0,0
167602,-125,4,2,1,60,0,0
167883,-125,4,2,99,5,0,0
167977,-128.456875322881,4,2,1,60,0,0
169852,-128.456875322881,4,2,99,5,0,0
170977,-250,4,2,1,30,0,0
171352,375,4,2,1,40,1,0
171352,-166.666666666667,4,2,1,40,0,0
177352,-166.666666666667,4,2,1,50,0,0
180164,-166.666666666667,4,2,1,70,0,0
180539,-83.3333333333333,4,2,5,70,0,0
182789,-83.3333333333333,4,2,2,70,0,0
182977,-83.3333333333333,4,2,3,70,0,0
183164,-83.3333333333333,4,2,4,70,0,0
183352,-71.4285714285714,4,2,5,80,0,1
186539,-71.4285714285714,4,2,99,80,0,1
186633,-71.4285714285714,4,2,5,80,0,1
186820,-71.4285714285714,4,2,99,5,0,1
186914,-71.4285714285714,4,2,5,80,0,1
187289,-71.4285714285714,4,2,99,80,0,1
187383,-71.4285714285714,4,2,5,80,0,1
187570,-71.4285714285714,4,2,99,5,0,1
187664,-71.4285714285714,4,2,5,80,0,1
188039,-71.4285714285714,4,2,99,80,0,1
188133,-71.4285714285714,4,2,5,80,0,1
188320,-71.4285714285714,4,2,99,5,0,1
188414,-71.4285714285714,4,2,5,80,0,1
195352,-71.4285714285714,4,2,5,80,0,0
195727,-71.4285714285714,4,2,1,80,0,0
195914,-83.3333333333333,4,2,1,80,0,0
204352,-125,4,2,1,60,0,0
204633,-125,4,2,1,5,0,0
204727,-125,4,2,1,60,0,0
205383,-125,4,2,1,5,0,0
205477,-125,4,2,1,60,0,0
206977,-125,4,2,3,60,0,0
207164,-166.666666666667,4,2,1,50,0,0
211852,-166.666666666667,4,2,99,5,0,0

[Colours]
Combo1 : 255,159,159
Combo2 : 248,181,0
Combo3 : 188,133,250
Combo4 : 104,190,141

[HitObjects]
418,299,727,6,0,P|449:299|479:316,2,64,2|2|2,2:0|2:0|2:0,2:0:0:0:
352,369,1852,22,0,P|335:313|310:246,1,128,2|2,2:0|2:0,2:0:0:0:
354,175,2977,1,2,2:0:0:0:
419,273,3352,22,0,P|436:217|461:150,1,128,2|2,2:0|2:0,2:0:0:0:
512,82,4477,1,2,2:0:0:0:
354,175,4852,22,0,P|302:188|249:143,1,128,2|2,2:0|2:0,2:0:0:0:
270,67,5977,1,2,2:0:0:0:
84,51,6352,22,0,P|136:38|189:83,1,128,2|2,2:0|2:0,2:0:0:0:
152,157,7289,1,2,2:0:0:0:
152,157,7477,1,2,2:0:0:0:
102,236,7852,21,2,2:0:0:0:
210,325,8227,2,0,P|193:276|186:259,1,64,2|2,2:0|2:0,2:0:0:0:
377,67,9352,21,2,2:0:0:0:
269,156,9727,2,0,P|286:107|293:90,1,64,2|0,2:0|2:0,2:0:0:0:
382,47,10289,22,0,L|367:6,2,32,2|2|2,2:0|2:0|2:0,2:0:0:0:
476,86,10852,2,0,L|448:179,1,96,2|2,2:0|2:0,2:0:0:0:
380,243,11602,22,0,L|365:202,1,32,2|2,2:0|2:0,2:0:0:0:
471,283,11977,2,0,L|486:242,1,32,2|2,2:0|2:0,2:0:0:0:
393,338,12352,2,0,L|301:310,1,96,2|0,2:0|2:0,2:0:0:0:
214,349,13102,2,0,L|223:325,3,16,2|2|2|2,2:0|2:0|2:0|2:0,2:0:0:0:
133,281,13477,2,0,L|141:301,3,16,2|2|2|2,2:0|2:0|2:0|2:0,2:0:0:0:
64,351,13852,1,2,2:0:0:0:
64,351,15164,5,2,2:0:0:0:
189,245,15352,2,0,P|225:259|262:275,1,64,14|0,2:3|2:0,2:0:0:0:
339,341,15727,2,0,P|309:352|279:364,1,64,10|0,2:3|2:0,2:0:0:0:
461,259,16102,1,10,2:3:0:0:
461,259,16289,2,0,P|448:314|434:386,1,128,2|0,2:0|2:0,2:0:0:0:
359,236,16852,38,0,P|357:186|409:127,1,128,10|8,2:3|2:3,2:0:0:0:
476,24,17414,2,0,P|478:74|426:133,1,128,2|0,2:0|2:0,2:0:0:0:
387,48,17977,1,10,2:3:0:0:
387,48,18164,5,0,2:0:0:0:
236,160,18352,2,0,P|208:150|172:139,1,64,10|0,2:3|2:0,2:0:0:0:
57,73,18727,2,0,P|84:63|121:52,1,64,10|0,2:3|2:0,2:0:0:0:
63,220,19102,2,0,P|72:192|84:156,1,64,10|0,2:3|2:0,2:0:0:0:
216,99,19477,2,0,P|225:126|237:163,1,64,10|0,2:3|2:0,2:0:0:0:
467,220,19852,38,0,P|417:190|345:208,1,128,10|10,0:3|0:3,0:0:0:0:
335,375,20414,2,0,P|397:309|368:223,1,192,2|8,2:3|2:3,2:0:0:0:
236,160,21164,5,2,2:0:0:0:
131,268,21352,2,0,P|121:240|110:204,1,64,10|0,2:3|2:0,2:0:0:0:
2,233,21727,1,10,2:3:0:0:
2,233,21914,1,0,2:0:0:0:
9,33,22102,2,0,P|28:77|44:122,1,96,10|0,2:3|2:0,2:0:0:0:
38,155,22477,2,0,P|76:124|146:133,1,96,10|0,2:3|2:0,2:0:0:0:
244,113,22852,2,0,P|206:144|122:127,1,128,10|8,2:3|2:3,2:0:0:0:
177,38,23602,38,0,P|205:28|241:17,1,64,10|0,2:3|2:0,2:0:0:0:
304,133,23977,2,0,P|276:123|240:112,1,64,10|0,2:3|2:0,2:0:0:0:
395,172,24352,2,0,P|442:135|436:68,1,128,10|8,2:3|2:3,2:0:0:0:
293,158,24914,2,0,P|312:202|344:287,1,128,2|0,2:0|2:0,2:0:0:0:
486,269,25477,2,0,P|452:253|417:257,1,64,10|0,2:3|2:0,2:0:0:0:
255,339,25852,6,0,P|326:344|358:296,1,128,10|8,2:3|2:3,2:0:0:0:
273,229,26602,1,8,2:3:0:0:
147,362,26789,1,8,2:3:0:0:
134,333,26883,1,8,2:0:0:0:
109,313,26977,1,8,2:0:0:0:
78,307,27070,1,8,2:3:0:0:
47,316,27164,1,8,2:3:0:0:
94,166,27352,38,0,P|141:189|192:217,1,80,14|0,2:3|2:0,2:0:0:0:
334,179,27727,1,10,0:0:0:0:
334,179,27914,1,2,0:0:0:0:
135,56,28102,2,0,P|169:37|205:20,1,80,10|0,2:3|2:0,2:0:0:0:
375,34,28477,2,0,P|339:51|304:72,1,80,10|0,2:0|2:0,2:0:0:0:
488,29,28852,6,0,P|459:92|423:178,1,160,10|8,2:3|2:0,2:0:0:0:
340,318,29414,2,0,P|309:244|275:171,1,160,2|0,2:0|2:0,2:0:0:0:
279,165,29883,1,0,2:0:0:0:
283,159,29977,1,8,2:0:0:0:
409,250,30164,1,2,2:0:0:0:
196,316,30352,38,0,P|134:292|101:283,1,80,10|0,2:3|2:0,2:0:0:0:
57,159,30727,2,0,P|93:174|131:186,1,80,10|0,2:0|2:0,2:0:0:0:
222,22,31102,2,0,P|192:51|211:138,1,120,10|0,2:3|2:0,2:0:0:0:
233,147,31477,2,0,P|295:123|328:114,1,80,10|0,2:0|2:0,2:0:0:0:
507,181,31852,6,0,P|451:233|372:218,1,160,10|8,2:3|2:0,2:0:0:0:
362,4,32414,2,0,P|399:75|426:150,1,160,2|0,2:0|2:0,2:0:0:0:
422,156,32883,1,0,2:0:0:0:
418,162,32977,1,8,2:0:0:0:
512,131,33164,1,2,2:0:0:0:
366,312,33352,38,0,P|312:287|227:255,1,120,10|0,2:3|2:0,2:0:0:0:
216,293,33727,2,0,P|252:248|222:172,1,120,10|0,2:0|2:0,2:0:0:0:
200,175,34102,1,10,2:3:0:0:
72,78,34289,1,2,2:0:0:0:
234,25,34477,2,0,P|254:81|269:136,1,80,10|0,2:0|2:0,2:0:0:0:
85,236,34852,6,0,P|96:197|211:184,1,160,10|8,2:3|2:0,2:0:0:0:
175,354,35414,2,0,P|115:333|15:306,1,160,2|0,2:0|2:0,2:0:0:0:
16,311,35883,1,0,2:0:0:0:
10,315,35977,1,8,2:0:0:0:
163,249,36164,1,2,2:0:0:0:
282,370,36352,38,0,P|351:345|439:320,1,160,10|8,2:3|2:0,2:0:0:0:
360,202,36914,2,0,P|436:223|512:250,1,160,2|0,2:0|2:0,2:0:0:0:
431,46,37477,2,0,P|362:48|306:129,1,160,10|12,2:0|2:3,2:0:0:0:
202,26,38039,2,0,P|182:92|242:170,1,160,2|0,2:0|2:0,2:0:0:0:
250,176,38508,1,0,2:0:0:0:
250,176,38602,6,0,L|235:223,1,40,8|0,2:3|2:0,2:0:0:0:
104,285,38789,2,0,L|91:246,1,40,0|0,2:0|2:0,2:0:0:0:
13,120,38977,1,8,2:0:0:0:
30,111,39070,1,0,2:0:0:0:
49,102,39164,1,0,2:0:0:0:
67,94,39258,1,0,2:0:0:0:
85,86,39352,1,12,2:3:0:0:
85,86,39727,6,0,P|70:131|66:146,1,47.9999999999999,2|8,2:0|2:3,2:0:0:0:
126,199,40102,2,0,P|172:189|187:185,1,47.9999999999999,10|0,2:0|2:0,2:0:0:0:
204,107,40477,1,0,2:0:0:0:
252,244,40664,1,10,2:3:0:0:
252,244,40852,2,0,B|324:222|293:175|363:156,1,144,8|8,2:3|2:3,2:0:0:0:
360,156,41789,5,2,2:0:0:0:
270,129,41977,1,10,2:3:0:0:
310,0,42164,1,2,2:0:0:0:
468,70,42352,2,0,P|488:135|494:156,1,71.9999999999999,10|0,2:3|2:0,2:0:0:0:
497,163,42727,1,2,2:0:0:0:
335,199,42914,2,0,P|366:164|425:169,1,95.9999999999998,10|0,2:3|2:0,2:0:0:0:
507,243,43477,1,2,2:0:0:0:
433,333,43852,38,0,P|369:311|330:298,1,95.9999999999998,10|0,2:3|2:0,2:0:0:0:
342,302,44602,1,8,2:0:0:0:
198,207,44789,1,0,2:0:0:0:
79,289,44977,1,8,2:3:0:0:
122,369,45164,5,8,2:3:0:0:
122,369,45258,1,8,2:3:0:0:
122,369,45352,2,0,P|105:325|89:289,2,64,14|0|0,2:3|2:0|2:0,2:0:0:0:
111,203,45914,2,0,P|94:247|40:386,1,192,10|0,2:3|2:0,2:0:0:0:
230,268,46664,37,8,2:3:0:0:
230,268,46758,1,8,2:3:0:0:
230,268,46852,2,0,P|260:279|289:290,2,64,10|0|0,2:3|2:0|2:0,2:0:0:0:
336,177,47414,2,0,P|278:210|168:287,1,192,10|8,2:3|2:3,2:0:0:0:
226,356,48164,1,8,2:0:0:0:
420,383,48352,6,0,P|427:350|439:314,1,64,14|0,2:3|2:0,2:0:0:0:
468,309,48633,2,0,P|475:276|487:240,1,64,2|0,2:0|2:0,2:0:0:0:
512,227,48914,1,2,2:0:0:0:
481,67,49102,38,0,P|448:56|413:64,1,64,10|0,2:3|2:0,2:0:0:0:
374,94,49383,2,0,P|363:127|371:162,1,64,2|0,2:0|2:0,2:0:0:0:
416,185,49664,1,2,2:0:0:0:
281,332,49852,6,0,P|249:323|208:314,1,64,10|0,2:3|2:0,2:0:0:0:
266,220,50227,2,0,P|234:211|193:202,1,64,8|0,2:0|2:0,2:0:0:0:
58,136,50602,38,0,P|90:127|131:118,1,64,8|0,2:3|2:0,2:0:0:0:
73,24,50977,2,0,P|105:15|146:6,1,64,8|0,2:0|2:0,2:0:0:0:
296,18,51352,6,0,P|287:49|281:81,1,64,10|0,2:3|2:0,2:0:0:0:
448,114,51727,2,0,P|455:82|463:52,1,64,8|0,2:0|2:0,2:0:0:0:
348,167,52102,37,10,2:3:0:0:
325,186,52195,1,8,2:3:0:0:
289,193,52289,1,8,2:0:0:0:
248,178,52383,1,8,2:0:0:0:
219,138,52477,1,8,2:3:0:0:
180,100,52570,1,8,2:3:0:0:
120,87,52664,1,8,2:0:0:0:
60,118,52758,1,8,2:0:0:0:
60,118,53977,5,2,2:0:0:0:
58,128,54070,1,2,2:0:0:0:
56,138,54164,1,2,2:0:0:0:
54,148,54258,1,2,2:0:0:0:
52,159,54352,6,0,P|156:190|208:122,1,192,14|8,2:3|2:0,2:0:0:0:
120,53,54914,1,0,2:0:0:0:
261,223,55102,6,0,P|306:239|353:253,1,96,10|0,2:3|2:0,2:0:0:0:
331,44,55477,2,0,P|284:31|240:15,1,96,10|0,2:0|2:0,2:0:0:0:
456,0,55852,6,0,B|480:24|507:46|507:46|477:102|452:164,1,192,10|8,2:3|2:0,2:0:0:0:
477,242,56414,1,0,2:0:0:0:
257,108,56602,6,0,P|211:126|168:148,1,96,10|0,2:3|2:0,2:0:0:0:
256,248,56977,2,0,P|301:265|343:287,1,96,10|0,2:0|2:0,2:0:0:0:
144,61,57352,6,0,B|50:90|116:156|6:195,1,192,10|8,2:3|2:0,2:0:0:0:
0,101,57914,1,0,2:0:0:0:
228,136,58102,6,0,P|250:201|264:247,1,96,10|0,2:3|2:0,2:0:0:0:
47,363,58477,2,0,P|61:317|77:271,1,96,10|0,2:0|2:0,2:0:0:0:
228,136,58852,6,0,P|282:132|331:163,1,96,10|0,2:3|2:0,2:0:0:0:
291,316,59227,2,0,P|236:319|187:288,1,96,8|0,2:0|2:0,2:0:0:0:
167,62,59602,5,10,2:3:0:0:
323,158,59789,1,2,2:0:0:0:
156,55,59977,2,0,P|143:102|120:175,1,96,10|0,2:0|2:0,2:0:0:0:
291,316,60352,2,0,P|277:270|264:223,1,96,12|0,2:3|2:0,2:0:0:0:
327,41,60727,6,0,P|385:38|439:88,1,96,10|0,2:0|2:0,2:0:0:0:
489,211,61102,2,0,P|381:191|359:120,1,192,10|8,2:3|2:0,2:0:0:0:
448,130,61664,1,0,2:0:0:0:
369,289,61852,6,0,L|344:386,1,96,10|0,2:3|2:0,2:0:0:0:
158,384,62227,2,0,P|191:247|201:192,1,192,10|8,2:0|2:3,2:0:0:0:
270,130,62789,1,0,2:0:0:0:
270,130,62977,1,8,2:0:0:0:
63,229,63164,5,2,2:0:0:0:
303,258,63352,1,10,2:3:0:0:
106,128,63539,1,10,2:0:0:0:
233,309,63914,5,10,2:3:0:0:
430,179,64102,1,10,2:0:0:0:
289,375,64477,5,10,2:3:0:0:
92,245,64664,2,0,L|69:339,1,96,10|8,2:0|2:3,2:0:0:0:
105,371,64945,1,0,2:0:0:0:
140,373,65039,1,8,2:0:0:0:
171,354,65133,1,0,2:0:0:0:
185,322,65227,2,0,L|167:269,3,48,10|0|0|0,2:0|2:0|2:0|2:0,2:0:0:0:
255,169,65602,6,0,L|239:214,1,48,10|0,2:3|2:0,2:0:0:0:
50,217,65789,2,0,L|65:171,1,48,8|0,2:3|2:0,2:0:0:0:
181,96,65977,6,0,L|165:141,1,48,10|0,2:3|2:0,2:0:0:0:
0,98,66164,2,0,L|15:52,1,48,8|0,2:3|2:0,2:0:0:0:
201,17,66352,6,0,P|236:108|277:223,1,192,14|8,2:3|2:0,2:0:0:0:
254,288,66914,1,0,2:0:0:0:
443,264,67102,6,0,P|464:216|481:162,1,96,10|0,2:3|2:0,2:0:0:0:
252,52,67477,2,0,P|267:97|286:141,1,96,10|0,2:0|2:0,2:0:0:0:
441,16,67852,6,0,B|413:3|382:-14|382:-14|406:52|428:119,1,192,10|8,2:3|2:0,2:0:0:0:
286,141,68414,1,0,2:0:0:0:
135,31,68602,6,0,P|89:47|45:65,1,96,10|0,2:3|2:0,2:0:0:0:
212,207,68977,2,0,P|257:223|301:241,1,96,10|0,2:0|2:0,2:0:0:0:
161,121,69352,6,0,P|109:139|88:191,1,96,10|0,2:3|2:0,2:0:0:0:
116,273,69633,2,0,P|126:218|91:174,1,96,2|0,2:0|2:0,2:0:0:0:
16,218,69914,1,2,2:0:0:0:
200,377,70102,6,0,P|248:359|297:334,1,96,10|0,2:3|2:0,2:0:0:0:
296,228,70383,2,0,P|287:278|284:333,1,96,2|0,2:0|2:0,2:0:0:0:
356,384,70664,1,2,2:0:0:0:
460,169,70852,6,0,P|486:210|512:269,1,96,10|0,2:3|2:0,2:0:0:0:
384,264,71133,2,0,P|406:220|444:168,1,96,2|0,2:0|2:0,2:0:0:0:
496,274,71414,1,2,2:0:0:0:
338,114,71602,5,10,2:3:0:0:
435,345,71789,1,0,2:0:0:0:
460,169,71977,2,0,P|413:179|367:193,1,96,8|0,2:0|2:0,2:0:0:0:
295,266,72352,6,0,P|235:243|101:197,1,192,14|8,2:3|2:0,2:0:0:0:
0,254,72914,1,2,2:0:0:0:
46,78,73102,2,0,P|136:108|226:142,1,192,10|8,2:3|2:0,2:0:0:0:
280,376,73664,5,0,2:0:0:0:
280,376,73758,1,0,2:0:0:0:
280,376,73852,2,0,P|269:265|320:213,1,192,10|8,2:3|2:0,2:0:0:0:
273,0,74414,1,2,2:0:0:0:
471,82,74602,2,0,P|482:193|431:245,1,192,10|8,2:3|2:0,2:0:0:0:
292,356,75164,5,0,2:0:0:0:
292,356,75258,1,0,2:0:0:0:
292,356,75352,2,0,L|234:335,3,48,14|0|0|0,2:3|2:0|2:0|2:0,2:0:0:0:
137,243,75727,2,0,L|182:259,3,48,8|0|0|0,2:0|2:0|2:0|2:0,2:0:0:0:
43,202,76102,5,10,2:3:0:0:
50,179,76195,1,2,0:0:0:0:
58,156,76289,1,2,0:0:0:0:
66,133,76383,1,2,0:0:0:0:
74,110,76477,2,0,L|132:89,3,48,8|0|0|0,2:0|2:0|2:0|2:0,2:0:0:0:
216,23,76852,6,0,L|170:6,1,48,14|0,2:3|2:0,2:0:0:0:
300,123,77039,2,0,L|254:106,1,48,8|0,2:0|2:0,2:0:0:0:
413,181,77227,6,0,L|367:197,1,48,8|0,2:0|2:0,2:0:0:0:
497,81,77414,2,0,L|451:97,1,48,8|0,2:3|2:0,2:0:0:0:
300,123,77602,6,0,P|334:199|352:243,1,96,10|0,2:3|2:0,2:0:0:0:
300,284,77883,1,8,2:3:0:0:
300,284,77977,2,0,L|332:382,1,96,8|0,2:3|2:0,2:0:0:0:
191,355,78352,6,0,B|198:315|198:315|210:307|210:307|219:267,1,95.9999970703126,10|0,2:3|2:0,2:0:0:0:
85,297,78914,2,0,B|92:336|92:336|104:344|104:344|113:384,1,95.9999970703126,2|0,2:0|2:0,2:0:0:0:
219,267,79477,1,0,0:0:0:0:
219,267,79664,1,0,2:0:0:0:
109,206,79852,6,0,L|48:228,1,47.9999999999999,10|0,2:3|2:0,2:0:0:0:
148,132,80227,1,10,0:3:0:0:
148,132,80414,2,0,L|87:110,1,47.9999999999999,2|8,2:0|2:0,2:0:0:0:
180,52,80789,2,0,L|119:30,1,47.9999999999999,2|0,2:0|2:0,2:0:0:0:
274,19,81164,5,10,2:3:0:0:
274,19,81258,1,2,2:0:0:0:
274,19,81352,2,0,P|348:41|416:66,1,144,14|0,2:3|2:0,2:0:0:0:
511,17,82102,2,0,P|452:42|445:131,1,144,10|8,2:0|2:3,2:0:0:0:
484,217,82852,2,0,P|416:192|347:172,1,144,2|0,2:0|2:0,2:0:0:0:
234,104,83602,2,0,P|261:168|309:293,1,192,8|0,2:0|2:0,2:0:0:0:
296,123,85664,21,2,2:0:0:0:
296,123,85852,2,0,P|240:106|223:102,1,64,2|0,2:0|2:0,2:0:0:0:
193,36,86414,1,2,2:0:0:0:
193,36,86602,1,2,2:0:0:0:
59,81,86977,2,0,P|67:97|78:119,1,32,2|0,2:0|2:0,2:0:0:0:
111,246,87352,2,0,P|129:206|153:157,1,96,2|2,2:0|2:0,2:0:0:0:
36,190,88289,1,2,2:0:0:0:
134,353,88664,37,2,2:0:0:0:
134,353,88852,2,0,P|163:333|194:333,1,64,2|0,2:0|2:0,2:0:0:0:
271,383,89414,1,2,2:0:0:0:
271,383,89602,1,2,2:0:0:0:
418,318,89977,2,0,P|409:334|399:356,1,32,2|0,2:0|2:0,2:0:0:0:
253,250,90352,2,0,B|307:257|290:283|340:289,2,96,2|2|2,2:0|2:0|2:0,2:0:0:0:
355,202,91664,5,2,2:0:0:0:
355,202,91758,1,0,2:0:0:0:
355,202,91852,2,0,P|391:218|423:235,1,64,2|0,2:0|2:0,2:0:0:0:
512,125,92414,1,2,2:0:0:0:
512,125,92602,2,0,P|476:141|444:158,1,64,2|2,2:0|2:0,2:0:0:0:
362,89,93164,1,2,2:0:0:0:
362,89,93352,2,0,P|396:48|445:51,1,96,2|2,2:0|2:0,2:0:0:0:
284,68,94289,1,2,2:0:0:0:
284,68,94477,1,2,2:0:0:0:
190,117,94852,38,0,P|216:102|286:76,2,96,2|2|2,2:0|2:0|2:0,2:0:0:0:
61,61,96164,1,0,2:0:0:0:
61,61,96352,2,0,P|72:99|88:157,1,96,2|0,2:0|2:0,2:0:0:0:
7,206,97102,1,10,2:3:0:0:
190,117,97289,1,8,2:3:0:0:
190,117,97383,1,8,2:0:0:0:
190,117,97477,1,8,2:0:0:0:
61,61,97664,1,10,2:3:0:0:
140,251,97852,6,0,P|132:283|124:331,1,80,14|0,2:3|2:0,2:0:0:0:
241,208,98227,1,10,0:0:0:0:
241,208,98414,1,2,0:0:0:0:
355,317,98602,2,0,P|361:277|370:238,1,80,10|0,2:3|2:0,2:0:0:0:
497,187,98977,2,0,P|506:225|512:265,1,80,10|0,2:0|2:0,2:0:0:0:
304,155,99352,38,0,P|295:116|290:77,1,80,10|0,2:3|2:0,2:0:0:0:
503,44,99727,2,0,P|463:28|378:108,1,160,10|8,2:0|2:3,2:0:0:0:
467,121,100289,1,0,2:0:0:0:
467,121,100383,1,0,2:0:0:0:
467,121,100477,1,8,2:0:0:0:
334,11,100664,1,2,2:0:0:0:
276,178,100852,6,0,P|229:170|194:164,1,80,10|0,2:3|2:0,2:0:0:0:
144,41,101227,2,0,P|190:33|225:27,1,80,10|0,2:0|2:0,2:0:0:0:
279,191,101602,1,10,2:3:0:0:
279,191,101789,1,0,2:0:0:0:
122,125,101977,1,10,2:0:0:0:
122,125,102164,1,0,2:0:0:0:
35,292,102352,38,0,P|-4:250|13:183,1,120,10|0,2:3|2:0,2:0:0:0:
32,179,102727,2,0,B|115:196|94:238|171:252,1,160,10|8,2:0|2:3,2:0:0:0:
284,186,103289,1,0,2:0:0:0:
284,186,103383,1,0,2:0:0:0:
284,186,103477,1,8,2:0:0:0:
144,53,103664,1,2,2:0:0:0:
171,252,103852,6,0,P|181:284|193:331,1,80,10|0,2:3|2:0,2:0:0:0:
284,186,104227,2,0,P|293:146|306:109,1,80,10|0,2:0|2:0,2:0:0:0:
144,53,104602,1,10,2:3:0:0:
122,165,104789,1,0,2:0:0:0:
147,35,104977,2,0,P|107:26|68:20,1,80,10|0,2:0|2:0,2:0:0:0:
314,111,105352,38,0,P|385:74|459:44,1,160,10|8,2:3|2:0,2:0:0:0:
355,193,105914,2,0,P|428:224|499:260,1,160,2|0,2:0|2:0,2:0:0:0:
506,265,106383,1,0,2:0:0:0:
512,269,106477,1,10,2:0:0:0:
439,139,106664,1,2,2:0:0:0:
288,237,106852,6,0,P|223:232|169:153,1,160,10|8,2:3|2:0,2:0:0:0:
29,133,107414,2,0,P|65:79|161:71,1,160,2|0,2:0|2:0,2:0:0:0:
268,141,107977,2,0,P|254:197|219:296,1,160,14|8,2:0|2:3,2:0:0:0:
81,363,108539,2,0,P|53:287|33:210,1,160,2|0,2:0|2:0,2:0:0:0:
42,189,109008,1,0,2:0:0:0:
42,189,109102,38,0,L|55:142,1,40,8|0,2:3|2:0,2:0:0:0:
219,76,109289,2,0,L|232:123,1,40,0|0,2:0|2:0,2:0:0:0:
390,197,109477,1,8,2:0:0:0:
397,179,109570,1,0,2:0:0:0:
405,161,109664,1,0,2:0:0:0:
414,142,109758,1,0,2:0:0:0:
423,123,109852,1,12,2:3:0:0:
423,123,110227,38,0,P|470:125|496:150,1,71.9999999999999,2|0,2:3|2:0,2:0:0:0:
493,120,110602,2,0,P|462:101|427:103,1,71.9999999999999,10|0,2:0|2:0,2:0:0:0:
353,64,110977,1,2,2:0:0:0:
390,197,111164,1,10,2:3:0:0:
390,197,111352,2,0,P|408:238|443:350,1,144,8|8,2:3|2:3,2:0:0:0:
438,332,112289,37,2,2:0:0:0:
361,371,112477,1,10,2:3:0:0:
283,263,112664,1,2,2:0:0:0:
153,379,112852,2,0,P|110:365|69:354,1,71.9999999999999,10|0,2:3|2:0,2:0:0:0:
62,352,113227,1,2,2:0:0:0:
92,236,113414,2,0,P|54:255|-1:290,1,95.9999999999998,10|0,2:3|2:0,2:0:0:0:
170,292,113977,1,2,2:3:0:0:
142,131,114352,6,0,P|182:127|241:170,1,95.9999999999998,10|0,2:3|2:0,2:0:0:0:
171,208,115102,1,8,2:0:0:0:
50,104,115289,1,0,2:0:0:0:
126,11,115477,1,8,2:3:0:0:
200,77,115664,37,8,2:3:0:0:
200,77,115758,1,8,2:3:0:0:
200,77,115852,2,0,P|238:59|278:65,2,64,14|0|0,2:3|2:0|2:0,2:0:0:0:
334,121,116414,2,0,P|279:48|189:65,1,192,10|0,2:3|2:0,2:0:0:0:
311,227,117164,5,8,2:3:0:0:
311,227,117258,1,8,2:3:0:0:
311,227,117352,2,0,P|363:205|391:194,2,64,10|0|0,2:3|2:0|2:0,2:0:0:0:
483,181,117914,2,0,P|399:205|294:251,1,192,10|0,2:3|2:0,2:0:0:0:
506,105,118664,1,8,2:0:0:0:
447,281,118852,38,0,P|432:325|423:362,1,64,14|0,2:3|2:0,2:0:0:0:
400,358,119133,2,0,P|356:343|319:334,1,64,2|0,2:0|2:0,2:0:0:0:
322,306,119414,1,2,2:0:0:0:
144,166,119602,6,0,P|177:155|212:163,1,64,10|0,2:3|2:0,2:0:0:0:
253,190,119883,2,0,P|264:223|256:258,1,64,2|0,2:0|2:0,2:0:0:0:
224,295,120164,1,2,2:0:0:0:
0,371,120352,38,0,P|11:330|20:298,1,64,10|0,2:3|2:0,2:0:0:0:
116,349,120727,2,0,P|127:308|136:276,1,64,8|0,2:0|2:0,2:0:0:0:
5,208,121102,6,0,P|16:167|25:135,1,64,8|0,2:3|2:0,2:0:0:0:
121,186,121477,2,0,P|132:145|141:113,1,64,8|0,2:0|2:0,2:0:0:0:
378,58,121852,38,0,P|367:99|358:131,1,64,10|0,2:3|2:0,2:0:0:0:
221,87,122227,2,0,P|229:56|238:26,1,64,8|0,2:0|2:0,2:0:0:0:
388,203,122602,5,10,2:3:0:0:
409,222,122695,1,8,2:3:0:0:
413,258,122789,1,8,2:0:0:0:
379,284,122883,1,8,2:0:0:0:
332,269,122977,1,8,2:3:0:0:
303,222,123070,1,8,2:3:0:0:
310,162,123164,1,8,2:0:0:0:
361,119,123258,1,8,2:0:0:0:
361,119,124477,37,2,2:0:0:0:
363,129,124570,1,2,2:0:0:0:
365,139,124664,1,2,2:0:0:0:
367,149,124758,1,2,2:0:0:0:
369,160,124852,6,0,P|438:150|510:237,1,191.999994140625,14|8,2:3|2:0,2:0:0:0:
419,295,125414,1,0,2:0:0:0:
270,116,125602,6,0,P|211:94|172:81,1,96,10|0,2:3|2:0,2:0:0:0:
227,301,125977,2,0,P|286:279|325:266,1,96,10|0,2:0|2:0,2:0:0:0:
88,115,126352,6,0,B|66:147|34:174|34:174|51:239|61:295,1,191.999994140625,10|8,2:3|2:0,2:0:0:0:
22,371,126914,1,0,2:0:0:0:
227,301,127102,6,0,P|249:242|262:203,1,96,10|0,2:3|2:0,2:0:0:0:
402,92,127477,2,0,P|424:151|437:190,1,96,10|0,2:0|2:0,2:0:0:0:
494,383,127852,6,0,B|414:366|414:366|399:342|399:342|319:325,1,192,10|8,2:3|2:0,2:0:0:0:
185,294,128414,1,0,2:0:0:0:
213,84,128602,6,0,P|154:106|115:119,1,96,10|0,2:3|2:0,2:0:0:0:
344,214,128977,2,0,P|403:192|442:179,1,96,10|0,2:0|2:0,2:0:0:0:
171,290,129352,6,0,P|142:251|137:204,1,96,10|0,2:3|2:0,2:0:0:0:
311,128,129727,2,0,P|338:166|343:213,1,96,8|0,2:0|2:0,2:0:0:0:
238,11,130102,5,10,2:3:0:0:
174,190,130289,1,2,2:0:0:0:
242,0,130477,2,0,P|287:16|332:33,1,96,10|0,2:0|2:0,2:0:0:0:
501,159,130852,2,0,P|456:175|411:192,1,96,12|0,2:3|2:0,2:0:0:0:
217,315,131227,6,0,P|239:248|279:230,1,96,10|0,2:0|2:0,2:0:0:0:
482,357,131602,2,0,P|423:340|286:305,1,192,10|8,2:3|2:0,2:0:0:0:
154,366,132164,1,0,2:0:0:0:
79,209,132352,6,0,P|98:270|112:324,1,96,10|0,2:3|2:0,2:0:0:0:
296,307,132727,2,0,P|277:236|242:104,1,192,10|8,2:0|2:3,2:0:0:0:
97,88,133289,1,0,2:0:0:0:
97,88,133477,1,8,2:0:0:0:
301,34,133664,5,2,2:0:0:0:
177,238,133852,1,10,2:3:0:0:
199,14,134039,1,10,2:0:0:0:
480,321,134414,5,10,2:3:0:0:
448,130,134602,1,10,2:0:0:0:
49,337,134977,5,10,2:3:0:0:
90,175,135164,2,0,P|144:191|193:211,1,96,10|8,2:0|2:3,2:0:0:0:
219,209,135445,1,0,2:0:0:0:
241,236,135539,1,8,2:0:0:0:
244,272,135633,1,0,2:0:0:0:
226,302,135727,2,0,L|209:355,3,48,10|0|0|0,2:0|2:0|2:0|2:0,2:0:0:0:
344,384,136102,6,0,L|329:339,1,48,10|0,2:3|2:0,2:0:0:0:
457,268,136289,2,0,L|472:313,1,48,8|0,2:3|2:0,2:0:0:0:
362,245,136477,6,0,L|347:200,1,48,10|0,2:3|2:0,2:0:0:0:
497,95,136664,2,0,L|512:140,1,48,8|0,2:3|2:0,2:0:0:0:
238,76,136852,6,0,P|308:95|443:141,1,192,14|8,2:3|2:0,2:0:0:0:
497,95,137414,1,0,2:0:0:0:
338,213,137602,6,0,L|307:304,1,96,10|0,2:3|2:0,2:0:0:0:
140,145,137977,2,0,L|109:54,1,96,10|0,2:0|2:0,2:0:0:0:
63,321,138352,6,0,B|98:331|123:292|123:292|112:248|55:238|23:261,1,192,10|8,2:3|2:0,2:0:0:0:
186,384,138914,1,0,2:0:0:0:
338,213,139102,6,0,P|412:237|458:254,1,96,10|0,2:3|2:0,2:0:0:0:
512,36,139477,2,0,P|438:60|392:77,1,96,10|0,2:0|2:0,2:0:0:0:
174,193,139852,6,0,P|140:148|150:103,1,96,10|0,2:3|2:0,2:0:0:0:
218,47,140133,2,0,P|196:99|152:113,1,96,2|0,2:0|2:0,2:0:0:0:
95,40,140414,1,2,2:0:0:0:
243,236,140602,6,0,P|221:300|208:343,1,96,10|0,2:3|2:0,2:0:0:0:
127,356,140883,2,0,P|193:343|237:333,1,96,2|0,2:0|2:0,2:0:0:0:
289,378,141164,1,2,2:0:0:0:
504,259,141352,6,0,P|494:213|436:190,1,96,10|0,2:3|2:0,2:0:0:0:
411,287,141633,2,0,P|456:301|505:263,1,96,2|0,2:0|2:0,2:0:0:0:
375,209,141914,1,2,2:0:0:0:
410,22,142102,5,10,2:3:0:0:
289,219,142289,1,0,2:0:0:0:
425,109,142477,2,0,P|367:97|305:82,1,96,8|0,2:0|2:0,2:0:0:0:
121,2,142852,6,0,P|176:31|163:166,1,192,14|8,2:3|2:0,2:0:0:0:
108,93,143414,1,2,2:0:0:0:
269,160,143602,2,0,P|240:215|105:202,1,192,10|8,2:3|2:0,2:0:0:0:
193,384,144164,5,0,2:0:0:0:
193,384,144258,1,0,2:0:0:0:
193,384,144352,2,0,P|275:352|388:314,1,192,10|8,2:3|2:0,2:0:0:0:
257,118,144914,1,2,2:0:0:0:
439,165,145102,2,0,P|348:196|259:230,1,192,10|8,2:3|2:0,2:0:0:0:
60,371,145664,5,0,2:0:0:0:
60,371,145758,1,0,2:0:0:0:
60,371,145852,2,0,L|76:325,3,48,14|0|0|0,2:3|2:0|2:0|2:0,2:0:0:0:
189,252,146227,2,0,L|172:297,3,48,8|0|0|0,2:0|2:0|2:0|2:0,2:0:0:0:
226,163,146602,5,10,2:3:0:0:
249,170,146695,1,2,0:0:0:0:
272,178,146789,1,2,0:0:0:0:
295,186,146883,1,2,0:0:0:0:
318,194,146977,2,0,L|339:252,3,48,8|0|0|0,2:0|2:0|2:0|2:0,2:0:0:0:
408,310,147352,6,0,L|395:356,1,48,14|0,2:3|2:0,2:0:0:0:
505,235,147539,2,0,L|492:281,1,48,8|0,2:0|2:0,2:0:0:0:
419,127,147727,6,0,L|432:173,1,48,8|0,2:0|2:0,2:0:0:0:
322,52,147914,2,0,L|335:98,1,48,8|0,2:3|2:0,2:0:0:0:
233,1,148102,6,0,P|199:77|181:121,1,96,10|0,2:3|2:0,2:0:0:0:
238,169,148383,1,8,2:3:0:0:
238,169,148477,2,0,L|206:267,1,96,8|0,2:3|2:0,2:0:0:0:
197,346,148758,1,8,2:3:0:0:
197,346,148852,38,0,B|111:326|149:277|68:258,1,160,14|8,2:3|2:0,2:0:0:0:
238,169,149414,2,0,P|163:145|94:180,1,160,0|0,2:0|2:0,2:0:0:0:
208,260,149977,2,0,P|260:248|310:238,1,80,8|0,2:0|2:0,2:0:0:0:
315,327,150352,6,0,P|360:342|408:363,1,80,10|0,2:3|2:0,2:0:0:0:
403,384,150633,2,0,P|440:369|478:356,1,80,2|0,2:0|2:0,2:0:0:0:
510,377,150914,1,2,2:0:0:0:
510,151,151102,2,0,P|456:140|404:179,2,120,10|2|2,2:3|2:0|2:0,2:0:0:0:
470,220,151852,38,0,B|401:202|401:202|393:187|393:187|324:168,1,160,14|8,2:3|2:0,2:0:0:0:
105,263,152414,1,0,2:0:0:0:
105,263,152602,2,0,B|174:245|174:245|182:230|182:230|251:211,1,160,10|8,2:3|2:0,2:0:0:0:
86,81,153164,1,0,2:0:0:0:
86,81,153352,6,0,P|66:141|49:198,2,120,10|2|2,2:3|2:0|2:0,2:0:0:0:
165,30,154102,2,0,P|185:90|202:147,1,120,10|2,2:3|2:0,2:0:0:0:
188,176,154477,1,14,2:0:0:0:
188,176,154664,1,2,2:0:0:0:
291,39,154852,6,0,P|352:59|456:105,1,160,10|8,2:3|2:0,2:0:0:0:
512,166,155414,2,0,P|451:186|347:232,1,160,0|0,2:0|2:0,2:0:0:0:
324,141,155977,1,8,2:0:0:0:
324,141,156164,1,0,2:0:0:0:
422,287,156352,6,0,P|408:336|366:356,1,80,10|0,2:3|2:0,2:0:0:0:
358,356,156633,2,0,P|323:319|326:273,1,80,2|0,2:0|2:0,2:0:0:0:
363,223,156914,1,2,2:0:0:0:
237,340,157102,2,0,P|193:306|128:316,2,120,10|2|2,2:3|2:0|2:0,2:0:0:0:
207,227,157852,37,10,2:3:0:0:
28,330,158039,2,0,P|52:278|96:185,1,160,12|8,2:0|2:3,2:0:0:0:
7,126,158602,2,0,P|53:86|155:91,1,160,14|8,2:0|2:3,2:0:0:0:
237,32,159164,1,8,2:0:0:0:
237,32,159352,6,0,L|254:95,3,40,10|0|8|0,2:3|2:0|2:0|2:0,2:0:0:0:
324,131,159727,2,0,L|307:194,3,40,8|0|0|0,2:3|2:0|2:0|2:0,2:0:0:0:
236,230,160102,2,0,L|244:262,6,20,8|0|0|0|8|0|0,2:3|2:0|2:0|2:0|2:3|2:0|2:0,2:0:0:0:
313,305,160477,2,0,L|304:336,6,20,8|0|0|0|8|0|0,2:3|2:0|2:0|2:0|2:3|2:0|2:0,2:0:0:0:
382,364,160852,1,12,2:3:0:0:
433,261,161414,5,2,2:0:0:0:
433,261,161602,2,0,P|362:284|326:299,1,96,10|0,2:0|2:0,2:0:0:0:
313,305,161977,2,0,P|276:264|291:196,1,128,2|8,2:0|2:3,2:0:0:0:
425,75,162914,21,2,2:0:0:0:
487,187,163102,1,10,2:0:0:0:
512,100,163289,1,2,2:0:0:0:
399,162,163477,2,0,P|342:140|312:130,1,64,2|8,2:0|2:3,2:0:0:0:
239,39,163852,6,0,P|278:14|249:109,1,256,10|8,2:3|2:0,2:0:0:0:
160,7,165352,2,0,P|113:20|68:37,2,96,2|2|2,2:0|2:0|2:0,2:0:0:0:
0,121,166102,2,0,P|30:129|60:142,1,64,10|0,2:0|2:0,2:0:0:0:
43,237,166383,2,0,P|72:223|103:215,1,64,10|0,2:3|2:0,2:0:0:0:
97,303,166664,1,10,2:3:0:0:
187,276,166852,22,0,P|188:235|221:193,1,96,2|0,2:0|2:0,2:0:0:0:
168,127,167227,2,0,P|204:107|256:114,1,96,2|0,2:0|2:0,2:0:0:0:
287,36,167602,2,0,P|322:57|341:106,1,96,2|0,2:0|2:0,2:0:0:0:
435,170,167977,2,0,B|421:151|418:129|425:108|425:108|445:117|458:136|463:156|463:156|476:137|497:127|519:128|519:128|516:150|503:169|485:179|485:179|507:186|523:202|529:223|529:223|507:228|485:220|469:207|469:207|470:229|460:250|441:262|441:262|430:243|430:220|438:201|438:201|417:208|395:204|378:191|378:191|393:174|415:167,1,622.777097752978,2|0,2:0|2:0,2:0:0:0:
346,182,170977,6,0,L|356:157,3,16,2|2|2|2,2:0|2:0|2:0|2:0,2:0:0:0:
436,73,171352,2,0,P|412:76|392:88,2,47.9999999999999,2|2|2,2:0|2:0|2:0,2:0:0:0:
504,133,171914,1,2,2:0:0:0:
307,63,172852,2,0,L|322:10,2,47.9999999999999,2|2|2,2:0|2:0|2:0,2:0:0:0:
246,120,173414,1,2,2:0:0:0:
62,78,173789,2,0,L|48:31,2,47.9999999999999,2|2|2,2:0|2:0|2:0,2:0:0:0:
139,170,174352,6,0,L|152:123,2,47.9999999999999,2|2|2,2:0|2:0|2:0,2:0:0:0:
27,259,174914,1,2,2:0:0:0:
27,259,175102,2,0,B|97:290|62:324|137:357,1,144,2|0,2:0|2:0,2:0:0:0:
221,252,175852,2,0,L|174:265,3,47.9999999999999,2|2|2|2,2:0|2:0|2:0|2:0,2:0:0:0:
289,365,176602,2,0,L|242:351,3,47.9999999999999,2|2|2|2,2:0|2:0|2:0|2:0,2:0:0:0:
324,249,177352,5,2,2:0:0:0:
333,263,177727,2,0,B|373:271|373:271|380:281|380:281|420:290,1,95.9999999999998,2|2,2:0|2:0,2:0:0:0:
494,159,178852,2,0,B|453:167|453:167|446:177|446:177|406:186,1,95.9999999999998,2|2,2:0|2:0,2:0:0:0:
421,290,180164,21,2,2:0:0:0:
486,78,180352,1,10,2:3:0:0:
348,250,180539,1,10,2:0:0:0:
24,169,180914,5,10,2:3:0:0:
145,336,181102,1,10,2:0:0:0:
420,248,181477,5,10,2:3:0:0:
283,382,181664,2,0,P|267:331|248:281,1,96,10|8,2:0|2:3,2:0:0:0:
219,276,181945,1,0,2:0:0:0:
184,280,182039,1,8,2:0:0:0:
157,302,182133,1,0,2:0:0:0:
145,336,182227,2,0,L|161:386,3,48,10|0|0|0,2:0|2:0|2:0|2:0,2:0:0:0:
60,277,182602,6,0,L|74:231,1,48,10|0,2:3|2:0,2:0:0:0:
199,152,182789,2,0,L|213:197,1,48,8|0,2:3|2:0,2:0:0:0:
3,169,182977,6,0,L|17:123,1,48,10|0,2:3|2:0,2:0:0:0:
225,26,183164,2,0,L|239:71,1,48,8|0,2:3|2:0,2:0:0:0:
24,25,183352,6,0,P|50:88|111:243,1,224,14|8,2:3|2:0,2:0:0:0:
84,315,183914,1,0,2:0:0:0:
254,181,184102,6,0,L|372:230,1,112,10|0,2:3|2:0,2:0:0:0:
512,109,184477,2,0,L|408:66,1,112,10|0,2:0|2:0,2:0:0:0:
238,99,184852,5,10,2:3:0:0:
380,179,185039,1,0,2:0:0:0:
204,243,185227,1,8,2:0:0:0:
325,107,185414,1,0,2:0:0:0:
432,258,185602,5,10,2:3:0:0:
175,163,185789,1,0,2:0:0:0:
370,322,185977,5,10,2:0:0:0:
238,99,186164,1,0,2:0:0:0:
110,295,186352,6,0,P|51:294|-1:241,1,112,10|0,2:3|2:0,2:0:0:0:
60,109,186633,2,0,P|88:160|68:232,1,112,2|0,2:0|2:0,2:0:0:0:
0,174,186914,1,2,2:0:0:0:
142,42,187102,6,0,P|184:75|242:99,1,112,10|0,2:3|2:0,2:0:0:0:
413,7,187383,2,0,P|362:26|312:65,1,112,2|0,2:0|2:0,2:0:0:0:
311,148,187664,1,2,2:0:0:0:
502,240,187852,6,0,P|505:300|456:335,1,112,10|0,2:3|2:0,2:0:0:0:
291,315,188133,2,0,P|341:282|396:307,1,112,2|0,2:0|2:0,2:0:0:0:
401,384,188414,1,2,2:0:0:0:
466,148,188602,5,10,2:3:0:0:
291,315,188789,1,0,2:0:0:0:
502,240,188977,2,0,P|432:221|384:210,1,112,8|0,2:0|2:0,2:0:0:0:
191,340,189352,6,0,P|207:282|226:228,1,112,14|0,2:3|2:0,2:0:0:0:
38,63,189727,2,0,P|55:116|71:169,1,112,8|2,2:0|2:0,2:0:0:0:
167,332,190102,6,0,P|182:279|200:226,1,112,10|0,2:3|2:0,2:0:0:0:
14,70,190477,2,0,P|31:123|47:176,1,112,10|0,2:0|2:0,2:0:0:0:
351,55,190852,6,0,P|292:54|252:90,1,112,10|0,2:3|2:0,2:0:0:0:
76,280,191227,2,0,P|119:315|174:313,1,111.999996582031,8|2,2:0|2:0,2:0:0:0:
358,73,191602,6,0,P|304:71|261:106,1,112,10|0,2:3|2:0,2:0:0:0:
69,299,191977,2,0,P|112:333|167:331,1,111.999996582031,10|0,2:0|2:0,2:0:0:0:
247,195,192258,1,0,2:0:0:0:
247,195,192352,6,0,L|229:267,3,56,14|0|0|0,2:3|2:0|2:0|2:0,2:0:0:0:
321,306,192727,2,0,L|303:378,3,56,8|0|0|0,2:0|2:0|2:0|2:0,2:0:0:0:
202,375,193102,5,10,0:3:0:0:
161,364,193195,1,2,0:0:0:0:
120,353,193289,1,2,0:0:0:0:
80,342,193383,1,2,0:0:0:0:
39,331,193477,2,0,L|21:259,3,56,8|0|0|0,2:0|2:0|2:0|2:0,2:0:0:0:
182,167,193852,6,0,L|169:222,1,56,14|0,2:3|2:0,2:0:0:0:
138,40,194039,2,0,L|124:94,1,56,8|0,2:0|2:0,2:0:0:0:
324,141,194227,2,0,L|310:195,1,56,8|0,2:0|2:0,2:0:0:0:
279,13,194414,2,0,L|265:67,1,56,8|0,2:3|2:0,2:0:0:0:
206,303,194602,5,10,2:3:0:0:
164,338,194695,1,2,2:0:0:0:
109,342,194789,1,2,2:0:0:0:
61,314,194883,1,10,2:3:0:0:
39,264,194977,1,8,2:3:0:0:
49,210,195070,1,2,2:0:0:0:
88,171,195164,1,2,2:0:0:0:
143,162,195258,1,2,2:0:0:0:
192,186,195352,5,14,2:3:0:0:
61,314,195539,1,2,2:0:0:0:
143,162,195727,1,10,2:0:0:0:
164,338,195914,2,0,P|238:364|280:381,1,96,2|8,2:0|2:3,2:0:0:0:
452,351,196289,5,2,0:0:0:0:
509,210,196477,1,10,0:0:0:0:
444,371,196664,1,2,2:0:0:0:
275,135,196852,5,10,2:3:0:0:
374,291,197039,1,2,2:0:0:0:
417,108,197227,1,10,2:0:0:0:
236,227,197414,2,0,P|191:209|145:194,1,96,2|8,2:0|2:3,2:0:0:0:
146,0,197789,1,2,2:0:0:0:
13,121,197977,2,0,P|57:103|103:88,1,96,10|0,2:0|2:0,2:0:0:0:
349,18,198352,6,0,P|368:61|384:107,1,96,10|0,2:3|2:0,2:0:0:0:
403,189,198727,1,8,2:0:0:0:
181,105,198914,2,0,P|162:148|145:194,1,96,2|8,2:0|2:3,2:0:0:0:
127,276,199289,1,0,2:0:0:0:
297,195,199477,2,0,P|316:238|332:284,1,96,10|0,2:0|2:0,2:0:0:0:
183,384,199852,6,0,P|235:364|293:345,1,96,10|0,2:3|2:0,2:0:0:0:
145,194,200227,2,0,P|99:209|54:226,1,96,8|0,2:0|2:0,2:0:0:0:
221,86,200602,2,0,P|169:66|111:47,1,96,10|0,2:3|2:0,2:0:0:0:
297,195,200977,2,0,P|342:210|387:227,1,96,8|0,2:0|2:0,2:0:0:0:
448,172,201258,1,0,2:0:0:0:
448,172,201352,6,0,P|415:132|361:133,1,96,14|0,2:3|2:0,2:0:0:0:
297,195,201727,1,8,2:0:0:0:
384,44,201914,2,0,P|403:114|432:240,1,192,2|0,2:0|2:0,2:0:0:0:
344,374,202477,5,10,2:0:0:0:
507,267,202664,1,2,2:0:0:0:
297,195,202852,1,10,2:3:0:0:
448,359,203039,5,2,2:0:0:0:
486,145,203227,1,10,2:0:0:0:
445,375,203414,2,0,P|399:359|331:340,1,96,2|8,2:0|2:3,2:0:0:0:
205,250,203789,2,0,P|159:266|91:285,1,96,2|8,2:0|2:0,2:0:0:0:
21,114,204164,5,0,2:0:0:0:
21,114,204258,1,0,2:0:0:0:
21,114,204352,2,0,P|66:102|129:146,1,128,14|2,2:3|2:0,2:0:0:0:
300,40,205102,2,0,P|240:31|194:64,1,96,10|10,2:0|2:3,2:0:0:0:
189,70,205477,1,10,0:3:0:0:
193,74,205664,1,8,2:3:0:0:
338,117,205852,2,0,P|314:174|287:265,1,128,2|8,2:0|2:3,2:0:0:0:
443,323,206602,2,0,P|423:262|398:203,1,128,10|8,2:0|2:3,2:0:0:0:
263,322,207164,5,2,2:0:0:0:
263,322,207258,1,2,0:0:0:0:
263,322,207352,2,0,P|306:327|357:292,1,95.9999999999998,2|0,2:0|2:0,2:0:0:0:
188,259,207914,2,0,P|172:320|162:365,2,95.9999999999998,2|2|2,2:0|2:0|2:0,2:0:0:0:
256,192,208758,12,0,211852,2:0:0:0:
