osu file format v14

[General]
AudioFilename: audio.mp3
AudioLeadIn: 0
PreviewTime: 64751
Countdown: 0
SampleSet: Soft
StackLeniency: 0.3
Mode: 0
LetterboxInBreaks: 0
WidescreenStoryboard: 1

[Editor]
Bookmarks: 20863,40657,60451,65399,85348,105142,124781,164369,203802
DistanceSpacing: 1
BeatDivisor: 8
GridSize: 32
TimelineZoom: 1.5

[Metadata]
Title:Let Me Stay Here
TitleUnicode:Let Me Stay Here
Artist:Ceres Fauna
ArtistUnicode:Ceres Fauna
Creator:Gweon Sua
Version:Normal
Source:
Tags:セレス・ファウナ hololive production ホロライブプロダクション 2nd second gen generation council virtual youtuber vtuber japanese english en pop jpop lullaby xahlt kuon- jazz bossa nova samba track shibayan shibayanrecords
BeatmapID:3619840
BeatmapSetID:1766945

[Difficulty]
HPDrainRate:3
CircleSize:4
OverallDifficulty:4
ApproachRate:5
SliderMultiplier:1.9
SliderTickRate:1

[Events]
//Background and Video events
0,0,"Let Me Stay Here.jpg",0,0
Video,47,"VD.mp4"
//Break Periods
2,60697,63628
2,85595,103679
//Storyboard Layer 0 (Background)
//Storyboard Layer 1 (Fail)
//Storyboard Layer 2 (Pass)
//Storyboard Layer 3 (Foreground)
//Storyboard Layer 4 (Overlay)
//Storyboard Sound Samples

[TimingPoints]
11014,618.556701030928,4,2,1,50,1,0
20910,-111.111111111111,4,2,1,50,0,0
21916,-111.111111111111,4,2,1,5,0,0
21993,-111.111111111111,4,2,1,50,0,0
24081,-111.111111111111,4,2,1,5,0,0
24158,-111.111111111111,4,2,1,50,0,0
26864,-111.111111111111,4,2,1,5,0,0
26941,-111.111111111111,4,2,1,50,0,0
29338,-111.111111111111,4,2,1,5,0,0
29416,-111.111111111111,4,2,1,50,0,0
30421,-111.111111111111,4,2,1,5,0,0
30498,-111.111111111111,4,2,1,50,0,0
31812,-111.111111111111,4,2,1,5,0,0
31890,-111.111111111111,4,2,1,50,0,0
34287,-111.111111111111,4,2,1,5,0,0
34364,-111.111111111111,4,2,1,50,0,0
45266,-111.111111111111,4,2,1,5,0,0
45343,-111.111111111111,4,2,1,50,0,0
50215,-111.111111111111,4,2,1,5,0,0
50292,-111.111111111111,4,2,1,50,0,0
55163,-111.111111111111,4,2,1,5,0,0
55240,-111.111111111111,4,2,1,50,0,0
59338,-111.111111111111,4,2,1,5,0,0
59416,-111.111111111111,4,2,1,50,0,0
59957,-111.111111111111,4,2,1,5,0,0
60034,-111.111111111111,4,2,1,50,0,0
60653,-111.111111111111,4,2,1,5,0,0
64828,-111.111111111111,4,2,1,50,0,0
65060,-111.111111111111,4,2,1,5,0,0
65137,-111.111111111111,4,2,1,60,0,0
65369,-111.111111111111,4,2,1,5,0,0
65446,-99.9999999999999,4,2,1,70,0,1
70008,-99.9999999999999,4,2,1,5,0,1
70086,-99.9999999999999,4,2,1,70,0,1
70318,-99.9999999999999,4,2,1,5,0,1
70395,-99.9999999999999,4,2,1,70,0,1
72483,-99.9999999999999,4,2,1,5,0,1
72560,-99.9999999999999,4,2,1,70,0,1
72792,-99.9999999999999,4,2,1,5,0,1
72869,-99.9999999999999,4,2,1,70,0,1
77431,-99.9999999999999,4,2,1,5,0,1
77508,-99.9999999999999,4,2,1,70,0,1
77740,-99.9999999999999,4,2,1,5,0,1
77818,-99.9999999999999,4,2,1,70,0,1
80292,-99.9999999999999,4,2,1,70,0,1
82379,-99.9999999999999,4,2,1,5,0,1
82457,-99.9999999999999,4,2,1,70,0,1
82689,-99.9999999999999,4,2,1,5,0,1
82766,-99.9999999999999,4,2,1,70,0,1
85395,-99.9999999999999,4,2,1,60,0,0
105111,-99.9999999999999,4,2,1,5,0,0
105189,-111.111111111111,4,2,1,60,0,0
106503,-111.111111111111,4,2,1,5,0,0
106581,-111.111111111111,4,2,1,60,0,0
110060,-111.111111111111,4,2,1,5,0,0
110137,-111.111111111111,4,2,1,60,0,0
111452,-111.111111111111,4,2,1,5,0,0
111529,-111.111111111111,4,2,1,60,0,0
113926,-111.111111111111,4,2,1,5,0,0
114003,-111.111111111111,4,2,1,60,0,0
114235,-111.111111111111,4,2,1,5,0,0
114312,-111.111111111111,4,2,1,60,0,0
115008,-111.111111111111,4,2,1,5,0,0
115086,-111.111111111111,4,2,1,60,0,0
116400,-111.111111111111,4,2,1,5,0,0
116477,-111.111111111111,4,2,1,60,0,0
119957,-111.111111111111,4,2,1,5,0,0
120034,-111.111111111111,4,2,1,60,0,0
121349,-111.111111111111,4,2,1,5,0,0
121426,-111.111111111111,4,2,1,60,0,0
124751,-111.111111111111,4,2,1,5,0,0
124828,-99.9999999999999,4,2,1,70,0,1
129390,-99.9999999999999,4,2,1,5,0,1
129467,-99.9999999999999,4,2,1,70,0,1
129699,-99.9999999999999,4,2,1,5,0,1
129776,-99.9999999999999,4,2,1,70,0,1
131864,-99.9999999999999,4,2,1,5,0,1
131941,-99.9999999999999,4,2,1,70,0,1
132173,-99.9999999999999,4,2,1,5,0,1
132251,-99.9999999999999,4,2,1,70,0,1
136812,-99.9999999999999,4,2,1,5,0,1
136890,-99.9999999999999,4,2,1,70,0,1
137122,-99.9999999999999,4,2,1,5,0,1
137199,-99.9999999999999,4,2,1,70,0,1
141761,-99.9999999999999,4,2,1,5,0,1
141838,-99.9999999999999,4,2,1,70,0,1
142070,-99.9999999999999,4,2,1,5,0,1
142148,-99.9999999999999,4,2,1,70,0,1
143617,-99.9999999999999,4,2,1,5,0,1
143694,-99.9999999999999,4,2,1,70,0,1
143926,-99.9999999999999,4,2,1,5,0,1
144003,-99.9999999999999,4,2,1,70,0,1
144544,-99.9999999999999,4,2,1,5,0,1
144622,-99.9999999999999,4,2,1,70,0,1
149184,-99.9999999999999,4,2,1,5,0,1
149261,-99.9999999999999,4,2,1,70,0,1
149493,-99.9999999999999,4,2,1,5,0,1
149570,-99.9999999999999,4,2,1,70,0,1
151658,-99.9999999999999,4,2,1,5,0,1
151735,-99.9999999999999,4,2,1,70,0,1
151967,-99.9999999999999,4,2,1,5,0,1
152044,-99.9999999999999,4,2,1,70,0,1
156606,-99.9999999999999,4,2,1,5,0,1
156684,-99.9999999999999,4,2,1,70,0,1
156916,-99.9999999999999,4,2,1,5,0,1
156993,-99.9999999999999,4,2,1,70,0,1
159467,-99.9999999999999,4,2,1,70,0,1
161555,-99.9999999999999,4,2,1,5,0,1
161632,-99.9999999999999,4,2,1,70,0,1
161864,-99.9999999999999,4,2,1,5,0,1
161941,-99.9999999999999,4,2,1,70,0,1
164570,-111.111111111111,4,2,1,60,0,0
166967,-111.111111111111,4,2,1,5,0,0
167044,-111.111111111111,4,2,1,60,0,0
169441,-111.111111111111,4,2,1,5,0,0
169519,-111.111111111111,4,2,1,60,0,0
171916,-111.111111111111,4,2,1,5,0,0
171993,-111.111111111111,4,2,1,60,0,0
174390,-111.111111111111,4,2,1,5,0,0
174467,-111.111111111111,4,2,1,55,0,0
176864,-111.111111111111,4,2,1,5,0,0
176941,-111.111111111111,4,2,1,55,0,0
179338,-111.111111111111,4,2,1,5,0,0
179416,-111.111111111111,4,2,1,55,0,0
181812,-111.111111111111,4,2,1,5,0,0
181890,-111.111111111111,4,2,1,55,0,0
184287,-111.111111111111,4,2,1,5,0,0
184364,-111.111111111111,4,2,1,50,0,0
186761,-111.111111111111,4,2,1,5,0,0
186838,-111.111111111111,4,2,1,50,0,0
189235,-111.111111111111,4,2,1,5,0,0
189312,-111.111111111111,4,2,1,50,0,0
191709,-111.111111111111,4,2,1,5,0,0
191787,-111.111111111111,4,2,1,50,0,0
194184,-111.111111111111,4,2,1,5,0,0
194261,-111.111111111111,4,2,1,45,0,0
196658,-111.111111111111,4,2,1,5,0,0
196735,-111.111111111111,4,2,1,45,0,0
199132,-111.111111111111,4,2,1,5,0,0
199209,-111.111111111111,4,2,1,45,0,0
201606,-111.111111111111,4,2,1,5,0,0
201684,-111.111111111111,4,2,1,45,0,0

[Colours]
Combo1 : 255,125,167
Combo2 : 159,232,85

[HitObjects]
15,37,20910,6,0,P|61:41|102:65,1,85.4999973907472,2|2,3:2|0:0,0:0:0:0:
128,86,21374,2,0,P|173:92|213:65,1,85.4999973907472,2|2,3:2|0:0,0:0:0:0:
276,23,21993,1,2,3:2:0:0:
343,75,22302,2,0,P|328:143|313:212,1,128.249996086121,2|0,0:0|3:2,0:0:0:0:
254,260,23075,1,2,3:2:0:0:
299,332,23385,6,0,P|329:348|384:330,1,85.4999973907472,2|2,3:2|0:0,0:0:0:0:
408,307,23849,2,0,P|443:313|507:335,2,85.4999973907472,2|2|2,3:2|0:0|3:2,0:0:0:0:
360,236,24776,1,0,0:0:0:0:
421,174,25086,2,0,P|448:119|420:63,1,128.249996086121,2|2,3:2|3:2,0:0:0:0:
347,19,25859,6,0,P|305:31|255:52,1,85.4999973907472,2|2,3:2|0:0,0:0:0:0:
240,81,26323,2,0,P|212:94|152:75,1,85.4999973907472,2|2,3:2|0:0,0:0:0:0:
88,37,26941,1,2,3:2:0:0:
25,95,27251,2,0,L|57:190,1,85.4999973907472,2|2,0:0|3:2,0:0:0:0:
90,195,27715,2,0,P|118:212|128:268,1,85.4999973907472,0|0,3:2|3:2,0:0:0:0:
103,341,28333,6,0,P|84:335|45:327,2,42.7499986953736,2|2|2,3:2|0:0|0:0,0:0:0:0:
137,366,28797,1,2,3:2:0:0:
207,318,29106,1,2,0:0:0:0:
278,364,29416,2,0,P|322:368|365:338,1,85.4999973907472,2|0,3:2|0:0,0:0:0:0:
390,271,30034,1,2,3:2:0:0:
390,271,30189,2,0,P|375:230|360:190,1,85.4999973907472,2|2,3:2|3:2,0:0:0:0:
283,154,30807,6,0,P|261:119|276:67,1,85.4999973907472,2|2,3:2|0:0,0:0:0:0:
291,41,31271,2,0,P|343:52|381:64,1,85.4999973907472,2|2,3:2|0:0,0:0:0:0:
448,19,31890,1,2,3:2:0:0:
503,83,32199,2,0,P|496:126|489:173,1,85.4999973907472,2|2,0:0|3:2,0:0:0:0:
509,205,32663,2,0,P|522:244|499:293,1,85.4999973907472,0|0,3:2|3:2,0:0:0:0:
437,334,33282,6,0,P|398:338|346:358,1,85.4999973907472,2|2,3:2|0:0,0:0:0:0:
318,331,33745,1,2,3:2:0:0:
250,383,34055,1,2,0:0:0:0:
185,326,34364,2,0,B|181:249|221:282|215:188,2,128.249996086121,2|2|2,3:2|0:0|3:2,0:0:0:0:
151,353,35446,1,2,3:2:0:0:
69,379,35756,6,0,P|31:373|11:328,1,85.4999973907472,2|2,3:2|0:0,0:0:0:0:
2,291,36220,2,0,P|11:252|26:198,1,85.4999973907472,2|0,3:2|0:0,0:0:0:0:
86,151,36838,1,2,3:2:0:0:
24,91,37148,1,2,0:0:0:0:
77,24,37457,2,0,P|128:37|209:67,1,128.249996086121,2|0,3:2|3:2,0:0:0:0:
265,116,38230,6,0,P|307:118|351:89,1,85.4999973907472,2|2,3:2|0:0,0:0:0:0:
374,67,38694,1,2,3:2:0:0:
452,100,39003,2,0,P|482:132|480:181,1,85.4999973907472,2|0,0:0|3:2,0:0:0:0:
449,197,39467,2,0,P|389:212|326:244,2,128.249996086121,2|2|0,3:2|3:2|3:2,0:0:0:0:
502,264,40704,6,0,P|516:303|457:356,1,128.249996086121,2|2,3:2|3:2,0:0:0:0:
416,359,41323,1,0,3:2:0:0:
306,303,41787,1,2,3:2:0:0:
306,303,41941,2,0,P|314:273|326:231,2,64.1249980430604,2|2|2,3:2|0:0|3:2,0:0:0:0:
268,323,42560,2,0,P|276:353|285:384,2,64.1249980430604,2|2|2,3:2|0:0|0:0,0:0:0:0:
229,304,43178,6,0,P|171:304|70:364,1,170.999994781494,2|0,3:2|3:2,0:0:0:0:
7,248,44261,1,2,3:2:0:0:
7,248,44416,2,0,P|-8:216|9:171,1,85.4999973907472,2|0,3:2|0:0,0:0:0:0:
44,148,44879,2,0,P|103:167|129:184,1,85.4999973907472,2|0,3:2|3:2,0:0:0:0:
158,202,45343,1,2,3:2:0:0:
204,274,45653,6,0,P|246:282|296:253,1,85.4999973907472,2|2,3:2|0:0,0:0:0:0:
315,236,46117,2,0,P|307:194|296:147,1,85.4999973907472,2|0,3:2|0:0,0:0:0:0:
231,97,46735,1,0,3:2:0:0:
277,25,47044,2,0,P|315:22|359:50,1,85.4999973907472,0|2,0:0|3:2,0:0:0:0:
390,69,47508,2,0,P|423:60|455:39,2,64.1249980430604,2|2|2,3:2|0:0|0:0,0:0:0:0:
388,112,48127,6,0,P|356:124|301:159,1,85.4999973907472,2|2,3:2|0:0,0:0:0:0:
278,176,48591,1,2,3:2:0:0:
208,134,48900,1,2,0:0:0:0:
208,134,49055,1,2,0:0:0:0:
137,182,49364,2,0,B|63:180|91:129|15:127,2,128.249996086121,2|2|2,3:2|3:2|3:2,0:0:0:0:
162,263,50601,6,0,P|212:246|286:287,1,128.249996086121,2|2,3:2|3:2,0:0:0:0:
304,309,51220,1,0,3:2:0:0:
409,235,51684,1,2,3:2:0:0:
409,235,51838,2,0,P|439:221|481:219,2,64.1249980430604,2|2|2,3:2|0:0|3:2,0:0:0:0:
378,204,52457,2,0,P|344:201|315:188,2,64.1249980430604,2|2|2,3:2|0:0|0:0,0:0:0:0:
386,162,53075,6,0,P|423:92|376:15,1,170.999994781494,2|0,3:2|3:2,0:0:0:0:
253,2,54158,1,2,3:2:0:0:
253,2,54312,2,0,P|217:13|165:37,1,85.4999973907472,2|0,3:2|0:0,0:0:0:0:
157,72,54776,2,0,P|108:75|74:53,1,85.4999973907472,2|0,3:2|3:2,0:0:0:0:
44,29,55240,1,2,0:0:0:0:
5,105,55550,6,0,P|13:143|23:199,1,85.4999973907472,2|2,3:2|0:0,0:0:0:0:
51,218,56014,2,0,P|28:256|33:295,1,85.4999973907472,2|2,3:2|0:0,0:0:0:0:
64,324,56477,1,2,0:0:0:0:
64,324,56632,1,2,3:2:0:0:
142,291,56941,2,0,P|205:301|264:325,1,128.249996086121,0|0,0:0|3:2,0:0:0:0:
330,380,57715,1,0,3:2:0:0:
402,334,58024,6,0,P|426:300|418:250,1,85.4999973907472,0|0,3:2|0:0,0:0:0:0:
385,186,58642,1,0,3:2:0:0:
385,186,58797,1,0,0:0:0:0:
307,222,59106,1,2,3:2:0:0:
234,177,59416,2,0,P|211:135|226:94,1,85.4999973907472,2|2,0:0|3:2,0:0:0:0:
237,17,60034,2,0,P|297:33|368:57,1,128.249996086121,2|2,0:0|3:2,0:0:0:0:
37,14,64828,6,0,P|18:51|34:89,1,85.4999973907472,2|2,0:0|0:0,0:0:0:0:
109,148,65446,6,0,P|153:136|205:128,1,95,6|2,3:2|0:0,0:0:0:0:
248,152,65910,1,0,3:2:0:0:
248,152,66065,2,0,P|297:148|330:105,1,95,0|0,3:2|0:0,0:0:0:0:
376,34,66684,2,0,P|425:36|465:81,1,95,0|0,3:2|0:0,0:0:0:0:
496,152,67302,2,0,P|440:195|430:264,1,142.5,2|0,3:2|0:0,0:0:0:0:
439,309,67921,6,0,P|400:343|353:335,1,95,2|2,3:2|0:0,0:0:0:0:
320,322,68385,1,0,3:2:0:0:
320,322,68539,2,0,P|283:331|218:359,1,95,2|0,3:2|0:0,0:0:0:0:
139,379,69158,2,0,P|89:375|56:338,1,95,0|0,3:2|0:0,0:0:0:0:
20,257,69776,1,2,3:2:0:0:
101,206,70086,1,2,3:2:0:0:
28,147,70395,6,0,P|20:98|9:48,1,95,2|0,3:2|0:0,0:0:0:0:
39,16,70859,2,0,P|88:8|127:50,1,95,2|0,3:2|0:0,0:0:0:0:
148,73,71323,2,0,P|194:85|236:65,1,95,2|0,3:2|3:2,0:0:0:0:
368,9,72096,1,2,3:2:0:0:
368,9,72251,1,2,3:2:0:0:
437,73,72560,1,2,3:2:0:0:
378,147,72869,6,0,P|333:162|278:186,1,95,2|2,3:2|0:0,0:0:0:0:
264,220,73333,2,0,P|217:222|167:178,1,95,2|2,3:2|0:0,0:0:0:0:
71,110,74106,1,2,3:2:0:0:
71,110,74261,2,0,P|84:64|95:2,2,95,2|2|2,0:0|3:2|0:0,0:0:0:0:
28,131,75034,1,2,3:2:0:0:
2,222,75343,6,0,P|48:230|85:259,1,95,2|0,3:2|0:0,0:0:0:0:
108,300,75807,1,2,3:2:0:0:
108,300,75962,2,0,P|141:306|196:272,1,95,0|0,3:2|0:0,0:0:0:0:
229,189,76581,2,0,P|275:179|323:220,1,95,0|0,3:2|0:0,0:0:0:0:
362,284,77199,1,2,3:2:0:0:
454,304,77508,1,2,3:2:0:0:
494,217,77818,6,0,P|501:150|511:65,2,142.5,2|2|2,3:2|3:2|0:0,0:0:0:0:
454,304,79055,2,0,P|391:307|317:370,1,142.5,2|0,3:2|0:0,0:0:0:0:
285,373,79673,2,0,P|236:379|190:351,1,95,2|2,3:2|3:2,0:0:0:0:
137,284,80292,6,0,P|151:229|168:178,1,95,2|0,3:2|0:0,0:0:0:0:
204,167,80756,1,2,3:2:0:0:
204,167,80910,2,0,P|219:126|186:68,1,95,0|0,3:2|0:0,0:0:0:0:
140,6,81529,2,0,P|103:33|41:37,1,95,0|0,3:2|0:0,0:0:0:0:
13,125,82148,1,2,3:2:0:0:
79,193,82457,1,2,3:2:0:0:
32,275,82766,6,0,P|72:283|225:337,3,190,2|2|2|2,3:2|3:2|3:2|3:2,0:0:0:0:
305,367,84931,1,8,2:3:0:0:
305,367,85086,2,0,P|339:335|330:284,1,95,4|2,2:3|3:2,0:0:0:0:
486,33,104879,5,2,3:2:0:0:
425,93,105189,6,0,P|381:90|344:68,1,85.4999973907472,2|0,3:2|3:2,0:0:0:0:
315,38,105653,2,0,P|272:36|238:60,1,85.4999973907472,2|2,3:2|0:0,0:0:0:0:
176,119,106271,1,2,3:2:0:0:
103,74,106581,1,2,0:0:0:0:
31,121,106890,2,0,P|36:143|41:168,1,42.7499986953736,2|2,3:2|0:0,0:0:0:0:
3,240,107354,1,2,0:0:0:0:
80,276,107663,6,0,P|121:266|171:255,1,85.4999973907472,2|0,0:0|3:2,0:0:0:0:
190,223,108127,2,0,P|230:215|272:241,1,85.4999973907472,2|2,3:2|0:0,0:0:0:0:
352,246,108745,2,0,P|399:239|439:219,1,85.4999973907472,2|2,3:2|0:0,0:0:0:0:
474,233,109209,1,2,3:2:0:0:
474,233,109364,2,0,P|485:251|487:279,1,42.7499986953736,2|8,3:2|2:3,0:0:0:0:
450,349,109828,1,2,3:2:0:0:
364,340,110137,6,0,P|325:345|272:367,1,85.4999973907472,2|0,3:2|3:2,0:0:0:0:
242,377,110601,2,0,P|214:381|167:338,1,85.4999973907472,2|2,3:2|0:0,0:0:0:0:
110,287,111220,1,2,3:2:0:0:
162,219,111529,1,2,0:0:0:0:
95,164,111838,2,0,P|91:146|84:115,1,42.7499986953736,2|2,3:2|0:0,0:0:0:0:
18,69,112302,1,2,0:0:0:0:
80,10,112611,6,0,P|122:16|169:39,1,85.4999973907472,2|0,0:0|3:2,0:0:0:0:
188,66,113075,2,0,P|228:72|266:41,1,85.4999973907472,2|2,3:2|0:0,0:0:0:0:
335,1,113694,1,2,3:2:0:0:
400,55,114003,1,2,0:0:0:0:
349,124,114312,2,0,P|342:150|336:176,1,42.7499986953736,2|2,3:2|0:0,0:0:0:0:
276,223,114776,1,2,0:0:0:0:
319,296,115086,6,0,P|354:317|396:312,1,85.4999973907472,2|0,3:2|3:2,0:0:0:0:
430,286,115550,2,0,P|442:250|461:205,1,85.4999973907472,2|2,3:2|0:0,0:0:0:0:
498,129,116168,1,2,3:2:0:0:
449,58,116477,1,2,0:0:0:0:
365,74,116787,2,0,P|344:71|316:62,1,42.7499986953736,2|2,3:2|0:0,0:0:0:0:
257,10,117251,1,2,0:0:0:0:
187,58,117560,6,0,P|163:93|172:134,1,85.4999973907472,2|0,3:2|3:2,0:0:0:0:
207,158,118024,2,0,P|225:195|219:237,1,85.4999973907472,2|2,3:2|0:0,0:0:0:0:
253,315,118642,2,0,P|208:319|156:347,1,85.4999973907472,2|2,3:2|0:0,0:0:0:0:
139,363,119106,1,2,3:2:0:0:
139,363,119261,2,0,P|115:359|85:343,1,42.7499986953736,2|0,3:2|0:0,0:0:0:0:
33,295,119725,1,2,3:2:0:0:
63,215,120034,6,0,P|58:176|45:111,1,85.4999973907472,2|0,3:2|3:2,0:0:0:0:
17,102,120498,2,0,P|7:78|28:23,1,85.4999973907472,2|2,3:2|0:0,0:0:0:0:
109,4,121117,1,2,3:2:0:0:
167,66,121426,1,2,0:0:0:0:
241,23,121735,2,0,P|259:28|287:38,1,42.7499986953736,2|2,3:2|0:0,0:0:0:0:
361,3,122199,1,2,0:0:0:0:
423,59,122508,6,0,P|436:99|419:137,1,85.4999973907472,2|0,3:2|3:2,0:0:0:0:
381,158,122972,2,0,P|342:161|280:183,1,85.4999973907472,2|2,3:2|0:0,0:0:0:0:
220,136,123591,1,2,3:2:0:0:
121,275,124209,2,0,P|127:297|133:333,2,42.7499986953736,2|4|6,3:2|2:3|2:3,0:0:0:0:
50,222,124828,6,0,P|24:185|37:141,1,95,6|2,3:2|0:0,0:0:0:0:
65,103,125292,1,0,3:2:0:0:
65,103,125446,2,0,P|113:113|162:127,1,95,0|0,3:2|0:0,0:0:0:0:
230,186,126065,2,0,P|269:186|310:145,1,95,0|0,3:2|0:0,0:0:0:0:
302,54,126684,2,0,P|365:64|441:95,1,142.5,2|0,3:2|0:0,0:0:0:0:
480,114,127302,6,0,P|498:151|478:199,1,95,2|2,3:2|0:0,0:0:0:0:
435,210,127766,1,2,3:2:0:0:
435,210,127921,2,0,P|391:224|344:246,1,95,0|0,3:2|0:0,0:0:0:0:
274,306,128539,2,0,P|232:310|187:286,1,95,0|0,3:2|0:0,0:0:0:0:
156,195,129158,1,2,3:2:0:0:
214,120,129467,1,2,3:2:0:0:
160,41,129776,6,0,P|118:33|65:62,1,95,2|0,3:2|0:0,0:0:0:0:
35,85,130240,2,0,P|48:122|66:179,1,95,2|0,3:2|0:0,0:0:0:0:
37,214,130704,2,0,P|21:257|43:297,1,95,2|0,3:2|3:2,0:0:0:0:
170,372,131477,1,2,3:2:0:0:
170,372,131632,1,2,3:2:0:0:
241,307,131941,1,2,3:2:0:0:
317,363,132251,6,0,P|360:347|420:333,1,95,2|2,3:2|0:0,0:0:0:0:
439,300,132715,2,0,P|454:256|429:217,1,95,2|2,3:2|0:0,0:0:0:0:
320,134,133488,1,2,3:2:0:0:
320,134,133642,2,0,P|323:88|334:21,2,95,2|2|2,0:0|3:2|0:0,0:0:0:0:
296,175,134416,1,2,3:2:0:0:
201,170,134725,6,0,P|167:178|108:219,1,95,2|0,3:2|0:0,0:0:0:0:
69,214,135189,1,2,3:2:0:0:
69,214,135343,2,0,P|29:189|28:140,1,95,0|0,3:2|0:0,0:0:0:0:
19,49,135962,2,0,P|69:39|116:1,1,95,0|0,3:2|0:0,0:0:0:0:
199,6,136581,1,2,3:2:0:0:
266,73,136890,1,2,3:2:0:0:
347,25,137199,6,0,P|409:47|482:71,2,142.5,2|2|2,3:2|3:2|0:0,0:0:0:0:
266,73,138436,2,0,P|217:115|254:189,1,142.5,2|0,3:2|0:0,0:0:0:0:
276,210,139055,2,0,P|321:194|367:183,1,95,2|2,3:2|3:2,0:0:0:0:
457,212,139673,6,0,P|490:252|472:308,1,95,2|0,3:2|0:0,0:0:0:0:
456,330,140137,1,2,3:2:0:0:
456,330,140292,2,0,P|411:335|355:354,1,95,0|0,3:2|0:0,0:0:0:0:
273,380,140910,2,0,P|242:389|184:344,1,95,0|0,3:2|0:0,0:0:0:0:
150,272,141529,1,2,3:2:0:0:
80,336,141838,1,2,3:2:0:0:
21,260,142148,6,0,B|17:161|68:181|54:70,2,190,2|2|2,3:2|3:2|3:2,0:0:0:0:
80,336,143694,1,2,3:2:0:0:
150,272,144003,2,0,P|200:284|258:309,1,95,2|6,3:2|2:3,0:0:0:0:
317,356,144622,6,0,P|367:353|398:306,1,95,6|2,3:2|0:0,0:0:0:0:
465,257,145240,1,0,3:2:0:0:
465,257,145395,2,0,P|447:212|431:158,1,95,2|0,0:0|3:2,0:0:0:0:
452,123,145859,2,0,P|473:83|450:35,1,95,0|0,3:2|0:0,0:0:0:0:
367,4,146477,2,0,P|322:16|278:35,1,95,2|0,3:2|3:2,0:0:0:0:
199,88,147096,6,0,P|151:89|119:57,1,95,2|2,3:2|0:0,0:0:0:0:
99,14,147560,1,0,3:2:0:0:
99,14,147715,2,0,P|53:20|22:72,1,95,2|0,3:2|0:0,0:0:0:0:
6,149,148333,2,0,P|26:189|51:246,1,95,0|0,3:2|0:0,0:0:0:0:
135,268,148952,1,2,3:2:0:0:
82,347,149261,1,2,3:2:0:0:
173,372,149570,6,0,P|219:379|265:332,1,95,2|0,3:2|0:0,0:0:0:0:
292,320,150034,2,0,P|339:325|382:344,1,95,2|0,3:2|0:0,0:0:0:0:
429,350,150498,2,0,P|462:315|456:266,1,95,2|0,3:2|3:2,0:0:0:0:
378,159,151271,1,2,3:2:0:0:
378,159,151426,1,2,3:2:0:0:
440,87,151735,1,2,3:2:0:0:
381,12,152044,6,0,P|334:20|271:42,1,95,2|2,3:2|0:0,0:0:0:0:
259,71,152508,2,0,P|217:83|166:53,1,95,2|2,3:2|0:0,0:0:0:0:
37,97,153282,1,2,3:2:0:0:
37,97,153436,2,0,P|28:50|16:4,2,95,2|2|2,0:0|3:2|0:0,0:0:0:0:
16,136,154209,1,2,3:2:0:0:
87,198,154519,6,0,P|119:204|194:226,1,95,2|0,3:2|0:0,0:0:0:0:
218,256,154983,1,2,3:2:0:0:
218,256,155137,2,0,P|264:258|297:226,1,95,0|0,3:2|0:0,0:0:0:0:
339,140,155756,2,0,P|370:138|440:167,1,95,0|0,3:2|0:0,0:0:0:0:
487,234,156374,1,2,3:2:0:0:
472,328,156684,1,2,3:2:0:0:
377,340,156993,6,0,P|342:349|235:386,2,142.5,2|2|2,3:2|3:2|0:0,0:0:0:0:
472,328,158230,2,0,P|501:291|463:193,1,142.5,2|0,3:2|0:0,0:0:0:0:
434,187,158849,2,0,P|440:144|453:72,1,95,2|2,3:2|3:2,0:0:0:0:
385,24,159467,6,0,P|343:17|294:43,1,95,2|0,3:2|0:0,0:0:0:0:
277,84,159931,1,2,3:2:0:0:
277,84,160086,2,0,P|243:92|186:69,1,95,0|0,3:2|0:0,0:0:0:0:
110,16,160704,2,0,P|56:26|14:57,1,95,0|0,3:2|0:0,0:0:0:0:
21,142,161323,1,2,3:2:0:0:
96,200,161632,1,2,3:2:0:0:
42,278,161941,6,0,P|131:311|211:362,3,190,2|2|2|2,3:2|3:2|3:2|3:2,0:0:0:0:
308,377,164106,1,8,2:3:0:0:
308,377,164261,1,4,2:3:0:0:
375,324,164570,6,0,P|394:286|373:242,1,85.4999973907472,2|0,0:0|3:2,0:0:0:0:
351,215,165034,2,0,P|314:219|259:240,1,85.4999973907472,2|2,3:2|0:0,0:0:0:0:
196,188,165653,1,2,3:2:0:0:
138,249,165962,1,2,0:0:0:0:
64,205,166271,2,0,P|67:185|71:160,1,42.7499986953736,2|2,3:2|0:0,0:0:0:0:
18,94,166735,1,2,0:0:0:0:
70,27,167044,6,0,P|112:22|147:46,1,85.4999973907472,2|0,0:0|3:2,0:0:0:0:
176,78,167508,2,0,P|205:83|252:51,1,85.4999973907472,2|2,3:2|0:0,0:0:0:0:
322,7,168127,1,2,3:2:0:0:
381,68,168436,1,2,0:0:0:0:
462,42,168745,2,0,P|465:20|470:-15,2,42.7499986953736,2|10|6,3:2|2:3|2:3,0:0:0:0:
488,75,169209,1,2,3:2:0:0:
447,150,169519,6,0,P|390:164|353:175,1,85.4999973907472,2|0,3:2|3:2,0:0:0:0:
330,198,169983,2,0,P|288:200|254:162,1,85.4999973907472,2|2,3:2|0:0,0:0:0:0:
223,93,170601,1,2,3:2:0:0:
155,144,170910,1,2,0:0:0:0:
81,99,171220,2,0,P|60:103|34:114,1,42.7499986953736,2|2,3:2|0:0,0:0:0:0:
0,186,171684,1,2,0:0:0:0:
65,241,171993,6,0,P|88:248|141:281,1,85.4999973907472,2|0,0:0|3:2,0:0:0:0:
164,315,172457,2,0,P|211:314|252:301,1,85.4999973907472,2|2,3:2|0:0,0:0:0:0:
320,347,173075,1,2,3:2:0:0:
384,290,173385,1,2,0:0:0:0:
451,342,173694,2,0,P|470:331|497:322,1,42.7499986953736,2|2,3:2|0:0,0:0:0:0:
508,240,174158,1,2,3:2:0:0:
434,197,174467,6,0,P|428:156|419:101,1,85.4999973907472,2|0,3:2|3:2,0:0:0:0:
452,83,174931,2,0,P|461:45|434:9,1,85.4999973907472,2|2,3:2|0:0,0:0:0:0:
349,1,175550,1,2,3:2:0:0:
290,63,175859,1,2,0:0:0:0:
211,30,176168,2,0,P|188:33|166:39,1,42.7499986953736,2|2,3:2|0:0,0:0:0:0:
87,10,176632,1,2,0:0:0:0:
23,66,176941,6,0,P|6:101|25:149,1,85.4999973907472,2|0,3:2|3:2,0:0:0:0:
51,172,177405,2,0,P|86:180|137:196,1,85.4999973907472,2|2,3:2|0:0,0:0:0:0:
208,153,178024,1,2,3:2:0:0:
264,217,178333,1,2,0:0:0:0:
334,169,178642,2,0,P|331:149|327:125,2,42.7499986953736,2|2|2,3:2|0:0|0:0,0:0:0:0:
366,196,179106,1,2,3:2:0:0:
444,162,179416,6,0,P|480:171|503:222,1,85.4999973907472,2|0,3:2|3:2,0:0:0:0:
508,253,179879,2,0,P|478:267|424:296,1,85.4999973907472,2|2,3:2|0:0,0:0:0:0:
372,353,180498,1,2,3:2:0:0:
300,306,180807,1,2,0:0:0:0:
236,364,181117,2,0,P|213:358|180:350,1,42.7499986953736,2|2,3:2|0:0,0:0:0:0:
131,295,181581,1,2,3:2:0:0:
66,350,181890,6,0,P|31:346|12:288,1,85.4999973907472,2|0,3:2|3:2,0:0:0:0:
15,262,182354,2,0,P|27:227|43:177,1,85.4999973907472,2|2,3:2|0:0,0:0:0:0:
6,102,182972,1,2,3:2:0:0:
56,32,183282,1,2,0:0:0:0:
141,30,183591,2,0,P|159:37|192:52,1,42.7499986953736,2|2,3:2|0:0,0:0:0:0:
237,110,184055,1,2,3:2:0:0:
305,59,184364,6,0,P|347:53|406:35,1,85.4999973907472,2|0,3:2|3:2,0:0:0:0:
424,64,184828,2,0,P|450:95|447:144,1,85.4999973907472,2|2,3:2|0:0,0:0:0:0:
405,211,185446,1,2,3:2:0:0:
330,168,185756,1,2,0:0:0:0:
263,222,186065,2,0,P|240:229|218:232,1,42.7499986953736,2|2,3:2|0:0,0:0:0:0:
153,179,186529,1,2,0:0:0:0:
89,235,186838,6,0,P|70:272|83:311,1,85.4999973907472,2|0,0:0|3:2,0:0:0:0:
118,336,187302,2,0,P|156:346|210:366,1,85.4999973907472,2|2,3:2|0:0,0:0:0:0:
273,319,187921,1,2,3:2:0:0:
336,376,188230,1,2,0:0:0:0:
408,330,188539,2,0,P|427:335|457:344,2,42.7499986953736,2|10|4,3:2|2:3|2:3,0:0:0:0:
388,291,189003,1,2,3:2:0:0:
455,239,189312,6,0,P|473:207|454:148,1,85.4999973907472,2|0,3:2|3:2,0:0:0:0:
436,128,189776,2,0,P|444:90|458:34,1,85.4999973907472,2|2,3:2|0:0,0:0:0:0:
380,1,190395,1,2,3:2:0:0:
313,55,190704,1,2,0:0:0:0:
239,10,191014,2,0,P|217:15|190:23,1,42.7499986953736,2|2,3:2|0:0,0:0:0:0:
140,84,191477,1,2,0:0:0:0:
206,138,191787,6,0,P|213:180|221:235,1,85.4999973907472,2|0,0:0|3:2,0:0:0:0:
228,264,192251,2,0,P|195:285|145:272,1,85.4999973907472,2|2,3:2|0:0,0:0:0:0:
73,311,192869,1,2,3:2:0:0:
13,249,193178,1,2,0:0:0:0:
60,177,193488,2,0,P|56:157|48:124,1,42.7499986953736,2|2,3:2|0:0,0:0:0:0:
1,64,193952,1,2,3:2:0:0:
70,14,194261,6,0,P|102:12|159:46,1,85.4999973907472,2|0,3:2|3:2,0:0:0:0:
169,72,194725,2,0,P|218:81|254:48,1,85.4999973907472,2|2,3:2|0:0,0:0:0:0:
313,9,195343,1,2,3:2:0:0:
366,75,195653,1,2,0:0:0:0:
435,25,195962,2,0,P|456:32|477:42,1,42.7499986953736,2|2,3:2|0:0,0:0:0:0:
509,118,196426,1,2,0:0:0:0:
454,183,196735,6,0,P|406:198|365:222,1,85.4999973907472,2|0,3:2|3:2,0:0:0:0:
341,242,197199,2,0,P|300:245|268:218,1,85.4999973907472,2|2,3:2|0:0,0:0:0:0:
211,154,197818,1,2,3:2:0:0:
141,203,198127,1,2,0:0:0:0:
69,156,198436,2,0,P|74:137|81:111,2,42.7499986953736,2|2|2,3:2|0:0|3:2,0:0:0:0:
35,182,198900,1,2,3:2:0:0:
46,266,199209,6,0,P|86:277|123:307,1,85.4999973907472,2|0,3:2|3:2,0:0:0:0:
145,338,199673,2,0,P|191:340|226:310,1,85.4999973907472,2|2,3:2|0:0,0:0:0:0:
289,265,200292,1,2,3:2:0:0:
349,325,200601,1,2,0:0:0:0:
418,275,200910,2,0,P|413:251|407:226,1,42.7499986953736,2|2,3:2|0:0,0:0:0:0:
466,170,201374,1,2,3:2:0:0:
413,102,201684,6,0,P|375:103|330:126,1,85.4999973907472,2|0,3:2|3:2,0:0:0:0:
300,152,202148,2,0,P|260:156|225:129,1,85.4999973907472,2|2,3:2|0:0,0:0:0:0:
180,57,202766,1,2,3:2:0:0:
116,113,203075,1,2,0:0:0:0:
48,60,203385,1,2,3:2:0:0:
48,60,203539,1,2,0:0:0:0:
