osu file format v14

[General]
AudioFilename: audio.mp3
AudioLeadIn: 0
PreviewTime: 64751
Countdown: 0
SampleSet: Soft
StackLeniency: 0.3
Mode: 0
LetterboxInBreaks: 0
WidescreenStoryboard: 1

[Editor]
Bookmarks: 20863,40657,60451,65399,85348,105142,124781,164369,203802
DistanceSpacing: 1.5
BeatDivisor: 8
GridSize: 32
TimelineZoom: 1.5

[Metadata]
Title:Let Me Stay Here
TitleUnicode:Let Me Stay Here
Artist:Ceres Fauna
ArtistUnicode:Ceres Fauna
Creator:Gweon Sua
Version:Hard
Source:
Tags:セレス・ファウナ hololive production ホロライブプロダクション 2nd second gen generation council virtual youtuber vtuber japanese english en pop jpop lullaby xahlt kuon- jazz bossa nova samba track shibayan shibayanrecords
BeatmapID:3621447
BeatmapSetID:1766945

[Difficulty]
HPDrainRate:4
CircleSize:4.5
OverallDifficulty:6
ApproachRate:8
SliderMultiplier:2.2
SliderTickRate:1

[Events]
//Background and Video events
0,0,"Let Me Stay Here.jpg",0,0
Video,47,"VD.mp4"
//Break Periods
2,60698,64078
2,85595,104129
//Storyboard Layer 0 (Background)
//Storyboard Layer 1 (Fail)
//Storyboard Layer 2 (Pass)
//Storyboard Layer 3 (Foreground)
//Storyboard Layer 4 (Overlay)
//Storyboard Sound Samples

[TimingPoints]
11014,618.556701030928,4,2,1,50,1,0
20910,-111.111111111111,4,2,1,50,0,0
21916,-111.111111111111,4,2,1,5,0,0
21993,-111.111111111111,4,2,1,50,0,0
24081,-111.111111111111,4,2,1,5,0,0
24158,-111.111111111111,4,2,1,50,0,0
26864,-111.111111111111,4,2,1,5,0,0
26941,-111.111111111111,4,2,1,50,0,0
29338,-111.111111111111,4,2,1,5,0,0
29416,-111.111111111111,4,2,1,50,0,0
30421,-111.111111111111,4,2,1,5,0,0
30498,-111.111111111111,4,2,1,50,0,0
31812,-111.111111111111,4,2,1,5,0,0
31890,-111.111111111111,4,2,1,50,0,0
34287,-111.111111111111,4,2,1,5,0,0
34364,-111.111111111111,4,2,1,50,0,0
45266,-111.111111111111,4,2,1,5,0,0
45343,-111.111111111111,4,2,1,50,0,0
50215,-111.111111111111,4,2,1,5,0,0
50292,-111.111111111111,4,2,1,50,0,0
55163,-111.111111111111,4,2,1,5,0,0
55240,-111.111111111111,4,2,1,50,0,0
59338,-111.111111111111,4,2,1,5,0,0
59416,-111.111111111111,4,2,1,50,0,0
59957,-111.111111111111,4,2,1,5,0,0
60034,-111.111111111111,4,2,1,50,0,0
60653,-111.111111111111,4,2,1,5,0,0
64828,-111.111111111111,4,2,1,50,0,0
65060,-111.111111111111,4,2,1,5,0,0
65137,-111.111111111111,4,2,1,60,0,0
65369,-111.111111111111,4,2,1,5,0,0
65446,-99.9999999999999,4,2,1,70,0,1
70008,-99.9999999999999,4,2,1,5,0,1
70086,-99.9999999999999,4,2,1,70,0,1
70318,-99.9999999999999,4,2,1,5,0,1
70395,-99.9999999999999,4,2,1,70,0,1
72483,-99.9999999999999,4,2,1,5,0,1
72560,-99.9999999999999,4,2,1,70,0,1
72792,-99.9999999999999,4,2,1,5,0,1
72869,-99.9999999999999,4,2,1,70,0,1
77431,-99.9999999999999,4,2,1,5,0,1
77508,-99.9999999999999,4,2,1,70,0,1
77740,-99.9999999999999,4,2,1,5,0,1
77818,-99.9999999999999,4,2,1,70,0,1
80292,-99.9999999999999,4,2,1,70,0,1
82379,-99.9999999999999,4,2,1,5,0,1
82457,-99.9999999999999,4,2,1,70,0,1
82689,-99.9999999999999,4,2,1,5,0,1
82766,-99.9999999999999,4,2,1,70,0,1
85395,-99.9999999999999,4,2,1,60,0,0
104879,-111.111111111111,4,2,1,60,0,0
105111,-111.111111111111,4,2,1,5,0,0
105189,-111.111111111111,4,2,1,60,0,0
106503,-111.111111111111,4,2,1,5,0,0
106581,-111.111111111111,4,2,1,60,0,0
110060,-111.111111111111,4,2,1,5,0,0
110137,-111.111111111111,4,2,1,60,0,0
111452,-111.111111111111,4,2,1,5,0,0
111529,-111.111111111111,4,2,1,60,0,0
113926,-111.111111111111,4,2,1,5,0,0
114003,-111.111111111111,4,2,1,60,0,0
114235,-111.111111111111,4,2,1,5,0,0
114312,-111.111111111111,4,2,1,60,0,0
115008,-111.111111111111,4,2,1,5,0,0
115086,-111.111111111111,4,2,1,60,0,0
116400,-111.111111111111,4,2,1,5,0,0
116477,-111.111111111111,4,2,1,60,0,0
119957,-111.111111111111,4,2,1,5,0,0
120034,-111.111111111111,4,2,1,60,0,0
121349,-111.111111111111,4,2,1,5,0,0
121426,-111.111111111111,4,2,1,60,0,0
124751,-111.111111111111,4,2,1,5,0,0
124828,-99.9999999999999,4,2,1,70,0,1
129390,-99.9999999999999,4,2,1,5,0,1
129467,-99.9999999999999,4,2,1,70,0,1
129699,-99.9999999999999,4,2,1,5,0,1
129776,-99.9999999999999,4,2,1,70,0,1
131864,-99.9999999999999,4,2,1,5,0,1
131941,-99.9999999999999,4,2,1,70,0,1
132173,-99.9999999999999,4,2,1,5,0,1
132251,-99.9999999999999,4,2,1,70,0,1
136812,-99.9999999999999,4,2,1,5,0,1
136890,-99.9999999999999,4,2,1,70,0,1
137122,-99.9999999999999,4,2,1,5,0,1
137199,-99.9999999999999,4,2,1,70,0,1
139673,-99.9999999999999,4,2,1,70,0,1
141761,-99.9999999999999,4,2,1,5,0,1
141838,-99.9999999999999,4,2,1,70,0,1
142070,-99.9999999999999,4,2,1,5,0,1
142148,-99.9999999999999,4,2,1,70,0,1
143617,-99.9999999999999,4,2,1,5,0,1
143694,-99.9999999999999,4,2,1,70,0,1
143926,-99.9999999999999,4,2,1,5,0,1
144003,-99.9999999999999,4,2,1,70,0,1
144544,-99.9999999999999,4,2,1,5,0,1
144622,-99.9999999999999,4,2,1,70,0,1
149184,-99.9999999999999,4,2,1,5,0,1
149261,-99.9999999999999,4,2,1,70,0,1
149493,-99.9999999999999,4,2,1,5,0,1
149570,-99.9999999999999,4,2,1,70,0,1
151658,-99.9999999999999,4,2,1,5,0,1
151735,-99.9999999999999,4,2,1,70,0,1
151967,-99.9999999999999,4,2,1,5,0,1
152044,-99.9999999999999,4,2,1,70,0,1
156606,-99.9999999999999,4,2,1,5,0,1
156684,-99.9999999999999,4,2,1,70,0,1
156916,-99.9999999999999,4,2,1,5,0,1
156993,-99.9999999999999,4,2,1,70,0,1
159467,-99.9999999999999,4,2,1,70,0,1
161555,-99.9999999999999,4,2,1,5,0,1
161632,-99.9999999999999,4,2,1,70,0,1
161864,-99.9999999999999,4,2,1,5,0,1
161941,-99.9999999999999,4,2,1,70,0,1
164570,-111.111111111111,4,2,1,60,0,0
166967,-111.111111111111,4,2,1,5,0,0
167044,-111.111111111111,4,2,1,60,0,0
169441,-111.111111111111,4,2,1,5,0,0
169519,-111.111111111111,4,2,1,60,0,0
171916,-111.111111111111,4,2,1,5,0,0
171993,-111.111111111111,4,2,1,60,0,0
174390,-111.111111111111,4,2,1,5,0,0
174467,-111.111111111111,4,2,1,55,0,0
176864,-111.111111111111,4,2,1,5,0,0
176941,-111.111111111111,4,2,1,55,0,0
179338,-111.111111111111,4,2,1,5,0,0
179416,-111.111111111111,4,2,1,55,0,0
181812,-111.111111111111,4,2,1,5,0,0
181890,-111.111111111111,4,2,1,55,0,0
184287,-111.111111111111,4,2,1,5,0,0
184364,-111.111111111111,4,2,1,50,0,0
186761,-111.111111111111,4,2,1,5,0,0
186838,-111.111111111111,4,2,1,50,0,0
189235,-111.111111111111,4,2,1,5,0,0
189312,-111.111111111111,4,2,1,50,0,0
191709,-111.111111111111,4,2,1,5,0,0
191787,-111.111111111111,4,2,1,50,0,0
194184,-111.111111111111,4,2,1,5,0,0
194261,-111.111111111111,4,2,1,45,0,0
196658,-111.111111111111,4,2,1,5,0,0
196735,-111.111111111111,4,2,1,45,0,0
199132,-111.111111111111,4,2,1,5,0,0
199209,-111.111111111111,4,2,1,45,0,0
201606,-111.111111111111,4,2,1,5,0,0
201684,-111.111111111111,4,2,1,45,0,0

[Colours]
Combo1 : 255,125,167
Combo2 : 159,232,85

[HitObjects]
18,17,20910,6,0,P|64:14|113:47,1,98.9999969787599,2|2,3:2|0:0,0:0:0:0:
169,82,21374,2,0,P|194:74|220:54,1,49.4999984893799,2|0,3:2|3:2,0:0:0:0:
260,3,21684,2,0,P|284:6|307:14,1,49.4999984893799,2|0,0:0|0:0,0:0:0:0:
373,49,21993,2,0,P|362:80|352:109,1,49.4999984893799,2|0,3:2|3:2,0:0:0:0:
290,128,22302,2,0,P|304:205|317:285,1,148.49999546814,2|0,0:0|3:2,0:0:0:0:
272,335,22921,2,0,P|246:337|219:341,2,49.4999984893799,2|2|2,0:0|3:2|0:0,0:0:0:0:
364,380,23385,6,0,P|390:382|445:321,1,98.9999969787599,2|2,3:2|0:0,0:0:0:0:
490,280,23849,2,0,P|481:256|468:216,1,49.4999984893799,2|0,3:2|0:0,0:0:0:0:
439,166,24158,2,0,P|448:142|459:103,1,49.4999984893799,2|0,0:0|0:0,0:0:0:0:
495,56,24467,2,0,P|442:45|390:26,1,98.9999969787599,2|0,3:2|0:0,0:0:0:0:
251,48,25086,2,0,P|259:23|265:-4,2,49.4999984893799,2|2|2,3:2|3:2|0:0,0:0:0:0:
191,92,25550,1,2,3:2:0:0:
179,79,25859,6,0,P|147:77|74:107,1,98.9999969787599,2|2,3:2|0:0,0:0:0:0:
13,120,26323,2,0,P|22:142|30:169,1,49.4999984893799,2|0,3:2|3:2,0:0:0:0:
84,216,26632,2,0,P|61:238|56:270,1,49.4999984893799,2|0,0:0|0:0,0:0:0:0:
59,328,26941,2,0,P|83:335|114:348,1,49.4999984893799,2|0,3:2|3:2,0:0:0:0:
174,374,27251,2,0,P|198:367|222:350,1,49.4999984893799,2|0,0:0|0:0,0:0:0:0:
255,289,27560,2,0,P|301:304|346:327,1,98.9999969787599,2|0,3:2|0:0,0:0:0:0:
470,246,28178,5,2,3:2:0:0:
422,194,28333,1,2,3:2:0:0:
422,194,28488,1,2,0:0:0:0:
354,223,28642,1,2,0:0:0:0:
289,182,28797,2,0,P|266:187|239:197,1,49.4999984893799,2|0,3:2|3:2,0:0:0:0:
200,257,29106,2,0,P|166:255|141:236,1,49.4999984893799,2|0,0:0|0:0,0:0:0:0:
85,216,29416,2,0,P|68:262|50:308,2,98.9999969787599,2|0|2,3:2|0:0|3:2,0:0:0:0:
36,159,30189,6,0,P|28:132|45:99,1,49.4999984893799,2|0,3:2|0:0,0:0:0:0:
75,50,30498,2,0,P|102:55|133:64,1,49.4999984893799,2|0,3:2|0:0,0:0:0:0:
196,47,30807,6,0,P|237:44|294:21,1,98.9999969787599,2|2,3:2|0:0,0:0:0:0:
359,51,31271,2,0,P|372:71|378:111,1,49.4999984893799,2|0,3:2|3:2,0:0:0:0:
323,147,31581,2,0,P|306:165|302:189,1,49.4999984893799,2|0,0:0|0:0,0:0:0:0:
312,263,31890,2,0,P|334:277|352:295,1,49.4999984893799,2|0,3:2|3:2,0:0:0:0:
403,345,32199,2,0,P|436:348|456:338,1,49.4999984893799,2|0,0:0|0:0,0:0:0:0:
494,283,32508,1,2,3:2:0:0:
494,283,32663,2,0,P|501:237|512:181,1,98.9999969787599,0|0,3:2|3:2,0:0:0:0:
485,42,33282,6,0,P|455:47|426:63,1,49.4999984893799,2|2,3:2|0:0,0:0:0:0:
374,92,33591,1,2,0:0:0:0:
374,92,33745,2,0,P|345:87|318:76,1,49.4999984893799,2|0,3:2|3:2,0:0:0:0:
270,27,34055,2,0,P|246:29|223:38,1,49.4999984893799,2|0,0:0|0:0,0:0:0:0:
177,97,34364,2,0,P|205:166|220:239,2,148.49999546814,2|2|2,3:2|0:0|3:2,0:0:0:0:
130,38,35446,2,0,P|109:51|73:59,1,49.4999984893799,2|0,3:2|0:0,0:0:0:0:
11,123,35756,6,0,P|58:135|101:160,1,98.9999969787599,2|2,3:2|0:0,0:0:0:0:
128,229,36220,2,0,P|154:243|243:182,1,148.49999546814,2|0,3:2|0:0,0:0:0:0:
292,131,36838,2,0,P|315:134|353:151,1,49.4999984893799,2|0,3:2|3:2,0:0:0:0:
390,196,37148,2,0,P|413:193|451:176,1,49.4999984893799,2|0,0:0|0:0,0:0:0:0:
496,228,37457,2,0,P|519:270|505:316,1,98.9999969787599,2|0,3:2|0:0,0:0:0:0:
369,374,38075,1,2,3:2:0:0:
369,374,38230,6,0,P|327:359|262:351,1,98.9999969787599,2|2,3:2|0:0,0:0:0:0:
203,377,38694,2,0,P|181:377|144:359,1,49.4999984893799,2|0,3:2|3:2,0:0:0:0:
93,326,39003,2,0,P|111:287|126:228,1,98.9999969787599,2|0,0:0|3:2,0:0:0:0:
138,155,39467,2,0,B|57:157|89:205|-2:198,2,148.49999546814,2|2|0,3:2|3:2|3:2,0:0:0:0:
234,268,40704,6,0,P|280:270|322:216,1,98.9999969787599,2|0,3:2|0:0,0:0:0:0:
391,218,41168,1,2,3:2:0:0:
391,218,41323,2,0,P|380:172|368:116,1,98.9999969787599,0|0,3:2|0:0,0:0:0:0:
337,54,41787,1,2,3:2:0:0:
277,97,41941,2,0,P|240:103|204:111,2,74.2499977340699,2|2|2,3:2|0:0|3:2,0:0:0:0:
337,54,42560,2,0,P|373:47|409:39,2,74.2499977340699,2|2|2,3:2|0:0|0:0,0:0:0:0:
274,14,43178,6,0,P|237:20|169:33,1,98.9999969787599,2|0,3:2|0:0,0:0:0:0:
28,13,43797,1,0,3:2:0:0:
28,13,43952,2,0,P|4:61|22:100,1,98.9999969787599,0|2,0:0|3:2,0:0:0:0:
80,144,44416,2,0,P|56:196|39:242,1,98.9999969787599,2|0,3:2|0:0,0:0:0:0:
0,296,44879,2,0,P|44:271|107:315,1,98.9999969787599,2|0,3:2|3:2,0:0:0:0:
140,336,45343,2,0,P|166:335|191:324,1,49.4999984893799,2|0,3:2|0:0,0:0:0:0:
247,256,45653,6,0,P|300:272|350:315,1,98.9999969787599,2|2,3:2|0:0,0:0:0:0:
386,351,46117,1,2,3:2:0:0:
386,351,46271,2,0,P|440:351|489:269,1,148.49999546814,0|0,3:2|3:2,0:0:0:0:
477,130,47044,2,0,P|416:144|364:172,1,98.9999969787599,0|2,0:0|3:2,0:0:0:0:
313,133,47508,2,0,P|291:107|291:52,2,74.2499977340699,2|2|2,3:2|0:0|0:0,0:0:0:0:
271,212,48127,6,0,P|224:222|168:263,1,98.9999969787599,2|2,3:2|0:0,0:0:0:0:
135,307,48591,2,0,P|91:310|45:261,1,98.9999969787599,2|2,3:2|0:0,0:0:0:0:
7,213,49055,2,0,P|17:191|25:168,1,49.4999984893799,2|0,0:0|3:2,0:0:0:0:
94,139,49364,2,0,P|60:63|63:-12,2,148.49999546814,2|2|2,3:2|3:2|3:2,0:0:0:0:
202,37,50601,6,0,P|247:41|301:72,1,98.9999969787599,2|0,3:2|0:0,0:0:0:0:
349,121,51065,1,2,3:2:0:0:
349,121,51220,2,0,P|323:159|298:222,1,98.9999969787599,0|0,3:2|0:0,0:0:0:0:
333,275,51684,1,2,3:2:0:0:
278,325,51838,2,0,P|241:319|185:314,2,74.2499977340699,2|2|2,3:2|0:0|3:2,0:0:0:0:
333,275,52457,2,0,P|369:280|426:286,2,74.2499977340699,2|2|2,3:2|0:0|0:0,0:0:0:0:
302,207,53075,6,0,P|254:200|185:193,1,98.9999969787599,2|0,3:2|0:0,0:0:0:0:
76,272,53694,1,0,3:2:0:0:
76,272,53849,2,0,P|49:273|11:212,1,98.9999969787599,0|2,0:0|3:2,0:0:0:0:
7,146,54312,2,0,P|43:85|58:46,1,98.9999969787599,2|0,3:2|0:0,0:0:0:0:
113,15,54776,2,0,P|136:60|153:106,1,98.9999969787599,2|0,3:2|3:2,0:0:0:0:
222,133,55240,2,0,P|251:130|275:119,1,49.4999984893799,2|0,0:0|0:0,0:0:0:0:
321,45,55550,6,0,P|369:52|409:82,1,98.9999969787599,2|2,3:2|0:0,0:0:0:0:
479,105,56014,2,0,P|455:151|438:226,1,98.9999969787599,2|2,3:2|0:0,0:0:0:0:
393,251,56477,1,2,0:0:0:0:
393,251,56632,2,0,P|415:301|438:367,1,98.9999969787599,2|0,3:2|0:0,0:0:0:0:
288,384,57251,1,0,3:2:0:0:
288,384,57405,2,0,P|239:375|225:308,1,98.9999969787599,0|0,3:2|3:2,0:0:0:0:
190,265,57869,1,0,0:0:0:0:
189,265,58024,6,0,P|210:219|225:172,1,98.9999969787599,0|0,3:2|0:0,0:0:0:0:
154,47,58642,1,0,3:2:0:0:
154,47,58797,2,0,P|128:58|82:67,1,49.4999984893799,0|0,0:0|0:0,0:0:0:0:
33,63,59106,2,0,P|7:104|19:150,1,98.9999969787599,2|2,3:2|0:0,0:0:0:0:
20,228,59570,1,0,0:0:0:0:
20,228,59725,2,0,P|43:219|85:213,1,49.4999984893799,2|0,3:2|3:2,0:0:0:0:
133,248,60034,2,0,P|158:289|146:335,1,98.9999969787599,2|0,0:0|0:0,0:0:0:0:
86,380,60498,5,2,3:2:0:0:
74,100,64828,5,2,0:0:0:0:
81,108,65137,1,2,0:0:0:0:
19,260,65446,6,0,P|72:255|121:284,1,110,6|2,3:2|0:0,0:0:0:0:
180,338,65910,1,0,3:2:0:0:
251,295,66065,2,0,P|282:248|251:178,1,110,0|0,3:2|0:0,0:0:0:0:
208,144,66529,1,0,3:2:0:0:
259,79,66684,2,0,P|312:84|361:55,1,110,0|0,3:2|0:0,0:0:0:0:
420,0,67148,1,0,3:2:0:0:
486,48,67302,2,0,P|525:107|481:194,1,165,2|0,3:2|0:0,0:0:0:0:
435,249,67921,6,0,P|375:226|302:222,1,110,2|2,3:2|0:0,0:0:0:0:
269,164,68385,1,0,3:2:0:0:
213,224,68539,2,0,P|188:270|212:318,1,110,2|0,3:2|0:0,0:0:0:0:
282,361,69003,1,0,3:2:0:0:
355,323,69158,2,0,P|420:336|484:360,1,110,0|0,3:2|0:0,0:0:0:0:
502,278,69622,1,2,3:2:0:0:
452,212,69776,2,0,P|456:182|468:142,1,55,2|0,3:2|0:0,0:0:0:0:
506,84,70086,2,0,P|507:60|481:25,1,55,2|0,3:2|0:0,0:0:0:0:
413,9,70395,6,0,P|349:22|288:55,1,110,2|0,3:2|0:0,0:0:0:0:
246,94,70859,2,0,P|191:97|145:42,1,110,2|0,3:2|0:0,0:0:0:0:
85,13,71323,2,0,P|21:24|-8:89,1,110,2|0,3:2|3:2,0:0:0:0:
31,302,72096,1,2,3:2:0:0:
98,254,72251,2,0,P|125:262|150:273,1,55,2|0,3:2|0:0,0:0:0:0:
203,337,72560,2,0,P|231:333|259:312,1,55,2|0,3:2|0:0,0:0:0:0:
309,258,72869,6,0,P|371:273|420:320,1,110,2|2,3:2|0:0,0:0:0:0:
481,266,73333,2,0,P|513:223|503:171,1,110,2|2,3:2|0:0,0:0:0:0:
261,138,74106,1,2,3:2:0:0:
261,138,74261,2,0,P|230:150|189:163,1,55,2|0,0:0|0:0,0:0:0:0:
145,209,74570,2,0,P|114:197|73:184,1,55,2|0,3:2|3:2,0:0:0:0:
43,124,74879,2,0,P|21:79|77:32,1,110,2|0,0:0|0:0,0:0:0:0:
130,3,75343,6,0,P|188:18|278:55,1,110,2|0,3:2|0:0,0:0:0:0:
313,7,75807,1,2,3:2:0:0:
382,52,75962,2,0,P|398:110|365:160,1,110,0|0,3:2|0:0,0:0:0:0:
315,208,76426,1,0,3:2:0:0:
233,190,76581,2,0,P|180:202|129:223,1,110,0|0,3:2|0:0,0:0:0:0:
57,185,77044,1,2,3:2:0:0:
10,253,77199,2,0,P|4:280|22:322,1,55,2|0,3:2|0:0,0:0:0:0:
68,365,77508,2,0,P|96:354|132:345,1,55,2|0,3:2|0:0,0:0:0:0:
185,296,77818,6,0,B|285:306|217:382|343:381,2,165,2|2|2,3:2|3:2|0:0,0:0:0:0:
120,348,78900,1,0,3:2:0:0:
48,305,79055,2,0,P|13:242|57:158,1,165,2|0,3:2|0:0,0:0:0:0:
124,128,79673,2,0,P|177:143|231:156,1,110,2|2,3:2|3:2,0:0:0:0:
313,298,80292,6,0,P|358:272|440:263,1,110,2|0,3:2|0:0,0:0:0:0:
467,197,80756,1,2,3:2:0:0:
458,114,80910,2,0,P|419:77|366:83,1,110,0|0,3:2|0:0,0:0:0:0:
301,134,81374,1,0,3:2:0:0:
222,108,81529,2,0,P|170:89|125:58,1,110,0|0,3:2|0:0,0:0:0:0:
11,178,82148,2,0,P|19:205|28:243,1,55,2|0,3:2|0:0,0:0:0:0:
97,272,82457,2,0,P|89:299|80:337,1,55,2|0,3:2|0:0,0:0:0:0:
22,381,82766,6,0,P|97:358|272:320,3,220,2|2|2|2,3:2|3:2|3:2|3:2,0:0:0:0:
308,364,84776,1,8,0:0:0:0:
381,323,84931,1,8,2:3:0:0:
381,323,85086,2,0,P|399:272|366:228,1,110,4|2,2:3|3:2,0:0:0:0:
20,35,104879,5,2,3:2:0:0:
30,45,105189,2,0,P|80:52|146:76,1,98.9999969787599,2|0,3:2|3:2,0:0:0:0:
184,113,105653,2,0,P|235:110|280:65,1,98.9999969787599,2|2,3:2|0:0,0:0:0:0:
401,10,106271,2,0,P|426:19|475:34,1,49.4999984893799,2|0,3:2|0:0,0:0:0:0:
508,87,106581,2,0,P|486:95|464:107,1,49.4999984893799,2|0,0:0|3:2,0:0:0:0:
402,148,106890,1,2,3:2:0:0:
402,148,107044,1,2,0:0:0:0:
343,284,107354,6,0,P|319:279|296:271,1,49.4999984893799,2|0,0:0|3:2,0:0:0:0:
237,223,107663,2,0,B|178:239|214:258|136:273,1,98.9999969787599,2|0,0:0|3:2,0:0:0:0:
105,328,108127,2,0,P|84:319|33:307,1,49.4999984893799,2|0,3:2|0:0,0:0:0:0:
5,250,108436,2,0,P|3:226|10:203,1,49.4999984893799,2|0,0:0|3:2,0:0:0:0:
17,129,108745,2,0,P|71:127|126:154,1,98.9999969787599,2|2,3:2|0:0,0:0:0:0:
168,94,109209,1,2,3:2:0:0:
168,94,109364,2,0,P|173:71|175:31,2,49.4999984893799,2|8|4,3:2|2:3|2:3,0:0:0:0:
217,149,109828,5,2,3:2:0:0:
228,139,110137,2,0,P|284:133|336:96,1,98.9999969787599,2|0,3:2|3:2,0:0:0:0:
360,49,110601,2,0,P|407:44|456:81,1,98.9999969787599,2|2,3:2|0:0,0:0:0:0:
498,211,111220,2,0,P|492:232|483:276,1,49.4999984893799,2|0,3:2|0:0,0:0:0:0:
412,248,111529,2,0,P|417:226|427:183,1,49.4999984893799,2|0,0:0|3:2,0:0:0:0:
380,139,111838,1,2,3:2:0:0:
380,139,111993,1,2,0:0:0:0:
243,199,112302,6,0,P|222:206|183:212,1,49.4999984893799,2|0,0:0|3:2,0:0:0:0:
134,166,112611,2,0,P|87:157|49:186,1,98.9999969787599,2|0,0:0|3:2,0:0:0:0:
3,245,113075,2,0,P|11:266|22:302,1,49.4999984893799,2|0,3:2|0:0,0:0:0:0:
61,353,113385,2,0,P|83:342|124:339,1,49.4999984893799,2|0,0:0|3:2,0:0:0:0:
168,294,113694,2,0,P|216:329|277:314,1,98.9999969787599,2|2,3:2|0:0,0:0:0:0:
394,374,114312,1,2,3:2:0:0:
394,374,114467,1,2,0:0:0:0:
490,261,114776,5,2,0:0:0:0:
500,249,115086,2,0,P|493:197|461:142,1,98.9999969787599,2|0,3:2|3:2,0:0:0:0:
486,82,115550,2,0,P|444:87|388:55,1,98.9999969787599,2|2,3:2|0:0,0:0:0:0:
253,16,116168,2,0,P|226:23|198:42,1,49.4999984893799,2|0,3:2|0:0,0:0:0:0:
154,86,116477,2,0,P|127:79|99:60,1,49.4999984893799,2|0,0:0|3:2,0:0:0:0:
49,21,116787,1,2,3:2:0:0:
49,21,116941,1,2,0:0:0:0:
5,163,117251,6,0,P|17:185|33:220,1,49.4999984893799,2|0,0:0|3:2,0:0:0:0:
4,277,117560,2,0,B|62:293|26:312|104:327,1,98.9999969787599,2|0,3:2|3:2,0:0:0:0:
153,361,118024,2,0,P|174:349|207:338,1,49.4999984893799,2|0,3:2|0:0,0:0:0:0:
248,285,118333,2,0,P|269:297|302:308,1,49.4999984893799,2|0,0:0|3:2,0:0:0:0:
346,357,118642,2,0,P|387:333|449:343,1,98.9999969787599,2|2,3:2|0:0,0:0:0:0:
486,281,119106,1,2,3:2:0:0:
486,281,119261,2,0,P|489:256|476:216,2,49.4999984893799,2|0|0,3:2|0:0|3:2,0:0:0:0:
436,336,119725,5,2,3:2:0:0:
420,325,120034,2,0,P|371:320|329:345,1,98.9999969787599,2|0,3:2|3:2,0:0:0:0:
259,371,120498,2,0,P|205:368|166:338,1,98.9999969787599,2|2,3:2|0:0,0:0:0:0:
21,342,121117,2,0,P|27:318|33:294,1,49.4999984893799,2|0,3:2|0:0,0:0:0:0:
87,243,121426,2,0,P|80:219|74:195,1,49.4999984893799,2|0,0:0|3:2,0:0:0:0:
13,152,121735,1,2,3:2:0:0:
13,152,121890,1,2,0:0:0:0:
93,27,122199,6,0,P|116:36|152:47,1,49.4999984893799,2|0,0:0|3:2,0:0:0:0:
195,91,122508,2,0,P|232:61|281:64,1,98.9999969787599,2|0,3:2|3:2,0:0:0:0:
340,108,122972,2,0,P|365:117|395:118,1,49.4999984893799,2|0,3:2|0:0,0:0:0:0:
371,191,123282,2,0,P|346:182|316:181,1,49.4999984893799,2|0,0:0|3:2,0:0:0:0:
266,228,123591,1,2,3:2:0:0:
66,139,124055,5,8,2:3:0:0:
66,139,124209,2,0,P|72:162|76:187,1,49.4999984893799,2|4,3:2|2:3,0:0:0:0:
32,247,124519,1,6,2:3:0:0:
180,318,124828,6,0,P|235:321|288:341,1,110,6|2,3:2|0:0,0:0:0:0:
358,380,125292,1,0,3:2:0:0:
422,329,125446,2,0,P|443:283|415:226,1,110,0|0,3:2|0:0,0:0:0:0:
384,157,125910,1,0,3:2:0:0:
305,183,126065,2,0,P|250:186|197:206,1,110,0|0,3:2|0:0,0:0:0:0:
138,261,126529,1,0,3:2:0:0:
58,236,126684,2,0,P|21:165|72:94,1,165,2|0,3:2|0:0,0:0:0:0:
67,16,127302,6,0,P|108:23|189:49,1,110,2|2,3:2|0:0,0:0:0:0:
254,27,127766,1,2,3:2:0:0:
292,99,127921,2,0,P|355:100|406:58,1,110,0|0,3:2|0:0,0:0:0:0:
461,28,128385,1,0,3:2:0:0:
503,99,128539,2,0,P|523:152|489:211,1,110,0|0,3:2|0:0,0:0:0:0:
437,248,129003,1,0,3:2:0:0:
360,216,129158,2,0,P|320:227|299:246,1,55,2|0,3:2|0:0,0:0:0:0:
237,275,129467,2,0,P|210:271|167:249,1,55,2|0,3:2|0:0,0:0:0:0:
132,196,129776,6,0,P|83:187|37:239,1,110,2|0,3:2|0:0,0:0:0:0:
6,299,130240,2,0,P|46:312|119:356,1,110,2|0,3:2|0:0,0:0:0:0:
181,376,130704,2,0,P|217:383|286:342,1,110,2|0,3:2|3:2,0:0:0:0:
230,108,131477,1,2,3:2:0:0:
287,48,131632,2,0,P|317:52|350:67,1,55,2|0,3:2|0:0,0:0:0:0:
392,124,131941,2,0,P|420:121|455:105,1,55,2|0,3:2|0:0,0:0:0:0:
503,182,132251,6,0,P|452:196|401:236,1,110,2|2,3:2|0:0,0:0:0:0:
350,290,132715,2,0,P|306:301|254:254,1,110,0|2,3:2|0:0,0:0:0:0:
125,55,133488,1,2,3:2:0:0:
125,55,133642,2,0,P|91:68|70:81,1,55,2|0,0:0|0:0,0:0:0:0:
19,139,133952,2,0,P|53:152|74:165,1,55,2|0,3:2|3:2,0:0:0:0:
154,222,134261,2,0,P|111:233|85:308,1,110,2|0,0:0|3:2,0:0:0:0:
134,367,134725,6,0,P|187:353|242:344,1,110,2|0,3:2|0:0,0:0:0:0:
292,279,135189,1,2,3:2:0:0:
357,328,135343,2,0,P|410:342|465:351,1,110,0|0,3:2|0:0,0:0:0:0:
492,273,135807,1,0,3:2:0:0:
447,199,135962,2,0,P|398:188|353:235,1,110,0|0,3:2|0:0,0:0:0:0:
292,279,136426,1,2,3:2:0:0:
226,227,136581,2,0,P|228:199|239:174,1,55,2|0,3:2|0:0,0:0:0:0:
298,117,136890,2,0,P|300:89|288:65,1,55,2|0,3:2|0:0,0:0:0:0:
218,21,137199,6,0,B|118:31|186:107|60:106,2,165,2|2|2,3:2|3:2|0:0,0:0:0:0:
288,65,138282,1,0,3:2:0:0:
354,16,138436,2,0,P|429:6|482:93,1,165,2|0,3:2|0:0,0:0:0:0:
507,148,139055,2,0,P|482:197|466:249,1,110,2|2,3:2|3:2,0:0:0:0:
367,381,139673,6,0,P|387:356|338:287,1,110,2|0,3:2|0:0,0:0:0:0:
307,227,140137,1,2,3:2:0:0:
237,272,140292,2,0,P|196:284|111:323,1,110,0|0,3:2|0:0,0:0:0:0:
63,352,140756,1,0,3:2:0:0:
7,291,140910,2,0,P|-18:244|2:195,1,110,0|0,3:2|0:0,0:0:0:0:
23,30,141529,2,0,P|48:42|98:51,1,55,2|0,3:2|0:0,0:0:0:0:
131,108,141838,2,0,P|156:96|206:87,1,55,2|0,3:2|0:0,0:0:0:0:
229,20,142148,6,0,P|296:47|395:46,1,165,2|0,3:2|3:2,0:0:0:0:
462,11,142766,2,0,P|422:37|423:154,1,165,2|0,3:2|3:2,0:0:0:0:
484,192,143385,2,0,P|476:218|468:262,1,55,2|0,3:2|0:0,0:0:0:0:
407,298,143694,2,0,P|398:273|381:239,1,55,2|0,3:2|3:2,0:0:0:0:
313,206,144003,1,2,3:2:0:0:
313,206,144158,1,8,2:3:0:0:
249,257,144312,1,6,2:3:0:0:
113,161,144622,6,0,P|78:157|28:228,1,110,6|2,3:2|0:0,0:0:0:0:
3,285,145086,1,0,3:2:0:0:
80,312,145240,2,0,P|133:324|184:343,1,110,0|0,3:2|0:0,0:0:0:0:
259,380,145704,1,0,3:2:0:0:
333,344,145859,2,0,P|362:306|334:239,1,110,0|0,3:2|0:0,0:0:0:0:
290,189,146323,1,0,3:2:0:0:
213,220,146477,2,0,P|169:154|204:83,1,165,2|0,3:2|3:2,0:0:0:0:
221,2,147096,6,0,P|259:11|340:51,1,110,2|2,3:2|0:0,0:0:0:0:
399,8,147560,1,0,3:2:0:0:
462,60,147715,2,0,P|482:103|441:157,1,110,2|0,3:2|0:0,0:0:0:0:
396,213,148178,1,0,3:2:0:0:
323,172,148333,2,0,P|269:177|206:198,1,110,0|0,3:2|0:0,0:0:0:0:
136,171,148797,1,2,3:2:0:0:
73,224,148952,2,0,P|59:248|58:275,1,55,2|0,3:2|0:0,0:0:0:0:
84,353,149261,2,0,P|110:346|155:342,1,55,2|0,3:2|0:0,0:0:0:0:
215,283,149570,6,0,B|278:300|239:320|323:336,1,110,2|0,3:2|0:0,0:0:0:0:
379,379,150034,2,0,P|397:349|472:336,1,110,2|0,3:2|0:0,0:0:0:0:
507,262,150498,2,0,P|516:218|459:174,1,110,2|0,3:2|3:2,0:0:0:0:
233,113,151271,1,2,3:2:0:0:
166,162,151426,2,0,P|139:167|94:179,1,55,2|0,3:2|0:0,0:0:0:0:
41,130,151735,2,0,P|27:107|27:66,1,55,2|0,3:2|0:0,0:0:0:0:
60,5,152044,6,0,P|110:17|173:41,1,110,2|2,3:2|0:0,0:0:0:0:
230,88,152508,2,0,P|281:81|317:29,1,110,2|2,3:2|0:0,0:0:0:0:
511,197,153282,1,2,3:2:0:0:
511,197,153436,2,0,P|471:205|446:223,1,55,2|0,0:0|0:0,0:0:0:0:
398,268,153745,2,0,P|372:261|346:242,1,55,2|0,3:2|3:2,0:0:0:0:
284,192,154055,2,0,P|262:221|231:292,1,110,2|0,0:0|3:2,0:0:0:0:
173,346,154519,6,0,P|122:354|76:314,1,110,2|0,3:2|0:0,0:0:0:0:
12,270,154983,1,2,3:2:0:0:
64,206,155137,2,0,P|58:155|42:91,1,110,0|0,3:2|0:0,0:0:0:0:
92,30,155601,1,0,3:2:0:0:
159,78,155756,2,0,P|219:87|264:60,1,110,0|0,3:2|0:0,0:0:0:0:
325,13,156220,1,2,3:2:0:0:
398,46,156374,2,0,P|424:57|445:74,1,55,2|0,3:2|0:0,0:0:0:0:
493,142,156684,2,0,P|466:149|440:157,1,55,2|0,3:2|0:0,0:0:0:0:
359,216,156993,6,0,B|264:194|331:138|214:114,2,165,2|2|2,3:2|3:2|0:0,0:0:0:0:
410,281,158075,1,0,3:2:0:0:
344,331,158230,2,0,P|299:339|181:379,1,165,2|0,3:2|0:0,0:0:0:0:
101,374,158849,2,0,P|55:348|55:296,1,110,2|2,3:2|3:2,0:0:0:0:
21,134,159467,6,0,P|56:139|133:175,1,110,2|0,3:2|0:0,0:0:0:0:
163,241,159931,1,2,3:2:0:0:
244,227,160086,2,0,P|276:198|259:119,1,110,0|0,3:2|0:0,0:0:0:0:
210,81,160550,1,0,3:2:0:0:
269,24,160704,2,0,P|303:16|388:22,1,110,0|0,3:2|0:0,0:0:0:0:
494,135,161323,2,0,P|470:144|442:160,1,55,2|0,3:2|0:0,0:0:0:0:
392,222,161632,2,0,P|421:230|447:243,1,55,2|0,3:2|0:0,0:0:0:0:
503,318,161941,6,0,P|467:328|286:395,3,220,2|2|2|2,3:2|3:2|3:2|3:2,0:0:0:0:
230,338,163952,1,8,0:0:0:0:
158,379,164106,1,8,2:3:0:0:
158,379,164261,2,0,P|127:370|92:365,1,55,4|0,2:3|3:2,0:0:0:0:
33,308,164570,6,0,P|14:279|46:212,1,98.9999969787599,2|0,0:0|3:2,0:0:0:0:
84,168,165034,2,0,P|125:177|187:198,1,98.9999969787599,2|2,3:2|0:0,0:0:0:0:
313,258,165653,2,0,P|338:257|375:240,1,49.4999984893799,2|0,3:2|0:0,0:0:0:0:
419,203,165962,2,0,P|413:181|404:142,1,49.4999984893799,2|0,0:0|3:2,0:0:0:0:
435,86,166271,1,2,3:2:0:0:
435,86,166426,2,0,P|427:62|418:24,1,49.4999984893799,2|0,0:0|3:2,0:0:0:0:
353,6,166735,1,2,0:0:0:0:
340,17,167044,6,0,P|300:25|227:59,1,98.9999969787599,2|0,0:0|3:2,0:0:0:0:
185,90,167508,2,0,P|130:94|87:60,1,98.9999969787599,2|2,3:2|0:0,0:0:0:0:
8,191,168127,2,0,P|15:220|23:260,1,49.4999984893799,2|0,3:2|0:0,0:0:0:0:
82,278,168436,2,0,P|74:307|67:347,1,49.4999984893799,2|0,0:0|3:2,0:0:0:0:
127,373,168745,1,2,3:2:0:0:
127,373,168900,1,10,2:3:0:0:
187,330,169055,1,6,2:3:0:0:
251,366,169209,1,2,3:2:0:0:
263,358,169519,6,0,P|313:359|362:363,1,98.9999969787599,2|0,3:2|3:2,0:0:0:0:
421,318,169983,2,0,P|443:274|429:228,1,98.9999969787599,2|2,3:2|0:0,0:0:0:0:
305,151,170601,2,0,P|279:156|249:171,1,49.4999984893799,2|0,3:2|0:0,0:0:0:0:
208,220,170910,2,0,P|181:217|152:200,1,49.4999984893799,2|0,0:0|3:2,0:0:0:0:
101,170,171220,1,2,3:2:0:0:
101,170,171374,2,0,P|108:148|120:108,1,49.4999984893799,2|0,0:0|3:2,0:0:0:0:
107,48,171684,1,2,0:0:0:0:
115,34,171993,6,0,P|159:16|203:36,1,98.9999969787599,2|0,0:0|3:2,0:0:0:0:
270,68,172457,2,0,P|320:75|364:36,1,98.9999969787599,2|2,3:2|0:0,0:0:0:0:
500,8,173075,2,0,P|492:33|484:74,1,49.4999984893799,2|0,3:2|0:0,0:0:0:0:
434,108,173385,2,0,P|441:133|450:174,1,49.4999984893799,2|0,0:0|3:2,0:0:0:0:
500,206,173694,1,2,3:2:0:0:
500,206,173849,2,0,P|490:235|484:260,1,49.4999984893799,2|0,0:0|3:2,0:0:0:0:
437,310,174158,1,2,3:2:0:0:
423,300,174467,6,0,P|375:314|337:345,1,98.9999969787599,2|0,3:2|3:2,0:0:0:0:
268,372,174931,2,0,P|219:367|184:334,1,98.9999969787599,2|2,3:2|0:0,0:0:0:0:
123,198,175550,2,0,P|129:175|138:140,1,49.4999984893799,2|0,3:2|0:0,0:0:0:0:
192,102,175859,2,0,P|188:79|184:40,1,49.4999984893799,2|0,0:0|3:2,0:0:0:0:
117,21,176168,1,2,3:2:0:0:
117,21,176323,2,0,P|91:32|66:39,1,49.4999984893799,2|0,0:0|3:2,0:0:0:0:
29,112,176632,1,2,0:0:0:0:
46,108,176941,6,0,P|84:119|148:163,1,98.9999969787599,2|0,3:2|3:2,0:0:0:0:
199,186,177405,2,0,P|247:198|298:160,1,98.9999969787599,2|2,3:2|0:0,0:0:0:0:
398,74,178024,2,0,P|421:79|454:92,1,49.4999984893799,2|0,3:2|0:0,0:0:0:0:
489,149,178333,2,0,P|480:175|473:212,1,49.4999984893799,2|0,0:0|3:2,0:0:0:0:
418,244,178642,1,2,3:2:0:0:
418,244,178797,1,2,0:0:0:0:
462,303,178952,1,2,0:0:0:0:
414,359,179106,1,2,3:2:0:0:
399,347,179416,6,0,P|351:355|305:373,1,98.9999969787599,2|0,3:2|3:2,0:0:0:0:
233,356,179879,2,0,P|203:340|203:274,1,98.9999969787599,2|2,3:2|0:0,0:0:0:0:
314,186,180498,2,0,P|303:164|295:128,1,49.4999984893799,2|0,3:2|0:0,0:0:0:0:
233,101,180807,2,0,P|244:79|252:43,1,49.4999984893799,2|0,0:0|3:2,0:0:0:0:
187,13,181117,1,2,3:2:0:0:
187,13,181271,2,0,P|163:22|124:27,1,49.4999984893799,2|0,0:0|3:2,0:0:0:0:
67,6,181581,1,2,3:2:0:0:
51,15,181890,6,0,P|27:55|51:96,1,98.9999969787599,2|0,3:2|3:2,0:0:0:0:
108,140,182354,2,0,P|126:185|100:225,1,98.9999969787599,2|2,3:2|0:0,0:0:0:0:
3,336,182972,2,0,P|24:339|57:350,1,49.4999984893799,2|0,3:2|0:0,0:0:0:0:
118,379,183282,2,0,P|139:376|167:356,1,49.4999984893799,2|0,0:0|3:2,0:0:0:0:
195,294,183591,1,2,3:2:0:0:
195,294,183745,2,0,P|221:299|262:313,1,49.4999984893799,2|0,0:0|0:0,0:0:0:0:
301,352,184055,1,2,3:2:0:0:
318,346,184364,6,0,P|344:333|341:256,1,98.9999969787599,2|0,3:2|3:2,0:0:0:0:
326,199,184828,2,0,P|286:196|215:219,1,98.9999969787599,2|2,3:2|0:0,0:0:0:0:
101,135,185446,2,0,P|91:117|91:81,1,49.4999984893799,2|0,3:2|0:0,0:0:0:0:
123,22,185756,2,0,P|150:28|190:39,1,49.4999984893799,2|0,0:0|3:2,0:0:0:0:
226,83,186065,1,2,3:2:0:0:
226,83,186220,2,0,P|251:78|288:62,1,49.4999984893799,2|0,0:0|3:2,0:0:0:0:
325,16,186529,1,2,0:0:0:0:
339,8,186838,6,0,P|388:7|426:37,1,98.9999969787599,2|0,0:0|3:2,0:0:0:0:
493,69,187302,2,0,P|472:102|460:182,1,98.9999969787599,2|2,3:2|0:0,0:0:0:0:
487,305,187921,2,0,P|462:310|437:324,1,49.4999984893799,2|0,3:2|0:0,0:0:0:0:
381,366,188230,2,0,P|355:365|331:347,1,49.4999984893799,2|0,0:0|3:2,0:0:0:0:
278,305,188539,1,2,3:2:0:0:
278,305,188694,1,10,2:3:0:0:
218,349,188849,1,4,2:3:0:0:
166,296,189003,1,2,3:2:0:0:
155,285,189312,6,0,P|121:293|53:330,1,98.9999969787599,2|0,3:2|3:2,0:0:0:0:
9,270,189776,2,0,P|-17:230|1:187,1,98.9999969787599,2|2,3:2|0:0,0:0:0:0:
125,106,190395,2,0,P|151:111|179:123,1,49.4999984893799,2|0,3:2|0:0,0:0:0:0:
223,173,190704,2,0,P|249:168|277:156,1,49.4999984893799,2|0,0:0|3:2,0:0:0:0:
324,107,191014,1,2,3:2:0:0:
324,107,191168,2,0,P|314:85|303:44,1,49.4999984893799,2|0,0:0|3:2,0:0:0:0:
353,3,191477,1,2,0:0:0:0:
368,2,191787,6,0,P|409:-6|459:46,1,98.9999969787599,2|0,0:0|3:2,0:0:0:0:
504,79,192251,2,0,P|487:119|475:191,1,98.9999969787599,2|2,3:2|0:0,0:0:0:0:
430,314,192869,2,0,P|420:288|401:263,1,49.4999984893799,2|0,3:2|0:0,0:0:0:0:
343,232,193178,2,0,P|329:252|320:275,1,49.4999984893799,2|0,0:0|3:2,0:0:0:0:
270,331,193488,1,2,3:2:0:0:
270,331,193642,2,0,P|242:341|211:336,1,49.4999984893799,2|0,0:0|3:2,0:0:0:0:
160,297,193952,1,2,3:2:0:0:
166,285,194261,6,0,P|133:270|64:303,1,98.9999969787599,2|0,3:2|3:2,0:0:0:0:
18,240,194725,2,0,P|3:215|31:152,1,98.9999969787599,2|2,3:2|0:0,0:0:0:0:
154,78,195343,2,0,P|153:53|146:23,1,49.4999984893799,2|0,3:2|0:0,0:0:0:0:
222,20,195653,2,0,P|223:45|230:75,1,49.4999984893799,2|0,0:0|3:2,0:0:0:0:
292,106,195962,1,2,3:2:0:0:
292,106,196117,2,0,P|296:131|282:168,1,49.4999984893799,2|0,0:0|3:2,0:0:0:0:
228,195,196426,1,2,0:0:0:0:
214,202,196735,6,0,P|189:244|213:298,1,98.9999969787599,2|0,3:2|3:2,0:0:0:0:
248,348,197199,2,0,P|280:338|364:319,1,98.9999969787599,2|2,3:2|0:0,0:0:0:0:
492,331,197818,2,0,P|489:307|474:278,1,49.4999984893799,2|0,3:2|0:0,0:0:0:0:
417,241,198127,2,0,P|420:217|435:188,1,49.4999984893799,2|0,0:0|3:2,0:0:0:0:
474,135,198436,1,2,3:2:0:0:
474,135,198591,1,2,0:0:0:0:
428,76,198745,1,2,3:2:0:0:
478,12,198900,1,2,3:2:0:0:
466,0,199209,6,0,P|431:2|359:20,1,98.9999969787599,2|0,3:2|3:2,0:0:0:0:
323,76,199673,2,0,P|275:76|238:45,1,98.9999969787599,2|2,3:2|0:0,0:0:0:0:
94,10,200292,2,0,P|104:36|103:67,1,49.4999984893799,2|0,3:2|0:0,0:0:0:0:
48,106,200601,2,0,P|34:125|23:159,1,49.4999984893799,2|0,0:0|3:2,0:0:0:0:
61,214,200910,1,2,3:2:0:0:
61,214,201065,2,0,P|84:207|116:202,1,49.4999984893799,2|0,0:0|3:2,0:0:0:0:
167,156,201374,1,2,3:2:0:0:
180,145,201684,6,0,P|217:143|276:184,1,98.9999969787599,2|0,3:2|3:2,0:0:0:0:
325,222,202148,2,0,P|362:224|421:183,1,98.9999969787599,2|2,3:2|0:0,0:0:0:0:
499,312,202766,2,0,P|475:315|453:327,1,49.4999984893799,2|0,3:2|0:0,0:0:0:0:
393,370,203075,2,0,P|368:367|346:355,1,49.4999984893799,2|0,0:0|3:2,0:0:0:0:
284,313,203385,1,2,3:2:0:0:
226,358,203539,1,2,0:0:0:0:
