osu file format v14

[General]
AudioFilename: audio.mp3
AudioLeadIn: 0
PreviewTime: 49404
Countdown: 0
SampleSet: Soft
StackLeniency: 0.7
Mode: 3
LetterboxInBreaks: 0
SpecialStyle: 0
WidescreenStoryboard: 1

[Editor]
DistanceSpacing: 1.3
BeatDivisor: 2
GridSize: 16
TimelineZoom: 3.799998

[Metadata]
Title:session / the seasons
TitleUnicode:session / the seasons
Artist:Centimillimental
ArtistUnicode:センチミリメンタル
Creator:mukotsuu
Version:normal / summer
Source:ギヴン
Tags:dump tv size given anime insert song japanese instrumental instrument math rock j-rock jrock yaoi shounen ai shounenai bl boy boys love gay lgbt+ lgbtq+ lgbtqia+ pride atsushi centimilli mental sony music epic drum guitar bass 佐藤真冬 satō sato satou mafuyu 上ノ山立夏 uenoyama ritsuka 中山春樹 nakayama haruki 梶秋彦 kaji akihiko kot
BeatmapID:4177811
BeatmapSetID:1969233

[Difficulty]
HPDrainRate:7
CircleSize:4
OverallDifficulty:7
ApproachRate:9
SliderMultiplier:2.58
SliderTickRate:2

[Events]
//Background and Video events
0,0,"summer.jpg",0,0
//Break Periods
//Storyboard Layer 0 (Background)
//Storyboard Layer 1 (Fail)
//Storyboard Layer 2 (Pass)
//Storyboard Layer 3 (Foreground)
//Storyboard Layer 4 (Overlay)
//Storyboard Sound Samples

[TimingPoints]
545,444.444444444444,5,2,1,70,1,0
44960,444.444444444444,5,2,1,70,1,1
53878,444.444444444444,5,2,1,70,1,0
64989,-100,5,2,1,70,0,1
71544,-100,5,2,1,70,0,0

[Colours]
Combo1 : 50,131,220
Combo2 : 235,116,86
Combo3 : 78,202,224

[HitObjects]
320,192,18322,128,0,18470:0:0:0:0:
448,192,18322,128,0,18470:0:0:0:0:
320,192,18656,128,0,18804:0:0:0:0:
448,192,18656,128,0,18804:0:0:0:0:
192,192,18989,128,0,19137:0:0:0:0:
448,192,19211,128,0,19359:0:0:0:0:
320,192,19433,128,0,19582:0:0:0:0:
64,192,19656,128,0,19804:0:0:0:0:
192,192,19656,128,0,19804:0:0:0:0:
192,192,19989,128,0,20137:0:0:0:0:
64,192,19989,128,0,20137:0:0:0:0:
448,192,20322,1,0,0:0:0:0:
320,192,20322,1,0,0:0:0:0:
192,192,20433,1,0,0:0:0:0:
64,192,20433,1,0,0:0:0:0:
320,192,20544,128,0,20693:0:0:0:0:
448,192,20544,128,0,20693:0:0:0:0:
320,192,20878,128,0,21026:0:0:0:0:
448,192,20878,128,0,21026:0:0:0:0:
64,192,21211,128,0,21359:0:0:0:0:
448,192,21433,128,0,21582:0:0:0:0:
320,192,21656,128,0,21804:0:0:0:0:
192,192,21878,128,0,22026:0:0:0:0:
64,192,21878,128,0,22026:0:0:0:0:
192,192,22211,128,0,22359:0:0:0:0:
64,192,22211,128,0,22359:0:0:0:0:
320,192,22433,1,0,0:0:0:0:
64,192,22544,1,0,0:0:0:0:
448,192,22544,1,0,0:0:0:0:
192,192,22656,1,0,0:0:0:0:
320,192,22767,128,0,22915:0:0:0:0:
448,192,22767,128,0,22915:0:0:0:0:
320,192,23100,128,0,23248:0:0:0:0:
448,192,23100,128,0,23248:0:0:0:0:
192,192,23433,128,0,23582:0:0:0:0:
448,192,23656,128,0,23804:0:0:0:0:
320,192,23878,128,0,24026:0:0:0:0:
64,192,24100,128,0,24248:0:0:0:0:
192,192,24100,128,0,24248:0:0:0:0:
192,192,24433,128,0,24582:0:0:0:0:
64,192,24433,128,0,24582:0:0:0:0:
448,192,24767,1,0,0:0:0:0:
320,192,24767,1,0,0:0:0:0:
192,192,24878,1,0,0:0:0:0:
64,192,24878,1,0,0:0:0:0:
320,192,24989,128,0,25137:0:0:0:0:
448,192,24989,128,0,25137:0:0:0:0:
320,192,25322,128,0,25470:0:0:0:0:
448,192,25322,128,0,25470:0:0:0:0:
64,192,25656,128,0,25804:0:0:0:0:
448,192,25878,128,0,26026:0:0:0:0:
320,192,26100,128,0,26248:0:0:0:0:
192,192,26322,128,0,26470:0:0:0:0:
64,192,26322,128,0,26470:0:0:0:0:
320,192,26656,1,0,0:0:0:0:
448,192,26656,1,0,0:0:0:0:
192,192,26878,1,0,0:0:0:0:
64,192,26878,1,0,0:0:0:0:
320,192,27100,1,0,0:0:0:0:
448,192,27211,1,0,0:0:0:0:
64,192,27211,1,0,0:0:0:0:
192,192,27433,1,0,0:0:0:0:
320,192,27656,1,0,0:0:0:0:
64,192,27878,1,0,0:0:0:0:
448,192,27878,1,0,0:0:0:0:
320,192,28100,1,0,0:0:0:0:
192,192,28322,1,0,0:0:0:0:
64,192,28322,1,0,0:0:0:0:
448,192,28544,1,0,0:0:0:0:
192,192,28767,1,0,0:0:0:0:
320,192,28989,1,0,0:0:0:0:
448,192,28989,1,0,0:0:0:0:
64,192,29211,1,0,0:0:0:0:
192,192,29433,1,0,0:0:0:0:
320,192,29433,1,0,0:0:0:0:
448,192,29656,1,0,0:0:0:0:
192,192,29878,1,0,0:0:0:0:
448,192,30100,1,0,0:0:0:0:
64,192,30100,1,0,0:0:0:0:
320,192,30322,1,0,0:0:0:0:
192,192,30544,1,0,0:0:0:0:
64,192,30544,1,0,0:0:0:0:
448,192,30767,1,0,0:0:0:0:
320,192,30989,1,0,0:0:0:0:
192,192,31211,1,0,0:0:0:0:
448,192,31211,1,0,0:0:0:0:
64,192,31433,1,0,0:0:0:0:
320,192,31656,1,0,0:0:0:0:
448,192,31656,1,0,0:0:0:0:
192,192,31878,1,0,0:0:0:0:
320,192,32100,1,0,0:0:0:0:
64,192,32322,1,0,0:0:0:0:
448,192,32322,1,0,0:0:0:0:
192,192,32544,1,0,0:0:0:0:
448,192,32767,1,0,0:0:0:0:
320,192,32767,1,0,0:0:0:0:
64,192,32989,1,0,0:0:0:0:
320,192,33211,1,0,0:0:0:0:
192,192,33433,1,0,0:0:0:0:
64,192,33433,1,0,0:0:0:0:
448,192,33656,1,0,0:0:0:0:
320,192,33878,1,0,0:0:0:0:
192,192,33878,1,0,0:0:0:0:
64,192,34100,1,0,0:0:0:0:
320,192,34322,1,0,0:0:0:0:
192,192,34544,1,0,0:0:0:0:
64,192,34544,1,0,0:0:0:0:
320,192,34767,1,0,0:0:0:0:
64,192,34989,1,0,0:0:0:0:
448,192,34989,1,0,0:0:0:0:
192,192,35211,1,0,0:0:0:0:
320,192,35211,1,0,0:0:0:0:
64,192,35433,1,0,0:0:0:0:
448,192,35656,1,0,0:0:0:0:
320,192,35804,1,0,0:0:0:0:
192,192,35952,1,0,0:0:0:0:
64,192,36100,128,0,36322:0:0:0:0:
320,192,36322,128,0,36544:0:0:0:0:
192,192,36544,128,0,36693:0:0:0:0:
448,192,36767,128,0,36989:0:0:0:0:
192,192,36989,128,0,37211:0:0:0:0:
320,192,37211,128,0,37359:0:0:0:0:
64,192,37433,128,0,37656:0:0:0:0:
448,192,37656,128,0,37878:0:0:0:0:
192,192,37878,128,0,38100:0:0:0:0:
64,192,38100,128,0,38322:0:0:0:0:
320,192,38322,128,0,38544:0:0:0:0:
192,192,38544,128,0,38767:0:0:0:0:
448,192,38767,128,0,38915:0:0:0:0:
64,192,38989,128,0,39211:0:0:0:0:
320,192,39211,128,0,39433:0:0:0:0:
192,192,39433,128,0,39582:0:0:0:0:
448,192,39656,128,0,39878:0:0:0:0:
64,192,39878,128,0,40100:0:0:0:0:
192,192,40100,128,0,40322:0:0:0:0:
320,192,40322,128,0,40544:0:0:0:0:
64,192,40544,128,0,40767:0:0:0:0:
448,192,40544,1,0,0:0:0:0:
320,192,40767,128,0,40989:0:0:0:0:
192,192,40989,128,0,41137:0:0:0:0:
448,192,41211,128,0,41433:0:0:0:0:
320,192,41211,1,0,0:0:0:0:
192,192,41433,128,0,41656:0:0:0:0:
320,192,41656,128,0,41804:0:0:0:0:
192,192,41878,1,0,0:0:0:0:
64,192,41878,128,0,42100:0:0:0:0:
448,192,42100,128,0,42322:0:0:0:0:
192,192,42322,128,0,42544:0:0:0:0:
64,192,42544,128,0,42767:0:0:0:0:
448,192,42767,1,0,0:0:0:0:
320,192,42767,128,0,42989:0:0:0:0:
192,192,42989,128,0,43211:0:0:0:0:
448,192,43211,128,0,43359:0:0:0:0:
192,192,43433,1,0,0:0:0:0:
64,192,43433,128,0,43656:0:0:0:0:
320,192,43656,128,0,43878:0:0:0:0:
192,192,43878,128,0,44026:0:0:0:0:
320,192,44100,1,0,0:0:0:0:
448,192,44100,128,0,44322:0:0:0:0:
64,192,44322,128,0,44544:0:0:0:0:
192,192,44544,128,0,44767:0:0:0:0:
320,192,44767,128,0,44960:0:0:0:0:
64,192,44960,1,0,0:0:0:0:
448,192,44960,1,0,0:0:0:0:
64,192,45182,1,0,0:0:0:0:
320,192,45293,1,0,0:0:0:0:
192,192,45404,1,0,0:0:0:0:
448,192,45626,1,0,0:0:0:0:
64,192,45626,1,0,0:0:0:0:
448,192,45848,1,0,0:0:0:0:
192,192,45960,1,0,0:0:0:0:
320,192,46071,1,0,0:0:0:0:
448,192,46293,1,0,0:0:0:0:
64,192,46293,1,0,0:0:0:0:
192,192,46515,1,0,0:0:0:0:
64,192,46626,1,0,0:0:0:0:
320,192,46737,1,0,0:0:0:0:
448,192,46848,1,0,0:0:0:0:
64,192,46960,1,0,0:0:0:0:
192,192,47071,1,0,0:0:0:0:
320,192,47182,1,0,0:0:0:0:
448,192,47182,1,0,0:0:0:0:
320,192,47404,1,0,0:0:0:0:
192,192,47515,1,0,0:0:0:0:
448,192,47626,1,0,0:0:0:0:
192,192,47848,1,0,0:0:0:0:
64,192,47848,1,0,0:0:0:0:
192,192,48071,1,0,0:0:0:0:
320,192,48182,1,0,0:0:0:0:
64,192,48293,1,0,0:0:0:0:
320,192,48515,1,0,0:0:0:0:
448,192,48515,1,0,0:0:0:0:
64,192,48737,1,0,0:0:0:0:
320,192,48848,1,0,0:0:0:0:
192,192,48959,1,0,0:0:0:0:
448,192,49071,1,0,0:0:0:0:
320,192,49182,1,0,0:0:0:0:
192,192,49293,1,0,0:0:0:0:
64,192,49404,1,0,0:0:0:0:
448,192,49404,1,0,0:0:0:0:
64,192,49626,1,0,0:0:0:0:
320,192,49737,1,0,0:0:0:0:
192,192,49848,1,0,0:0:0:0:
448,192,50071,1,0,0:0:0:0:
64,192,50071,1,0,0:0:0:0:
448,192,50293,1,0,0:0:0:0:
192,192,50404,1,0,0:0:0:0:
320,192,50515,1,0,0:0:0:0:
64,192,50737,1,0,0:0:0:0:
448,192,50737,1,0,0:0:0:0:
192,192,50959,1,0,0:0:0:0:
64,192,51071,1,0,0:0:0:0:
320,192,51182,1,0,0:0:0:0:
448,192,51293,1,0,0:0:0:0:
64,192,51404,1,0,0:0:0:0:
192,192,51515,1,0,0:0:0:0:
320,192,51626,1,0,0:0:0:0:
448,192,51626,1,0,0:0:0:0:
320,192,51848,1,0,0:0:0:0:
192,192,51959,1,0,0:0:0:0:
448,192,52071,1,0,0:0:0:0:
192,192,52293,1,0,0:0:0:0:
64,192,52293,1,0,0:0:0:0:
192,192,52515,1,0,0:0:0:0:
320,192,52626,1,0,0:0:0:0:
64,192,52737,1,0,0:0:0:0:
320,192,52959,1,0,0:0:0:0:
448,192,52959,1,0,0:0:0:0:
64,192,53182,1,0,0:0:0:0:
320,192,53293,1,0,0:0:0:0:
192,192,53404,1,0,0:0:0:0:
448,192,53515,1,0,0:0:0:0:
64,192,53626,1,0,0:0:0:0:
320,192,53737,1,0,0:0:0:0:
192,192,53878,128,0,54026:0:0:0:0:
64,192,53878,128,0,54026:0:0:0:0:
192,192,54211,128,0,54359:0:0:0:0:
64,192,54211,128,0,54359:0:0:0:0:
320,192,54544,128,0,54692:0:0:0:0:
64,192,54766,128,0,54915:0:0:0:0:
192,192,54989,128,0,55137:0:0:0:0:
448,192,55211,128,0,55359:0:0:0:0:
320,192,55211,128,0,55359:0:0:0:0:
320,192,55544,128,0,55692:0:0:0:0:
448,192,55544,128,0,55692:0:0:0:0:
64,192,55878,1,0,0:0:0:0:
192,192,55878,1,0,0:0:0:0:
320,192,55989,1,0,0:0:0:0:
448,192,55989,1,0,0:0:0:0:
192,192,56100,128,0,56248:0:0:0:0:
64,192,56100,128,0,56248:0:0:0:0:
192,192,56433,128,0,56581:0:0:0:0:
64,192,56433,128,0,56581:0:0:0:0:
448,192,56766,128,0,56915:0:0:0:0:
64,192,56989,128,0,57137:0:0:0:0:
192,192,57211,128,0,57359:0:0:0:0:
320,192,57433,128,0,57581:0:0:0:0:
448,192,57433,128,0,57581:0:0:0:0:
320,192,57766,128,0,57915:0:0:0:0:
448,192,57766,128,0,57915:0:0:0:0:
192,192,57989,1,0,0:0:0:0:
448,192,58100,1,0,0:0:0:0:
64,192,58100,1,0,0:0:0:0:
320,192,58211,1,0,0:0:0:0:
192,192,58322,128,0,58470:0:0:0:0:
64,192,58322,128,0,58470:0:0:0:0:
192,192,58655,128,0,58803:0:0:0:0:
64,192,58655,128,0,58803:0:0:0:0:
320,192,58989,128,0,59137:0:0:0:0:
64,192,59211,128,0,59359:0:0:0:0:
192,192,59433,128,0,59581:0:0:0:0:
448,192,59655,128,0,59803:0:0:0:0:
320,192,59655,128,0,59803:0:0:0:0:
320,192,59989,128,0,60137:0:0:0:0:
448,192,59989,128,0,60137:0:0:0:0:
64,192,60322,1,0,0:0:0:0:
192,192,60322,1,0,0:0:0:0:
320,192,60433,1,0,0:0:0:0:
448,192,60433,1,0,0:0:0:0:
192,192,60544,128,0,60692:0:0:0:0:
64,192,60544,128,0,60692:0:0:0:0:
192,192,60877,128,0,61026:0:0:0:0:
64,192,60877,128,0,61026:0:0:0:0:
448,192,61211,128,0,61359:0:0:0:0:
64,192,61433,128,0,61581:0:0:0:0:
192,192,61655,128,0,61803:0:0:0:0:
320,192,61877,128,0,62026:0:0:0:0:
448,192,61877,128,0,62026:0:0:0:0:
192,192,62211,1,0,0:0:0:0:
64,192,62211,1,0,0:0:0:0:
320,192,62433,1,0,0:0:0:0:
448,192,62433,1,0,0:0:0:0:
192,192,62655,1,0,0:0:0:0:
64,192,62766,1,0,0:0:0:0:
448,192,62766,1,0,0:0:0:0:
320,192,62989,1,0,0:0:0:0:
192,192,63211,1,0,0:0:0:0:
448,192,63433,1,0,0:0:0:0:
64,192,63433,1,0,0:0:0:0:
192,192,63655,1,0,0:0:0:0:
320,192,63877,1,0,0:0:0:0:
448,192,63877,1,0,0:0:0:0:
64,192,64100,1,0,0:0:0:0:
320,192,64322,1,0,0:0:0:0:
192,192,64544,1,0,0:0:0:0:
64,192,64544,1,0,0:0:0:0:
448,192,64766,1,0,0:0:0:0:
320,192,64989,1,0,0:0:0:0:
192,192,64989,1,0,0:0:0:0:
64,192,65211,1,0,0:0:0:0:
320,192,65211,1,0,0:0:0:0:
192,192,65433,1,0,0:0:0:0:
448,192,65433,1,0,0:0:0:0:
448,192,65655,1,0,0:0:0:0:
320,192,65655,1,0,0:0:0:0:
320,192,65877,1,0,0:0:0:0:
64,192,65877,1,0,0:0:0:0:
192,192,66100,1,0,0:0:0:0:
64,192,66100,1,0,0:0:0:0:
448,192,66322,1,0,0:0:0:0:
192,192,66322,1,0,0:0:0:0:
448,192,66544,1,0,0:0:0:0:
320,192,66544,1,0,0:0:0:0:
64,192,66766,1,0,0:0:0:0:
320,192,66766,1,0,0:0:0:0:
192,192,66989,1,0,0:0:0:0:
320,192,67211,1,0,0:0:0:0:
448,192,67211,1,0,0:0:0:0:
320,192,67433,1,0,0:0:0:0:
192,192,67433,1,0,0:0:0:0:
192,192,67655,1,0,0:0:0:0:
448,192,67655,1,0,0:0:0:0:
320,192,67877,1,0,0:0:0:0:
64,192,67877,1,0,0:0:0:0:
192,192,68100,1,0,0:0:0:0:
64,192,68100,1,0,0:0:0:0:
192,192,68322,1,0,0:0:0:0:
448,192,68322,1,0,0:0:0:0:
448,192,68544,1,0,0:0:0:0:
320,192,68544,1,0,0:0:0:0:
192,192,68766,1,0,0:0:0:0:
64,192,68766,1,0,0:0:0:0:
192,192,68989,1,0,0:0:0:0:
320,192,68989,1,0,0:0:0:0:
448,192,69211,1,0,0:0:0:0:
320,192,69433,1,0,0:0:0:0:
192,192,69433,1,0,0:0:0:0:
64,192,69655,1,0,0:0:0:0:
320,192,69655,1,0,0:0:0:0:
64,192,69877,1,0,0:0:0:0:
448,192,69877,1,0,0:0:0:0:
192,192,70100,1,0,0:0:0:0:
320,192,70100,1,0,0:0:0:0:
192,192,70322,1,0,0:0:0:0:
448,192,70322,1,0,0:0:0:0:
448,192,70544,1,0,0:0:0:0:
320,192,70544,1,0,0:0:0:0:
320,192,70766,1,0,0:0:0:0:
64,192,70766,1,0,0:0:0:0:
64,192,70989,1,0,0:0:0:0:
192,192,70989,1,0,0:0:0:0:
448,192,71211,1,0,0:0:0:0:
320,192,71211,1,0,0:0:0:0:
64,192,71310,1,0,0:0:0:0:
192,192,71310,1,0,0:0:0:0:
320,192,71408,1,0,0:0:0:0:
448,192,71408,1,0,0:0:0:0:
192,192,71507,1,0,0:0:0:0:
