osu file format v14

[General]
AudioFilename: audio.mp3
AudioLeadIn: 0
PreviewTime: 48860
Countdown: 0
SampleSet: Soft
StackLeniency: 0.7
Mode: 0
LetterboxInBreaks: 0
WidescreenStoryboard: 1

[Editor]
DistanceSpacing: 0.8
BeatDivisor: 4
GridSize: 4
TimelineZoom: 2.499999

[Metadata]
Title:Kizuato (TV Size)
TitleUnicode:キヅアト (TV Size)
Artist:Centimillimental
ArtistUnicode:センチミリメンタル
Creator:Blitzifyyy
Version:Nexus' Hard
Source:ギヴン
Tags:nexusqi theblank given centimilli mental anime japanese op opening yaoi bl boys love shounen ai Lerche
BeatmapID:2481845
BeatmapSetID:1188247

[Difficulty]
HPDrainRate:5
CircleSize:3.6
OverallDifficulty:6.5
ApproachRate:8
SliderMultiplier:1.4
SliderTickRate:1

[Events]
//Background and Video events
Video,-450,"kizuato.mp4"
0,0,"Mafuyuqt.jpg",0,0
//Break Periods
//Storyboard Layer 0 (Background)
//Storyboard Layer 1 (Fail)
//Storyboard Layer 2 (Pass)
//Storyboard Layer 3 (Foreground)
//Storyboard Layer 4 (Overlay)
//Storyboard Sound Samples

[TimingPoints]
490,337.078651685393,4,2,1,50,1,0
490,-125,4,2,2,50,0,0
2512,-125,4,2,1,50,0,0
3902,307.692307692308,4,2,1,50,1,0
4534,337.078651685393,4,2,1,50,1,0
5713,-95.2380952380952,4,2,1,60,0,1
15320,315.789473684211,4,2,1,60,1,1
15951,342.857142857143,4,2,1,60,1,1
16669,337.078651685393,4,2,1,55,1,0
16669,-100,4,2,1,55,0,0
27456,-100,4,2,1,60,0,0
47975,307.692307692308,4,2,1,60,1,0
49029,337.078651685393,4,2,1,65,1,1
49029,-90.9090909090909,4,2,1,65,0,1
59141,-90.9090909090909,4,2,1,65,0,1
59309,324.324324324324,4,2,1,65,1,1
59815,337.078651685393,4,2,1,65,1,1
59815,-90.9090909090909,4,2,1,65,0,1
70348,-90.9090909090909,4,2,1,65,0,0
70432,-86.9565217391304,4,2,1,60,0,1
75826,-95.2380952380952,4,2,1,60,0,1
80376,307.692307692308,4,2,1,60,1,1
80683,313.725490196078,4,2,1,60,1,1
81388,337.078651685393,4,2,1,50,1,0
81388,-125,4,2,1,50,0,0
83916,-100,4,2,1,50,0,0
84800,313.31592689295,4,2,1,50,1,0
88559,-125,4,2,1,5,0,0

[Colours]
Combo1 : 253,234,159
Combo2 : 255,145,91
Combo3 : 176,114,87

[HitObjects]
113,73,490,6,0,L|191:66,2,56,2|2|2,0:0|0:0|0:0,0:0:0:0:
41,26,995,2,0,P|24:74|61:139,1,112,2|2,0:0|0:0,0:0:0:0:
120,169,1501,1,0,0:0:0:0:
120,169,1669,2,0,L|116:293,1,112,2|2,0:0|0:0,0:0:0:0:
132,382,2175,1,2,0:0:0:0:
201,324,2343,2,0,L|203:260,1,56,2|8,0:0|0:0,0:0:0:0:
243,247,2596,1,0,1:0:0:0:
243,247,2681,2,0,L|246:168,1,56,0|0,1:0|1:0,0:0:0:0:
207,82,3018,6,0,B|253:77|253:77|281:92|281:92|339:87,1,112,4|8,0:0|0:0,0:0:0:0:
353,58,3439,1,0,1:0:0:0:
353,58,3523,1,0,1:0:0:0:
422,130,3692,2,0,L|420:197,1,56,4|8,0:0|0:0,0:0:0:0:
449,226,3902,1,8,0:0:0:0:
449,226,3978,2,0,L|495:231,4,35,8|8|8|8|0,0:0|0:0|0:0|0:0|0:0,0:0:0:0:
405,246,4363,5,10,0:0:0:0:
357,114,5208,5,8,1:2:0:0:
357,114,5376,1,8,1:2:0:0:
308,258,5713,6,0,B|267:232|234:257|234:257|160:258,1,146.999995513916,4|0,0:0|1:0,0:0:0:0:
126,286,6135,1,0,1:0:0:0:
126,286,6219,1,8,0:0:0:0:
51,344,6387,1,0,1:0:0:0:
7,264,6556,2,0,P|-2:219|17:175,1,73.4999977569581,8|0,0:0|1:0,0:0:0:0:
44,109,6893,1,8,0:0:0:0:
121,162,7062,1,0,1:0:0:0:
200,73,7230,6,0,L|205:-13,2,73.4999977569581,8|0|8,0:0|1:0|0:0,0:0:0:0:
279,154,7736,2,0,L|286:78,2,73.4999977569581,0|8|0,1:0|0:0|1:0,0:0:0:0:
210,226,8241,1,8,0:0:0:0:
320,277,8410,6,0,B|381:273|381:273|411:290|411:290|462:288,1,146.999995513916,4|0,0:0|1:0,0:0:0:0:
496,268,8831,1,0,1:0:0:0:
496,268,8916,1,8,0:0:0:0:
429,191,9084,1,0,1:0:0:0:
491,121,9253,2,0,P|500:82|490:45,1,73.4999977569581,8|0,0:0|1:0,0:0:0:0:
408,83,9590,2,0,L|328:83,1,73.4999977569581,8|0,0:0|1:0,0:0:0:0:
298,114,9842,1,0,0:0:0:0:
298,114,9927,6,0,P|257:101|209:116,1,73.4999977569581,8|0,0:0|1:0,0:0:0:0:
198,25,10264,2,0,P|159:44|136:89,1,73.4999977569581,8|0,0:0|1:0,0:0:0:0:
98,152,10601,1,8,0:0:0:0:
177,204,10769,2,0,L|185:298,1,73.4999977569581,0|8,1:0|0:0,0:0:0:0:
117,355,11107,6,0,B|187:376|187:376|265:350,1,146.999995513916,4|0,0:0|1:0,0:0:0:0:
333,284,11612,1,8,0:0:0:0:
333,284,11781,1,0,1:0:0:0:
267,202,11949,2,0,P|255:164|267:126,1,73.4999977569581,8|0,0:0|1:0,0:0:0:0:
338,77,12286,2,0,P|346:39|333:0,1,73.4999977569581,8|0,0:0|1:0,0:0:0:0:
180,40,12623,6,0,L|287:45,2,73.4999977569581,8|0|8,0:0|1:0|0:0,0:0:0:0:
130,127,13129,2,0,L|237:132,2,73.4999977569581,0|8|0,1:0|0:0|1:0,0:0:0:0:
60,68,13635,1,8,0:0:0:0:
16,160,13803,6,0,B|-5:205|-5:205|26:317,1,146.999995513916,4|0,0:0|1:0,0:0:0:0:
89,363,14309,1,0,1:0:0:0:
148,298,14477,1,2,1:2:0:0:
148,298,14646,2,0,L|200:291,3,36.749998878479,8|8|8|8,0:0|0:0|0:0|0:0,0:0:0:0:
231,271,14983,1,8,0:0:0:0:
295,334,15151,2,0,P|324:321|388:331,1,73.4999977569581,2|0,1:2|0:0,0:0:0:0:
469,344,15477,5,8,0:0:0:0:
469,344,15556,1,8,0:0:0:0:
469,343,15635,2,0,L|466:308,3,35,8|8|0|0,0:0|1:2|1:0|1:0,0:0:0:0:
495,267,15951,2,0,L|502:231,3,35,8|8|8|8,0:0|0:0|0:0|1:2,0:0:0:0:
471,196,16293,2,0,L|467:158,3,35,0|0|8|8,1:0|1:0|0:0|0:0,0:0:0:0:
442,121,16669,6,0,B|345:116|345:116|311:122|312:151,1,140,4|8,1:2|0:0,0:0:0:0:
362,214,17174,1,0,1:0:0:0:
362,214,17343,2,0,L|359:292,1,70,2|0,0:0|1:0,0:0:0:0:
329,363,17680,2,0,P|286:370|251:358,1,70,10|0,0:0|1:0,0:0:0:0:
213,291,18017,5,2,1:2:0:0:
37,167,18354,2,0,P|74:73|191:89,1,210,10|0,0:0|1:0,0:0:0:0:
237,141,19028,1,10,0:0:0:0:
306,80,19197,6,0,B|365:74|365:74|392:87|392:87|455:83,1,140,0|0,1:0|0:0,0:0:0:0:
512,143,19702,1,10,0:0:0:0:
512,143,19871,2,0,L|505:288,1,140,0|0,1:0|1:0,0:0:0:0:
443,347,20376,2,0,P|410:333|366:340,1,70,10|0,0:0|1:0,0:0:0:0:
279,307,20713,6,0,L|282:376,2,70,2|0|8,1:2|0:0|0:0,0:0:0:0:
348,248,21219,2,0,P|289:216|210:242,1,140,0|0,1:0|1:0,0:0:0:0:
188,306,21725,2,0,L|86:301,1,70,10|0,0:0|0:0,0:0:0:0:
30,344,22062,6,0,B|30:279|30:279|9:234|36:199,1,140,4|8,1:2|0:0,0:0:0:0:
78,141,22567,2,0,B|133:132|133:132|170:147|170:147|231:140,1,140,0|0,1:0|1:0,0:0:0:0:
287,100,23073,2,0,B|308:148|308:148|292:219,1,105,10|0,0:0|0:0,0:0:0:0:
273,240,23410,6,0,P|337:211|399:246,1,140,2|10,1:2|0:0,0:0:0:0:
467,300,23916,2,0,B|487:250|487:250|464:153,1,140,0|0,1:0|1:0,0:0:0:0:
487,75,24421,1,10,0:0:0:0:
487,75,24590,1,0,1:0:0:0:
381,111,24758,6,0,B|283:100|283:100|251:105|251:130,1,140,4|8,1:2|0:0,0:0:0:0:
309,196,25264,1,0,1:0:0:0:
309,196,25433,2,0,P|320:229|306:276,2,70,2|0|10,0:0|1:0|0:0,0:0:0:0:
227,234,25938,2,0,B|166:227|166:227|143:242|143:242|91:238,1,140,0|0,1:0|0:0,0:0:0:0:
12,199,26444,2,0,P|1:241|16:284,1,70,8|0,0:0|1:0,0:0:0:0:
67,339,26781,1,10,0:0:0:0:
67,339,26949,2,0,P|87:327|118:333,2,35,8|8|8,0:0|0:0|1:2,0:0:0:0:
194,356,27286,6,0,B|264:331|264:331|346:354,1,140,2|0,0:0|0:0,0:0:0:0:
414,370,27792,1,8,0:0:0:0:
414,370,27961,2,0,L|417:223,1,140,0|0,1:0|1:0,0:0:0:0:
474,164,28466,1,10,0:0:0:0:
474,164,28635,2,0,B|425:141|425:141|338:168,1,140,0|0,1:0|0:0,0:0:0:0:
256,234,29140,1,8,0:0:0:0:
179,185,29309,2,0,P|152:120|193:41,1,140,0|0,1:0|1:0,0:0:0:0:
244,2,29815,1,10,0:0:0:0:
244,2,29983,1,0,1:0:0:0:
332,71,30152,6,0,B|403:51|403:51|488:70,1,140,2|8,1:2|0:0,0:0:0:0:
493,151,30657,2,0,L|492:293,1,140,0|0,1:0|1:0,0:0:0:0:
444,370,31163,1,10,0:0:0:0:
444,370,31331,1,0,1:0:0:0:
367,284,31500,6,0,P|308:247|237:264,1,140,2|8,1:2|0:0,0:0:0:0:
186,333,32006,1,0,1:0:0:0:
121,275,32174,2,0,L|118:200,1,70,2|0,0:0|1:0,0:0:0:0:
44,166,32511,2,0,L|41:91,1,70,10|0,0:0|1:0,0:0:0:0:
117,20,32848,6,0,B|162:-7|201:14|201:14|273:11,1,140,4|8,1:2|0:0,0:0:0:0:
331,37,33354,2,0,B|355:119|355:119|329:184,1,140,0|0,1:0|1:0,0:0:0:0:
253,177,33860,1,10,0:0:0:0:
253,177,34028,2,0,P|225:246|267:327,1,140,0|0,1:0|0:0,0:0:0:0:
322,349,34534,1,8,0:0:0:0:
322,349,34702,2,0,B|377:343|377:343|409:361|409:361|462:358,1,140,0|0,1:0|1:0,0:0:0:0:
512,294,35208,1,10,0:0:0:0:
512,294,35376,1,0,1:0:0:0:
433,203,35545,6,0,L|429:56,1,140,2|8,1:2|0:0,0:0:0:0:
372,0,36051,1,0,1:0:0:0:
325,76,36219,2,0,P|290:93|240:88,1,70,2|0,0:0|1:0,0:0:0:0:
240,177,36556,2,0,P|203:164|171:125,1,70,10|0,0:0|1:0,0:0:0:0:
96,87,36893,6,0,B|71:124|71:124|93:231,1,140,2|8,1:2|0:0,0:0:0:0:
113,302,37399,1,0,1:0:0:0:
197,270,37567,2,0,L|284:263,1,70,8|8,0:0|0:0,0:0:0:0:
301,294,37820,1,8,0:0:0:0:
301,294,37904,1,0,1:0:0:0:
265,127,38242,6,0,P|251:83|265:43,1,70,8|8,1:2|0:0,0:0:0:0:
338,86,38579,1,2,1:2:0:0:
338,86,38747,2,0,B|406:64|406:64|492:79,1,140,0|0,0:0|1:0,0:0:0:0:
512,151,39253,2,0,L|505:302,1,140,0|2,1:0|1:2,0:0:0:0:
460,360,39758,2,0,B|417:333|384:353|384:353|319:352,1,140,8|0,1:2|1:0,0:0:0:0:
291,371,40180,1,8,0:0:0:0:
291,371,40264,1,8,0:0:0:0:
221,311,40433,1,0,1:0:0:0:
139,343,40601,1,0,1:0:0:0:
146,190,40938,6,0,L|139:105,1,70,8|8,1:2|0:0,0:0:0:0:
86,53,41275,1,2,1:2:0:0:
86,53,41444,2,0,B|135:33|135:33|232:55,1,140,0|0,0:0|1:0,0:0:0:0:
302,27,41949,2,0,L|297:191,1,140,0|2,1:0|1:2,0:0:0:0:
368,216,42455,2,0,P|312:251|236:233,1,140,8|0,1:2|1:0,0:0:0:0:
213,206,42876,1,8,0:0:0:0:
213,206,42961,2,0,P|177:192|127:209,2,70,8|0|0,0:0|1:0|1:0,0:0:0:0:
314,335,43635,6,0,L|383:330,1,70,8|8,1:2|0:0,0:0:0:0:
459,384,43972,1,2,1:2:0:0:
459,384,44140,2,0,B|476:333|476:333|451:241,1,140,0|0,0:0|1:0,0:0:0:0:
506,182,44646,2,0,P|459:163|374:216,1,140,0|2,1:0|1:2,0:0:0:0:
306,260,45152,2,0,B|281:211|281:211|304:109,1,140,8|0,1:2|1:0,0:0:0:0:
329,95,45573,1,8,0:0:0:0:
329,95,45657,2,0,P|336:56|324:22,1,70,8|0,0:0|1:0,0:0:0:0:
242,10,45994,1,0,1:0:0:0:
242,10,46163,1,0,1:0:0:0:
136,54,46331,6,0,B|111:95|111:95|152:198,1,140,12|0,0:0|1:0,0:0:0:0:
235,223,46837,2,0,P|258:290|216:372,1,140,12|0,0:0|1:0,0:0:0:0:
149,378,47343,1,12,0:0:0:0:
149,378,47511,1,0,1:0:0:0:
74,331,47680,2,0,L|67:258,1,70,8|0,1:2|0:0,0:0:0:0:
34,187,48051,2,0,L|39:129,3,35,8|8|8|8,1:2|0:0|0:0|0:0,0:0:0:0:
66,116,48359,2,0,L|71:58,3,35,8|8|8|8,1:2|0:0|0:0|0:0,0:0:0:0:
48,42,48667,1,8,1:2:0:0:
48,42,49029,6,0,L|140:35,1,77.0000023498536,4|0,1:2|1:0,0:0:0:0:
219,0,49366,1,10,0:0:0:0:
263,100,49534,2,0,L|255:211,1,77.0000023498536,0|10,1:0|0:0,0:0:0:0:
178,234,49871,2,0,L|170:345,1,77.0000023498536,0|10,1:0|0:0,0:0:0:0:
272,359,50208,6,0,B|343:337|343:337|434:364,1,154.000004699707,0|0,1:0|1:0,0:0:0:0:
507,384,50714,1,10,0:0:0:0:
470,286,50882,2,0,P|459:241|472:200,1,77.0000023498536,0|10,1:0|0:0,0:0:0:0:
512,121,51220,1,0,1:0:0:0:
512,121,51388,1,10,0:0:0:0:
387,154,51557,6,0,B|345:123|305:148|305:148|226:144,1,154.000004699707,0|0,1:0|1:0,0:0:0:0:
172,74,52062,1,10,0:0:0:0:
112,149,52231,2,0,L|126:237,1,77.0000023498536,0|10,1:0|0:0,0:0:0:0:
108,316,52568,1,0,1:0:0:0:
108,316,52736,1,10,0:0:0:0:
217,370,52905,6,0,B|247:317|247:317|229:217,1,154.000004699707,0|0,1:0|1:0,0:0:0:0:
300,157,53411,2,0,L|283:73,1,77.0000023498536,10|0,0:0|1:0,0:0:0:0:
344,0,53748,1,10,0:0:0:0:
344,0,53916,1,0,1:0:0:0:
422,61,54085,2,0,P|451:52|502:62,1,77.0000023498536,10|0,0:0|1:0,0:0:0:0:
453,173,54422,6,0,L|439:263,1,77.0000023498536,12|0,0:0|1:0,0:0:0:0:
419,351,54759,1,10,0:0:0:0:
345,273,54927,2,0,P|306:251|254:264,1,77.0000023498536,0|10,1:0|0:0,0:0:0:0:
216,329,55264,1,0,1:0:0:0:
216,329,55433,1,10,0:0:0:0:
161,217,55602,6,0,L|168:60,1,154.000004699707,0|0,1:0|1:0,0:0:0:0:
94,0,56107,1,10,0:0:0:0:
27,68,56276,2,0,L|22:154,1,77.0000023498536,0|10,1:0|0:0,0:0:0:0:
71,227,56613,2,0,L|66:313,1,77.0000023498536,0|10,1:0|0:0,0:0:0:0:
150,379,56950,1,0,1:0:0:0:
150,379,57034,1,0,1:0:0:0:
150,379,57118,6,0,P|182:364|251:380,1,77.0000023498536,10|0,0:0|1:0,0:0:0:0:
322,384,57455,1,10,0:0:0:0:
381,312,57624,2,0,L|370:174,1,115.50000352478,0|0,1:0|0:0,0:0:0:0:
353,162,57961,1,0,1:0:0:0:
427,97,58130,1,10,0:0:0:0:
324,41,58298,6,0,B|270:12|270:12|164:40,1,154.000004699707,4|8,1:2|0:0,0:0:0:0:
106,102,58804,1,8,0:0:0:0:
106,102,58888,1,8,0:0:0:0:
106,102,58972,1,2,0:0:0:0:
186,152,59141,2,0,L|187:253,1,77.0000023498536,2|8,1:2|0:0,0:0:0:0:
173,257,59390,1,8,0:0:0:0:
173,257,59471,2,0,L|170:315,3,35,8|0|8|8,1:2|1:0|0:0|0:0,0:0:0:0:
171,348,59815,6,0,P|205:331|245:336,1,77.0000023498536,4|0,1:2|1:0,0:0:0:0:
323,384,60152,1,10,0:0:0:0:
379,304,60320,2,0,L|369:208,1,77.0000023498536,0|10,1:0|0:0,0:0:0:0:
280,187,60657,2,0,L|270:91,1,77.0000023498536,0|10,1:0|0:0,0:0:0:0:
347,15,60994,1,0,1:0:0:0:
347,15,61079,1,0,1:0:0:0:
347,15,61163,6,0,P|389:6|440:30,1,77.0000023498536,10|0,0:0|1:0,0:0:0:0:
505,68,61500,1,10,0:0:0:0:
431,135,61668,2,0,B|408:176|408:176|444:300,1,154.000004699707,0|0,1:0|1:0,0:0:0:0:
499,354,62174,1,10,0:0:0:0:
398,381,62343,1,0,1:0:0:0:
398,381,62427,1,0,1:0:0:0:
398,381,62511,6,0,L|297:376,1,77.0000023498536,10|0,0:0|1:0,0:0:0:0:
225,342,62848,1,10,0:0:0:0:
288,269,63017,2,0,B|289:197|289:197|310:151|290:114,1,154.000004699707,0|0,1:0|1:0,0:0:0:0:
217,61,63522,1,10,0:0:0:0:
147,148,63691,1,0,1:0:0:0:
147,148,63775,1,0,1:0:0:0:
147,148,63859,6,0,L|46:143,1,77.0000023498536,10|0,0:0|1:0,0:0:0:0:
7,216,64197,2,0,P|-4:257|22:306,1,77.0000023498536,10|0,0:0|1:0,0:0:0:0:
94,250,64534,2,0,L|187:243,1,77.0000023498536,10|0,0:0|1:0,0:0:0:0:
224,320,64871,2,0,L|320:313,1,77.0000023498536,10|0,0:0|1:0,0:0:0:0:
341,339,65123,1,0,1:0:0:0:
341,339,65208,6,0,L|424:330,1,77.0000023498536,12|0,0:0|1:0,0:0:0:0:
497,271,65545,1,10,0:0:0:0:
419,215,65713,2,0,P|396:139|449:76,1,154.000004699707,0|0,1:0|1:0,0:0:0:0:
512,28,66219,1,10,0:0:0:0:
405,0,66388,1,0,1:0:0:0:
405,0,66472,1,0,1:0:0:0:
405,0,66556,6,0,L|309:-1,1,77.0000023498536,10|0,0:0|1:0,0:0:0:0:
239,42,66893,1,10,0:0:0:0:
305,111,67062,2,0,L|293:281,1,154.000004699707,0|0,1:0|1:0,0:0:0:0:
353,341,67567,1,10,0:0:0:0:
241,369,67736,6,0,B|180:362|180:362|147:384|147:384|75:380,1,154.000004699707,4|2,1:2|1:2,0:0:0:0:
0,333,68241,1,8,0:0:0:0:
80,269,68410,2,0,L|82:110,1,154.000004699707,4|2,1:2|1:2,0:0:0:0:
10,61,68916,1,8,0:0:0:0:
134,31,69084,6,0,B|176:5|219:26|219:26|304:21,1,154.000004699707,4|0,1:2|1:0,0:0:0:0:
359,80,69590,2,0,L|350:180,1,77.0000023498536,8|0,0:0|1:0,0:0:0:0:
312,244,69927,2,0,L|323:311,3,38.5000011749268,0|0|0|0,1:0|1:0|1:0|1:0,0:0:0:0:
311,326,70264,1,8,0:0:0:0:
417,384,70432,6,0,B|443:334|443:334|423:213,1,161.000003070831,4|0,0:0|1:0,0:0:0:0:
453,204,70854,1,0,1:0:0:0:
453,204,70938,1,8,0:0:0:0:
512,118,71107,1,0,1:0:0:0:
443,37,71275,2,0,P|396:29|362:42,1,80.5000015354157,8|0,0:0|1:0,0:0:0:0:
348,134,71612,2,0,P|301:142|267:129,1,80.5000015354157,8|0,0:0|1:0,0:0:0:0:
172,80,71949,6,0,L|181:-7,2,80.5000015354157,8|0|8,0:0|1:0|0:0,0:0:0:0:
74,128,72455,2,0,L|82:30,2,80.5000015354157,0|8|0,1:0|0:0|1:0,0:0:0:0:
0,203,72961,1,8,0:0:0:0:
109,256,73129,6,0,B|176:252|176:252|206:272|206:272|272:269,1,161.000003070831,4|0,0:0|1:0,0:0:0:0:
289,252,73550,1,0,1:0:0:0:
289,252,73635,1,8,0:0:0:0:
361,180,73803,1,0,1:0:0:0:
437,241,73972,2,0,L|437:328,1,80.5000015354157,8|0,0:0|1:0,0:0:0:0:
364,374,74309,2,0,P|327:357|270:367,1,80.5000015354157,8|0,0:0|1:0,0:0:0:0:
256,382,74562,1,0,1:0:0:0:
256,382,74646,6,0,L|156:376,1,80.5000015354157,8|0,0:0|1:0,0:0:0:0:
130,299,74983,2,0,L|20:291,1,80.5000015354157,8|0,0:0|1:0,0:0:0:0:
0,218,75320,1,8,0:0:0:0:
76,162,75489,2,0,P|91:120|82:71,1,80.5000015354157,0|8,1:0|0:0,0:0:0:0:
10,15,75826,6,0,B|80:-8|80:-8|158:10,1,146.999995513916,4|0,0:0|1:0,0:0:0:0:
250,68,76331,1,8,0:0:0:0:
250,68,76500,1,0,1:0:0:0:
187,139,76668,2,0,P|177:179|194:224,1,73.4999977569581,8|0,0:0|1:0,0:0:0:0:
105,251,77006,2,0,P|126:286|170:306,1,73.4999977569581,8|0,0:0|1:0,0:0:0:0:
267,266,77343,6,0,L|275:178,2,73.4999977569581,8|0|8,0:0|1:0|0:0,0:0:0:0:
352,316,77848,2,0,L|359:238,2,73.4999977569581,0|8|0,1:0|0:0|1:0,0:0:0:0:
424,384,78354,1,8,0:0:0:0:
491,323,78522,6,0,B|472:164,1,146.999995513916,4|0,0:0|1:0,0:0:0:0:
512,92,79028,1,0,1:0:0:0:
429,42,79197,1,2,1:2:0:0:
429,42,79365,2,0,L|377:35,3,36.749998878479,8|8|8|8,0:0|0:0|0:0|0:0,0:0:0:0:
357,62,79702,1,8,0:0:0:0:
313,140,79871,2,0,P|274:158|221:146,1,73.4999977569581,2|0,1:2|0:0,0:0:0:0:
146,118,80208,5,8,0:0:0:0:
146,118,80292,1,8,0:0:0:0:
145,118,80376,2,0,L|147:154,3,35,8|8|0|0,0:0|1:2|1:0|1:0,0:0:0:0:
125,187,80683,2,0,L|127:223,3,35,8|8|8|8,0:0|0:0|0:0|1:2,0:0:0:0:
100,258,80996,2,0,L|102:294,3,35,0|0|8|8,1:0|1:0|0:0|0:0,0:0:0:0:
138,327,81388,6,0,L|215:322,1,56,4|0,1:2|0:0,0:0:0:0:
265,371,81725,1,2,0:0:0:0:
265,371,81893,2,0,P|283:314|253:250,1,112
204,202,82399,1,2,0:0:0:0:
204,202,82567,2,0,B|256:181|256:181|327:196,1,112
405,227,83073,1,2,0:0:0:0:
405,227,83241,1,0,0:0:0:0:
377,131,83410,2,0,P|372:113|379:82,3,28,8|0|0|0,0:0|1:0|1:0|1:0,0:0:0:0:
399,61,83747,1,0,1:0:0:0:
295,19,83916,6,0,B|226:8|226:8|139:31,1,140,4|8,0:0|0:0,0:0:0:0:
137,66,84337,1,0,1:0:0:0:
137,66,84421,1,0,1:0:0:0:
213,121,84590,1,4,0:0:0:0:
152,191,84800,2,0,P|147:207|146:224,3,35,8|8|8|8,0:0|0:0|0:0|0:0,0:0:0:0:
178,274,85113,1,8,0:0:0:0:
178,274,85191,1,8,0:0:0:0:
178,274,85269,1,4,1:2:0:0:
256,192,85348,12,0,88559,0:0:0:0:
