osu file format v14

[General]
AudioFilename: audio.mp3
AudioLeadIn: 0
PreviewTime: 49062
Countdown: 1
SampleSet: None
StackLeniency: 0.5
Mode: 0
LetterboxInBreaks: 0
WidescreenStoryboard: 1

[Editor]
DistanceSpacing: 1.6
BeatDivisor: 4
GridSize: 8
TimelineZoom: 1

[Metadata]
Title:Kidzuato
TitleUnicode:Kidzuato
Artist:Centimillimental
ArtistUnicode:Centimillimental
Creator:Wixdom
Version:Insane
Source:
Tags:
BeatmapID:2162846
BeatmapSetID:1034501

[Difficulty]
HPDrainRate:4
CircleSize:3.7
OverallDifficulty:8
ApproachRate:8.8
SliderMultiplier:1.4
SliderTickRate:1

[Events]
//Background and Video events
0,0,"bg.jpg",0,0
//Break Periods
//Storyboard Layer 0 (Background)
//Storyboard Layer 1 (Fail)
//Storyboard Layer 2 (Pass)
//Storyboard Layer 3 (Foreground)
//Storyboard Layer 4 (Overlay)
//Storyboard Sound Samples

[TimingPoints]
859.781876259046,337.078651685393,4,3,1,50,1,0
16028,-100,4,3,1,35,0,0
17039,-100,4,3,1,50,0,0
49399,-86.9565217391304,4,3,1,50,0,1
70803,-100,4,3,1,50,0,0

[HitObjects]
156,101,859,6,0,L|149:192,1,70,2|2,0:0|0:0,0:0:0:0:
220,234,1196,2,0,L|226:314,1,70,2|2,0:0|0:0,0:0:0:0:
291,84,1702,5,2,0:0:0:0:
291,84,1871,1,2,0:0:0:0:
345,190,2039,2,0,B|321:232|331:288|316:330,1,140,2|2,0:0|0:0,0:0:0:0:
237,119,2545,1,2,0:0:0:0:
237,119,2713,1,2,0:0:0:0:
177,219,2882,6,0,L|181:275,2,35,8|8|10,0:0|0:0|0:0,0:0:0:0:
102,95,3219,1,0,0:0:0:0:
102,95,3387,6,0,P|86:153|79:261,1,140,4|0,0:0|0:0,0:0:0:0:
233,139,3893,1,0,0:0:0:0:
233,139,4062,6,0,P|276:114|381:87,1,140,4|0,0:0|0:0,0:0:0:0:
172,234,4567,1,0,0:0:0:0:
172,234,4736,2,0,P|232:261|252:266,1,70,8|0,0:0|0:0,0:0:0:0:
324,208,5073,1,0,0:0:0:0:
324,208,5241,6,0,P|264:287|243:347,1,140,0|8,0:0|0:0,0:0:0:0:
362,319,5747,5,8,0:0:0:0:
200,101,6084,2,0,P|166:162|182:253,1,140,4|0,0:0|0:0,0:0:0:0:
205,253,6505,1,0,0:0:0:0:
205,253,6590,5,8,0:0:0:0:
286,86,6758,1,0,0:0:0:0:
300,237,6927,6,0,L|316:323,1,70,8|0,0:0|0:0,0:0:0:0:
351,156,7264,1,8,0:0:0:0:
238,73,7432,1,0,0:0:0:0:
222,226,7601,6,0,L|191:299,1,70,8|0,0:0|0:0,0:0:0:0:
153,131,7938,2,0,L|157:55,1,70,8|0,0:0|0:0,0:0:0:0:
289,150,8275,2,0,P|302:209|304:241,1,70,8|0,0:0|0:0,0:0:0:0:
242,329,8612,1,8,0:0:0:0:
120,292,8781,6,0,P|108:257|133:146,1,140,4|0,0:0|0:0,0:0:0:0:
196,265,9286,1,8,0:0:0:0:
209,104,9455,1,0,0:0:0:0:
229,242,9623,2,0,L|297:269,1,70,8|0,0:0|0:0,0:0:0:0:
80,200,9960,2,0,L|148:173,1,70,8|0,0:0|0:0,0:0:0:0:
76,339,10297,6,0,P|131:345|171:343,1,70,8|0,0:0|0:0,0:0:0:0:
309,245,10635,2,0,P|253:239|214:241,1,70,8|0,0:0|0:0,0:0:0:0:
371,360,10972,2,0,P|414:325|435:290,1,70,8|0,0:0|0:0,0:0:0:0:
443,211,11309,1,8,0:0:0:0:
391,120,11477,6,0,P|330:82|250:67,1,140,4|0,0:0|0:0,0:0:0:0:
321,163,11983,1,8,0:0:0:0:
375,22,12151,1,0,0:0:0:0:
341,186,12320,2,0,L|368:257,1,70,8|0,0:0|0:0,0:0:0:0:
270,69,12657,2,0,L|263:-2,1,70,8|0,0:0|0:0,0:0:0:0:
237,183,12994,6,0,P|245:234|248:273,1,70,8|0,0:0|0:0,0:0:0:0:
160,112,13331,2,0,P|156:63|160:32,1,70,8|0,0:0|0:0,0:0:0:0:
154,208,13668,1,8,0:0:0:0:
59,34,13837,1,0,0:0:0:0:
71,209,14005,1,8,0:0:0:0:
77,53,14174,6,0,P|67:114|64:202,1,140,4|0,0:0|0:0,0:0:0:0:
185,288,14680,2,0,L|163:218,1,70,8|4,0:0|0:0,0:0:0:0:
251,93,15017,2,0,L|243:190,1,70
266,295,15354,1,8,0:0:0:0:
305,166,15522,2,0,P|292:123|326:29,1,140,4|0,0:0|0:0,0:0:0:0:
416,112,16028,6,0,L|424:155,3,35,8|8|8|8,0:0|0:0|0:0|0:0,0:0:0:0:
368,208,16365,2,0,L|360:251,3,35,8|8|8|8,0:0|0:0|0:0|0:0,0:0:0:0:
416,304,16702,2,0,L|424:347,3,35,8|8|8|8,0:0|0:0|0:0|0:0,0:0:0:0:
454,231,17039,6,0,P|414:125|390:98,1,140,4|8,0:0|0:0,0:0:0:0:
280,218,17713,6,0,L|266:307,1,70
250,128,18050,2,0,P|156:115|103:131,1,140,8|0,0:0|0:0,0:0:0:0:
392,54,18724,2,0,L|304:200,1,140,8|0,0:0|0:0,0:0:0:0:
125,167,19399,5,8,0:0:0:0:
125,167,19567,2,0,P|154:208|238:260,1,140
278,110,20073,1,8,0:0:0:0:
278,110,20241,2,0,P|320:89|428:74,1,140
370,227,20747,2,0,L|494:315,1,140,8|0,0:0|0:0,0:0:0:0:
472,156,21253,1,0,0:0:0:0:
386,337,21421,1,8,0:0:0:0:
376,154,21590,1,0,0:0:0:0:
472,342,21758,6,0,L|455:249,1,70
385,174,22095,2,0,L|391:91,1,70,8|0,0:0|0:0,0:0:0:0:
369,270,22432,2,0,P|320:307|229:330,1,140,4|8,0:0|0:0,0:0:0:0:
125,183,22938,2,0,L|130:345,1,140
146,151,23444,5,8,0:0:0:0:
207,309,23612,1,0,0:0:0:0:
128,128,23781,2,0,P|142:91|247:50,1,140,0|8,0:0|0:0,0:0:0:0:
204,155,24286,2,0,P|188:207|191:307,1,140
276,182,24792,1,8,0:0:0:0:
250,343,24960,1,0,0:0:0:0:
159,180,25129,2,0,P|123:138|31:112,1,140,4|8,0:0|0:0,0:0:0:0:
239,168,25803,6,0,L|249:240,1,70
260,131,26140,1,8,0:0:0:0:
226,257,26309,2,0,P|203:325|128:374,1,140
146,185,26814,6,0,L|133:278,1,70,8|0,0:0|0:0,0:0:0:0:
76,83,27151,1,0,0:0:0:0:
64,248,27320,2,0,L|72:296,1,35,8|8,0:0|0:0,0:0:0:0:
144,112,27488,2,0,L|136:176,3,35,8|8|8|8,0:0|0:0|0:0|0:0,0:0:0:0:
157,302,27826,6,0,P|233:274|294:235,1,140,4|8,0:0|0:0,0:0:0:0:
326,51,28331,2,0,P|331:111|372:190,1,140
241,84,28837,1,8,0:0:0:0:
294,205,29005,6,0,P|315:251|326:345,1,140
312,176,29511,1,8,0:0:0:0:
353,311,29680,2,0,P|391:301|471:239,1,140
310,239,30185,1,8,0:0:0:0:
444,291,30354,6,0,P|424:256|394:150,1,140
430,60,30859,1,8,0:0:0:0:
306,98,31028,2,0,L|216:76,1,70
379,163,31365,2,0,L|289:185,1,70,0|8,0:0|0:0,0:0:0:0:
188,243,31702,6,0,P|132:296|50:288,1,140
79,160,32208,1,8,0:0:0:0:
419,99,32545,5,0,0:0:0:0:
419,99,32713,1,0,0:0:0:0:
436,259,32882,1,8,0:0:0:0:
339,78,33050,2,0,L|334:144,1,35,8|8,0:0|0:0,0:0:0:0:
358,232,33219,6,0,P|334:274|314:374,1,140,4|8,0:0|0:0,0:0:0:0:
327,244,33724,2,0,P|289:207|209:172,1,140
210,292,34230,1,8,0:0:0:0:
210,292,34399,6,0,B|198:235|194:142,1,140
142,50,34904,1,8,0:0:0:0:
142,50,35073,2,0,P|176:75|246:166,1,140
208,284,35578,2,0,L|209:376,1,70,8|0,0:0|0:0,0:0:0:0:
307,227,35915,2,0,P|331:179|347:85,2,140,0|8|0,0:0|0:0|0:0,0:0:0:0:
270,87,36758,1,0,0:0:0:0:
234,211,36927,1,8,0:0:0:0:
78,89,37264,6,0,L|80:159,1,70,8|0,0:0|0:0,0:0:0:0:
149,223,37601,2,0,L|147:293,1,70,8|0,0:0|0:0,0:0:0:0:
189,113,37938,1,8,0:0:0:0:
228,264,38106,2,0,L|232:308,1,35,8|8,0:0|0:0,0:0:0:0:
300,232,38275,2,0,L|295:193,2,35,8|8|8,0:0|0:0|0:0,0:0:0:0:
289,61,38612,6,0,L|294:133,1,70,8|8,0:0|0:0,0:0:0:0:
346,200,38949,2,0,L|341:272,1,70,2|0,0:0|0:0,0:0:0:0:
221,188,39286,1,8,0:0:0:0:
269,323,39455,1,0,0:0:0:0:
266,136,39623,6,0,L|255:215,1,70,8|0,0:0|0:0,0:0:0:0:
164,278,39960,2,0,L|148:195,1,70,2|0,0:0|0:0,0:0:0:0:
191,111,40297,1,0,0:0:0:0:
212,242,40466,2,0,L|266:216,2,35,0|8|8,0:0|0:0|0:0,0:0:0:0:
169,123,40803,1,0,0:0:0:0:
135,270,40972,2,0,L|150:339,1,70
42,184,41309,6,0,L|86:128,1,70,8|8,0:0|0:0,0:0:0:0:
145,223,41646,1,2,0:0:0:0:
161,64,41814,1,0,0:0:0:0:
234,195,41983,2,0,L|259:279,1,70,8|0,0:0|0:0,0:0:0:0:
141,150,42320,2,0,L|166:233,1,70,8|8,0:0|0:0,0:0:0:0:
156,122,42657,1,2,0:0:0:0:
220,293,42826,2,0,L|272:235,1,70,8|0,0:0|0:0,0:0:0:0:
304,344,43163,6,0,L|311:387,2,35,8|8|8,0:0|0:0|0:0,0:0:0:0:
335,213,43500,1,0,0:0:0:0:
430,348,43668,2,0,L|437:265,1,70,8|0,0:0|0:0,0:0:0:0:
352,231,44005,6,0,L|345:148,1,70,8|8,0:0|0:0,0:0:0:0:
423,258,44342,1,2,0:0:0:0:
324,187,44511,2,0,L|256:171,1,70,0|8,0:0|0:0,0:0:0:0:
241,264,44848,1,0,0:0:0:0:
225,106,45017,5,8,0:0:0:0:
224,279,45185,2,0,L|209:356,1,70,0|2,0:0|0:0,0:0:0:0:
124,175,45522,2,0,L|139:252,1,70,8|0,0:0|0:0,0:0:0:0:
223,330,45859,2,0,L|221:365,2,35,8|8|8,0:0|0:0|0:0,0:0:0:0:
139,185,46196,1,0,0:0:0:0:
145,307,46365,5,8,0:0:0:0:
253,144,46533,1,8,0:0:0:0:
227,296,46702,2,0,P|271:325|361:345,1,140,12|2,0:0|0:0,0:0:0:0:
376,170,47208,2,0,L|324:317,1,140,12|2,0:0|0:0,0:0:0:0:
285,148,47713,1,8,0:0:0:0:
274,159,48050,5,12,0:0:0:0:
169,162,48219,2,0,L|142:130,1,35,8|8,0:0|0:0,0:0:0:0:
137,235,48387,2,0,L|151:276,3,35,8|8|8|8,0:0|0:0|0:0|0:0,0:0:0:0:
79,324,48724,2,0,L|75:358,4,35,8|8|8|8|2,0:0|0:0|0:0|0:0|0:0,0:0:0:0:
275,89,49399,6,0,L|272:172,1,80.5000015354157,4|0,0:0|0:0,0:0:0:0:
334,223,49736,2,0,L|337:306,1,80.5000015354157,8|0,0:0|0:0,0:0:0:0:
380,143,50073,6,0,L|356:243,1,80.5000015354157,8|0,0:0|0:0,0:0:0:0:
448,111,50410,2,0,L|424:27,1,80.5000015354157,8|0,0:0|0:0,0:0:0:0:
391,175,50747,1,8,0:0:0:0:
314,30,50915,1,0,0:0:0:0:
318,205,51084,1,8,0:0:0:0:
302,48,51253,6,0,L|273:135,1,80.5000015354157,0|8,0:0|0:0,0:0:0:0:
177,32,51590,1,0,0:0:0:0:
216,208,51758,1,8,0:0:0:0:
190,54,51927,6,0,P|175:91|166:135,1,80.5000015354157,0|8,0:0|0:0,0:0:0:0:
264,70,52264,1,0,0:0:0:0:
227,233,52432,1,8,0:0:0:0:
402,173,52601,2,0,L|310:142,1,80.5000015354157,0|8,0:0|0:0,0:0:0:0:
336,306,52938,1,0,0:0:0:0:
194,208,53106,1,8,0:0:0:0:
374,209,53275,6,0,L|393:127,1,80.5000015354157,0|8,0:0|0:0,0:0:0:0:
443,253,53612,1,0,0:0:0:0:
366,154,53781,2,0,P|323:169|247:254,2,161.000003070831,8|8|8,0:0|0:0|0:0,0:0:0:0:
327,265,54623,1,0,0:0:0:0:
180,144,54792,6,0,L|187:230,1,80.5000015354157,12|0,0:0|0:0,0:0:0:0:
243,70,55129,1,8,0:0:0:0:
264,204,55297,2,0,L|256:292,1,80.5000015354157,0|8,0:0|0:0,0:0:0:0:
166,67,55635,1,0,0:0:0:0:
141,240,55803,1,8,0:0:0:0:
223,131,55972,6,0,P|222:176|226:244,1,80.5000015354157,0|8,0:0|0:0,0:0:0:0:
320,307,56309,1,0,0:0:0:0:
271,163,56477,1,8,0:0:0:0:
419,275,56646,2,0,L|420:368,1,80.5000015354157,0|8,0:0|0:0,0:0:0:0:
355,166,56983,1,0,0:0:0:0:
434,249,57151,1,8,0:0:0:0:
381,66,57320,6,0,P|320:63|222:107,1,161.000003070831,4|0,0:0|0:0,0:0:0:0:
337,148,57826,1,8,0:0:0:0:
260,215,57994,6,0,P|199:218|101:174,1,161.000003070831,4|0,0:0|0:0,0:0:0:0:
280,234,58500,1,8,0:0:0:0:
280,234,58668,2,0,P|298:140|359:83,1,161.000003070831,4|0,0:0|0:0,0:0:0:0:
393,213,59174,2,0,L|390:258,3,40.2500007677078,8|8|8|8,0:0|0:0|0:0|0:0,0:0:0:0:
336,94,59511,2,0,L|345:137,3,40.2500007677078,8|8|8|8,0:0|0:0|0:0|0:0,0:0:0:0:
426,83,59848,2,0,L|456:57,3,40.2500007677078,8|8|8|8,0:0|0:0|0:0|0:0,0:0:0:0:
406,179,60185,6,0,P|371:234|273:270,1,161.000003070831,4|8,0:0|0:0,0:0:0:0:
305,161,60691,2,0,L|372:108,1,80.5000015354157,0|8,0:0|0:0,0:0:0:0:
337,232,61028,1,0,0:0:0:0:
352,79,61196,1,8,0:0:0:0:
356,219,61365,1,0,0:0:0:0:
363,68,61533,6,0,L|397:171,1,80.5000015354157,8|0,0:0|0:0,0:0:0:0:
278,192,61871,2,0,P|252:230|232:274,1,80.5000015354157,8|0,0:0|0:0,0:0:0:0:
249,115,62208,1,8,0:0:0:0:
224,265,62376,2,0,L|239:344,1,80.5000015354157,0|8,0:0|0:0,0:0:0:0:
142,176,62713,6,0,L|151:264,1,80.5000015354157,0|8,0:0|0:0,0:0:0:0:
211,137,63050,1,0,0:0:0:0:
174,279,63219,1,8,0:0:0:0:
226,118,63387,2,0,P|286:82|316:72,1,80.5000015354157,0|8,0:0|0:0,0:0:0:0:
256,220,63724,2,0,L|219:133,1,80.5000015354157,0|8,0:0|0:0,0:0:0:0:
352,185,64062,6,0,P|345:248|321:349,1,161.000003070831,4|0,0:0|0:0,0:0:0:0:
273,194,64567,1,8,0:0:0:0:
192,352,64736,1,0,0:0:0:0:
183,144,64904,1,8,0:0:0:0:
284,344,65073,1,0,0:0:0:0:
266,114,65241,1,8,0:0:0:0:
179,324,65410,1,0,0:0:0:0:
177,100,65578,6,0,P|161:63|136:24,1,80.5000015354157,12|0,0:0|0:0,0:0:0:0:
129,171,65915,2,0,L|120:267,2,80.5000015354157,8|0|8,0:0|0:0|0:0,0:0:0:0:
203,257,66421,2,0,P|206:296|205:341,1,80.5000015354157,0|8,0:0|0:0,0:0:0:0:
207,177,66758,2,0,L|295:159,1,80.5000015354157,0|8,0:0|0:0,0:0:0:0:
341,290,67095,6,0,L|278:354,2,80.5000015354157,0|8|0,0:0|0:0|0:0,0:0:0:0:
241,270,67601,1,8,0:0:0:0:
255,157,67769,2,0,P|283:194|318:249,1,80.5000015354157,0|8,0:0|0:0,0:0:0:0:
314,101,68106,6,0,P|227:57|144:73,1,161.000003070831,4|0,0:0|0:0,0:0:0:0:
313,78,68612,1,8,0:0:0:0:
313,78,68781,2,0,P|270:146|282:234,1,161.000003070831,4|0,0:0|0:0,0:0:0:0:
306,51,69286,1,8,0:0:0:0:
306,51,69455,2,0,L|359:137,1,80.5000015354157,4|0,0:0|0:0,0:0:0:0:
395,30,69792,1,0,0:0:0:0:
412,156,69960,6,0,P|405:200|343:319,1,161.000003070831,8|0,0:0|0:0,0:0:0:0:
318,188,70466,1,0,0:0:0:0:
214,124,70635,2,0,P|185:167|184:206,1,80.5000015354157,0|4,0:0|0:0,0:0:0:0:
429,321,71140,5,0,0:0:0:0:
349,231,71309,2,0,L|405:169,1,70,8|0,0:0|0:0,0:0:0:0:
461,63,71646,2,0,L|465:147,1,70,8|0,0:0|0:0,0:0:0:0:
321,56,71983,2,0,L|294:145,1,70,8|0,0:0|0:0,0:0:0:0:
308,278,72320,6,0,P|283:241|255:210,1,70,8|0,0:0|0:0,0:0:0:0:
126,210,72657,2,0,P|151:247|179:278,1,70,8|0,0:0|0:0,0:0:0:0:
189,137,72994,2,0,L|109:113,1,70,8|0,0:0|0:0,0:0:0:0:
122,239,73331,1,8,0:0:0:0:
168,89,73500,6,0,P|190:57|294:21,1,140,4|0,0:0|0:0,0:0:0:0:
302,163,74005,1,8,0:0:0:0:
194,23,74174,1,0,0:0:0:0:
207,207,74342,1,8,0:0:0:0:
290,47,74511,1,0,0:0:0:0:
228,240,74680,1,8,0:0:0:0:
215,58,74848,1,0,0:0:0:0:
305,204,75017,6,0,P|320:253|321:297,1,70,8|0,0:0|0:0,0:0:0:0:
207,180,75354,2,0,P|192:131|191:87,1,70,8|0,0:0|0:0,0:0:0:0:
205,283,75691,2,0,L|142:229,1,70,8|0,0:0|0:0,0:0:0:0:
200,373,76028,1,8,0:0:0:0:
204,237,76196,2,0,P|218:182|270:108,1,140,4|0,0:0|0:0,0:0:0:0:
310,204,76702,6,0,L|304:296,1,70,8|0,0:0|0:0,0:0:0:0:
377,99,77039,2,0,L|383:191,1,70,8|0,0:0|0:0,0:0:0:0:
293,97,77376,2,0,L|227:57,1,70,8|0,0:0|0:0,0:0:0:0:
224,189,77713,5,8,0:0:0:0:
131,48,77882,1,0,0:0:0:0:
147,257,78050,1,8,0:0:0:0:
207,83,78219,1,0,0:0:0:0:
223,270,78387,1,8,0:0:0:0:
106,67,78556,1,0,0:0:0:0:
112,274,78724,1,8,0:0:0:0:
90,47,78893,6,0,P|70:109|66:196,1,140,4|0,0:0|0:0,0:0:0:0:
156,84,79399,1,8,0:0:0:0:
145,203,79567,1,2,0:0:0:0:
181,54,79736,2,0,L|220:132,1,70
256,27,80073,1,8,0:0:0:0:
253,178,80241,6,0,P|237:215|151:280,1,140,2|0,0:0|0:0,0:0:0:0:
128,154,80747,6,8,L|144:105,3,35
82,225,81084,2,8,L|94:287,3,35
56,116,81421,2,8,L|65:63,4,35,8|8|8|8|6,0:0|0:0|0:0|0:0|0:0,0:0:0:0:
271,127,83781,6,8,L|278:172,1,35
223,271,83949,2,0,L|199:349,1,70,8|8,0:0|0:0,0:0:0:0:
166,208,84286,2,0,P|147:167|93:88,1,140,4|0,0:0|0:0,0:0:0:0:
170,151,84792,1,8,0:0:0:0:
170,151,84960,2,0,P|211:179|305:237,1,140,4|0,0:0|0:0,0:0:0:0:
255,52,85466,1,8,0:0:0:0:
255,52,85635,2,0,L|268:133,1,70,4|0,0:0|0:0,0:0:0:0:
193,239,85972,1,2,0:0:0:0:
193,239,86140,1,2,0:0:0:0:
256,192,86309,12,0,89005,0:0:0:0:
