osu file format v14

[General]
AudioFilename: audio.mp3
AudioLeadIn: 0
PreviewTime: 49062
Countdown: 1
SampleSet: None
StackLeniency: 0.5
Mode: 0
LetterboxInBreaks: 0
WidescreenStoryboard: 0

[Editor]
DistanceSpacing: 0.8
BeatDivisor: 4
GridSize: 8
TimelineZoom: 1

[Metadata]
Title:Kidzuato
TitleUnicode:Kidzuato
Artist:Centimillimental
ArtistUnicode:Centimillimental
Creator:Wixdom
Version:Expert
Source:
Tags:
BeatmapID:2162850
BeatmapSetID:1034501

[Difficulty]
HPDrainRate:4.5
CircleSize:3.8
OverallDifficulty:8.4
ApproachRate:8.7
SliderMultiplier:1.4
SliderTickRate:1

[Events]
//Background and Video events
0,0,"bg.jpg",0,0
//Break Periods
2,81958,83136
//Storyboard Layer 0 (Background)
//Storyboard Layer 1 (Fail)
//Storyboard Layer 2 (Pass)
//Storyboard Layer 3 (Foreground)
//Storyboard Layer 4 (Overlay)
//Storyboard Sound Samples

[TimingPoints]
859.781876259046,337.078651685393,4,3,1,50,1,0
49399,-80,4,3,1,50,0,1
70972,-100,4,3,1,50,0,0
86140,-133.333333333333,4,3,1,50,0,0

[HitObjects]
44,127,859,6,0,P|57:176|68:228,1,70,2|2,0:0|0:0,0:0:0:0:
167,233,1196,2,0,P|154:282|143:334,1,70,2|2,0:0|0:0,0:0:0:0:
297,75,1702,6,0,P|336:101|378:133,1,70,2|2,0:0|0:0,0:0:0:0:
289,211,2039,2,0,P|315:250|345:350,1,140,2|2,0:0|0:0,0:0:0:0:
211,277,2545,1,2,0:0:0:0:
211,277,2713,2,0,L|192:194,1,70,2|0,0:0|0:0,0:0:0:0:
215,179,2966,1,0,0:0:0:0:
215,179,3050,1,2,0:0:0:0:
284,306,3219,1,2,0:0:0:0:
309,151,3387,6,0,P|401:144|451:162,1,140,6|0,0:0|0:0,0:0:0:0:
304,248,3893,1,0,0:0:0:0:
216,86,4062,2,0,P|191:119|171:227,1,140,6|0,0:0|0:0,0:0:0:0:
309,311,4567,1,0,0:0:0:0:
309,311,4736,2,0,L|288:239,1,70,6|0,0:0|0:0,0:0:0:0:
356,47,5073,1,2,0:0:0:0:
356,47,5241,2,0,B|369:86|366:133,1,70,2|0,0:0|0:0,0:0:0:0:
69,137,5578,5,8,0:0:0:0:
321,274,5747,1,8,0:0:0:0:
215,90,6084,6,0,P|208:127|171:243,1,140,4|0,0:0|0:0,0:0:0:0:
300,107,6590,5,8,0:0:0:0:
330,311,6758,1,0,0:0:0:0:
447,51,6927,5,8,0:0:0:0:
406,306,7095,1,0,0:0:0:0:
331,36,7264,5,8,0:0:0:0:
367,231,7432,1,0,0:0:0:0:
230,37,7601,5,8,0:0:0:0:
218,253,7769,1,0,0:0:0:0:
300,95,7938,5,8,0:0:0:0:
327,333,8106,1,0,0:0:0:0:
437,154,8275,5,8,0:0:0:0:
405,384,8444,1,0,0:0:0:0:
302,137,8612,5,8,0:0:0:0:
275,375,8781,2,0,P|229:336|188:256,1,140,4|0,0:0|0:0,0:0:0:0:
344,144,9286,5,8,0:0:0:0:
128,224,9455,1,0,0:0:0:0:
392,240,9623,5,8,0:0:0:0:
176,152,9792,1,0,0:0:0:0:
448,152,9960,5,8,0:0:0:0:
232,240,10129,1,0,0:0:0:0:
451,248,10297,5,8,0:0:0:0:
236,157,10466,1,0,0:0:0:0:
387,327,10635,5,8,0:0:0:0:
299,110,10804,1,0,0:0:0:0:
299,328,10972,5,8,0:0:0:0:
390,112,11141,1,0,0:0:0:0:
233,231,11309,5,8,0:0:0:0:
430,245,11477,2,0,P|468:300|499:384,1,140,4|0,0:0|0:0,0:0:0:0:
351,198,11983,5,8,0:0:0:0:
330,376,12151,1,0,0:0:0:0:
232,149,12320,5,8,0:0:0:0:
253,330,12488,1,0,0:0:0:0:
163,189,12657,5,8,0:0:0:0:
142,370,12826,1,0,0:0:0:0:
193,60,12994,5,8,0:0:0:0:
208,268,13163,1,0,0:0:0:0:
311,126,13331,5,8,0:0:0:0:
283,337,13500,1,0,0:0:0:0:
387,68,13668,5,8,0:0:0:0:
405,262,13837,1,0,0:0:0:0:
254,101,14005,5,8,0:0:0:0:
235,318,14174,2,0,P|194:277|137:205,1,140,4|0,2:0|0:0,0:0:0:0:
320,69,14680,5,8,0:0:0:0:
299,283,14848,1,12,0:0:0:0:
406,52,15017,5,8,0:0:0:0:
207,175,15185,1,8,0:0:0:0:
374,149,15354,1,8,0:0:0:0:
141,119,15522,2,0,P|53:130|3:157,1,140,4|0,0:0|0:0,0:0:0:0:
91,225,16028,2,0,P|142:237|171:243,1,70,8|0,0:0|0:0,0:0:0:0:
237,159,16365,5,8,0:0:0:0:
271,159,16449,1,8,0:0:0:0:
300,178,16533,1,8,0:0:0:0:
315,209,16617,1,8,0:0:0:0:
310,243,16702,5,8,0:0:0:0:
276,242,16786,1,8,0:0:0:0:
244,228,16870,1,8,0:0:0:0:
219,204,16954,1,8,0:0:0:0:
204,173,17039,2,0,B|181:98|230:81|224:12,1,140,4|8,0:0|0:0,0:0:0:0:
370,79,17713,5,0,0:0:0:0:
321,228,17882,1,0,0:0:0:0:
411,148,18050,2,0,P|449:170|501:260,1,140,8|0,0:0|0:0,0:0:0:0:
148,297,18724,6,0,L|79:167,1,140,8|0,0:0|0:0,0:0:0:0:
247,206,19230,5,0,0:0:0:0:
196,35,19399,1,8,0:0:0:0:
339,164,19567,1,0,0:0:0:0:
204,132,19736,6,0,P|145:119|84:65,1,140,4|8,0:0|0:0,0:0:0:0:
301,106,20241,2,0,P|288:165|234:226,1,140
123,200,20747,2,0,P|108:267|118:343,1,140,8|0,0:0|0:0,0:0:0:0:
283,335,21253,6,0,L|241:272,1,70,0|8,0:0|0:0,0:0:0:0:
261,141,21590,1,0,0:0:0:0:
380,228,21758,1,0,0:0:0:0:
252,23,22011,1,0,0:0:0:0:
252,23,22095,2,0,P|241:88|241:105,1,70,8|0,0:0|0:0,0:0:0:0:
251,293,22432,6,0,P|231:251|151:195,1,140,4|8,0:0|0:0,0:0:0:0:
132,285,22938,2,0,P|90:265|34:185,1,140
103,38,23444,1,8,0:0:0:0:
103,38,23612,2,0,P|120:89|166:176,1,140
242,89,24118,1,8,0:0:0:0:
242,89,24286,2,0,P|252:150|255:255,1,140
372,133,24792,2,0,P|368:177|369:217,1,70,8|0,0:0|0:0,0:0:0:0:
454,328,25129,6,0,P|457:262|456:171,1,140,0|8,0:0|0:0,0:0:0:0:
299,71,25635,1,0,0:0:0:0:
299,71,25803,2,0,P|304:126|302:157,1,70
197,49,26140,1,8,0:0:0:0:
221,187,26309,2,0,P|256:220|354:248,1,140
238,316,26814,1,8,0:0:0:0:
372,343,26983,1,0,0:0:0:0:
154,364,27151,1,8,0:0:0:0:
238,169,27320,5,8,0:0:0:0:
267,150,27404,1,8,0:0:0:0:
302,145,27488,1,8,0:0:0:0:
335,154,27572,1,8,0:0:0:0:
363,176,27657,1,8,0:0:0:0:
380,206,27741,1,8,0:0:0:0:
383,241,27826,6,0,P|366:294|297:341,1,140,4|8,0:0|0:0,0:0:0:0:
283,263,28331,2,0,P|234:291|203:387,1,140
157,212,28837,1,8,0:0:0:0:
121,344,29005,1,0,0:0:0:0:
128,176,29174,6,0,P|167:151|275:139,1,140,0|8,0:0|0:0,0:0:0:0:
215,214,29680,2,0,P|275:247|345:253,1,140
415,103,30185,1,8,0:0:0:0:
415,103,30354,6,0,P|433:179|429:254,1,140
318,108,30859,1,8,0:0:0:0:
318,108,31028,2,0,P|342:53|434:16,1,140
347,179,31533,1,8,0:0:0:0:
226,80,31702,2,0,P|231:154|255:234,1,140
136,141,32208,1,8,0:0:0:0:
28,271,32545,5,0,0:0:0:0:
162,328,32713,1,0,0:0:0:0:
38,197,32882,1,8,0:0:0:0:
218,170,33050,1,0,0:0:0:0:
87,58,33219,6,0,P|109:130|147:199,1,140,4|8,0:0|0:0,0:0:0:0:
202,109,33724,2,0,P|234:171|254:238,1,140
116,265,34230,1,8,0:0:0:0:
116,265,34399,2,0,P|189:309|251:318,1,140
332,194,34904,1,8,0:0:0:0:
332,194,35073,2,0,P|366:274|394:329,1,140
423,123,35578,1,8,0:0:0:0:
423,123,35747,6,0,P|337:102|266:114,1,140
426,203,36253,1,8,0:0:0:0:
284,170,36421,1,0,0:0:0:0:
335,294,36590,1,0,0:0:0:0:
176,210,36758,1,0,0:0:0:0:
310,108,36927,1,8,0:0:0:0:
256,234,37095,6,0,P|228:276|138:314,1,140
161,167,37601,1,8,0:0:0:0:
65,259,37769,1,0,0:0:0:0:
192,171,37938,6,0,P|277:157|336:185,2,140,8|8|8,0:0|0:0|0:0,0:0:0:0:
292,280,38781,1,8,0:0:0:0:
106,235,38949,1,2,0:0:0:0:
218,343,39118,1,8,0:0:0:0:
123,167,39286,1,0,0:0:0:0:
68,350,39455,1,0,0:0:0:0:
205,244,39623,5,8,0:0:0:0:
8,240,39792,1,8,0:0:0:0:
104,140,39960,1,2,0:0:0:0:
141,352,40129,1,8,0:0:0:0:
131,88,40297,6,0,P|176:118|202:145,1,70
226,275,40635,1,8,0:0:0:0:
226,275,40719,1,8,0:0:0:0:
226,275,40803,1,8,0:0:0:0:
313,182,40972,1,8,0:0:0:0:
295,341,41140,1,0,0:0:0:0:
406,123,41309,5,8,0:0:0:0:
325,254,41477,1,8,0:0:0:0:
495,184,41646,1,2,0:0:0:0:
272,117,41814,1,8,0:0:0:0:
379,202,41983,1,0,0:0:0:0:
240,189,42151,1,0,0:0:0:0:
337,53,42320,5,8,0:0:0:0:
117,108,42488,1,8,0:0:0:0:
281,125,42657,1,2,0:0:0:0:
69,66,42826,2,0,P|37:114|31:148,1,70,8|0,0:0|0:0,0:0:0:0:
54,223,43163,1,8,0:0:0:0:
54,223,43247,1,8,0:0:0:0:
54,223,43331,5,8,0:0:0:0:
132,337,43500,1,0,0:0:0:0:
171,163,43668,1,0,0:0:0:0:
192,297,43837,1,0,0:0:0:0:
138,85,44005,5,8,0:0:0:0:
314,130,44174,1,8,0:0:0:0:
172,186,44342,1,2,0:0:0:0:
254,42,44511,2,0,P|305:50|333:61,1,70,8|0,0:0|0:0,0:0:0:0:
221,116,44848,1,0,0:0:0:0:
375,127,45017,5,8,0:0:0:0:
251,215,45185,1,8,0:0:0:0:
281,57,45354,1,2,0:0:0:0:
319,236,45522,2,0,P|316:287|256:365,1,140,8|0,0:0|0:0,0:0:0:0:
222,345,45944,1,8,0:0:0:0:
222,345,46028,5,8,0:0:0:0:
135,194,46196,1,0,0:0:0:0:
253,266,46365,1,8,0:0:0:0:
238,94,46533,1,0,0:0:0:0:
65,157,46702,6,0,P|52:212|65:313,1,140,4|8,0:0|0:0,0:0:0:0:
208,102,47208,2,0,P|241:72|358:51,1,140,4|0,0:0|0:0,0:0:0:0:
265,225,47713,1,8,0:0:0:0:
399,87,47882,1,0,0:0:0:0:
381,257,48050,6,0,P|345:322|288:363,1,140,4|8,0:0|0:0,0:0:0:0:
150,227,48556,2,0,P|182:251|284:270,1,140,4|0,0:0|0:0,0:0:0:0:
312,87,49062,5,8,0:0:0:0:
131,65,49399,6,0,P|159:125|171:167,1,87.5,6|0,0:0|0:0,0:0:0:0:
38,92,49736,5,8,0:0:0:0:
90,311,49904,1,0,0:0:0:0:
272,96,50073,5,8,0:0:0:0:
192,312,50241,1,0,0:0:0:0:
176,96,50410,5,8,0:0:0:0:
296,312,50578,1,0,0:0:0:0:
391,89,50747,5,8,0:0:0:0:
380,322,50915,1,0,0:0:0:0:
285,97,51084,5,8,0:0:0:0:
459,265,51253,1,0,0:0:0:0:
222,214,51421,5,8,0:0:0:0:
458,149,51590,1,0,0:0:0:0:
279,294,51758,5,8,0:0:0:0:
388,70,51927,1,0,0:0:0:0:
401,286,52095,5,8,0:0:0:0:
236,73,52264,1,0,0:0:0:0:
365,133,52432,5,8,0:0:0:0:
112,186,52601,1,0,0:0:0:0:
299,283,52769,5,8,0:0:0:0:
168,69,52938,1,0,0:0:0:0:
188,353,53106,5,8,0:0:0:0:
240,145,53275,1,0,0:0:0:0:
307,341,53444,5,8,0:0:0:0:
131,161,53612,1,0,0:0:0:0:
106,363,53781,5,8,0:0:0:0:
216,139,53949,1,0,0:0:0:0:
211,306,54118,5,8,0:0:0:0:
115,93,54286,1,0,0:0:0:0:
142,259,54455,5,8,0:0:0:0:
203,21,54623,1,0,0:0:0:0:
263,197,54792,5,8,0:0:0:0:
75,79,54960,1,0,0:0:0:0:
384,78,55129,5,8,0:0:0:0:
157,188,55297,1,0,0:0:0:0:
395,191,55466,5,8,0:0:0:0:
235,73,55635,1,0,0:0:0:0:
266,263,55803,5,8,0:0:0:0:
336,58,55972,1,0,0:0:0:0:
356,315,56140,5,8,0:0:0:0:
272,119,56309,1,0,0:0:0:0:
252,338,56477,5,8,0:0:0:0:
347,168,56646,1,0,0:0:0:0:
423,356,56814,5,8,0:0:0:0:
410,133,56983,1,0,0:0:0:0:
486,279,57151,5,8,0:0:0:0:
420,54,57320,1,0,0:0:0:0:
316,228,57488,5,8,0:0:0:0:
485,138,57657,1,0,0:0:0:0:
393,302,57826,5,8,0:0:0:0:
371,90,57994,1,0,0:0:0:0:
262,341,58163,5,8,0:0:0:0:
285,139,58331,1,0,0:0:0:0:
356,302,58500,5,8,0:0:0:0:
114,220,58668,2,0,P|122:143|167:46,1,175,4|0,0:0|0:0,0:0:0:0:
224,117,59174,5,8,0:0:0:0:
201,154,59258,1,8,0:0:0:0:
197,197,59342,1,8,0:0:0:0:
213,237,59426,1,8,0:0:0:0:
244,267,59511,5,8,0:0:0:0:
266,230,59595,1,8,0:0:0:0:
266,187,59679,1,8,0:0:0:0:
244,150,59763,1,8,0:0:0:0:
206,130,59848,1,8,0:0:0:0:
163,132,59932,1,8,0:0:0:0:
127,156,60016,1,8,0:0:0:0:
109,196,60100,1,8,0:0:0:0:
114,239,60185,6,0,P|143:283|175:321,1,87.5,4|0,0:0|0:0,0:0:0:0:
239,140,60522,2,0,P|210:96|178:58,1,87.5,8|0,0:0|0:0,0:0:0:0:
251,299,60859,6,0,P|279:342|311:380,1,87.5,8|0,0:0|0:0,0:0:0:0:
324,146,61196,5,8,0:0:0:0:
378,362,61365,1,0,0:0:0:0:
463,77,61533,5,8,0:0:0:0:
438,293,61702,1,0,0:0:0:0:
351,53,61871,5,8,0:0:0:0:
386,241,62039,1,0,0:0:0:0:
265,88,62208,5,8,0:0:0:0:
260,302,62376,1,0,0:0:0:0:
159,118,62545,5,8,0:0:0:0:
335,269,62713,1,0,0:0:0:0:
122,210,62882,5,8,0:0:0:0:
336,168,63050,1,0,0:0:0:0:
191,301,63219,5,8,0:0:0:0:
238,65,63387,1,0,0:0:0:0:
290,273,63556,5,8,0:0:0:0:
106,103,63724,1,0,0:0:0:0:
316,187,63893,5,8,0:0:0:0:
77,191,64062,1,0,0:0:0:0:
248,85,64230,6,0,L|233:173,1,87.5,8|0,0:0|0:0,0:0:0:0:
133,340,64567,2,0,L|148:252,1,87.5,8|0,0:0|0:0,0:0:0:0:
59,70,64904,6,0,L|110:142,1,87.5,8|0,0:0|0:0,0:0:0:0:
334,309,65241,2,0,L|282:236,1,87.5,8|0,0:0|0:0,0:0:0:0:
172,68,65578,5,8,0:0:0:0:
201,264,65747,1,0,0:0:0:0:
273,37,65915,5,8,0:0:0:0:
117,197,66084,2,0,P|97:236|79:282,1,87.5,0|8,0:0|0:0,0:0:0:0:
253,133,66421,1,0,0:0:0:0:
178,318,66590,1,8,0:0:0:0:
147,65,66758,6,0,P|191:37|241:21,1,87.5,0|8,0:0|0:0,0:0:0:0:
122,172,67095,1,0,0:0:0:0:
344,83,67264,5,8,0:0:0:0:
224,220,67432,2,0,P|176:241|138:249,1,87.5,0|8,0:0|0:0,0:0:0:0:
267,122,67769,1,0,0:0:0:0:
70,207,67938,1,8,0:0:0:0:
166,61,68106,6,0,P|215:52|344:54,1,175,4|0,0:0|0:0,0:0:0:0:
178,147,68612,1,8,0:0:0:0:
51,32,68781,2,0,P|54:105|76:222,1,175,4|0,0:0|0:0,0:0:0:0:
239,123,69286,1,8,0:0:0:0:
239,123,69455,2,0,P|329:84|422:65,1,175,4|0,0:0|0:0,0:0:0:0:
345,281,69960,2,0,P|282:312|153:310,1,175,8|8,0:0|0:0,0:0:0:0:
162,285,70382,1,8,0:0:0:0:
162,285,70466,1,8,0:0:0:0:
146,128,70635,1,8,0:0:0:0:
312,226,70803,2,0,P|378:187|463:87,1,175,4|0,0:0|0:0,0:0:0:0:
152,163,71309,5,8,0:0:0:0:
332,64,71477,1,0,0:0:0:0:
198,22,71646,5,8,0:0:0:0:
227,235,71814,1,0,0:0:0:0:
329,118,71983,5,8,0:0:0:0:
118,101,72151,1,0,0:0:0:0:
181,277,72320,5,8,0:0:0:0:
211,71,72488,1,0,0:0:0:0:
326,353,72657,5,8,0:0:0:0:
296,147,72825,1,0,0:0:0:0:
210,384,72994,5,8,0:0:0:0:
334,217,73162,1,0,0:0:0:0:
125,277,73331,5,8,0:0:0:0:
310,326,73500,2,0,P|365:295|430:228,1,140,4|0,0:0|0:0,0:0:0:0:
229,270,74005,5,8,0:0:0:0:
361,110,74174,1,0,0:0:0:0:
174,84,74342,5,8,0:0:0:0:
376,229,74511,1,0,0:0:0:0:
284,30,74680,5,8,0:0:0:0:
264,273,74848,1,0,0:0:0:0:
149,132,75017,5,8,0:0:0:0:
347,263,75185,1,0,0:0:0:0:
233,99,75354,5,8,0:0:0:0:
195,323,75522,1,0,0:0:0:0:
53,179,75691,5,8,0:0:0:0:
296,292,75859,1,0,0:0:0:0:
161,81,76028,5,8,0:0:0:0:
81,311,76196,2,0,P|115:286|188:190,1,140,4|0,0:0|0:0,0:0:0:0:
32,200,76702,5,8,0:0:0:0:
249,258,76871,1,0,0:0:0:0:
131,98,77039,5,8,0:0:0:0:
172,312,77208,1,0,0:0:0:0:
321,130,77376,5,8,0:0:0:0:
109,233,77545,1,0,0:0:0:0:
222,71,77713,5,8,0:0:0:0:
236,319,77882,1,0,0:0:0:0:
328,107,78050,5,8,0:0:0:0:
315,336,78219,1,0,0:0:0:0:
243,156,78387,5,8,0:0:0:0:
406,286,78556,1,0,0:0:0:0:
326,56,78724,5,8,0:0:0:0:
273,281,78893,2,0,P|221:288|122:263,1,140,4|0,0:0|0:0,0:0:0:0:
255,166,79399,5,8,0:0:0:0:
57,221,79567,1,4,0:0:0:0:
191,71,79736,5,8,0:0:0:0:
131,273,79904,1,0,0:0:0:0:
68,97,80073,5,8,0:0:0:0:
237,216,80241,2,0,P|237:278|212:376,1,140,4|8,0:0|0:0,0:0:0:0:
193,361,80663,1,8,0:0:0:0:
192,363,80747,1,8,0:0:0:0:
64,272,80915,1,0,0:0:0:0:
263,164,81084,5,8,0:0:0:0:
284,191,81168,1,8,0:0:0:0:
290,225,81252,1,8,0:0:0:0:
281,258,81336,1,8,0:0:0:0:
258,284,81421,5,8,0:0:0:0:
226,269,81505,1,8,0:0:0:0:
204,242,81589,1,8,0:0:0:0:
197,208,81673,1,8,0:0:0:0:
207,175,81758,1,4,0:0:0:0:
326,96,83781,5,8,0:0:0:0:
326,96,83865,1,8,0:0:0:0:
326,96,83949,2,0,P|324:157|316:192,1,70,8|0,0:0|0:0,0:0:0:0:
190,115,84286,2,0,P|206:180|239:267,1,140,4|0,0:0|0:0,0:0:0:0:
258,77,84792,5,8,0:0:0:0:
316,264,84960,2,0,P|284:312|194:341,1,140,4|0,0:0|0:0,0:0:0:0:
179,135,85466,1,8,0:0:0:0:
179,135,85635,6,0,P|204:104|250:66,1,70,4|0,0:0|0:0,0:0:0:0:
330,84,85972,5,0,0:0:0:0:
330,84,86140,2,0,B|326:134|306:175|306:175|359:182|359:182|379:233|325:269|332:323|332:323|144:311|339:147|108:279|135:84|135:84|67:156|141:213|60:272,1,840.000032043458
