osu file format v14

[General]
AudioFilename: 06. Hoshi no Aida.mp3
AudioLeadIn: 0
PreviewTime: 60229
Countdown: 0
SampleSet: Soft
StackLeniency: 0.2
Mode: 0
LetterboxInBreaks: 0
WidescreenStoryboard: 1

[Editor]
DistanceSpacing: 1
BeatDivisor: 4
GridSize: 32
TimelineZoom: 3.5

[Metadata]
Title:Hoshi no Aida
TitleUnicode:星のあいだ
Artist:Centimillimental
ArtistUnicode:センチミリメンタル
Creator:Kyouren
Version:Kaleidoscope Love
Source:
Tags:kaedeharakazuha kaedehara kazuha addy2607 gokugohan12468 kittyadventure Mildly Accurate killian jrock j-rock rock jpop j-pop pop japanese japan male vocalist vocals vocal やさしい刃物 Yasashī Yasashi Yasashii hamono gentle soft knives 1st first album あつし atsushi 温詞 arrange arranger Erika Fukasawa 深澤 恵梨香 深澤恵梨香 sony music epic cenmilli cenmili mental centimilli centimili full version ver. ver aishiteru daisuki ai love heart suki koishiteru koi
BeatmapID:4129560
BeatmapSetID:1987990

[Difficulty]
HPDrainRate:5.3
CircleSize:4
OverallDifficulty:8.5
ApproachRate:9.2
SliderMultiplier:1.7
SliderTickRate:1

[Events]
//Background and Video events
0,0,"5f7f5d29b8aa7ae31264733b0f5f4072e69a787a_s2_n2.jpg",0,0
Video,350,"hoshinoaida.mp4"
//Break Periods
2,128831,137831
2,192812,197145
//Storyboard Layer 0 (Background)
//Storyboard Layer 1 (Fail)
//Storyboard Layer 2 (Pass)
//Storyboard Layer 3 (Foreground)
//Storyboard Layer 4 (Overlay)
//Storyboard Sound Samples

[TimingPoints]
480,333.333333333333,4,2,1,65,1,0
11146,-100,4,2,1,80,0,0
21813,-117.647058823529,4,2,1,60,0,0
40479,-100,4,2,1,70,0,0
61813,-117.647058823529,4,2,1,60,0,1
61896,-117.647058823529,4,2,1,60,0,0
81813,-222.222222222222,4,2,1,45,0,0
82313,-153.846153846154,4,2,1,45,0,0
83146,-83.3333333333333,4,2,1,85,0,1
93729,-83.3333333333333,4,2,1,85,0,0
93813,-100,4,2,1,70,0,1
95591,-133.333333333333,4,2,1,70,0,1
95813,-100,4,2,1,70,0,1
104396,-100,4,2,1,70,0,0
104479,-83.3333333333333,4,2,1,85,0,1
115063,-83.3333333333333,4,2,1,85,0,0
115146,-100,4,2,1,70,0,1
116924,-133.333333333333,4,2,1,70,0,1
117146,-100,4,2,1,70,0,1
123063,-100,4,2,1,70,0,0
123146,-100,4,2,1,80,0,1
123229,-100,4,2,1,80,0,0
127646,-100,4,2,1,80,0,0
128313,370.37037037037,4,2,1,80,1,0
128498,333.333333333333,4,2,1,70,1,0
128498,-153.846153846153,4,2,1,70,0,0
138331,319.148936170212,4,2,1,15,1,0
138490,310.880829015544,4,2,1,15,1,0
138490,-699.305589549577,4,2,1,15,0,0
138645,333.333333333333,4,2,1,15,1,0
139146,333.333333333333,4,2,1,40,1,0
139146,-285.714285714286,4,2,1,40,0,0
149146,-153.846153846154,4,2,1,40,0,0
149479,-153.846153846154,4,2,1,50,0,0
149812,-100,4,2,1,60,0,1
149896,-100,4,2,1,60,0,0
150146,-117.647058823529,4,2,1,60,0,0
171145,-90.9090909090909,4,2,1,70,0,1
181729,-90.9090909090909,4,2,1,70,0,0
181812,-83.3333333333333,4,2,1,80,0,1
191145,-400,4,2,1,70,0,1
192395,-400,4,2,1,70,0,0
192479,-400,4,2,1,45,0,1
192562,-400,4,2,1,45,0,0
197812,-83.3333333333333,4,2,1,85,0,1
203062,-83.3333333333333,4,2,1,85,0,0
203145,-83.3333333333333,4,2,1,70,0,1
203479,-100,4,2,1,70,0,1
204923,-133.333333333333,4,2,1,70,0,1
205145,-100,4,2,1,70,0,1
213729,-100,4,2,1,70,0,0
213812,-83.3333333333333,4,2,1,85,0,1
224395,-83.3333333333333,4,2,1,85,0,0
224479,-100,4,2,1,70,0,1
226257,-133.333333333333,4,2,1,70,0,1
226479,-100,4,2,1,70,0,1
231812,-66.6666666666667,4,2,1,70,0,1
232034,-133.333333333333,4,2,1,70,0,1
232395,-133.333333333333,4,2,1,70,0,0
232479,-100,4,2,1,80,0,1
232562,-100,4,2,1,80,0,0
241979,-454.545454545455,4,2,1,80,0,1
242062,-454.545454545455,4,2,1,5,0,1
252479,-454.545454545455,4,2,1,5,0,0

[Colours]
Combo1 : 192,192,192
Combo2 : 255,255,128

[HitObjects]
0,0,480,6,0,B|96:12|58:56|150:70,1,170,6|0,1:0|0:0,0:0:0:0:
170,155,979,2,0,B|262:140|224:96|320:84,1,170,6|0,1:0|0:0,0:0:0:0:
350,5,1479,2,0,B|446:17|408:61|500:75,1,170,6|0,1:0|0:0,0:0:0:0:
280,250,1979,2,0,P|327:185|404:203,1,170,6|4,1:0|1:3,0:0:0:0:
410,210,2396,1,4,1:3:0:0:
414,216,2479,1,4,1:3:0:0:
255,365,2646,5,4,3:0:0:0:
175,345,2813,1,4,3:0:0:0:
95,325,2979,1,4,3:0:0:0:
165,185,3146,6,0,B|69:197|107:241|14:255,1,170,6|0,1:0|0:0,0:0:0:0:
160,60,3646,2,0,P|241:69|280:140,1,170,6|0,1:0|0:0,0:0:0:0:
75,185,4146,2,0,P|62:100|47:17,1,170,6|0,1:0|0:0,0:0:0:0:
250,230,4646,2,0,B|293:244|319:247|319:247|345:292|345:292|380:297|418:307,1,198.333333333333,6|4,1:0|3:0,0:0:0:0:
490,260,5146,6,0,P|496:232|504:205,2,56.6666666666667,4|4|4,3:0|3:0|3:0,0:0:0:0:
415,220,5479,1,4,3:0:0:0:
405,195,5591,1,4,3:0:0:0:
385,170,5702,1,4,3:0:0:0:
370,145,5813,5,6,1:0:0:0:
505,15,5979,2,0,B|499:22|499:22|425:39,1,85,0|0,1:0|0:0,0:0:0:0:
280,150,6313,2,0,P|204:120|197:40,1,170,8|0,3:0|0:0,0:0:0:0:
155,195,6813,5,6,1:0:0:0:
155,195,6979,2,0,B|149:202|149:202|75:219,1,85,0|0,1:0|0:0,0:0:0:0:
255,365,7313,1,8,3:0:0:0:
325,265,7479,1,8,3:0:0:0:
155,195,7646,5,4,1:3:0:0:
150,210,7729,1,4,1:3:0:0:
145,225,7813,1,4,1:3:0:0:
280,150,7979,1,4,3:0:0:0:
220,280,8146,1,4,3:0:0:0:
200,120,8313,1,4,3:0:0:0:
385,170,8479,5,6,1:0:0:0:
500,20,8646,2,0,P|490:61|483:103,1,85,0|0,1:0|0:0,0:0:0:0:
225,10,8979,2,0,P|306:33|384:66,1,170,8|0,3:0|0:0,0:0:0:0:
220,280,9479,5,6,1:0:0:0:
200,120,9646,2,0,P|241:130|281:144,1,85,0|0,1:0|0:0,0:0:0:0:
110,310,9979,1,8,3:0:0:0:
45,225,10146,1,8,3:0:0:0:
281,144,10479,5,4,1:3:0:0:
322,153,10563,1,4,1:3:0:0:
357,176,10646,1,4,1:3:0:0:
392,199,10729,1,4,1:3:0:0:
434,207,10813,2,0,L|475:199,1,42.5,4|4,1:3|1:3,0:0:0:0:
393,24,10979,2,0,L|385:65,1,42.5,4|4,1:3|1:3,0:0:0:0:
281,144,11146,6,0,P|203:121|188:42,1,170,6|0,1:0|1:0,0:0:0:0:
155,195,11646,1,6,3:0:0:0:
155,195,11813,2,0,L|71:213,1,85,4|0,3:0|0:0,0:0:0:0:
240,340,12146,6,0,P|301:341|339:293,1,127.5,2|0,1:0|0:0,0:0:0:0:
335,285,12479,2,0,L|350:201,1,85,4|2,3:0|0:0,0:0:0:0:
170,111,12813,2,0,L|155:195,1,85,2|6,1:0|3:0,0:0:0:0:
390,100,13146,1,6,3:0:0:0:
270,30,13313,1,6,3:0:0:0:
155,195,13479,5,2,1:0:0:0:
175,190,13563,1,2,0:0:0:0:
196,185,13646,1,2,0:0:0:0:
217,181,13729,1,2,0:0:0:0:
236,177,13813,6,0,L|206:344,1,170,6|0,1:0|1:0,0:0:0:0:
430,270,14313,1,6,3:0:0:0:
340,370,14479,2,0,L|325:286,1,85,4|0,3:0|0:0,0:0:0:0:
390,100,14813,2,0,L|375:184,1,85,0|0,1:0|0:0,0:0:0:0:
155,195,15146,5,4,3:0:0:0:
245,10,15313,2,0,L|260:94,1,85,2|0,0:0|1:0,0:0:0:0:
70,150,15646,2,0,P|57:109|65:68,1,85,4|0,3:0|0:0,0:0:0:0:
260,93,15979,6,0,L|252:134,1,42.5,4|4,1:3|1:3,0:0:0:0:
155,195,16146,1,4,1:3:0:0:
190,172,16229,1,4,1:3:0:0:
231,172,16313,1,4,1:3:0:0:
266,195,16396,1,4,1:3:0:0:
282,234,16479,6,0,B|383:220|348:266|447:252,1,170,6|0,1:0|1:0,0:0:0:0:
215,370,16979,1,6,3:0:0:0:
215,370,17146,2,0,B|216:360|216:360|205:285,1,85,4|0,3:0|0:0,0:0:0:0:
395,45,17479,6,0,B|394:55|394:55|411:171,1,127.5,2|0,1:0|0:0,0:0:0:0:
411,171,17813,2,0,P|373:152|331:154,1,85,4|2,3:0|0:0,0:0:0:0:
155,145,18146,1,2,1:0:0:0:
260,5,18313,2,0,L|249:89,1,85,6|6,3:0|3:0,0:0:0:0:
205,286,18646,1,6,3:0:0:0:
42,203,18813,5,2,1:0:0:0:
52,206,18896,1,2,0:0:0:0:
62,210,18979,1,2,0:0:0:0:
71,213,19063,1,2,0:0:0:0:
80,215,19146,6,0,P|102:295|68:370,1,170,6|0,1:0|1:0,0:0:0:0:
230,200,19646,1,6,3:0:0:0:
230,200,19813,2,0,L|314:211,1,85,4|0,3:0|0:0,0:0:0:0:
165,55,20146,2,0,L|80:66,1,85,2|0,1:0|0:0,0:0:0:0:
230,200,20479,1,4,3:0:0:0:
365,105,20646,1,6,3:0:0:0:
435,245,20813,1,6,1:0:0:0:
435,245,21146,5,4,1:3:0:0:
393,240,21229,1,4,1:3:0:0:
354,256,21313,1,4,1:3:0:0:
327,288,21396,1,4,1:3:0:0:
320,330,21479,2,0,L|327:372,1,42.5,4|4,1:3|1:3,0:0:0:0:
230,200,21646,2,0,L|237:158,1,42.5,4|4,1:3|1:3,0:0:0:0:
170,105,21813,6,0,B|88:114|114:137|33:146,1,144.500002756119,6|4,1:0|3:0,0:0:0:0:
75,225,22313,2,0,P|110:232|144:244,1,72.2500013780594,2|4,0:0|3:0,0:0:0:0:
170,105,22646,5,2,0:0:0:0:
215,15,22813,2,0,P|234:45|250:77,1,72.2500013780594,6|2,3:0|0:0,0:0:0:0:
345,125,23146,5,4,3:0:0:0:
450,50,23313,2,0,P|442:85|430:119,1,72.2500013780594,2|4,0:0|3:0,0:0:0:0:
380,255,23646,5,2,0:0:0:0:
510,270,23813,2,0,P|479:289|447:305,1,72.2500013780594,6|0,3:0|0:0,0:0:0:0:
305,360,24146,2,0,P|269:352|235:340,1,72.2500013780594,6|2,3:0|0:0,0:0:0:0:
205,315,24396,1,2,0:0:0:0:
180,285,24479,6,0,P|116:318|45:319,1,144.500002756119,6|4,3:0|3:0,0:0:0:0:
100,235,24979,1,2,0:0:0:0:
265,245,25146,2,0,L|282:101,1,144.500002756119,6|4,3:0|3:0,0:0:0:0:
220,45,25646,1,2,0:0:0:0:
390,15,25813,2,0,P|452:45|465:113,1,144.500002756119,6|4,3:0|3:0,0:0:0:0:
405,175,26313,1,2,0:0:0:0:
265,245,26479,2,0,P|333:256|365:318,1,144.500002756119,6|4,3:0|3:0,0:0:0:0:
440,355,26979,1,2,0:0:0:0:
180,360,27146,6,0,L|169:215,1,144.500002756119,6|4,3:0|3:0,0:0:0:0:
125,145,27646,2,0,P|98:169|88:203,1,72.2500013780594,2|4,0:0|3:0,0:0:0:0:
220,100,27979,5,2,0:0:0:0:
160,35,28146,2,0,P|124:33|93:50,1,72.2500013780594,6|0,3:0|0:0,0:0:0:0:
350,150,28479,5,4,3:0:0:0:
355,65,28646,2,0,P|330:38|296:28,1,72.2500013780594,2|4,0:0|3:0,0:0:0:0:
400,300,28979,5,2,0:0:0:0:
470,245,29146,2,0,P|471:209|454:178,1,72.2500013780594,6|0,3:0|0:0,0:0:0:0:
285,320,29479,2,0,P|311:295|321:261,1,72.2500013780594,6|0,3:0|0:0,0:0:0:0:
200,370,29813,6,0,P|176:302|122:255,1,144.500002756119,6|4,3:0|3:0,0:0:0:0:
5,155,30313,1,2,0:0:0:0:
50,80,30479,2,0,P|116:85|121:152,1,144.500002756119,6|4,3:0|3:0,0:0:0:0:
240,250,30979,1,2,0:0:0:0:
315,210,31146,2,0,B|400:203|379:237|456:229,1,144.500002756119,6|4,3:0|3:0,0:0:0:0:
505,85,31646,1,2,0:0:0:0:
445,30,31813,2,0,P|414:47|400:80,1,72.2500013780594,6|0,3:0|0:0,0:0:0:0:
315,210,32146,5,6,3:0:0:0:
314,201,32229,1,2,0:0:0:0:
313,192,32313,1,2,0:0:0:0:
312,183,32396,1,2,0:0:0:0:
311,174,32479,6,0,B|226:167|247:201|170:193,1,144.500002756119,6|4,1:0|3:0,0:0:0:0:
95,160,32979,2,0,L|78:89,1,72.2500013780594,2|4,0:0|3:0,0:0:0:0:
185,335,33313,1,2,0:0:0:0:
115,375,33479,2,0,P|84:355|49:349,1,72.2500013780594,6|2,3:0|0:0,0:0:0:0:
40,350,33729,1,2,0:0:0:0:
30,350,33813,2,0,P|90:314|104:246,2,144.500002756119,6|6|6,3:0|3:0|3:0,0:0:0:0:
265,350,34813,2,0,L|336:360,1,72.2500013780594,6|2,3:0|0:0,0:0:0:0:
505,225,35146,6,0,B|458:232|458:232|435:259|435:259|374:271,1,144.500002756119,6|4,3:0|3:0,0:0:0:0:
275,215,35646,1,2,0:0:0:0:
350,135,35813,2,0,P|384:145|419:153,1,72.2500013780594,6|0,3:0|0:0,0:0:0:0:
210,140,36146,2,0,P|211:103|206:68,1,72.2500013780594,6|0,3:0|0:0,0:0:0:0:
135,25,36479,5,4,3:0:0:0:
20,110,36646,2,0,P|55:118|88:132,1,72.2500013780594,2|4,0:0|3:0,0:0:0:0:
275,215,36979,1,2,0:0:0:0:
210,270,37146,2,0,L|68:301,1,144.500002756119,6|6,3:0|3:0,0:0:0:0:
380,365,37646,5,2,0:0:0:0:
382,358,37729,1,2,0:0:0:0:
385,350,37813,2,0,P|454:344|497:289,1,144.500002756119,6|4,3:0|3:0,0:0:0:0:
410,170,38313,1,2,0:0:0:0:
275,215,38479,2,0,P|285:249|292:284,1,72.2500013780594,6|0,3:0|0:0,0:0:0:0:
410,170,38813,2,0,P|399:135|392:100,1,72.2500013780594,6|0,3:0|0:0,0:0:0:0:
320,60,39146,6,0,P|250:64|211:122,1,144.500002756119,6|0,3:0|1:0,0:0:0:0:
165,325,39646,1,4,3:0:0:0:
275,215,39813,1,4,3:0:0:0:
100,195,39979,1,4,3:0:0:0:
275,325,40146,1,0,1:0:0:0:
100,195,40313,5,2,0:0:0:0:
91,199,40396,1,2,0:0:0:0:
82,203,40479,2,0,B|72:217|55:226|55:226|187:205,2,170,6|0|4,1:0|1:0|3:0,0:0:0:0:
240,70,41313,1,4,3:0:0:0:
370,160,41479,2,0,P|383:199|375:241,1,85,0|0,1:0|0:0,0:0:0:0:
248,359,41813,6,0,B|240:261|193:298|187:203,2,170,4|0|4,3:0|1:0|3:0,0:0:0:0:
270,160,42646,1,4,3:0:0:0:
125,310,42813,2,0,L|41:295,1,85,2|0,1:0|0:0,0:0:0:0:
248,359,43146,6,0,P|311:306|391:323,1,170,6|0,1:0|1:0,0:0:0:0:
485,230,43646,1,2,0:0:0:0:
405,110,43813,1,6,3:0:0:0:
275,160,43979,1,4,3:0:0:0:
405,110,44146,2,0,L|416:25,1,85,0|2,1:0|0:0,0:0:0:0:
210,0,44479,6,0,P|158:64|173:145,1,170,6|0,3:0|1:0,0:0:0:0:
65,265,44979,1,2,0:0:0:0:
180,360,45146,1,6,3:0:0:0:
65,265,45313,1,4,3:0:0:0:
260,300,45479,2,0,L|342:280,1,85,0|2,1:0|0:0,0:0:0:0:
505,365,45813,6,0,P|442:310|445:228,2,170,6|0|4,1:0|1:0|3:0,0:0:0:0:
342,280,46646,1,4,3:0:0:0:
505,165,46813,2,0,L|496:80,1,85,0|0,1:0|0:0,0:0:0:0:
225,65,47146,6,0,B|282:76|282:76|315:114|315:114|375:123,2,170,4|0|4,3:0|1:0|3:0,0:0:0:0:
95,170,47979,1,4,3:0:0:0:
210,280,48146,2,0,P|218:238|229:197,1,85,0|2,1:0|0:0,0:0:0:0:
15,285,48479,6,0,P|64:349|146:345,1,170,6|0,1:0|1:0,0:0:0:0:
295,280,48979,1,2,0:0:0:0:
420,375,49146,1,6,3:0:0:0:
420,375,49313,1,4,3:0:0:0:
500,230,49479,2,0,P|460:216|428:188,1,85,0|2,1:0|0:0,0:0:0:0:
295,280,49813,6,0,L|315:111,1,170,6|0,3:0|1:0,0:0:0:0:
210,45,50313,1,2,0:0:0:0:
170,260,50479,6,0,P|163:218|152:176,1,85,4|8,3:0|3:0,0:0:0:0:
165,165,50729,1,4,1:3:0:0:
175,155,50813,1,4,1:3:0:0:
157,192,50896,1,4,1:3:0:0:
124,219,50979,1,4,1:3:0:0:
83,228,51063,1,4,1:3:0:0:
42,219,51146,1,6,1:0:0:0:
255,365,51479,6,0,P|313:307|394:320,1,170,0|4,1:0|3:0,0:0:0:0:
485,225,51979,1,4,3:0:0:0:
390,115,52146,2,0,P|384:157|379:199,1,85,2|0,1:0|0:0,0:0:0:0:
170,260,52479,6,0,P|175:217|180:175,1,85,6|0,3:0|0:0,0:0:0:0:
245,25,52813,2,0,P|180:77|97:74,1,170,2|6,1:0|3:0,0:0:0:0:
260,135,53313,1,4,3:0:0:0:
65,155,53479,2,0,P|30:130|14:92,1,85,2|0,1:0|0:0,0:0:0:0:
170,260,53813,6,0,L|2:288,2,170,6|0|6,1:0|1:0|3:0,0:0:0:0:
300,350,54646,1,4,3:0:0:0:
480,240,54813,5,2,1:0:0:0:
485,255,54924,1,2,0:0:0:0:
475,270,55035,1,2,0:0:0:0:
480,280,55146,6,0,P|396:291|319:258,1,170,4|0,3:0|1:0,0:0:0:0:
255,190,55646,1,2,0:0:0:0:
230,100,55813,2,0,P|234:58|254:20,1,85,6|4,3:0|3:0,0:0:0:0:
170,260,56146,2,0,L|85:247,1,85,2|0,1:0|0:0,0:0:0:0:
255,190,56479,6,0,P|291:265|279:348,2,170,6|0|6,1:0|1:0|3:0,0:0:0:0:
125,110,57313,1,4,3:0:0:0:
254,20,57479,2,0,L|338:32,1,85,0|0,1:0|0:0,0:0:0:0:
510,150,57813,6,0,B|471:158|451:153|451:153|414:183|414:183|386:179|352:191,1,170,6|0,3:0|1:0,0:0:0:0:
235,300,58313,1,2,0:0:0:0:
325,375,58479,2,0,P|343:337|346:294,1,85,6|4,3:0|3:0,0:0:0:0:
150,250,58813,2,0,P|131:287|128:330,1,85,0|0,1:0|0:0,0:0:0:0:
255,170,59146,5,6,3:0:0:0:
110,75,59313,1,4,3:0:0:0:
25,230,59479,1,4,1:2:0:0:
25,230,59646,1,4,3:0:0:0:
220,78,59813,5,4,3:0:0:0:
40,10,59979,1,4,3:0:0:0:
165,155,60146,1,4,1:2:0:0:
325,40,60313,1,6,3:0:0:0:
255,170,60479,5,6,3:0:0:0:
395,215,60646,1,0,1:0:0:0:
440,75,60813,1,6,3:0:0:0:
305,255,60979,1,4,1:3:0:0:
308,272,61063,1,4,1:3:0:0:
311,289,61146,1,4,1:3:0:0:
197,243,61313,1,4,3:0:0:0:
390,335,61479,1,6,3:0:0:0:
245,375,61646,1,4,3:0:0:0:
390,335,61813,6,0,P|425:342|459:353,1,72.2500013780594,6|2,1:0|1:0,0:0:0:0:
470,350,62063,1,2,1:0:0:0:
480,345,62146,1,2,1:0:0:0:
305,255,62313,1,4,3:0:0:0:
350,185,62479,2,0,P|357:149|352:114,1,72.2500013780594,2|2,1:0|0:0,0:0:0:0:
285,55,62813,1,2,0:0:0:0:
285,55,62979,1,2,0:0:0:0:
125,195,63146,5,6,3:0:0:0:
80,45,63313,1,0,1:0:0:0:
205,120,63479,2,0,P|239:131|272:145,1,72.2500013780594,6|0,3:0|0:0,0:0:0:0:
415,33,63813,2,0,P|346:19|285:55,1,144.500002756119,2|2,1:0|0:0,0:0:0:0:
430,245,64313,5,2,0:0:0:0:
433,237,64396,1,2,0:0:0:0:
436,229,64479,1,6,3:0:0:0:
270,285,64646,2,0,L|235:294,2,36.1250006890297,2|2|2,1:0|1:0|1:0,0:0:0:0:
365,340,64979,1,2,0:0:0:0:
335,200,65146,1,2,1:0:0:0:
150,330,65313,5,2,0:0:0:0:
165,240,65479,1,2,0:0:0:0:
150,330,65646,1,2,0:0:0:0:
50,225,65813,5,6,3:0:0:0:
255,155,65979,1,0,1:0:0:0:
300,85,66146,1,4,3:0:0:0:
255,15,66313,1,4,3:0:0:0:
255,155,66479,1,0,1:0:0:0:
424,226,66646,5,2,0:0:0:0:
436,229,66702,2,0,L|459:233,2,24.0833337926865,2|2|2,0:0|0:0|0:0,0:0:0:0:
350,290,66979,1,2,0:0:0:0:
255,155,67146,6,0,P|197:195|126:190,1,144.500002756119,6|2,3:0|0:0,0:0:0:0:
55,155,67646,1,6,3:0:0:0:
20,80,67813,2,0,P|21:44|34:10,1,72.2500013780594,2|0,1:0|0:0,0:0:0:0:
255,155,68146,2,0,P|245:208|250:261,1,108.375002067089,2|0,0:0|0:0,0:0:0:0:
250,261,68479,1,6,3:0:0:0:
495,115,68813,5,6,3:0:0:0:
430,55,68979,1,4,3:0:0:0:
350,80,69146,2,0,P|315:70|284:51,1,72.2500013780594,2|0,1:0|0:0,0:0:0:0:
190,183,69479,2,0,P|220:163|255:154,1,72.2500013780594,2|0,0:0|0:0,0:0:0:0:
20,20,69813,6,0,P|74:65|88:135,1,144.500002756119,6|0,3:0|0:0,0:0:0:0:
110,220,70313,1,6,3:0:0:0:
255,154,70479,2,0,L|243:298,1,144.500002756119,0|0,1:0|0:0,0:0:0:0:
350,190,70979,1,2,0:0:0:0:
430,55,71146,6,0,P|436:90|429:125,1,72.2500013780594,6|0,3:0|1:0,0:0:0:0:
350,190,71479,1,6,3:0:0:0:
240,40,71646,2,0,L|204:33,2,36.1250006890297,6|4|4,1:3|1:3|1:3,0:0:0:0:
429,125,71979,1,4,3:0:0:0:
255,154,72146,1,6,3:0:0:0:
330,100,72313,1,4,3:0:0:0:
455,280,72479,6,0,P|446:315|441:350,1,72.2500013780594,6|2,1:0|1:0,0:0:0:0:
430,355,72729,1,2,1:0:0:0:
420,360,72813,1,2,1:0:0:0:
250,340,72979,1,4,3:0:0:0:
350,190,73146,2,0,P|344:225|336:260,1,72.2500013780594,2|0,1:0|0:0,0:0:0:0:
330,100,73479,1,2,0:0:0:0:
330,100,73646,1,2,0:0:0:0:
265,220,73813,5,6,3:0:0:0:
435,160,73979,1,0,1:0:0:0:
265,220,74146,2,0,P|230:210|195:200,1,72.2500013780594,6|2,3:0|0:0,0:0:0:0:
20,350,74479,2,0,P|72:303|142:309,1,144.500002756119,0|2,1:0|0:0,0:0:0:0:
205,365,74979,1,2,0:0:0:0:
360,290,75146,5,6,3:0:0:0:
265,220,75313,2,0,L|261:184,2,36.1250006890297,2|2|2,1:0|1:0|1:0,0:0:0:0:
435,160,75646,1,4,3:0:0:0:
330,30,75813,2,0,B|250:41|280:72|198:84,1,144.500002756119,2|0,1:0|0:0,0:0:0:0:
5,190,76479,5,6,3:0:0:0:
60,255,76646,1,0,1:0:0:0:
135,220,76813,2,0,P|168:206|203:199,1,72.2500013780594,4|0,3:0|0:0,0:0:0:0:
198,84,77146,2,0,P|146:100|93:110,1,108.375002067089,2|2,1:0|0:0,0:0:0:0:
270,135,77591,5,2,0:0:0:0:
275,130,77646,6,0,L|285:95,1,36.1250006890297,6|6,1:3|1:3,0:0:0:0:
295,15,77813,6,0,P|359:40|370:108,1,144.500002756119,6|2,1:0|0:0,0:0:0:0:
475,190,78313,1,6,3:0:0:0:
390,280,78479,2,0,P|318:291|250:313,1,144.500002756119,0|2,1:0|0:0,0:0:0:0:
185,365,78979,1,2,0:0:0:0:
50,270,79146,6,0,P|37:236|41:201,1,72.2500013780594,6|0,3:0|1:0,0:0:0:0:
195,180,79479,2,0,P|207:213|203:248,1,72.2500013780594,6|2,3:0|0:0,0:0:0:0:
120,225,79813,2,0,L|108:80,1,144.500002756119,0|2,1:0|0:0,0:0:0:0:
100,0,80313,1,2,0:0:0:0:
120,225,80479,5,6,3:0:0:0:
320,160,80646,1,6,3:0:0:0:
355,325,80813,5,4,1:3:0:0:
397,337,80896,1,4,1:3:0:0:
441,328,80979,1,4,1:3:0:0:
475,299,81063,1,4,1:3:0:0:
490,257,81146,2,0,P|492:239|491:221,1,36.1250006890297,4|4,1:3|1:3,0:0:0:0:
320,160,81313,5,0,1:0:0:0:
326,176,81396,1,0,1:0:0:0:
337,191,81479,1,0,1:0:0:0:
350,203,81563,1,0,1:0:0:0:
367,211,81646,1,0,1:0:0:0:
384,214,81729,1,0,1:0:0:0:
402,214,81813,6,0,P|407:176|413:138,1,76.4999976654053,6|2,1:0|0:0,0:0:0:0:
495,45,82313,2,0,P|414:54|352:3,1,165.749992412568,2|2,0:0|0:0,0:0:0:0:
120,220,83146,6,0,P|194:230|256:188,1,152.999995330811,6|0,1:0|0:0,0:0:0:0:
265,195,83479,2,0,L|276:93,1,101.999996887207,0|0,1:0|0:0,0:0:0:0:
55,105,83813,1,4,3:0:0:0:
160,15,83979,1,4,3:0:0:0:
120,220,84146,2,0,P|102:267|110:316,1,101.999996887207,0|0,1:0|0:0,0:0:0:0:
260,365,84479,5,6,3:0:0:0:
455,330,84646,1,6,3:0:0:0:
255,355,84813,5,0,1:0:0:0:
365,380,84979,1,4,3:0:0:0:
170,380,85146,5,4,3:0:0:0:
265,195,85313,1,0,1:0:0:0:
170,380,85479,1,4,3:0:0:0:
316,264,85646,5,6,3:0:0:0:
50,115,85813,2,0,P|145:131|174:224,1,203.999993774414,6|0,1:0|1:0,0:0:0:0:
350,165,86313,1,2,0:0:0:0:
270,0,86479,2,0,P|264:50|256:101,1,101.999996887207,6|4,3:0|3:0,0:0:0:0:
390,290,86813,2,0,P|435:268|458:223,1,101.999996887207,0|2,1:0|0:0,0:0:0:0:
174,224,87146,6,0,P|208:320|305:337,1,203.999993774414,6|0,3:0|1:0,0:0:0:0:
350,165,87646,1,4,3:0:0:0:
155,60,87813,1,4,3:0:0:0:
345,175,87979,1,0,1:0:0:0:
174,224,88146,1,4,3:0:0:0:
295,30,88313,1,4,3:0:0:0:
90,155,88479,6,0,P|21:226|23:326,2,203.999993774414,6|0|4,1:0|1:0|3:0,0:0:0:0:
230,290,89313,1,4,3:0:0:0:
350,165,89479,1,0,1:0:0:0:
155,60,89646,1,0,0:0:0:0:
255,185,89813,5,6,3:0:0:0:
440,115,89979,2,0,P|447:64|458:14,1,101.999996887207,6|0,3:0|1:0,0:0:0:0:
458,14,90313,1,4,3:0:0:0:
260,55,90479,1,4,3:0:0:0:
335,275,90646,1,0,1:0:0:0:
265,50,90813,1,4,3:0:0:0:
160,220,90979,1,0,1:0:0:0:
340,125,91146,6,0,B|365:124|386:113|386:113|473:152|427:241,1,203.999993774414,6|0,1:0|1:0,0:0:0:0:
230,360,91646,1,2,0:0:0:0:
270,195,91813,1,6,3:0:0:0:
335,275,91979,1,4,3:0:0:0:
160,220,92146,1,0,1:0:0:0:
265,50,92313,1,2,0:0:0:0:
185,10,92479,6,0,P|143:38|93:43,1,101.999996887207,6|4,3:0|3:0,0:0:0:0:
340,125,92813,2,0,P|413:115|470:163,1,152.999995330811,0|0,1:0|0:0,0:0:0:0:
483,207,93146,5,4,1:3:0:0:
476,252,93229,1,4,1:3:0:0:
453,292,93313,1,4,1:3:0:0:
414,316,93396,1,4,1:3:0:0:
366,319,93479,1,4,1:3:0:0:
322,304,93563,1,4,1:3:0:0:
276,308,93646,1,4,1:3:0:0:
237,332,93729,1,4,1:3:0:0:
215,370,93813,6,0,P|205:285|192:201,2,170,6|0|4,1:0|1:0|3:0,0:0:0:0:
100,255,94646,1,4,3:0:0:0:
300,100,94813,2,0,P|293:141|288:184,1,85,2|0,1:0|0:0,0:0:0:0:
25,95,95146,6,0,P|76:31|158:33,1,170,6|2,3:0|1:0,0:0:0:0:
230,80,95591,1,2,0:0:0:0:
260,110,95702,1,2,0:0:0:0:
300,100,95813,2,0,P|293:141|288:184,1,85,4|4,3:0|3:0,0:0:0:0:
100,255,96146,2,0,P|95:212|87:170,1,85,2|0,1:0|0:0,0:0:0:0:
255,295,96479,6,0,B|354:310|312:343|410:360,1,170,6|0,3:0|1:0,0:0:0:0:
475,195,96979,2,0,P|444:224|426:262,1,85,2|4,0:0|3:0,0:0:0:0:
350,300,97313,1,4,3:0:0:0:
240,110,97479,2,0,L|323:92,1,85,2|0,1:0|0:0,0:0:0:0:
180,240,97813,6,0,B|119:231|119:231|95:200|95:200|26:190,1,170,4|0,3:0|1:0,0:0:0:0:
161,28,98313,1,2,0:0:0:0:
299,180,98479,2,0,P|282:218|272:260,1,85,6|4,3:0|3:0,0:0:0:0:
115,355,98813,2,0,P|74:347|48:314,1,85,2|0,1:0|0:0,0:0:0:0:
136,131,99146,6,0,L|300:180,1,170,6|0,1:0|1:0,0:0:0:0:
470,100,99646,1,2,0:0:0:0:
380,0,99813,2,0,L|357:82,1,85,6|4,3:0|3:0,0:0:0:0:
405,290,100146,2,0,L|427:207,1,85,2|0,1:0|0:0,0:0:0:0:
210,190,100479,6,0,P|182:269|205:350,1,170,6|0,3:0|1:0,0:0:0:0:
300,270,100979,1,2,0:0:0:0:
140,110,101146,2,0,P|98:114|64:139,1,85,6|4,3:0|3:0,0:0:0:0:
320,140,101479,2,0,L|331:55,1,85,0|0,1:0|0:0,0:0:0:0:
210,190,101813,5,6,1:0:0:0:
310,360,101979,1,4,3:0:0:0:
460,220,102146,1,2,1:0:0:0:
225,325,102313,5,4,3:0:0:0:
300,270,102479,1,4,3:0:0:0:
74,223,102646,2,0,P|71:180|64:138,1,85,2|0,1:0|0:0,0:0:0:0:
240,10,102979,1,14,3:0:0:0:
15,5,103146,6,0,P|81:55|164:49,1,170,6|6,3:0|1:0,0:0:0:0:
290,140,103646,1,2,0:0:0:0:
500,50,103813,5,4,1:3:0:0:
481,30,103896,1,4,1:3:0:0:
457,20,103979,1,6,1:3:0:0:
431,20,104063,1,4,1:3:0:0:
406,31,104146,1,2,1:0:0:0:
389,50,104229,1,0,1:0:0:0:
380,75,104313,1,0,1:0:0:0:
381,101,104396,1,0,1:0:0:0:
393,125,104479,6,0,P|463:143|480:214,1,152.999995330811,6|0,1:0|0:0,0:0:0:0:
410,250,104813,2,0,L|424:351,1,101.999996887207,0|0,1:0|0:0,0:0:0:0:
290,140,105146,1,4,3:0:0:0:
220,285,105313,1,4,3:0:0:0:
90,190,105479,2,0,P|49:220|0:225,1,101.999996887207,0|0,1:0|0:0,0:0:0:0:
35,35,105813,5,6,3:0:0:0:
185,85,105979,1,6,3:0:0:0:
30,45,106146,5,0,1:0:0:0:
125,15,106313,1,4,3:0:0:0:
215,195,106479,5,4,3:0:0:0:
265,0,106646,1,0,1:0:0:0:
215,195,106813,1,4,3:0:0:0:
397,208,106979,5,6,3:0:0:0:
460,20,107146,2,0,B|343:36|406:95|288:116,1,203.999993774414,6|0,1:0|1:0,0:0:0:0:
115,205,107646,1,2,0:0:0:0:
155,15,107813,2,0,P|166:64|175:114,1,101.999996887207,6|4,3:0|3:0,0:0:0:0:
325,265,108146,2,0,P|372:252|397:208,1,101.999996887207,2|0,1:0|0:0,0:0:0:0:
200,375,108479,6,0,P|111:327|10:333,1,203.999993774414,6|2,3:0|1:0,0:0:0:0:
208,226,108979,1,2,0:0:0:0:
62,112,109146,1,4,3:0:0:0:
114,306,109313,2,0,P|109:254|96:200,1,101.999996887207,0|0,1:0|0:0,0:0:0:0:
251,52,109646,1,2,1:0:0:0:
98,205,109813,6,0,P|188:249|290:253,1,203.999993774414,6|2,1:0|1:0,0:0:0:0:
380,200,110313,1,2,0:0:0:0:
420,105,110479,2,0,P|423:54|410:5,1,101.999996887207,4|4,3:0|3:0,0:0:0:0:
165,35,110813,2,0,P|161:85|174:134,1,101.999996887207,0|0,1:0|0:0,0:0:0:0:
380,200,111146,5,6,3:0:0:0:
290,253,111313,2,0,P|267:298|266:349,1,101.999996887207,6|0,3:0|1:0,0:0:0:0:
475,225,111646,5,4,3:0:0:0:
330,30,111813,1,4,3:0:0:0:
290,253,111979,1,0,1:0:0:0:
255,100,112146,1,4,3:0:0:0:
95,265,112313,1,0,1:0:0:0:
15,55,112479,6,0,P|112:60|156:147,1,203.999993774414,6|0,1:0|1:0,0:0:0:0:
95,265,112979,1,2,0:0:0:0:
255,100,113146,2,0,L|354:122,1,101.999996887207,6|4,3:0|3:0,0:0:0:0:
313,352,113479,2,0,L|290:252,1,101.999996887207,0|2,1:0|0:0,0:0:0:0:
445,80,113813,6,0,L|467:179,1,101.999996887207,6|4,3:0|3:0,0:0:0:0:
209,229,114146,2,0,P|204:155|255:100,1,152.999995330811,4|0,1:0|0:0,0:0:0:0:
296,81,114479,5,4,1:3:0:0:
293,34,114563,1,4,1:3:0:0:
250,15,114646,1,4,1:3:0:0:
204,21,114729,1,4,1:3:0:0:
174,56,114813,1,4,1:3:0:0:
134,78,114896,1,4,1:3:0:0:
88,78,114979,1,4,1:3:0:0:
44,62,115063,1,4,1:3:0:0:
22,28,115146,6,0,L|34:197,2,170,6|0|4,1:0|1:0|3:0,0:0:0:0:
160,160,115979,1,4,3:0:0:0:
250,15,116146,2,0,B|258:21|258:21|330:40,1,85,2|0,1:0|0:0,0:0:0:0:
505,180,116479,6,0,P|423:175|379:243,1,170,4|2,3:0|1:0,0:0:0:0:
340,320,116924,1,2,0:0:0:0:
296,344,117035,1,2,0:0:0:0:
255,315,117146,2,0,L|178:277,1,85,6|4,3:0|3:0,0:0:0:0:
395,159,117479,2,0,L|379:242,1,85,2|0,1:0|0:0,0:0:0:0:
55,145,117813,6,0,P|104:79|186:77,2,170,6|0|4,3:0|1:0|3:0,0:0:0:0:
230,200,118646,1,4,3:0:0:0:
395,159,118813,1,2,1:0:0:0:
305,15,118979,2,0,P|296:56|288:98,1,85,2|4,0:0|3:0,0:0:0:0:
455,310,119313,2,0,P|463:268|471:226,1,85,2|0,0:0|1:0,0:0:0:0:
471,227,119813,5,6,3:0:0:0:
395,159,119979,1,4,3:0:0:0:
230,200,120146,1,2,1:0:0:0:
55,145,120313,1,4,3:0:0:0:
150,100,120479,6,0,L|131:268,1,170,6|0,1:0|1:0,0:0:0:0:
70,325,120979,1,2,0:0:0:0:
280,375,121146,1,6,3:0:0:0:
230,200,121313,2,0,L|239:284,1,85,0|6,1:0|3:0,0:0:0:0:
175,340,121646,5,14,3:0:0:0:
330,140,121813,2,0,L|320:224,1,85,4|2,3:0|0:0,0:0:0:0:
75,75,122146,2,0,P|157:83|220:30,1,170,2|4,1:0|3:0,0:0:0:0:
300,50,122591,6,0,L|355:60,1,56.6666666666667,4|4,3:0|3:0,0:0:0:0:
430,30,122813,1,4,3:0:0:0:
435,35,122924,2,0,L|447:90,1,56.6666666666667,4|4,3:0|3:0,0:0:0:0:
465,180,123146,6,0,P|382:170|320:224,1,170,6|0,1:0|0:0,0:0:0:0:
390,370,123646,2,0,B|409:251|409:251|414:282|426:296,1,170,6|0,1:0|0:0,0:0:0:0:
255,325,124146,2,0,L|86:343,1,170,6|0,1:0|0:0,0:0:0:0:
5,195,124646,2,0,B|48:166|97:183|97:183|115:211|160:215,1,170,6|4,1:0|1:3,0:0:0:0:
170,215,125063,1,4,1:3:0:0:
180,210,125146,1,4,1:3:0:0:
255,15,125313,5,4,3:0:0:0:
270,100,125479,1,4,3:0:0:0:
260,10,125646,1,4,3:0:0:0:
500,190,125813,5,6,1:0:0:0:
425,230,125979,2,0,B|384:226|386:238|341:234,1,85,0|0,1:0|0:0,0:0:0:0:
480,110,126313,2,0,B|495:64|495:64|466:87,2,85,6|4|4,1:0|3:0|3:0,0:0:0:0:
261,12,126813,5,6,1:0:0:0:
195,60,126979,2,0,L|209:143,1,85,0|0,1:0|0:0,0:0:0:0:
265,205,127313,1,4,3:0:0:0:
195,60,127479,1,4,3:0:0:0:
22,197,127646,5,4,1:3:0:0:
22,197,127729,1,4,1:3:0:0:
22,197,127813,6,0,P|63:188|104:176,1,85,4|0,1:3|0:0,0:0:0:0:
209,144,128063,6,0,P|186:179|184:223,1,85,4|0,3:0|0:0,0:0:0:0:
310,275,128313,6,0,P|331:278|351:283,1,42.5,4|4,3:0|3:0,0:0:0:0:
265,205,128498,5,6,1:0:0:0:
260,235,138490,6,2,L|256:190,1,44.6249986381531,2|2,1:0|1:0,1:0:0:0:
190,140,139146,6,0,P|130:182|57:182,1,148.74999546051,2|0,0:0|0:0,0:0:0:0:
5,115,140146,6,0,P|4:100|7:85,1,29.7499990921021,2|0,0:0|0:0,0:0:0:0:
75,35,140479,2,0,P|82:22|93:12,1,29.7499990921021,2|0,0:0|0:0,0:0:0:0:
175,30,140813,2,0,P|188:24|203:22,1,29.7499990921021,2|0,0:0|0:0,0:0:0:0:
260,85,141146,2,0,P|274:86|288:91,1,29.7499990921021,2|0,0:0|0:0,0:0:0:0:
310,175,141479,2,0,P|316:188|320:202,1,29.7499990921021,2|0,0:0|0:0,0:0:0:0:
280,280,141813,6,0,P|268:315|241:339,1,74.3749977302552,2|0,0:0|0:0,0:0:0:0:
235,340,142313,2,0,P|198:346|163:337,1,74.3749977302552,2|0,0:0|0:0,0:0:0:0:
155,335,142813,2,0,P|143:316|139:294,1,44.6249986381531,2|0,0:0|0:0,0:0:0:0:
140,285,143146,1,0,0:0:0:0:
50,190,143313,6,0,L|20:184,2,29.7499990921021,2|0|0,0:0|0:0|0:0,0:0:0:0:
125,145,143813,2,0,P|148:162|177:169,1,59.4999981842042,2|2,0:0|0:0,0:0:0:0:
255,55,144312,5,0,0:0:0:0:
180,15,144479,2,0,L|62:35,2,118.999996368408,2|2|2,0:0|0:0|0:0,0:0:0:0:
320,165,146479,6,0,P|364:161|404:179,1,89.2499972763062,2|0,0:0|0:0,0:0:0:0:
475,145,147146,2,0,P|487:88|457:37,1,118.999996368408,2|0,0:0|0:0,0:0:0:0:
255,15,148313,6,0,L|245:26,1,14.874999546051,2|2,0:0|0:0,0:0:0:0:
246,26,148479,2,0,L|240:63,2,29.7499990921021,2|2|2,0:0|0:0|0:0,0:0:0:0:
35,150,149146,6,0,L|29:186,2,36.8333316472372,4|4|4,3:0|3:0|3:0,0:0:0:0:
85,84,149479,2,0,L|79:47,2,36.8333316472372,4|4|4,3:0|3:0|3:0,0:0:0:0:
155,125,149812,6,0,P|195:138|236:146,1,85,6|2,1:0|1:0,0:0:0:0:
245,155,150063,1,2,1:0:0:0:
252,163,150146,1,2,1:0:0:0:
381,53,150313,1,4,3:0:0:0:
465,185,150479,2,0,P|466:220|458:255,1,72.2500013780594,2|0,1:0|0:0,0:0:0:0:
385,295,150813,1,2,0:0:0:0:
385,295,150979,1,2,0:0:0:0:
252,163,151146,5,6,3:0:0:0:
365,145,151313,1,0,1:0:0:0:
240,270,151479,1,6,3:0:0:0:
240,270,151646,1,4,3:0:0:0:
140,110,151813,2,0,P|81:150|10:154,1,144.500002756119,2|2,1:0|0:0,0:0:0:0:
255,15,152313,5,2,0:0:0:0:
257,23,152396,1,2,0:0:0:0:
259,31,152479,1,6,3:0:0:0:
365,145,152646,2,0,L|400:153,2,36.1250006890297,2|2|2,1:0|1:0|1:0,0:0:0:0:
355,55,152979,5,6,3:0:0:0:
140,110,153146,1,2,1:0:0:0:
259,31,153313,5,2,0:0:0:0:
252,163,153479,1,2,0:0:0:0:
259,31,153646,1,2,0:0:0:0:
20,60,153813,5,4,3:0:0:0:
140,110,153979,1,0,1:0:0:0:
35,255,154146,1,4,3:0:0:0:
190,225,154313,1,4,3:0:0:0:
115,360,154479,2,0,P|120:324|123:288,1,72.2500013780594,0|0,1:0|0:0,0:0:0:0:
285,240,154813,2,0,P|279:275|276:311,1,72.2500013780594,0|0,1:0|0:0,0:0:0:0:
385,370,155146,6,0,P|451:350|471:284,1,144.500002756119,6|2,1:0|0:0,0:0:0:0:
350,175,155646,1,6,3:0:0:0:
471,283,155813,2,0,P|474:247|481:211,1,72.2500013780594,0|0,1:0|0:0,0:0:0:0:
505,20,156146,2,0,P|467:57|414:63,1,108.375002067089
340,30,156479,5,6,3:0:0:0:
175,95,156646,1,0,1:0:0:0:
350,175,156813,1,6,3:0:0:0:
295,105,156979,1,4,3:0:0:0:
225,225,157146,2,0,P|191:239|157:250,1,72.2500013780594,2|0,1:0|0:0,0:0:0:0:
320,370,157479,2,0,L|328:298,1,72.2500013780594,2|0,0:0|0:0,0:0:0:0:
328,298,157813,5,6,3:0:0:0:
157,250,157979,2,0,P|147:284|132:317,1,72.2500013780594,0|4,1:0|3:0,0:0:0:0:
15,210,158313,1,6,3:0:0:0:
85,85,158479,2,0,P|156:87|212:130,1,144.500002756119,2|4,1:0|3:0,0:0:0:0:
387,27,158979,5,6,1:3:0:0:
387,27,159063,1,4,1:3:0:0:
387,27,159146,1,6,1:3:0:0:
360,150,159313,1,4,3:0:0:0:
485,110,159479,1,6,1:0:0:0:
250,360,159812,5,4,3:0:0:0:
255,355,159895,1,4,3:0:0:0:
260,350,159979,2,0,L|265:314,1,36.1250006890297,4|4,3:0|3:0,0:0:0:0:
165,215,160145,5,4,3:0:0:0:
160,220,160229,1,4,3:0:0:0:
155,225,160312,2,0,L|146:272,1,36.1250006890297,4|4,3:0|3:0,0:0:0:0:
85,330,160479,6,0,P|49:335|14:344,1,72.2500013780594,6|2,1:0|1:0,0:0:0:0:
14,344,160729,1,2,1:0:0:0:
14,344,160813,1,2,1:0:0:0:
155,225,160979,1,4,3:0:0:0:
85,170,161146,2,0,L|75:98,2,72.2500013780594,0|2|2,1:0|0:0|0:0,0:0:0:0:
280,115,161646,1,2,0:0:0:0:
210,50,161813,5,6,3:0:0:0:
190,135,161979,1,0,1:0:0:0:
350,180,162146,1,6,3:0:0:0:
370,95,162313,1,6,3:0:0:0:
225,209,162479,2,0,P|190:217|155:225,1,72.2500013780594,2|2,1:0|0:0,0:0:0:0:
370,95,162813,2,0,P|439:96|483:150,1,144.500002756119,2|6,0:0|3:0,0:0:0:0:
310,285,163313,5,0,1:0:0:0:
390,260,163479,2,0,P|397:295|408:329,1,72.2500013780594,2|4,0:0|3:0,0:0:0:0:
225,209,163813,2,0,P|167:250|96:252,1,144.500002756119,2|2,1:0|0:0,0:0:0:0:
310,25,164479,5,6,3:0:0:0:
350,180,164646,2,0,P|355:144|364:109,1,72.2500013780594,0|4,1:0|3:0,0:0:0:0:
225,209,164979,1,4,3:0:0:0:
150,30,165146,2,0,P|102:54|48:56,1,108.375002067089,6|2,1:0|0:0,0:0:0:0:
155,155,165591,5,2,0:0:0:0:
160,151,165646,6,0,L|166:115,1,36.1250006890297,6|6,1:3|1:3,0:0:0:0:
229,63,165813,6,0,B|315:74|284:98|364:109,1,144.500002756119,6|2,1:0|0:0,0:0:0:0:
435,65,166313,1,6,3:0:0:0:
280,170,166479,2,0,P|301:237|285:307,1,144.500002756119,2|2,1:0|0:0,0:0:0:0:
30,360,167146,5,6,3:0:0:0:
65,280,167313,1,0,1:0:0:0:
150,300,167479,2,0,P|161:334|170:369,1,72.2500013780594,6|6,3:0|3:0,0:0:0:0:
280,170,167813,2,0,P|268:204|259:239,1,72.2500013780594,0|2,1:0|0:0,0:0:0:0:
115,115,168146,1,2,0:0:0:0:
255,5,168313,5,4,1:3:0:0:
270,10,168396,1,4,1:3:0:0:
285,15,168479,1,6,1:3:0:0:
415,195,168646,1,0,1:0:0:0:
500,50,168813,1,4,3:0:0:0:
280,170,168979,5,4,1:3:0:0:
265,175,169063,1,4,1:3:0:0:
250,180,169146,2,0,B|164:191|195:215|115:226,1,144.500002756119,6|2,1:0|0:0,0:0:0:0:
365,95,169646,5,4,1:3:0:0:
370,80,169729,1,4,1:3:0:0:
375,65,169813,1,6,1:3:0:0:
175,85,169979,5,4,1:3:0:0:
290,260,170146,1,4,1:3:0:0:
465,130,170313,1,4,1:3:0:0:
285,15,170479,5,4,1:3:0:0:
460,135,170646,1,4,1:3:0:0:
504,4,170813,1,4,1:3:0:0:
365,95,170979,1,4,1:3:0:0:
175,85,171146,6,0,P|85:94|23:28,1,187.000005706787,6|0,1:0|0:0,0:0:0:0:
210,200,171646,2,0,L|196:292,1,93.5000028533936,2|0,1:0|0:0,0:0:0:0:
385,315,171979,1,4,3:0:0:0:
305,375,172146,2,0,L|291:283,1,93.5000028533936,2|0,1:0|1:0,0:0:0:0:
196,292,172479,5,4,3:0:0:0:
380,195,172646,2,0,P|418:221|464:226,1,93.5000028533936,6|0,3:0|0:0,0:0:0:0:
290,50,172979,1,0,1:0:0:0:
155,135,173146,2,0,L|62:149,1,93.5000028533936,2|4,0:0|3:0,0:0:0:0:
290,50,173479,2,0,L|275:142,1,93.5000028533936,2|0,1:0|0:0,0:0:0:0:
196,292,173813,5,6,1:0:0:0:
380,195,173979,2,0,P|401:236|399:282,1,93.5000028533936,0|4,1:0|3:0,0:0:0:0:
196,292,174313,2,0,P|285:302|328:381,1,187.000005706787,2|4,1:0|3:0,0:0:0:0:
75,330,174813,1,0,1:0:0:0:
155,135,174979,1,0,1:0:0:0:
196,292,175146,1,4,3:0:0:0:
40,210,175313,6,0,P|27:140|12:72,1,140.25000428009,6|0,3:0|0:0,0:0:0:0:
70,15,175646,2,0,L|115:4,2,46.7500014266968,2|2|2,1:0|1:0|1:0,0:0:0:0:
230,190,175979,1,4,3:0:0:0:
400,100,176146,1,0,1:0:0:0:
400,100,176313,1,2,0:0:0:0:
155,135,176479,5,6,1:0:0:0:
310,320,176646,2,0,P|318:273|330:228,1,93.5000028533936,0|4,1:0|3:0,0:0:0:0:
170,270,176979,2,0,B|138:282|108:281|108:281|90:305|90:305|40:307|0:328,1,187.000005706787,2|4,1:0|3:0,0:0:0:0:
78,79,177479,1,6,1:0:0:0:
230,190,177646,2,0,L|244:97,1,93.5000028533936,4|0,3:0|0:0,0:0:0:0:
16,199,177979,2,0,P|107:203|170:270,1,187.000005706787,4|0,3:0|1:0,0:0:0:0:
320,350,178479,5,4,3:0:0:0:
450,230,178646,1,4,3:0:0:0:
335,65,178813,2,0,L|349:157,1,93.5000028533936,2|4,1:0|3:0,0:0:0:0:
349,157,179063,1,4,3:0:0:0:
349,157,179146,1,6,1:0:0:0:
170,269,179313,6,0,L|155:176,1,93.5000028533936,0|4,1:0|3:0,0:0:0:0:
250,10,179646,2,0,B|282:19|310:20|310:20|335:47|335:47|379:48|421:65,1,187.000005706787,2|4,1:0|1:3,0:0:0:0:
421,65,180063,1,4,1:3:0:0:
421,65,180146,1,0,1:0:0:0:
275,205,180313,1,4,3:0:0:0:
130,70,180479,1,4,3:0:0:0:
395,175,180646,6,0,P|367:264|355:356,1,187.000005706787,6|2,1:0|0:0,0:0:0:0:
30,235,181146,1,4,3:0:0:0:
32,263,181229,1,4,3:0:0:0:
43,291,181313,1,0,1:0:0:0:
61,314,181396,1,0,1:0:0:0:
84,331,181479,1,0,1:0:0:0:
111,342,181563,1,0,1:0:0:0:
140,344,181646,1,4,1:3:0:0:
169,339,181729,1,4,1:3:0:0:
195,326,181813,5,6,1:0:0:0:
255,120,181979,1,2,0:0:0:0:
120,190,182146,1,0,1:0:0:0:
330,260,182313,1,2,0:0:0:0:
355,45,182479,5,4,3:0:0:0:
230,220,182646,1,4,3:0:0:0:
350,40,182813,1,0,1:0:0:0:
455,175,182979,1,2,0:0:0:0:
190,60,183146,5,4,3:0:0:0:
360,170,183313,1,4,3:0:0:0:
185,65,183479,1,0,1:0:0:0:
15,195,183646,2,0,B|21:207|21:207|37:293,1,101.999996887207,2|4,0:0|3:0,0:0:0:0:
185,65,183979,2,0,B|178:77|178:77|162:163,1,101.999996887207,2|0,0:0|1:0,0:0:0:0:
255,355,184313,1,2,0:0:0:0:
420,255,184479,1,6,1:0:0:0:
195,260,184646,5,2,0:0:0:0:
405,370,184813,1,0,1:0:0:0:
200,255,184979,1,2,0:0:0:0:
400,375,185146,5,4,3:0:0:0:
420,255,185313,1,4,3:0:0:0:
440,135,185479,1,0,1:0:0:0:
400,375,185646,1,2,0:0:0:0:
250,150,185813,5,4,3:0:0:0:
420,255,185979,1,4,3:0:0:0:
200,255,186146,1,0,1:0:0:0:
375,35,186313,2,0,B|366:43|366:43|328:231,1,203.999993774414,2|4,0:0|3:0,0:0:0:0:
170,30,186813,2,0,B|177:35|177:35|267:58,1,101.999996887207,0|2,1:0|0:0,0:0:0:0:
420,255,187146,6,0,L|470:247,5,50.9999984436036,6|2|2|2|0|2,1:0|0:0|0:0|0:0|1:0|0:0,0:0:0:0:
355,315,187646,1,4,3:0:0:0:
350,325,187729,1,2,0:0:0:0:
345,335,187813,2,0,L|294:327,1,50.9999984436036,2|2,0:0|0:0,0:0:0:0:
200,255,187979,2,0,L|208:306,1,50.9999984436036,4|2,3:0|0:0,0:0:0:0:
145,360,188146,2,0,L|94:352,3,50.9999984436036,0|2|2|2,1:0|0:0|0:0|0:0,0:0:0:0:
20,375,188479,5,6,3:0:0:0:
19,368,188563,1,2,0:0:0:0:
18,362,188646,1,2,0:0:0:0:
17,356,188729,1,2,0:0:0:0:
16,349,188813,1,0,1:0:0:0:
15,343,188896,1,2,0:0:0:0:
14,337,188979,1,4,3:0:0:0:
13,330,189063,1,2,0:0:0:0:
12,324,189146,6,0,L|4:273,1,50.9999984436036,2|2,0:0|0:0,0:0:0:0:
97,168,189313,2,0,L|89:219,1,50.9999984436036,4|2,3:0|0:0,0:0:0:0:
208,305,189479,2,0,L|200:254,1,50.9999984436036,0|2,1:0|0:0,0:0:0:0:
300,140,189646,2,0,L|292:191,1,50.9999984436036,2|2,0:0|0:0,0:0:0:0:
355,250,189813,5,4,1:3:0:0:
405,251,189896,1,4,1:3:0:0:
449,227,189979,1,4,1:3:0:0:
474,183,190063,1,4,1:3:0:0:
473,133,190146,2,0,P|471:107|463:83,1,50.9999984436036,4|4,1:3|1:3,0:0:0:0:
405,25,190313,2,0,P|383:11|358:4,1,50.9999984436036,4|4,1:3|1:3,0:0:0:0:
275,20,190479,5,4,1:3:0:0:
270,35,190563,1,4,1:3:0:0:
265,50,190646,2,0,P|239:51|215:59,1,50.9999984436036,4|4,1:3|1:3,0:0:0:0:
160,125,190813,5,4,1:3:0:0:
110,132,190896,1,4,1:3:0:0:
62,117,190979,1,4,1:3:0:0:
26,81,191063,1,4,1:3:0:0:
14,34,191146,6,0,L|1:192,1,159.375,6|0,1:0|0:0,0:0:0:0:
45,260,192479,5,2,0:0:0:0:
40,125,197813,6,0,P|93:176|168:172,1,152.999995330811,6|0,1:0|0:0,0:0:0:0:
235,125,198146,2,0,P|252:77|239:29,1,101.999996887207,0|0,1:0|0:0,0:0:0:0:
250,270,198479,1,4,3:0:0:0:
380,300,198646,1,4,3:0:0:0:
465,205,198813,2,0,P|474:154|485:105,1,101.999996887207,0|0,1:0|0:0,0:0:0:0:
250,270,199146,5,6,3:0:0:0:
365,125,199313,1,6,3:0:0:0:
252,278,199479,1,0,1:0:0:0:
155,95,199646,1,4,3:0:0:0:
335,220,199813,5,4,3:0:0:0:
130,320,199979,1,0,1:0:0:0:
330,215,200146,1,4,3:0:0:0:
90,155,200313,5,6,3:0:0:0:
215,5,200479,2,0,L|188:207,1,203.999993774414,6|0,1:0|1:0,0:0:0:0:
340,340,200979,1,2,0:0:0:0:
430,150,201146,1,6,3:0:0:0:
255,265,201313,1,4,3:0:0:0:
460,345,201479,1,0,1:0:0:0:
385,245,201646,1,2,0:0:0:0:
155,375,201813,6,0,P|110:350|59:345,1,101.999996887207,6|4,3:0|3:0,0:0:0:0:
255,265,202146,2,0,P|282:195|255:125,1,152.999995330811,0|0,1:0|0:0,0:0:0:0:
214,104,202479,5,4,1:3:0:0:
167,106,202563,1,4,1:3:0:0:
125,124,202646,1,4,1:3:0:0:
79,131,202729,1,4,1:3:0:0:
34,118,202813,1,4,1:3:0:0:
13,77,202896,1,4,1:3:0:0:
29,34,202979,1,4,1:3:0:0:
69,11,203063,1,4,1:3:0:0:
115,25,203146,6,0,L|89:227,2,203.999993774414,6|0|4,1:0|1:0|3:0,0:0:0:0:
214,104,203979,1,4,3:0:0:0:
320,20,204146,2,0,P|357:40|399:42,1,85,2|0,1:0|0:0,0:0:0:0:
490,265,204479,6,0,P|425:213|344:225,1,170,6|2,3:0|1:0,0:0:0:0:
325,310,204923,1,2,0:0:0:0:
290,340,205034,1,2,0:0:0:0:
250,325,205146,2,0,L|166:341,1,85,4|4,3:0|3:0,0:0:0:0:
30,190,205479,2,0,L|113:206,1,85,0|0,1:0|0:0,0:0:0:0:
319,19,205813,6,0,P|237:14|177:71,1,170,6|0,3:0|1:0,0:0:0:0:
339,201,206313,1,0,0:0:0:0:
419,150,206479,2,0,P|423:107|432:66,1,85,4|4,3:0|3:0,0:0:0:0:
220,180,206813,2,0,P|228:221|233:263,1,85,2|0,1:0|0:0,0:0:0:0:
315,305,207146,6,0,B|412:317|388:353|474:361,2,170,4|0|6,3:0|1:0|3:0,0:0:0:0:
200,360,207979,1,4,3:0:0:0:
90,295,208146,2,0,P|85:252|76:211,1,85,2|0,1:0|0:0,0:0:0:0:
249,10,208479,6,0,P|196:74|114:83,1,170,6|0,1:0|1:0,0:0:0:0:
272,212,208979,1,4,3:0:0:0:
272,212,209063,1,4,3:0:0:0:
272,212,209146,2,0,P|276:169|285:128,1,85,6|4,3:0|3:0,0:0:0:0:
90,295,209479,2,0,P|85:252|76:211,1,85,0|0,1:0|0:0,0:0:0:0:
255,335,209813,6,0,P|338:349|421:370,1,170,6|0,3:0|1:0,0:0:0:0:
480,250,210313,1,2,0:0:0:0:
385,125,210479,2,0,B|360:160|360:160|382:195,1,85,6|4,3:0|3:0,0:0:0:0:
255,335,210813,2,0,L|242:250,1,85,2|0,1:0|0:0,0:0:0:0:
25,105,211146,5,6,1:0:0:0:
280,175,211313,1,4,3:0:0:0:
105,245,211479,1,0,1:0:0:0:
160,60,211646,5,4,3:0:0:0:
242,251,211813,1,4,3:0:0:0:
385,125,211979,2,0,B|393:131|393:131|466:144,1,85,0|0,1:0|0:0,0:0:0:0:
240,10,212313,1,14,3:0:0:0:
242,251,212479,6,0,P|257:167|282:86,1,170,6|6,3:0|1:0,0:0:0:0:
110,150,212979,1,2,0:0:0:0:
263,368,213146,5,4,1:3:0:0:
282,349,213229,1,4,1:3:0:0:
303,334,213313,1,4,1:3:0:0:
327,323,213396,1,4,1:3:0:0:
353,315,213479,1,2,1:0:0:0:
379,312,213563,1,0,1:0:0:0:
406,314,213646,1,0,1:0:0:0:
432,319,213729,1,0,1:0:0:0:
456,329,213813,6,0,P|462:252|474:177,1,152.999995330811,6|0,1:0|0:0,0:0:0:0:
485,75,214146,2,0,P|442:102|392:102,1,101.999996887207,2|0,1:0|0:0,0:0:0:0:
230,190,214479,1,4,3:0:0:0:
155,40,214646,1,4,3:0:0:0:
320,10,214813,2,0,P|313:60|301:110,1,101.999996887207,0|0,1:0|0:0,0:0:0:0:
170,290,215146,5,6,3:0:0:0:
0,190,215313,1,6,3:0:0:0:
167,283,215479,5,0,1:0:0:0:
25,350,215646,1,4,3:0:0:0:
115,185,215813,5,4,3:0:0:0:
255,345,215979,1,0,1:0:0:0:
110,190,216146,1,4,3:0:0:0:
320,10,216313,5,6,3:0:0:0:
105,25,216479,2,0,P|202:39|256:122,1,203.999993774414,6|0,1:0|1:0,0:0:0:0:
345,225,216979,1,2,0:0:0:0:
470,165,217146,2,0,P|477:114|486:64,1,101.999996887207,6|4,3:0|3:0,0:0:0:0:
210,195,217479,2,0,P|218:245|226:295,1,101.999996887207,0|2,1:0|0:0,0:0:0:0:
360,360,217813,6,0,P|456:347|494:258,1,203.999993774414,6|0,3:0|1:0,0:0:0:0:
345,225,218313,1,2,0:0:0:0:
470,165,218479,1,6,3:0:0:0:
210,195,218646,2,0,P|218:145|226:95,1,101.999996887207,0|2,1:0|0:0,0:0:0:0:
100,250,218979,1,6,3:0:0:0:
285,15,219146,6,0,P|201:70|101:62,2,203.999993774414,6|0|4,1:0|1:0|3:0,0:0:0:0:
470,165,219979,1,4,3:0:0:0:
345,225,220146,2,0,L|355:124,1,101.999996887207,0|0,1:0|0:0,0:0:0:0:
235,325,220479,5,6,3:0:0:0:
100,250,220646,2,0,L|90:149,1,101.999996887207,6|0,3:0|1:0,0:0:0:0:
285,15,220979,1,4,3:0:0:0:
235,195,221146,1,4,3:0:0:0:
160,40,221313,1,0,1:0:0:0:
355,123,221479,1,4,3:0:0:0:
165,35,221646,1,2,1:0:0:0:
100,250,221813,6,0,B|136:250|163:234|163:234|188:258|188:258|243:245|285:278,1,203.999993774414,6|0,1:0|1:0,0:0:0:0:
450,200,222313,1,2,0:0:0:0:
285,15,222479,1,6,3:0:0:0:
250,170,222646,1,4,3:0:0:0:
293,12,222813,1,0,1:0:0:0:
103,100,222979,1,2,0:0:0:0:
355,123,223146,6,0,P|404:110|454:102,1,101.999996887207,6|4,3:0|3:0,0:0:0:0:
220,335,223479,2,0,P|145:352|69:359,1,152.999995330811,4|0,1:0|0:0,0:0:0:0:
20,343,223813,5,4,1:3:0:0:
2,295,223896,1,4,1:3:0:0:
24,249,223979,1,4,1:3:0:0:
72,232,224063,1,4,1:3:0:0:
110,199,224146,1,4,1:3:0:0:
121,149,224229,1,4,1:3:0:0:
103,100,224313,1,4,1:3:0:0:
62,69,224396,1,4,1:3:0:0:
22,53,224479,6,0,P|105:37|183:4,1,170,6|0,1:0|1:0,0:0:0:0:
305,205,224979,1,2,0:0:0:0:
235,155,225146,2,0,P|242:113|253:72,1,85,4|4,3:0|3:0,0:0:0:0:
400,270,225479,2,0,P|390:311|381:352,1,85,2|0,1:0|0:0,0:0:0:0:
85,305,225813,6,0,P|153:257|237:260,1,170,6|2,3:0|1:0,0:0:0:0:
305,205,226257,1,2,0:0:0:0:
340,175,226368,1,2,0:0:0:0:
323,127,226479,2,0,P|331:85|342:44,1,85,6|4,3:0|3:0,0:0:0:0:
150,230,226812,2,0,L|130:147,1,85,2|0,1:0|0:0,0:0:0:0:
95,15,227146,6,0,P|32:67|34:149,2,170,6|0|4,3:0|1:0|3:0,0:0:0:0:
256,177,227979,1,4,3:0:0:0:
382,71,228146,1,2,1:0:0:0:
305,15,228313,2,0,P|296:56|288:98,1,85,2|4,0:0|3:0,0:0:0:0:
455,310,228646,2,0,P|463:268|471:226,1,85,2|0,0:0|1:0,0:0:0:0:
471,226,229146,5,6,3:0:0:0:
455,310,229313,1,4,3:0:0:0:
375,345,229479,1,2,1:0:0:0:
292,332,229646,1,4,3:0:0:0:
292,332,229729,1,4,3:0:0:0:
292,332,229813,6,0,P|242:266|257:184,1,170,6|0,1:0|1:0,0:0:0:0:
440,50,230313,1,2,0:0:0:0:
380,190,230479,1,6,3:0:0:0:
210,55,230646,2,0,P|250:67|291:78,1,85,0|6,1:0|3:0,3:0:0:0:
180,265,230979,5,12,3:0:0:0:
105,230,231146,2,0,P|94:188|81:148,1,85,4|2,3:0|0:0,0:0:0:0:
377,314,231479,2,0,P|314:311|263:348,1,127.5,2|0,1:0|0:0,0:0:0:0:
185,365,231813,6,0,L|164:358,6,21.2500008106232,6|2|2|2|6|2|2,3:0|0:0|0:0|0:0|3:0|0:0|0:0,0:0:0:0:
180,265,232035,5,4,3:0:0:0:
190,260,232146,2,0,L|196:218,1,42.5000016212464,4|4,3:0|3:0,0:0:0:0:
260,165,232368,5,4,3:0:0:0:
265,170,232479,2,0,P|347:168|397:102,1,170,6|0,1:0|0:0,0:0:0:0:
255,15,232979,2,0,B|165:27|193:65|99:78,1,170,6|0,1:0|0:0,0:0:0:0:
280,305,233479,1,6,1:0:0:0:
360,270,233646,2,0,B|375:231|375:231|358:190,1,85,2|0,0:0|0:0,0:0:0:0:
270,140,233979,6,0,L|103:175,1,170,6|0,1:0|1:0,0:0:0:0:
100,185,234396,1,0,1:0:0:0:
96,194,234479,1,0,1:0:0:0:
358,191,234645,5,4,3:0:0:0:
220,50,234813,1,6,3:0:0:0:
219,41,234896,1,2,0:0:0:0:
218,32,234979,1,6,3:0:0:0:
495,15,235146,6,0,B|405:27|433:65|339:78,1,170,6|0,1:0|0:0,0:0:0:0:
496,243,235646,2,0,P|440:183|359:191,1,170,6|0,1:0|0:0,0:0:0:0:
220,50,236146,2,0,L|243:218,1,170,6|0,1:0|0:0,0:0:0:0:
150,300,236646,2,0,P|85:351|2:347,1,170,6|0,1:0|0:0,0:0:0:0:
285,370,237146,5,4,3:0:0:0:
293,342,237257,1,4,3:0:0:0:
290,315,237368,1,4,3:0:0:0:
278,288,237479,5,4,3:0:0:0:
255,270,237591,1,4,3:0:0:0:
245,245,237702,1,4,3:0:0:0:
243,218,237813,5,6,1:0:0:0:
440,360,237979,2,0,P|476:339|498:303,1,85,0|0,1:0|0:0,0:0:0:0:
243,218,238313,2,0,P|166:190|148:110,1,170,6|0,1:0|0:0,0:0:0:0:
375,45,238813,5,6,1:0:0:0:
285,15,238979,2,0,L|296:99,1,85,0|0,1:0|0:0,0:0:0:0:
145,220,239313,1,4,3:0:0:0:
145,220,239479,1,4,3:0:0:0:
315,335,239646,5,4,1:3:0:0:
330,330,239729,1,4,1:3:0:0:
345,325,239813,1,4,1:3:0:0:
165,375,239979,5,4,3:0:0:0:
85,355,240146,1,4,3:0:0:0:
5,335,240313,1,4,3:0:0:0:
315,335,240479,5,6,1:0:0:0:
440,285,240646,2,0,P|431:326|426:368,1,85,0|4,1:0|3:0,0:0:0:0:
184,200,240979,5,2,1:0:0:0:
239,120,241146,2,0,P|277:137|317:151,1,85,4|0,3:0|0:0,0:0:0:0:
165,375,241479,5,6,1:0:0:0:
54,129,241646,1,0,1:0:0:0:
38,305,241813,1,4,3:0:0:0:
205,292,241979,6,0,B|118:261|118:261|38:305|38:305|37:219|37:219|-28:157|-28:157|55:128|55:128|93:49|93:49|146:117|146:117|239:120|239:120|183:200|183:200|227:250|285:264|364:235|335:194|393:152|476:157|513:201,1,1178.10003595276,6|0,1:0|0:0,0:0:0:0:
