osu file format v14

[General]
AudioFilename: audio.mp3
AudioLeadIn: 0
PreviewTime: 45796
Countdown: 1
SampleSet: None
StackLeniency: 0.5
Mode: 0
LetterboxInBreaks: 0
WidescreenStoryboard: 1

[Editor]
Bookmarks: 7538,8718,10909,14111,15965,22032,37538,47988,49336,54055,57257,83718,84561
DistanceSpacing: 0.5
BeatDivisor: 4
GridSize: 32
TimelineZoom: 1

[Metadata]
Title:Kizuato (TV Size)
TitleUnicode:キヅアト (TV Size)
Artist:Centimilimental
ArtistUnicode:センチミリメンタル
Creator:The Sisko
Version:Normal
Source:Given ギヴン
Tags:Given Opening Anime ギヴン Centimilimental センチミリメンタル Mafuyu
BeatmapID:2158098
BeatmapSetID:1018298

[Difficulty]
HPDrainRate:4
CircleSize:3
OverallDifficulty:4
ApproachRate:5
SliderMultiplier:1
SliderTickRate:1

[Events]
//Background and Video events
0,0,"Given wallpaper.jpg",0,0
//Break Periods
//Storyboard Layer 0 (Background)
//Storyboard Layer 1 (Fail)
//Storyboard Layer 2 (Pass)
//Storyboard Layer 3 (Foreground)
//Storyboard Layer 4 (Overlay)
//Storyboard Sound Samples

[TimingPoints]
797,337.078651685393,4,3,0,90,1,8
49336,-100,4,3,0,90,0,9
68044,-100,4,3,0,90,0,8
70740,-100,4,3,0,90,0,9
80853,317.460317460317,4,3,0,90,1,8
81358,-100,4,3,0,90,0,8
83718,337.078651685393,4,3,0,100,1,0

[Colours]
Combo1 : 223,147,32
Combo2 : 24,107,231
Combo3 : 0,128,128
Combo4 : 141,18,107

[HitObjects]
81,230,797,6,0,P|101:165|128:126,1,100,8|0,1:2|0:0,0:0:0:0:
157,100,1302,1,8,1:2:0:0:
254,57,1639,2,0,P|302:102|330:151,1,100,8|0,1:2|0:0,0:0:0:0:
382,209,2313,2,0,P|345:256|287:280,1,100,8|0,1:2|0:0,0:0:0:0:
227,309,2988,1,10,0:0:0:0:
135,323,3325,2,0,P|113:267|112:207,1,100,4|0,2:0|0:0,0:0:0:0:
166,148,3999,2,0,P|222:134|271:95,1,100,4|0,2:0|0:0,0:0:0:0:
329,52,4673,1,4,2:0:0:0:
442,220,5516,5,8,0:0:0:0:
442,220,5684,1,8,0:0:0:0:
382,151,6021,2,8,P|341:81|272:49,1,150,4|0,2:0|0:0,0:0:0:0:
152,69,6864,2,2,P|106:113|90:167,1,100
71,245,7538,2,2,P|123:286|176:296,1,100
252,290,8212,2,2,P|284:273|306:246,2,50
180,237,8718,2,0,P|126:187|162:119,1,150,4|0,2:0|0:0,0:0:0:0:
232,55,9561,6,2,B|284:58|284:58|341:95,1,100
413,145,10235,2,2,B|395:202|395:202|357:237,1,100
267,256,10909,2,2,B|241:280|241:280|225:310,2,50
301,170,11414,2,8,P|328:110|259:59,1,150,4|0,2:0|0:0,0:0:0:0:
172,65,12257,6,2,B|167:120|167:120|131:172,1,100
79,236,12931,2,2,B|101:283|101:283|150:307,1,100
246,300,13605,2,2,P|262:269|287:245,2,50
190,224,14111,2,8,P|144:185|178:112,1,150,4|0,2:0|0:0,0:0:0:0:
224,91,14785,5,4,2:0:0:0:
365,116,15291,2,0,L|332:164,1,50,8|4,0:0|2:0,0:0:0:0:
268,227,15796,1,8,0:0:0:0:
322,302,16134,2,8,P|264:328|179:299,1,150
94,240,16976,6,0,P|110:219|142:205,1,50,4|0,2:0|0:0,0:0:0:0:
148,199,17313,1,8,0:0:0:0:
192,116,17650,2,8,P|219:107|246:82,1,50,8|8,2:0|2:0,2:0:0:0:
248,78,17988,1,8,0:0:0:0:
347,49,18325,2,8,P|367:65|380:92,1,50,8|8,2:0|2:0,2:0:0:0:
385,104,18662,1,8,0:0:0:0:
373,308,19336,5,8,2:3:0:0:
373,308,19525,2,8,P|307:284|291:245,1,100,4|8,2:0|0:3,0:3:0:0:
301,168,20010,1,8,1:3:0:0:
301,168,20179,1,8,0:3:0:0:
319,79,20495,1,8,1:3:0:0:
319,79,20684,2,8,P|264:63|213:89,1,100,10|8,0:3|0:3,0:3:0:0:
145,178,21358,5,8,2:0:0:0:
145,178,21527,1,8,2:0:0:0:
145,178,21695,1,8,2:0:0:0:
232,226,22032,1,8,2:0:0:0:
188,118,22370,2,0,B|245:71|245:71|321:61,1,150,4|0,2:0|0:0,0:0:0:0:
368,65,23044,1,8,0:0:0:0:
428,166,23381,22,8,P|402:220|357:263,1,100,8|8,2:2|2:2,2:2:0:0:
309,310,24055,2,8,P|256:289|216:251,1,100
147,210,24729,2,8,P|161:187|191:169,1,50
231,142,25066,1,4,2:0:0:0:
116,124,25403,1,8,0:0:0:0:
193,46,25740,1,8,0:0:0:0:
284,50,26077,2,8,L|334:68,1,50
367,99,26414,5,4,2:0:0:0:
359,186,26752,1,8,0:0:0:0:
292,241,27089,1,4,2:0:0:0:
212,214,27426,2,0,L|182:163,1,50
140,97,27763,6,0,P|81:148|111:226,1,150,4|0,2:0|0:0,0:0:0:0:
177,320,28774,2,8,P|241:313|285:277,1,100
355,242,29448,2,8,P|324:191|275:159,1,100
232,105,30122,1,8,2:1:0:0:
232,105,30291,1,8,2:1:0:0:
232,105,30459,2,0,P|170:135|139:172,2,100,4|0|0,2:0|0:0|0:0,0:0:0:0:
322,44,31471,5,8,0:0:0:0:
353,102,31808,1,8,0:0:0:0:
324,162,32145,2,8,B|265:181|265:181|209:168,1,100
124,175,32819,2,0,B|115:235|115:235|144:287,1,100,8|4,0:0|2:0,0:0:0:0:
213,324,33493,2,8,B|263:336|263:336|329:316,1,100
390,278,34167,2,8,B|367:224|367:224|323:185,1,100
250,207,34841,2,8,B|199:176|199:176|171:126,1,100
164,52,35516,5,8,2:1:0:0:
164,52,35684,1,8,2:1:0:0:
164,52,35853,2,0,B|217:49|217:49|271:71,5,100,4|0|0|0|0|0,2:0|0:0|0:0|0:0|0:0|0:0,0:0:0:0:
328,119,37875,1,4,2:0:0:0:
356,147,38212,1,8,0:0:0:0:
381,177,38549,2,0,P|358:234|316:259,1,100,8|4,0:0|2:0,0:0:0:0:
308,261,39055,1,8,0:0:0:0:
189,271,39393,1,8,0:0:0:0:
189,271,39561,2,0,P|144:221|146:175,1,100,8|4,0:0|2:0,0:0:0:0:
142,171,40066,1,8,0:0:0:0:
181,63,40403,5,8,2:1:0:0:
181,63,40572,1,8,2:1:0:0:
273,96,40909,1,8,0:0:0:0:
377,71,41246,2,0,P|401:111|396:168,1,100,8|4,0:0|2:0,0:0:0:0:
390,181,41752,2,8,P|345:197|310:241,1,100
304,254,42257,2,0,P|256:275|217:252,1,100,8|4,0:0|2:0,0:0:0:0:
205,237,42763,2,8,P|173:186|185:139,1,100
198,98,43268,5,8,0:0:0:0:
240,72,43605,1,8,0:0:0:0:
287,56,43943,2,0,P|362:47|423:87,1,150,8|4,2:0|2:0,0:0:0:0:
464,160,44954,2,0,P|433:227|367:269,1,150,8|4,0:0|2:0,0:0:0:0:
288,293,45796,5,8,2:1:0:0:
288,293,45965,1,8,2:1:0:0:
212,249,46302,2,8,L|175:190,1,50
173,190,46639,1,4,2:0:0:0:
77,247,46976,1,8,0:0:0:0:
82,252,47145,1,4,2:0:0:0:
69,148,47482,1,8,0:0:0:0:
69,148,47650,1,4,2:0:0:0:
176,78,47988,5,2,0:0:0:0:
246,147,48325,1,2,0:0:0:0:
318,83,48662,1,2,0:0:0:0:
395,150,48999,1,2,0:0:0:0:
399,242,49336,6,0,P|372:293|332:310,1,100,4|0,2:0|0:0,0:0:0:0:
240,310,50010,1,8,0:0:0:0:
239,221,50347,2,0,L|241:111,1,100,4|0,2:0|0:0,0:0:0:0:
306,56,51021,2,8,P|362:78|391:128,1,100,12|8,2:0|0:0,0:0:0:0:
315,170,51695,1,4,2:0:0:0:
246,103,52032,2,8,P|204:76|154:77,1,100
87,153,52707,1,8,2:1:0:0:
79,281,53044,1,8,2:1:0:0:
79,281,53212,2,4,B|196:268|132:144|280:125,1,250,4|0,2:0|0:0,2:0:0:0:
355,71,54392,1,2,0:0:0:0:
442,167,54729,6,0,B|391:177|391:177|357:217,1,100,4|0,2:0|0:0,0:0:0:0:
306,291,55403,2,8,B|254:299|254:299|208:274,1,100
132,232,56077,1,4,2:0:0:0:
75,160,56414,2,8,B|105:118|105:118|156:104,1,100
253,75,57089,5,8,2:1:0:0:
253,75,57257,1,4,2:0:0:0:
355,161,57763,1,8,2:1:0:0:
355,161,57931,1,4,2:0:0:0:
231,248,58437,1,8,2:1:0:0:
231,248,58605,2,0,P|186:214|171:153,1,100,4|0,2:0|0:0,0:0:0:0:
272,126,59280,1,4,2:0:0:0:
272,126,59448,1,4,2:0:0:0:
419,199,60122,6,8,B|320:141|301:256|216:183,1,200,6|2,2:0|0:0,2:0:0:0:
170,115,61134,2,2,P|121:116|85:150,1,100
50,236,61808,2,2,P|98:274|148:265,1,100
235,252,62482,2,2,P|204:198|154:188,1,100
76,156,63156,2,2,P|107:103|157:93,1,100
178,184,63830,1,8,2:1:0:0:
178,184,63999,2,8,P|245:201|208:82,1,250,4|4,2:0|2:0,2:0:0:0:
117,67,65179,5,8,0:0:0:0:
90,154,65516,2,0,B|113:194|113:194|174:212,1,100,4|0,2:0|0:0,0:0:0:0:
217,150,66190,2,2,B|241:197|241:197|229:242,1,100
184,305,66864,2,0,B|227:320|227:320|276:299,1,100,4|0,2:0|0:0,0:0:0:0:
309,234,67538,1,8,0:0:0:0:
242,141,67875,5,8,2:1:0:0:
242,141,68043,2,0,B|291:115|291:115|352:126,1,100,4|4,2:0|0:2,0:0:0:0:
434,139,68549,1,8,2:1:0:0:
434,139,68717,2,0,B|445:193|445:193|418:248,1,100,4|4,2:0|0:2,0:0:0:0:
357,299,69223,1,8,2:1:0:0:
357,299,69391,2,0,B|300:299|300:299|240:275,1,100,4|0,2:0|0:0,0:0:0:0:
109,212,70235,1,2,0:0:0:0:
146,117,70740,6,2,P|204:61|280:50,1,150
368,88,71583,2,2,P|406:138|408:194,1,100
416,275,72257,2,2,P|354:307|306:301,1,100
232,287,72931,2,2,P|206:262|193:230,2,50
298,249,73437,2,0,P|363:215|347:140,1,150,4|0,2:0|0:0,0:0:0:0:
289,72,74280,6,2,B|265:118|265:118|269:186,1,100
353,207,74954,2,2,B|335:264|335:264|297:299,1,100
220,324,75628,2,2,B|194:300|194:300|178:270,2,50
262,267,76133,2,0,P|289:207|220:156,1,150,4|0,2:0|0:0,0:0:0:0:
155,93,76976,6,2,B|108:123|108:123|79:179,1,100
92,266,77650,2,2,B|124:306|124:306|177:319,1,100
259,287,78324,2,2,P|275:256|300:232,2,50
199,250,78830,2,0,P|153:211|187:138,1,150,4|0,2:0|0:0,0:0:0:0:
226,115,79504,5,4,2:0:0:0:
348,122,80010,2,0,L|334:194,1,50,8|4,0:0|2:0,0:0:0:0:
326,249,80516,1,8,0:0:0:0:
400,307,80853,2,2,P|342:333|257:304,1,150
146,215,81646,1,4,2:0:0:0:
307,122,83886,5,8,0:0:0:0:
307,122,84055,1,8,0:0:0:0:
307,122,84223,1,4,2:0:0:0:
174,149,84561,1,8,0:0:0:0:
174,149,84729,1,8,0:0:0:0:
174,149,84898,1,4,2:0:0:0:
267,243,85235,1,8,0:0:0:0:
267,243,85403,1,8,0:0:0:0:
267,243,85572,1,4,2:0:0:0:
256,192,85740,12,14,88943,1:2:0:0:
