osu file format v14

[General]
AudioFilename: audio.mp3
AudioLeadIn: 0
PreviewTime: -1
Countdown: 0
SampleSet: None
StackLeniency: 0.7
Mode: 3
LetterboxInBreaks: 0
SpecialStyle: 0
WidescreenStoryboard: 0

[Editor]
DistanceSpacing: 2.5
BeatDivisor: 4
GridSize: 4
TimelineZoom: 1.3

[Metadata]
Title:Weaponized
TitleUnicode:Weaponized
Artist:Celldweller
ArtistUnicode:Celldweller
Creator:SuperCSGO
Version:.50 BMG [MX]
Source:
Tags:
BeatmapID:1644892
BeatmapSetID:783367

[Difficulty]
HPDrainRate:9
CircleSize:4
OverallDifficulty:8
ApproachRate:5
SliderMultiplier:1.4
SliderTickRate:1

[Events]
//Background and Video events
//Break Periods
//Storyboard Layer 0 (Background)
//Storyboard Layer 1 (Fail)
//Storyboard Layer 2 (Pass)
//Storyboard Layer 3 (Foreground)
//Storyboard Sound Samples

[TimingPoints]
907,600,4,1,0,22,1,0

[HitObjects]
448,192,907,5,0,0:0:0:0:
192,192,907,1,0,0:0:0:0:
320,192,1057,1,0,0:0:0:0:
64,192,1057,1,0,0:0:0:0:
64,192,1507,1,0,0:0:0:0:
320,192,1507,1,0,0:0:0:0:
320,192,2107,1,0,0:0:0:0:
320,192,2707,1,0,0:0:0:0:
448,192,3307,1,0,0:0:0:0:
192,192,3307,1,0,0:0:0:0:
320,192,3457,1,0,0:0:0:0:
64,192,3457,1,0,0:0:0:0:
64,192,3907,1,0,0:0:0:0:
192,192,3907,1,0,0:0:0:0:
320,192,4507,1,0,0:0:0:0:
320,192,5107,1,0,0:0:0:0:
448,192,5707,1,0,0:0:0:0:
192,192,5707,1,0,0:0:0:0:
320,192,5857,1,0,0:0:0:0:
64,192,5857,1,0,0:0:0:0:
64,192,6307,1,0,0:0:0:0:
192,192,6307,1,0,0:0:0:0:
320,192,6907,1,0,0:0:0:0:
320,192,7507,1,0,0:0:0:0:
448,192,8107,128,0,8407:0:0:0:0:
320,192,8407,1,0,0:0:0:0:
448,192,8707,1,0,0:0:0:0:
192,192,8857,1,0,0:0:0:0:
448,192,9007,1,0,0:0:0:0:
192,192,9157,1,0,0:0:0:0:
448,192,9307,128,0,10207:0:0:0:0:
320,192,9307,128,0,10207:0:0:0:0:
64,192,9307,128,0,10207:0:0:0:0:
64,192,10507,1,0,0:0:0:0:
320,192,10507,1,0,0:0:0:0:
192,192,10657,1,0,0:0:0:0:
448,192,10657,1,0,0:0:0:0:
64,192,11107,1,0,0:0:0:0:
192,192,11107,1,0,0:0:0:0:
320,192,11407,1,0,0:0:0:0:
320,192,11557,1,0,0:0:0:0:
448,192,11707,1,0,0:0:0:0:
320,192,12007,1,0,0:0:0:0:
320,192,12157,1,0,0:0:0:0:
448,192,12307,1,0,0:0:0:0:
320,192,12607,1,0,0:0:0:0:
64,192,12907,1,0,0:0:0:0:
320,192,12907,1,0,0:0:0:0:
192,192,13057,1,0,0:0:0:0:
448,192,13057,1,0,0:0:0:0:
64,192,13507,1,0,0:0:0:0:
192,192,13507,1,0,0:0:0:0:
320,192,13807,1,0,0:0:0:0:
320,192,13957,1,0,0:0:0:0:
64,192,14107,1,0,0:0:0:0:
448,192,14707,128,0,15307:0:0:0:0:
64,192,15307,1,0,0:0:0:0:
192,192,15307,1,0,0:0:0:0:
320,192,15457,1,0,0:0:0:0:
448,192,15457,1,0,0:0:0:0:
64,192,15907,1,0,0:0:0:0:
192,192,15907,1,0,0:0:0:0:
320,192,16207,1,0,0:0:0:0:
320,192,16357,1,0,0:0:0:0:
448,192,16507,1,0,0:0:0:0:
320,192,16807,1,0,0:0:0:0:
320,192,16957,1,0,0:0:0:0:
448,192,17107,1,0,0:0:0:0:
192,192,17407,1,0,0:0:0:0:
64,192,17707,1,0,0:0:0:0:
192,192,17707,1,0,0:0:0:0:
320,192,18157,128,0,18307:0:0:0:0:
64,192,18307,1,0,0:0:0:0:
192,192,18307,1,0,0:0:0:0:
192,192,18907,1,0,0:0:0:0:
320,192,18907,1,0,0:0:0:0:
448,192,18907,1,0,0:0:0:0:
192,192,19107,1,0,0:0:0:0:
320,192,19107,1,0,0:0:0:0:
64,192,19107,1,0,0:0:0:0:
192,192,19307,1,0,0:0:0:0:
320,192,19307,1,0,0:0:0:0:
448,192,19307,1,0,0:0:0:0:
64,192,19507,1,0,0:0:0:0:
64,192,20107,1,0,0:0:0:0:
320,192,20107,1,0,0:0:0:0:
448,192,20107,1,0,0:0:0:0:
64,192,20257,1,0,0:0:0:0:
192,192,20257,1,0,0:0:0:0:
448,192,20257,1,0,0:0:0:0:
64,192,20557,1,0,0:0:0:0:
192,192,20557,1,0,0:0:0:0:
448,192,20707,1,0,0:0:0:0:
320,192,20707,1,0,0:0:0:0:
192,192,21007,1,0,0:0:0:0:
320,192,21007,1,0,0:0:0:0:
64,192,21157,1,0,0:0:0:0:
192,192,21157,1,0,0:0:0:0:
320,192,21307,1,0,0:0:0:0:
448,192,21307,1,0,0:0:0:0:
320,192,21457,1,0,0:0:0:0:
448,192,21457,1,0,0:0:0:0:
320,192,21607,1,0,0:0:0:0:
448,192,21607,1,0,0:0:0:0:
320,192,21757,1,0,0:0:0:0:
448,192,21757,1,0,0:0:0:0:
192,192,21907,1,0,0:0:0:0:
320,192,21907,1,0,0:0:0:0:
64,192,22207,1,0,0:0:0:0:
192,192,22207,1,0,0:0:0:0:
64,192,22507,1,0,0:0:0:0:
320,192,22507,1,0,0:0:0:0:
192,192,22507,1,0,0:0:0:0:
448,192,22657,1,0,0:0:0:0:
320,192,22657,1,0,0:0:0:0:
192,192,22657,1,0,0:0:0:0:
320,192,22957,1,0,0:0:0:0:
448,192,23107,1,0,0:0:0:0:
64,192,23107,1,0,0:0:0:0:
64,192,23407,1,0,0:0:0:0:
192,192,23407,1,0,0:0:0:0:
64,192,23557,1,0,0:0:0:0:
320,192,23557,1,0,0:0:0:0:
192,192,23707,1,0,0:0:0:0:
448,192,23707,1,0,0:0:0:0:
320,192,23857,1,0,0:0:0:0:
448,192,23857,1,0,0:0:0:0:
320,192,24007,1,0,0:0:0:0:
448,192,24007,1,0,0:0:0:0:
320,192,24157,1,0,0:0:0:0:
448,192,24157,1,0,0:0:0:0:
64,192,24307,1,0,0:0:0:0:
192,192,24307,1,0,0:0:0:0:
64,192,24457,1,0,0:0:0:0:
192,192,24457,1,0,0:0:0:0:
320,192,24607,1,0,0:0:0:0:
192,192,24607,1,0,0:0:0:0:
320,192,24757,1,0,0:0:0:0:
192,192,24757,1,0,0:0:0:0:
64,192,24907,1,0,0:0:0:0:
448,192,24907,1,0,0:0:0:0:
192,192,24907,1,0,0:0:0:0:
64,192,25057,1,0,0:0:0:0:
320,192,25057,1,0,0:0:0:0:
448,192,25057,1,0,0:0:0:0:
192,192,25357,1,0,0:0:0:0:
320,192,25507,1,0,0:0:0:0:
64,192,25507,1,0,0:0:0:0:
448,192,25807,1,0,0:0:0:0:
320,192,25807,1,0,0:0:0:0:
320,192,25957,1,0,0:0:0:0:
192,192,25957,1,0,0:0:0:0:
64,192,26107,1,0,0:0:0:0:
192,192,26107,1,0,0:0:0:0:
448,192,26107,1,0,0:0:0:0:
64,192,26257,1,0,0:0:0:0:
192,192,26257,1,0,0:0:0:0:
448,192,26257,1,0,0:0:0:0:
64,192,26407,1,0,0:0:0:0:
192,192,26407,1,0,0:0:0:0:
448,192,26407,1,0,0:0:0:0:
64,192,26557,1,0,0:0:0:0:
192,192,26557,1,0,0:0:0:0:
448,192,26557,1,0,0:0:0:0:
192,192,26707,1,0,0:0:0:0:
320,192,26707,1,0,0:0:0:0:
320,192,27007,1,0,0:0:0:0:
448,192,27007,128,0,27307:0:0:0:0:
192,192,27307,1,0,0:0:0:0:
64,192,27307,128,0,27907:0:0:0:0:
192,192,27907,128,0,28207:0:0:0:0:
192,192,28507,1,0,0:0:0:0:
320,192,28507,1,0,0:0:0:0:
448,192,28507,1,0,0:0:0:0:
192,192,28707,1,0,0:0:0:0:
448,192,28707,1,0,0:0:0:0:
320,192,28707,1,0,0:0:0:0:
192,192,28907,1,0,0:0:0:0:
320,192,28907,1,0,0:0:0:0:
448,192,28907,1,0,0:0:0:0:
192,192,29107,1,0,0:0:0:0:
448,192,29107,1,0,0:0:0:0:
320,192,29107,1,0,0:0:0:0:
64,192,29707,1,0,0:0:0:0:
192,192,29707,1,0,0:0:0:0:
320,192,29707,1,0,0:0:0:0:
448,192,29857,1,0,0:0:0:0:
192,192,29857,1,0,0:0:0:0:
64,192,29857,1,0,0:0:0:0:
448,192,30157,1,0,0:0:0:0:
320,192,30157,1,0,0:0:0:0:
320,192,30307,1,0,0:0:0:0:
192,192,30307,1,0,0:0:0:0:
192,192,30607,1,0,0:0:0:0:
448,192,30607,1,0,0:0:0:0:
192,192,30757,1,0,0:0:0:0:
448,192,30757,1,0,0:0:0:0:
64,192,30907,1,0,0:0:0:0:
192,192,30907,1,0,0:0:0:0:
320,192,30907,1,0,0:0:0:0:
192,192,31057,1,0,0:0:0:0:
320,192,31057,1,0,0:0:0:0:
320,192,31207,1,0,0:0:0:0:
448,192,31207,1,0,0:0:0:0:
192,192,31357,1,0,0:0:0:0:
320,192,31357,1,0,0:0:0:0:
64,192,31507,1,0,0:0:0:0:
192,192,31507,1,0,0:0:0:0:
448,192,31507,1,0,0:0:0:0:
320,192,31507,1,0,0:0:0:0:
192,192,31807,1,0,0:0:0:0:
320,192,31807,1,0,0:0:0:0:
64,192,31807,1,0,0:0:0:0:
192,192,32107,1,0,0:0:0:0:
320,192,32107,1,0,0:0:0:0:
448,192,32107,1,0,0:0:0:0:
320,192,32257,1,0,0:0:0:0:
448,192,32257,1,0,0:0:0:0:
64,192,32257,1,0,0:0:0:0:
64,192,32557,1,0,0:0:0:0:
192,192,32557,1,0,0:0:0:0:
192,192,32707,1,0,0:0:0:0:
320,192,32707,1,0,0:0:0:0:
64,192,33007,1,0,0:0:0:0:
320,192,33007,1,0,0:0:0:0:
64,192,33157,1,0,0:0:0:0:
320,192,33157,1,0,0:0:0:0:
192,192,33307,128,0,33607:0:0:0:0:
448,192,33307,128,0,33607:0:0:0:0:
448,192,33907,1,0,0:0:0:0:
320,192,33907,1,0,0:0:0:0:
192,192,34007,1,0,0:0:0:0:
64,192,34007,1,0,0:0:0:0:
320,192,34107,1,0,0:0:0:0:
448,192,34107,1,0,0:0:0:0:
192,192,34207,1,0,0:0:0:0:
64,192,34207,1,0,0:0:0:0:
320,192,34307,1,0,0:0:0:0:
448,192,34307,1,0,0:0:0:0:
64,192,34407,1,0,0:0:0:0:
192,192,34407,1,0,0:0:0:0:
192,192,34507,1,0,0:0:0:0:
320,192,34507,1,0,0:0:0:0:
448,192,34507,1,0,0:0:0:0:
64,192,34657,1,0,0:0:0:0:
192,192,34657,1,0,0:0:0:0:
320,192,34657,1,0,0:0:0:0:
64,192,34957,1,0,0:0:0:0:
192,192,34957,1,0,0:0:0:0:
192,192,35107,1,0,0:0:0:0:
320,192,35107,1,0,0:0:0:0:
448,192,35107,1,0,0:0:0:0:
64,192,35407,1,0,0:0:0:0:
192,192,35407,1,0,0:0:0:0:
192,192,35557,1,0,0:0:0:0:
320,192,35557,1,0,0:0:0:0:
64,192,35707,1,0,0:0:0:0:
448,192,35707,1,0,0:0:0:0:
64,192,35857,1,0,0:0:0:0:
448,192,35857,1,0,0:0:0:0:
64,192,36007,128,0,36307:0:0:0:0:
448,192,36007,128,0,36307:0:0:0:0:
320,192,36307,128,0,36907:0:0:0:0:
192,192,36907,1,0,0:0:0:0:
448,192,36907,1,0,0:0:0:0:
64,192,37057,1,0,0:0:0:0:
320,192,37057,1,0,0:0:0:0:
448,192,37207,1,0,0:0:0:0:
192,192,37357,1,0,0:0:0:0:
64,192,37507,1,0,0:0:0:0:
320,192,37507,1,0,0:0:0:0:
192,192,37657,1,0,0:0:0:0:
448,192,37657,1,0,0:0:0:0:
320,192,37807,1,0,0:0:0:0:
192,192,37957,1,0,0:0:0:0:
320,192,38107,1,0,0:0:0:0:
64,192,38107,1,0,0:0:0:0:
320,192,38407,128,0,39307:0:0:0:0:
64,192,39307,1,0,0:0:0:0:
192,192,39307,1,0,0:0:0:0:
448,192,39307,1,0,0:0:0:0:
448,192,39457,1,0,0:0:0:0:
64,192,39457,1,0,0:0:0:0:
320,192,39457,1,0,0:0:0:0:
64,192,39607,1,0,0:0:0:0:
192,192,39607,1,0,0:0:0:0:
448,192,39607,1,0,0:0:0:0:
320,192,39757,1,0,0:0:0:0:
448,192,39757,1,0,0:0:0:0:
64,192,39757,1,0,0:0:0:0:
192,192,39907,1,0,0:0:0:0:
64,192,39907,1,0,0:0:0:0:
448,192,39907,1,0,0:0:0:0:
320,192,40507,1,0,0:0:0:0:
320,192,41107,1,0,0:0:0:0:
192,192,41707,1,0,0:0:0:0:
320,192,41707,1,0,0:0:0:0:
448,192,41707,1,0,0:0:0:0:
64,192,41857,1,0,0:0:0:0:
192,192,41857,1,0,0:0:0:0:
320,192,41857,1,0,0:0:0:0:
192,192,42007,1,0,0:0:0:0:
320,192,42007,1,0,0:0:0:0:
448,192,42007,1,0,0:0:0:0:
64,192,42157,1,0,0:0:0:0:
192,192,42157,1,0,0:0:0:0:
320,192,42157,1,0,0:0:0:0:
192,192,42307,1,0,0:0:0:0:
320,192,42307,1,0,0:0:0:0:
448,192,42307,1,0,0:0:0:0:
320,192,42907,1,0,0:0:0:0:
320,192,43507,1,0,0:0:0:0:
64,192,44107,1,0,0:0:0:0:
192,192,44107,1,0,0:0:0:0:
320,192,44107,1,0,0:0:0:0:
64,192,44257,1,0,0:0:0:0:
192,192,44257,1,0,0:0:0:0:
448,192,44257,1,0,0:0:0:0:
64,192,44407,1,0,0:0:0:0:
192,192,44407,1,0,0:0:0:0:
320,192,44407,1,0,0:0:0:0:
448,192,44557,1,0,0:0:0:0:
192,192,44557,1,0,0:0:0:0:
64,192,44557,1,0,0:0:0:0:
64,192,44707,1,0,0:0:0:0:
192,192,44707,1,0,0:0:0:0:
320,192,44707,1,0,0:0:0:0:
320,192,45307,1,0,0:0:0:0:
320,192,45907,1,0,0:0:0:0:
64,192,46507,1,0,0:0:0:0:
320,192,46507,1,0,0:0:0:0:
448,192,46507,1,0,0:0:0:0:
192,192,46657,1,0,0:0:0:0:
448,192,46657,1,0,0:0:0:0:
64,192,46657,1,0,0:0:0:0:
64,192,46807,1,0,0:0:0:0:
320,192,46807,1,0,0:0:0:0:
448,192,46807,1,0,0:0:0:0:
192,192,46957,1,0,0:0:0:0:
64,192,46957,1,0,0:0:0:0:
448,192,46957,1,0,0:0:0:0:
320,192,47107,1,0,0:0:0:0:
448,192,47107,1,0,0:0:0:0:
64,192,47107,1,0,0:0:0:0:
320,192,47707,1,0,0:0:0:0:
320,192,48307,1,0,0:0:0:0:
64,192,48907,1,0,0:0:0:0:
192,192,48907,1,0,0:0:0:0:
320,192,48907,1,0,0:0:0:0:
448,192,49057,1,0,0:0:0:0:
320,192,49057,1,0,0:0:0:0:
192,192,49057,1,0,0:0:0:0:
64,192,49207,1,0,0:0:0:0:
192,192,49207,1,0,0:0:0:0:
320,192,49207,1,0,0:0:0:0:
448,192,49357,1,0,0:0:0:0:
320,192,49357,1,0,0:0:0:0:
192,192,49357,1,0,0:0:0:0:
64,192,49507,1,0,0:0:0:0:
192,192,49507,1,0,0:0:0:0:
320,192,49507,1,0,0:0:0:0:
64,192,50107,1,0,0:0:0:0:
192,192,50107,1,0,0:0:0:0:
448,192,50107,1,0,0:0:0:0:
192,192,50257,1,0,0:0:0:0:
64,192,50257,1,0,0:0:0:0:
320,192,50257,1,0,0:0:0:0:
192,192,50407,1,0,0:0:0:0:
64,192,50407,1,0,0:0:0:0:
448,192,50407,1,0,0:0:0:0:
192,192,50557,1,0,0:0:0:0:
64,192,50557,1,0,0:0:0:0:
320,192,50557,1,0,0:0:0:0:
448,192,50707,1,0,0:0:0:0:
192,192,50707,1,0,0:0:0:0:
64,192,50707,1,0,0:0:0:0:
64,192,51307,1,0,0:0:0:0:
192,192,51307,1,0,0:0:0:0:
448,192,51307,1,0,0:0:0:0:
64,192,51457,1,0,0:0:0:0:
320,192,51457,1,0,0:0:0:0:
448,192,51457,1,0,0:0:0:0:
64,192,51607,1,0,0:0:0:0:
192,192,51607,1,0,0:0:0:0:
448,192,51607,1,0,0:0:0:0:
64,192,51757,1,0,0:0:0:0:
320,192,51757,1,0,0:0:0:0:
448,192,51757,1,0,0:0:0:0:
64,192,51907,1,0,0:0:0:0:
192,192,51907,1,0,0:0:0:0:
448,192,51907,1,0,0:0:0:0:
64,192,52507,1,0,0:0:0:0:
320,192,52507,1,0,0:0:0:0:
448,192,52507,1,0,0:0:0:0:
192,192,52657,1,0,0:0:0:0:
320,192,52657,1,0,0:0:0:0:
448,192,52657,1,0,0:0:0:0:
64,192,52807,1,0,0:0:0:0:
320,192,52807,1,0,0:0:0:0:
448,192,52807,1,0,0:0:0:0:
192,192,52957,1,0,0:0:0:0:
320,192,52957,1,0,0:0:0:0:
448,192,52957,1,0,0:0:0:0:
64,192,53107,1,0,0:0:0:0:
320,192,53107,1,0,0:0:0:0:
448,192,53107,1,0,0:0:0:0:
64,192,53707,1,0,0:0:0:0:
192,192,53707,1,0,0:0:0:0:
320,192,53707,1,0,0:0:0:0:
192,192,53857,1,0,0:0:0:0:
320,192,53857,1,0,0:0:0:0:
448,192,53857,1,0,0:0:0:0:
64,192,54007,1,0,0:0:0:0:
192,192,54007,1,0,0:0:0:0:
320,192,54007,1,0,0:0:0:0:
192,192,54157,1,0,0:0:0:0:
320,192,54157,1,0,0:0:0:0:
448,192,54157,1,0,0:0:0:0:
64,192,54307,1,0,0:0:0:0:
320,192,54307,1,0,0:0:0:0:
448,192,54307,1,0,0:0:0:0:
192,192,54457,1,0,0:0:0:0:
320,192,54457,1,0,0:0:0:0:
448,192,54457,1,0,0:0:0:0:
64,192,54607,1,0,0:0:0:0:
320,192,54607,1,0,0:0:0:0:
448,192,54607,1,0,0:0:0:0:
192,192,54757,1,0,0:0:0:0:
320,192,54757,1,0,0:0:0:0:
448,192,54757,1,0,0:0:0:0:
64,192,54907,1,0,0:0:0:0:
320,192,54907,1,0,0:0:0:0:
448,192,54907,1,0,0:0:0:0:
64,192,55057,1,0,0:0:0:0:
192,192,55057,1,0,0:0:0:0:
448,192,55057,1,0,0:0:0:0:
64,192,55207,1,0,0:0:0:0:
320,192,55207,1,0,0:0:0:0:
448,192,55207,1,0,0:0:0:0:
64,192,55357,1,0,0:0:0:0:
192,192,55357,1,0,0:0:0:0:
448,192,55357,1,0,0:0:0:0:
192,192,55507,1,0,0:0:0:0:
64,192,55507,1,0,0:0:0:0:
320,192,55507,1,0,0:0:0:0:
192,192,55657,1,0,0:0:0:0:
320,192,55657,1,0,0:0:0:0:
448,192,55657,1,0,0:0:0:0:
64,192,55807,1,0,0:0:0:0:
192,192,55807,1,0,0:0:0:0:
320,192,55807,1,0,0:0:0:0:
192,192,55957,1,0,0:0:0:0:
320,192,55957,1,0,0:0:0:0:
448,192,55957,1,0,0:0:0:0:
192,192,56107,128,0,57007:0:0:0:0:
320,192,56107,128,0,56707:0:0:0:0:
64,192,56107,128,0,58207:0:0:0:0:
192,192,57607,128,0,58207:0:0:0:0:
320,192,58207,1,0,0:0:0:0:
448,192,58357,1,0,0:0:0:0:
64,192,58507,128,0,60607:0:0:0:0:
192,192,58507,128,0,60457:0:0:0:0:
320,192,58807,128,0,60307:0:0:0:0:
