osu file format v14

[General]
AudioFilename: audio.mp3
AudioLeadIn: 0
PreviewTime: 19507
Countdown: 0
SampleSet: None
StackLeniency: 0.2
Mode: 0
LetterboxInBreaks: 0
WidescreenStoryboard: 0

[Editor]
Bookmarks: 5634,5670,46434
DistanceSpacing: 2.5
BeatDivisor: 8
GridSize: 4
TimelineZoom: 1.5

[Metadata]
Title:Weaponized
TitleUnicode:Weaponized
Artist:Celldweller
ArtistUnicode:Celldweller
Creator:Hiicantpk
Version:Insane
Source:
Tags:Terraform Drums Vol. 01 Position Music Gun Symphony HPK Crowie
BeatmapID:1305841
BeatmapSetID:616637

[Difficulty]
HPDrainRate:5
CircleSize:4.2
OverallDifficulty:7.5
ApproachRate:8.5
SliderMultiplier:1.4
SliderTickRate:1

[Events]
//Background and Video events
0,0,"Sinon.jpg",0,0
//Break Periods
//Storyboard Layer 0 (Background)
//Storyboard Layer 1 (Fail)
//Storyboard Layer 2 (Pass)
//Storyboard Layer 3 (Foreground)
//Storyboard Sound Samples

[TimingPoints]
907,600,4,3,0,80,1,0
8107,-83.3333333333333,4,3,0,80,0,0
10507,-68.9655172413793,4,3,1,80,0,0
17707,-133.333333333333,4,3,0,80,0,0
18307,-66.6666666666667,4,3,0,80,0,0
18907,-86.9565217391304,4,3,1,80,0,0
19807,-86.9565217391304,4,3,0,35,0,0
20107,-60.6060606060606,4,3,0,100,0,1
27307,-133.333333333333,4,3,0,100,0,1
28507,-80,4,3,0,100,0,1
29707,-60.6060606060606,4,3,0,100,0,1
33307,-100,4,3,0,100,0,1
34507,-60.6060606060606,4,3,0,100,0,1
36307,-50,4,3,0,100,0,1
36907,-100,4,3,0,100,0,1
39307,-100,4,3,1,80,0,0
40357,-100,4,3,1,5,0,0
40507,-100,4,3,1,80,0,0
42757,-100,4,3,1,5,0,0
42907,-100,4,3,1,80,0,0
45157,-100,4,3,1,5,0,0
45307,-100,4,3,1,80,0,0
47557,-100,4,3,1,5,0,0
47707,-100,4,3,1,80,0,0
53707,-66.6666666666667,4,3,1,80,0,0

[Colours]
Combo1 : 150,169,150
Combo2 : 200,200,200
Combo3 : 96,102,117

[HitObjects]
78,95,907,5,0,0:0:0:0:
93,225,1057,1,0,0:0:0:0:
78,95,1507,1,0,0:0:0:0:
258,150,2107,2,0,B|316:166|316:166|410:153,1,140,2|2,0:1|0:1,0:0:0:0:
395,155,3307,5,0,0:0:0:0:
380,285,3457,1,0,0:0:0:0:
395,155,3907,1,0,0:0:0:0:
214,209,4507,2,0,B|156:225|156:225|77:215,1,140,2|2,0:1|0:1,0:0:0:0:
77,215,5707,5,0,0:0:0:0:
92,345,5857,1,0,0:0:0:0:
77,215,6307,1,0,0:0:0:0:
257,270,6907,2,0,B|315:286|315:286|409:273,1,140,2|2,0:1|0:1,0:0:0:0:
512,220,8107,6,0,B|487:178|487:178|468:123,1,83.9999974365235,0|0,0:0|0:0,0:0:0:0:
453,40,8707,5,0,1:0:0:0:
408,112,8857,1,0,1:0:0:0:
372,36,9007,1,0,1:0:0:0:
327,108,9157,1,0,1:0:0:0:
291,32,9307,6,0,B|212:20|212:20|229:78|229:78|186:66|156:86|156:86|133:76|107:78,1,251.999992309571,4|0,0:0|0:0,0:0:0:0:
9,103,10507,5,0,0:0:0:0:
72,246,10657,1,0,0:0:0:0:
9,103,11107,1,0,0:0:0:0:
172,198,11407,5,0,0:0:0:0:
72,246,11557,1,0,0:0:0:0:
164,309,11707,2,0,B|217:324|217:324|271:319,1,101.500003097534,2|0,0:1|0:0,0:0:0:0:
372,301,12157,1,0,0:0:0:0:
301,215,12307,2,0,P|290:158|322:96,1,101.500003097534,2|0,0:1|0:0,0:0:0:0:
361,38,12907,5,0,0:0:0:0:
213,93,13057,1,0,0:0:0:0:
361,38,13507,1,0,0:0:0:0:
282,183,13807,5,0,0:0:0:0:
213,93,13957,1,0,0:0:0:0:
147,185,14107,2,0,B|103:207|50:192|50:192|91:251|59:309,1,203.000006195069,2|0,0:1|0:0,0:0:0:0:
282,183,15307,5,0,0:0:0:0:
200,318,15457,1,0,0:0:0:0:
282,183,15907,1,0,0:0:0:0:
119,247,16207,5,0,0:0:0:0:
200,318,16357,1,0,0:0:0:0:
310,335,16507,2,0,B|364:321|364:321|407:290,1,101.500003097534,2|0,0:1|0:0,0:0:0:0:
473,211,16957,1,0,0:0:0:0:
365,191,17107,2,0,P|344:138|370:65,1,101.500003097534,2|0,0:1|0:0,0:0:0:0:
232,24,17707,6,0,B|167:96,1,78.7500030040742,4|0,0:0|0:0,0:0:0:0:
152,116,18307,6,0,B|113:162|69:188|69:188|152:208,1,157.500006008148,2|0,0:0|0:0,0:0:0:0:
154,206,18907,6,0,B|232:216,2,53.6666676902771,2|0|2,0:0|0:0|0:0,0:0:0:0:
99,275,19507,6,0,B|27:368,1,80.5000015354157,6|0,0:2|0:0,0:0:0:0:
251,311,20107,5,0,1:0:0:0:
364,268,20257,1,0,0:0:0:0:
364,268,20557,1,0,0:0:0:0:
253,218,20707,1,0,1:0:0:0:
422,145,21007,2,0,L|431:202,1,57.7500005507469
334,99,21307,5,0,1:0:0:0:
243,133,21457,1,0,0:0:0:0:
266,39,21607,1,0,1:0:0:0:
175,73,21757,1,0,0:0:0:0:
152,167,21907,2,0,B|167:234|167:234|204:281,1,115.500001101494,2|0,0:2|0:0,0:0:0:0:
143,340,22507,5,0,1:0:0:0:
67,248,22657,1,0,0:0:0:0:
67,248,22957,1,0,0:0:0:0:
184,229,23107,1,0,1:0:0:0:
129,74,23407,2,0,L|74:92,1,57.7500005507469
225,119,23707,5,0,1:0:0:0:
326,131,23857,1,0,0:0:0:0:
389,50,24007,1,0,0:0:0:0:
287,37,24157,1,0,1:0:0:0:
225,119,24307,2,0,L|174:185,1,57.7500005507469,2|0,0:2|0:0,0:0:0:0:
227,257,24607,2,0,L|278:191,1,57.7500005507469,2|0,0:2|0:0,0:0:0:0:
326,131,24907,5,0,1:0:0:0:
402,227,25057,1,0,0:0:0:0:
402,227,25357,1,0,0:0:0:0:
449,113,25507,1,0,1:0:0:0:
296,81,25807,2,0,L|325:130,1,57.7500005507469
202,148,26107,5,0,1:0:0:0:
152,60,26257,1,0,0:0:0:0:
101,148,26407,1,0,1:0:0:0:
51,60,26557,1,0,0:0:0:0:
101,148,26707,2,0,B|136:201|136:201|187:253,1,115.500001101494,2|0,0:2|0:0,0:0:0:0:
279,313,27307,6,0,B|331:337|383:334|383:334|364:322|342:290,1,157.500006008148,4|0,0:0|0:0,0:0:0:0:
299,210,28507,6,0,P|283:172|280:123,2,58.3333333333333,0|0|0,0:0|0:0|0:0,0:0:0:0:
379,153,29107,1,8,0:0:0:0:
471,351,29707,5,0,1:0:0:0:
355,321,29857,1,0,0:0:0:0:
355,321,30157,1,0,0:0:0:0:
438,235,30307,1,0,1:0:0:0:
278,216,30607,2,0,L|299:132,1,57.7500005507469
167,142,30907,5,0,1:0:0:0:
95,208,31057,1,0,0:0:0:0:
189,238,31207,1,0,1:0:0:0:
167,142,31357,1,0,0:0:0:0:
72,112,31507,2,0,B|25:156|25:156|-2:213,1,115.500001101494,2|0,0:2|0:0,0:0:0:0:
61,368,32107,5,0,1:0:0:0:
186,336,32257,1,0,0:0:0:0:
186,336,32557,1,0,0:0:0:0:
96,244,32707,1,0,1:0:0:0:
279,216,33007,2,0,L|267:159,1,57.7500005507469
386,168,33307,6,0,L|369:250,1,70,2|0,0:0|0:0,0:0:0:0:
353,324,33907,2,0,L|344:365,2,23.3333333333333,2|0|2,0:2|0:0|0:2,0:0:0:0:
285,291,34207,2,0,L|276:332,2,23.3333333333333,2|0|2,0:2|0:0|0:2,0:0:0:0:
218,259,34507,5,0,1:0:0:0:
113,312,34657,1,0,0:0:0:0:
113,312,34957,1,0,0:0:0:0:
119,194,35107,1,0,1:0:0:0:
8,43,35407,2,0,L|5:105,1,57.7500005507469
16,200,35707,5,0,1:0:0:0:
105,126,35857,1,0,0:0:0:0:
214,164,36007,1,0,1:0:0:0:
135,262,36307,6,0,L|103:121,1,140,4|0,0:0|0:0,0:0:0:0:
51,281,36907,5,0,1:0:0:0:
149,339,37057,1,0,0:0:0:0:
219,250,37207,2,0,L|240:222,1,35,2|0,0:2|0:0,0:0:0:0:
367,63,37507,5,0,1:0:0:0:
298,152,37657,1,0,0:0:0:0:
200,95,37807,2,0,L|143:58,1,35,2|0,0:2|0:0,0:0:0:0:
240,222,38107,6,0,B|264:289|265:363|265:363|267:326|293:294,1,210,4|0,0:0|0:0,0:0:0:0:
376,233,39307,5,0,0:0:0:0:
452,187,39457,1,0,0:0:0:0:
372,148,39607,1,0,0:0:0:0:
448,102,39757,1,0,0:0:0:0:
368,63,39907,6,0,B|312:83|312:83|298:125|258:142,1,140,4|2,0:0|0:1,0:0:0:0:
236,55,41107,1,2,0:1:0:0:
38,19,41707,5,0,0:0:0:0:
106,76,41857,1,0,0:0:0:0:
19,95,42007,1,0,0:0:0:0:
87,152,42157,1,0,0:0:0:0:
0,171,42307,6,0,B|-10:229|-10:229|18:262|13:305,1,140,4|2,0:0|0:1,0:0:0:0:
94,253,43507,1,2,0:1:0:0:
179,362,44107,5,0,0:0:0:0:
271,356,44257,1,0,0:0:0:0:
210,287,44407,1,0,0:0:0:0:
302,281,44557,1,0,0:0:0:0:
241,212,44707,6,0,B|230:153|230:153|259:120|254:77,1,140,4|2,0:0|0:1,0:0:0:0:
165,90,45907,1,2,0:1:0:0:
279,9,46507,5,0,0:0:0:0:
373,29,46657,1,0,0:0:0:0:
296,87,46807,1,0,0:0:0:0:
390,107,46957,1,0,0:0:0:0:
313,165,47107,6,0,B|333:220|333:220|375:234|392:274,1,140,4|2,0:0|0:1,0:0:0:0:
308,308,48307,1,2,0:1:0:0:
431,377,48907,5,0,0:0:0:0:
493,314,49057,1,0,0:0:0:0:
406,298,49207,1,0,0:0:0:0:
468,235,49357,1,0,0:0:0:0:
381,219,49507,2,0,B|348:212|348:212|301:182,1,70,4|0,0:0|0:0,0:0:0:0:
234,118,50107,5,0,0:0:0:0:
187,44,50257,1,0,0:0:0:0:
154,125,50407,1,0,0:0:0:0:
107,51,50557,1,0,0:0:0:0:
74,132,50707,2,0,B|81:165|81:165|100:195,1,70,4|0,0:0|0:0,0:0:0:0:
155,295,51307,5,0,0:0:0:0:
252,328,51457,1,0,0:0:0:0:
226,245,51607,1,0,0:0:0:0:
323,278,51757,1,0,0:0:0:0:
349,361,51907,2,0,B|382:354|382:354|412:334,1,70,4|0,0:0|0:0,0:0:0:0:
507,268,52507,5,0,0:0:0:0:
481,170,52657,1,0,0:0:0:0:
433,240,52807,1,0,0:0:0:0:
407,142,52957,1,0,0:0:0:0:
455,72,53107,2,0,B|448:39|448:39|428:8,1,70,4|0,0:0|0:0,0:0:0:0:
313,75,53707,6,0,L|292:152,1,52.5000020027161,2|0,0:1|0:0,0:0:0:0:
192,214,54007,2,0,L|213:137,1,52.5000020027161,0|0,0:0|0:0,0:0:0:0:
378,130,54307,6,0,L|357:207,1,52.5000020027161,2|0,0:1|0:0,0:0:0:0:
257,269,54607,2,0,L|278:192,1,52.5000020027161,0|0,0:0|0:0,0:0:0:0:
313,75,54907,5,2,0:1:0:0:
205,163,55057,1,0,0:0:0:0:
378,130,55207,1,0,0:0:0:0:
270,218,55357,1,0,0:0:0:0:
443,185,55507,5,2,0:1:0:0:
335,273,55657,1,0,0:0:0:0:
508,240,55807,1,0,0:0:0:0:
400,328,55957,1,0,0:0:0:0:
270,218,56107,5,4,0:3:0:0:
256,192,56182,12,0,58207,0:0:0:0:
44,332,58507,5,2,0:1:0:0:
