osu file format v14

[General]
AudioFilename: audio.mp3
AudioLeadIn: 0
PreviewTime: 19507
Countdown: 0
SampleSet: None
StackLeniency: 0.7
Mode: 0
LetterboxInBreaks: 0
WidescreenStoryboard: 1

[Editor]
DistanceSpacing: 1
BeatDivisor: 4
GridSize: 16
TimelineZoom: 1.5

[Metadata]
Title:Weaponized
TitleUnicode:Weaponized
Artist:Celldweller
ArtistUnicode:Celldweller
Creator:Hiicantpk
Version:Crowie's Normal
Source:
Tags:Terraform Drums Vol. 01 Position Music Gun Symphony HPK Crowie
BeatmapID:1312363
BeatmapSetID:616637

[Difficulty]
HPDrainRate:4
CircleSize:3
OverallDifficulty:3.3
ApproachRate:4
SliderMultiplier:1.6
SliderTickRate:1

[Events]
//Background and Video events
0,0,"Crowie.png",0,0
//Break Periods
//Storyboard Layer 0 (Background)
//Storyboard Layer 1 (Fail)
//Storyboard Layer 2 (Pass)
//Storyboard Layer 3 (Foreground)
//Storyboard Sound Samples

[TimingPoints]
907,600,4,3,1,80,1,0
15007,-100,4,3,1,60,0,0
15307,-100,4,3,1,80,0,0
18907,-100,4,3,1,80,0,0
19807,-100,4,3,0,35,0,0
20107,-83.3333333333333,4,3,0,100,0,1
27307,-83.3333333333333,4,3,0,100,0,0
29707,-83.3333333333333,4,3,0,100,0,1
39307,-100,4,3,1,80,0,0

[Colours]
Combo1 : 150,169,150
Combo2 : 200,200,200
Combo3 : 96,102,117

[HitObjects]
125,210,907,6,0,L|117:170,1,40,0|0,0:0|0:0,0:0:0:0:
93,52,1507,1,0,0:0:0:0:
125,210,2107,2,0,B|174:201|174:201|300:229,1,160,2|2,0:1|0:1,0:0:0:0:
439,210,3307,6,0,L|446:170,1,40,0|0,0:0|0:0,0:0:0:0:
466,52,3907,1,0,0:0:0:0:
439,210,4507,2,0,B|390:201|390:201|264:229,1,160,2|2,0:1|0:1,0:0:0:0:
125,210,5707,6,0,L|140:285,1,40,0|0,0:0|0:0,0:0:0:0:
163,365,6307,1,0,0:0:0:0:
125,210,6907,2,0,B|136:160|136:160|107:52,1,160,2|2,0:1|0:1,0:0:0:0:
267,36,8107,6,0,P|304:13|349:17,1,80,0|0,0:0|0:0,0:0:0:0:
415,38,8707,2,0,L|405:98,3,40,0|0|0|0,1:0|1:0|1:0|1:0,0:0:0:0:
400,116,9307,1,4,0:0:0:0:
473,346,10507,6,0,L|399:332,1,40,0|0,0:0|0:0,0:0:0:0:
314,352,11107,1,0,0:0:0:0:
262,291,11407,2,0,P|263:267|282:223,2,40,0|0|2,0:0|0:0|0:1,0:0:0:0:
200,342,12007,2,0,P|204:361|206:381,2,40,0|0|2,0:0|0:0|0:1,0:0:0:0:
128,306,12607,1,0,0:0:0:0:
48,306,12907,6,0,L|57:239,1,40,0|0,0:0|0:0,0:0:0:0:
29,148,13507,1,0,0:0:0:0:
108,156,13807,2,0,L|166:162,1,40,0|0,0:0|0:0,0:0:0:0:
177,187,14107,2,0,B|244:127|244:127|215:294,1,240,2|0,0:1|0:0,0:0:0:0:
146,312,15307,6,0,L|157:374,1,40,0|0,0:0|0:0,0:0:0:0:
272,335,15907,1,0,0:0:0:0:
341,295,16207,2,0,P|347:272|344:224,2,40,0|0|2,0:0|0:0|0:1,0:0:0:0:
406,341,16807,2,0,P|408:360|413:380,2,40,0|0|2,0:0|0:0|0:1,0:0:0:0:
459,281,17407,1,0,0:0:0:0:
424,208,17707,6,0,B|439:80|439:80|428:104|402:130,1,160,4|2,0:0|0:0,0:0:0:0:
300,209,18907,2,0,B|295:153,2,53.3333333333333,2|0|2,0:0|0:0|0:0,0:0:0:0:
340,245,19507,2,0,B|319:243|319:243|286:261|286:261|265:259,1,80,6|0,0:2|0:0,0:0:0:0:
172,231,20107,5,0,1:0:0:0:
172,231,20257,2,0,P|170:282|139:312,1,95.9999970703126,0|0,0:0|0:0,0:0:0:0:
97,286,20707,2,0,L|-13:273,1,95.9999970703126,0|0,1:0|0:0,0:0:0:0:
60,198,21307,2,0,L|53:137,3,47.9999985351563,0|0|0|0,1:0|0:0|1:0|0:0,0:0:0:0:
27,110,21907,2,0,B|54:74|54:74|60:22,1,95.9999970703126,2|0,0:2|0:0,0:0:0:0:
150,55,22507,5,0,1:0:0:0:
150,55,22657,2,0,L|283:38,1,95.9999970703126,0|0,0:0|0:0,0:0:0:0:
289,61,23107,2,0,P|319:99|290:166,1,95.9999970703126,0|0,1:0|0:0,0:0:0:0:
233,198,23707,2,0,B|270:185|301:210|301:210|332:234|369:222,1,143.999995605469,0|0,1:0|1:0,0:0:0:0:
410,199,24307,2,0,L|417:135,2,47.9999985351563,2|0|2,0:2|0:0|0:2,0:0:0:0:
471,273,24907,5,0,1:0:0:0:
471,273,25057,2,0,P|432:312|435:373,1,95.9999970703126,0|0,0:0|0:0,0:0:0:0:
380,341,25507,2,0,L|257:326,1,95.9999970703126,0|0,1:0|0:0,0:0:0:0:
191,352,26107,2,0,L|185:275,3,47.9999985351563,0|0|0|0,1:0|0:0|1:0|0:0,0:0:0:0:
198,257,26707,2,0,L|75:272,1,95.9999970703126,2|0,0:2|0:0,0:0:0:0:
69,178,27307,6,0,B|102:164|102:164|216:170|216:170|260:180|296:222|284:278,1,287.999991210938,4|0,0:0|0:0,0:0:0:0:
380,275,28507,6,0,B|425:286|425:286|466:280,3,63.9999980468751,0|0|0|8,0:0|0:0|0:0|0:0,0:0:0:0:
335,123,29707,5,0,1:0:0:0:
335,123,29857,2,0,P|340:65|303:25,1,95.9999970703126,0|0,0:0|0:0,0:0:0:0:
272,25,30307,2,0,L|149:43,1,95.9999970703126,0|0,1:0|0:0,0:0:0:0:
82,23,30907,2,0,P|80:53|94:85,1,47.9999985351563,0|0,1:0|0:0,0:0:0:0:
63,112,31207,2,0,P|87:128|122:132,1,47.9999985351563,0|0,1:0|0:0,0:0:0:0:
130,173,31507,2,0,B|200:156|200:156|256:171,1,95.9999970703126,2|0,0:2|0:0,0:0:0:0:
196,254,32107,5,0,1:0:0:0:
196,254,32257,2,0,P|215:299|191:354,1,95.9999970703126,0|0,0:0|0:0,0:0:0:0:
249,341,32707,2,0,L|349:354,1,95.9999970703126,0|0,1:0|0:0,0:0:0:0:
437,330,33307,2,0,B|447:293|447:293|425:152,1,143.999995605469,2|0,0:0|0:0,0:0:0:0:
450,144,33907,2,0,B|422:138|422:138|386:155|386:155|359:149,1,95.9999970703126,2|0,0:2|0:0,0:0:0:0:
263,133,34507,5,0,1:0:0:0:
263,133,34657,2,0,P|271:183|228:233,1,95.9999970703126,0|0,0:0|0:0,0:0:0:0:
207,244,35107,2,0,L|76:223,1,95.9999970703126,0|0,1:0|0:0,0:0:0:0:
94,134,35707,2,0,L|81:60,2,47.9999985351563,0|0|0,1:0|0:0|1:0,0:0:0:0:
112,228,36307,2,0,B|99:365|99:365|151:310,1,191.999994140625,4|0,0:0|1:0,0:0:0:0:
181,307,37057,6,0,B|217:293|249:318|249:318|279:342|317:330,1,143.999995605469,0|0,0:0|1:0,0:0:0:0:
305,283,37657,2,0,B|283:175|283:175|285:124,1,143.999995605469,0|4,0:0|0:0,0:0:0:0:
492,237,39307,6,0,L|416:250,3,40,0|0|0|0,0:0|0:0|0:0|0:0,0:0:0:0:
413,250,39907,1,4,0:0:0:0:
293,143,40507,2,0,L|123:124,1,160,2|2,0:1|0:1,0:0:0:0:
56,264,41707,6,0,L|132:251,3,40,0|0|0|0,0:0|0:0|0:0|0:0,0:0:0:0:
134,250,42307,1,4,0:0:0:0:
255,358,42907,2,0,L|425:377,1,160,2|2,0:1|0:1,0:0:0:0:
492,237,44107,6,0,L|416:250,3,40,0|0|0|0,0:0|0:0|0:0|0:0,0:0:0:0:
413,250,44707,1,4,0:0:0:0:
293,143,45307,2,0,B|236:140|236:140|184:126|184:126|123:123,1,160,2|2,0:1|0:1,0:0:0:0:
56,264,46507,6,0,L|132:251,3,40,0|0|0|0,0:0|0:0|0:0|0:0,0:0:0:0:
134,250,47107,1,4,0:0:0:0:
255,358,47707,2,0,B|312:361|312:361|364:375|364:375|425:378,1,160,2|2,0:1|0:1,0:0:0:0:
341,234,48907,6,0,L|348:163,4,40,0|0|0|0|4,0:0|0:0|0:0|0:0|0:0,0:0:0:0:
182,210,50107,2,0,L|175:139,4,40,0|0|0|0|4,0:0|0:0|0:0|0:0|0:0,0:0:0:0:
344,152,51307,2,0,L|351:81,4,40,0|0|0|0|4,0:0|0:0|0:0|0:0|0:0,0:0:0:0:
185,128,52507,2,0,L|178:57,4,40,0|0|0|0|4,0:0|0:0|0:0|0:0|0:0,0:0:0:0:
347,70,53707,6,0,P|370:61|396:62,3,40,2|0|0|0,0:1|0:0|0:0|0:0,0:0:0:0:
420,40,54307,2,0,P|435:59|442:84,3,40,2|0|0|0,0:1|0:0|0:0|0:0,0:0:0:0:
471,100,54907,2,0,P|457:120|436:135,3,40,2|0|0|0,0:1|0:0|0:0|0:0,0:0:0:0:
429,167,55507,2,0,P|405:160|384:144,3,40,2|0|0|0,0:1|0:0|0:0|0:0,0:0:0:0:
352,147,56107,5,4,0:3:0:0:
256,192,56257,12,2,58507,0:1:0:0:
