osu file format v14

[General]
AudioFilename: audio.mp3
AudioLeadIn: 0
PreviewTime: 19507
Countdown: 0
SampleSet: None
StackLeniency: 0.2
Mode: 0
LetterboxInBreaks: 0
WidescreenStoryboard: 0

[Editor]
Bookmarks: 5634,46434
DistanceSpacing: 2.5
BeatDivisor: 4
GridSize: 4
TimelineZoom: 1.5

[Metadata]
Title:Weaponized
TitleUnicode:Weaponized
Artist:Celldweller
ArtistUnicode:Celldweller
Creator:Hiicantpk
Version:AWM
Source:
Tags:Terraform Drums Vol. 01 Position Music Gun Symphony HPK Crowie
BeatmapID:1300413
BeatmapSetID:616637

[Difficulty]
HPDrainRate:5
CircleSize:5.1
OverallDifficulty:8.6
ApproachRate:9.4
SliderMultiplier:1.4
SliderTickRate:1

[Events]
//Background and Video events
0,0,"Sinon.jpg",0,0
//Break Periods
//Storyboard Layer 0 (Background)
//Storyboard Layer 1 (Fail)
//Storyboard Layer 2 (Pass)
//Storyboard Layer 3 (Foreground)
//Storyboard Sound Samples

[TimingPoints]
907,600,4,3,1,80,1,0
10507,-68.9655172413793,4,3,1,80,0,0
14557,-68.9655172413793,4,3,1,20,0,0
14782,-68.9655172413793,4,3,1,30,0,0
14857,-68.9655172413793,4,3,1,40,0,0
14932,-68.9655172413793,4,3,1,50,0,0
15007,-68.9655172413793,4,3,1,60,0,0
15082,-68.9655172413793,4,3,1,70,0,0
15157,-68.9655172413793,4,3,1,80,0,0
17707,-133.333333333333,4,3,1,80,0,0
18307,-66.6666666666667,4,3,1,80,0,0
18907,-86.9565217391304,4,3,1,80,0,0
19807,-86.9565217391304,4,3,0,35,0,0
20107,-60.6060606060606,4,3,0,100,0,1
27307,-133.333333333333,4,3,0,100,0,1
28507,-76.9230769230769,4,3,0,100,0,1
29107,-100,4,3,0,100,0,1
29707,-60.6060606060606,4,3,0,100,0,1
33307,-100,4,3,0,100,0,1
34507,-60.6060606060606,4,3,0,100,0,1
36307,-60.6060606060606,4,3,0,100,0,1
36907,-100,4,3,0,100,0,1
39307,-74.0740740740741,4,3,1,80,0,0
40357,-74.0740740740741,4,3,1,5,0,0
40507,-74.0740740740741,4,3,1,80,0,0
42757,-74.0740740740741,4,3,1,5,0,0
42907,-74.0740740740741,4,3,1,80,0,0
45157,-74.0740740740741,4,3,1,5,0,0
45307,-74.0740740740741,4,3,1,80,0,0
47557,-74.0740740740741,4,3,1,5,0,0
47707,-74.0740740740741,4,3,1,80,0,0
48907,-100,4,3,1,80,0,0

[Colours]
Combo1 : 150,169,150
Combo2 : 200,200,200
Combo3 : 96,102,117

[HitObjects]
84,44,907,5,0,0:0:0:0:
172,148,1057,1,0,0:0:0:0:
84,44,1507,1,0,0:0:0:0:
22,116,2107,1,2,0:1:0:0:
82,189,2707,1,2,0:1:0:0:
236,185,3307,5,0,0:0:0:0:
148,289,3457,1,0,0:0:0:0:
236,185,3907,1,0,0:0:0:0:
298,257,4507,1,2,0:1:0:0:
238,330,5107,1,2,0:1:0:0:
103,188,5707,5,0,0:0:0:0:
191,84,5857,1,0,0:0:0:0:
103,188,6307,1,0,0:0:0:0:
52,108,6907,1,2,0:1:0:0:
115,37,7507,1,2,0:1:0:0:
355,119,8107,5,0,0:0:0:0:
166,296,8407,1,0,0:0:0:0:
281,149,8707,5,0,1:0:0:0:
243,267,8857,1,0,1:0:0:0:
207,181,9007,1,0,1:0:0:0:
317,237,9157,1,0,1:0:0:0:
281,149,9307,6,0,B|236:83|236:83|217:106|217:106|195:84|195:84|176:122|121:133,1,210,4|0,0:0|0:0,0:0:0:0:
35,161,10507,5,0,0:0:0:0:
64,294,10657,1,0,0:0:0:0:
35,161,11107,1,0,0:0:0:0:
128,91,11407,5,0,0:0:0:0:
319,98,11557,1,0,0:0:0:0:
226,94,11707,2,0,P|196:149|225:218,1,101.500003097534,2|0,0:1|0:0,0:0:0:0:
304,359,12157,1,0,0:0:0:0:
250,268,12307,2,0,L|380:296,1,101.500003097534,2|0,0:1|0:0,0:0:0:0:
496,323,12907,5,0,0:0:0:0:
409,165,13057,1,0,0:0:0:0:
496,323,13507,1,0,0:0:0:0:
407,270,13807,5,0,0:0:0:0:
409,165,13957,1,0,0:0:0:0:
498,219,14107,2,0,P|519:160|453:63,1,152.250004646301,2|0,0:1|0:0,0:0:0:0:
449,55,14707,2,0,L|422:42,6,25.3750007743836
302,157,15307,5,0,0:0:0:0:
143,58,15457,1,0,0:0:0:0:
302,157,15907,1,0,0:0:0:0:
201,212,16207,5,0,0:0:0:0:
57,353,16357,1,0,0:0:0:0:
130,285,16507,2,0,P|198:277|250:326,1,101.500003097534,2|0,0:1|0:0,0:0:0:0:
384,206,16957,1,0,0:0:0:0:
302,253,17107,2,0,P|288:204|303:157,1,101.500003097534,2|0,0:1|0:0,0:0:0:0:
375,24,17707,6,0,L|297:64,1,78.7500030040742,4|0,0:0|0:0,0:0:0:0:
257,58,18307,6,0,P|201:34|89:67,1,157.500006008148,2|0,0:0|0:0,0:0:0:0:
62,69,18907,6,0,L|24:30,2,53.6666676902771,2|0|2,0:0|0:0|0:0,0:0:0:0:
122,133,19507,6,0,B|137:155|137:155|119:178|119:178|103:221,1,80.5000015354157,6|0,0:2|0:0,0:0:0:0:
68,315,20107,5,0,1:0:0:0:
246,187,20257,1,0,0:0:0:0:
246,187,20557,1,0,0:0:0:0:
68,315,20707,1,0,1:0:0:0:
39,191,21007,2,0,L|17:99,1,57.7500005507469
114,90,21307,5,0,1:0:0:0:
246,187,21457,1,0,0:0:0:0:
176,48,21607,1,0,1:0:0:0:
184,229,21757,1,0,0:0:0:0:
238,6,21907,2,0,B|267:-2|267:-2|364:21,1,115.500001101494,2|0,0:2|0:0,0:0:0:0:
453,45,22507,5,0,1:0:0:0:
308,151,22657,1,0,0:0:0:0:
308,151,22957,1,0,0:0:0:0:
453,45,23107,1,0,1:0:0:0:
512,135,23407,2,0,L|479:193,1,57.7500005507469
409,289,23707,5,0,1:0:0:0:
262,205,23857,1,0,0:0:0:0:
408,119,24007,1,0,0:0:0:0:
409,289,24157,1,0,1:0:0:0:
262,205,24307,2,0,L|292:152,1,57.7500005507469,2|0,0:2|0:0,0:0:0:0:
408,119,24607,2,0,L|378:172,1,57.7500005507469,2|0,0:2|0:0,0:0:0:0:
84,202,24907,5,0,1:0:0:0:
146,48,25057,1,0,0:0:0:0:
146,48,25357,1,0,0:0:0:0:
84,202,25507,1,0,1:0:0:0:
196,249,25807,2,0,L|242:214,1,57.7500005507469
344,136,26107,5,0,1:0:0:0:
406,312,26257,1,0,0:0:0:0:
483,175,26407,1,0,1:0:0:0:
279,273,26557,1,0,0:0:0:0:
483,175,26707,2,0,B|486:143|486:143|461:52,1,115.500001101494,2|0,0:2|0:0,0:0:0:0:
320,223,27307,6,0,B|279:274|279:274|264:238|264:238|236:239|198:213,1,157.500006008148,4|0,0:0|0:0,0:0:0:0:
122,140,28507,5,0,0:0:0:0:
96,259,28707,1,0,0:0:0:0:
213,222,28907,1,0,0:0:0:0:
156,68,29107,2,0,P|122:60|89:69,1,70,8|0,0:0|0:0,0:0:0:0:
319,190,29707,5,0,1:0:0:0:
422,314,29857,1,0,0:0:0:0:
422,314,30157,1,0,0:0:0:0:
319,190,30307,1,0,1:0:0:0:
364,97,30607,2,0,L|406:18,1,57.7500005507469
454,113,30907,5,0,1:0:0:0:
393,243,31057,1,0,0:0:0:0:
483,184,31207,1,0,1:0:0:0:
422,314,31357,1,0,0:0:0:0:
366,168,31507,2,0,B|340:114|340:114|277:60,1,115.500001101494,2|0,0:2|0:0,0:0:0:0:
260,179,32107,5,0,1:0:0:0:
170,362,32257,1,0,0:0:0:0:
170,362,32557,1,0,0:0:0:0:
260,179,32707,1,0,1:0:0:0:
161,242,33007,2,0,L|111:277,1,57.7500005507469
82,137,33307,6,0,L|69:65,1,70,2|0,0:0|0:0,0:0:0:0:
149,45,33907,1,2,0:2:0:0:
171,40,34007,1,0,0:0:0:0:
195,42,34107,1,2,0:2:0:0:
217,52,34207,2,0,P|238:55|261:52,2,23.3333333333333
336,38,34507,5,0,1:0:0:0:
448,180,34657,1,0,0:0:0:0:
448,180,34957,1,0,0:0:0:0:
336,38,35107,1,0,1:0:0:0:
304,147,35407,2,0,L|281:210,1,57.7500005507469
233,356,35707,5,0,1:0:0:0:
124,236,35857,1,0,0:0:0:0:
284,201,36007,1,0,1:0:0:0:
32,236,36307,6,0,B|45:284|45:284|87:336,1,115.500001101494,4|0,0:0|0:0,0:0:0:0:
11,124,36907,5,0,1:0:0:0:
161,31,37057,1,0,0:0:0:0:
108,110,37207,2,0,L|81:150,1,35,2|0,0:2|0:0,0:0:0:0:
348,203,37507,5,0,1:0:0:0:
198,110,37657,1,0,0:0:0:0:
251,189,37807,2,0,L|278:229,1,35,2|0,0:2|0:0,0:0:0:0:
147,294,38107,6,0,B|76:221|76:221|129:225|155:187|155:187|177:193|177:193|183:168|183:168,1,210,4|0,0:0|0:0,0:0:0:0:
291,263,39307,5,0,0:0:0:0:
382,154,39457,1,0,0:0:0:0:
325,335,39607,1,0,0:0:0:0:
416,226,39757,1,0,0:0:0:0:
252,172,39907,6,0,B|199:153|199:153|252:132|264:75,1,141.750000540733,4|0,0:0|0:0,0:0:0:0:
262,64,40507,1,2,0:1:0:0:
159,47,41107,1,2,0:1:0:0:
111,341,41707,5,0,0:0:0:0:
10,223,41857,1,0,0:0:0:0:
151,261,42007,1,0,0:0:0:0:
50,143,42157,1,0,0:0:0:0:
191,181,42307,6,0,B|244:194|244:194|212:147|233:93,1,141.750000540733,4|0,0:0|0:0,0:0:0:0:
237,83,42907,1,2,0:1:0:0:
336,132,43507,1,2,0:1:0:0:
301,334,44107,5,0,0:0:0:0:
421,221,44257,1,0,0:0:0:0:
280,261,44407,1,0,0:0:0:0:
400,148,44557,1,0,0:0:0:0:
259,188,44707,6,0,B|205:201|205:201|237:154|216:100,1,141.750000540733,4|0,0:0|0:0,0:0:0:0:
212,90,45307,1,2,0:1:0:0:
116,138,45907,1,2,0:1:0:0:
372,122,46507,5,0,0:0:0:0:
240,48,46657,1,0,0:0:0:0:
309,167,46807,1,0,0:0:0:0:
177,93,46957,1,0,0:0:0:0:
246,212,47107,6,0,B|275:259|275:259|221:242|175:279,1,141.750000540733,4|0,0:0|0:0,0:0:0:0:
170,288,47707,1,2,0:1:0:0:
245,357,48307,1,2,0:1:0:0:
176,79,48907,5,0,0:0:0:0:
36,141,49057,1,0,0:0:0:0:
240,121,49207,1,0,0:0:0:0:
100,183,49357,1,0,0:0:0:0:
304,163,49507,2,0,B|342:157|342:157|381:162,1,70,4|0,0:0|0:0,0:0:0:0:
468,238,50107,5,0,0:0:0:0:
330,291,50257,1,0,0:0:0:0:
437,306,50407,1,0,0:0:0:0:
299,359,50557,1,0,0:0:0:0:
306,206,50707,2,0,B|308:169|308:169|293:123,1,70,4|0,0:0|0:0,0:0:0:0:
238,42,51307,5,0,0:0:0:0:
89,12,51457,1,0,0:0:0:0:
236,115,51607,1,0,0:0:0:0:
87,85,51757,1,0,0:0:0:0:
234,188,51907,2,0,B|265:198|265:198|302:196,1,70,4|0,0:0|0:0,0:0:0:0:
412,157,52507,5,0,0:0:0:0:
512,65,52657,1,0,0:0:0:0:
344,119,52807,1,0,0:0:0:0:
444,27,52957,1,0,0:0:0:0:
512,184,53107,2,0,B|512:220|512:220|499:251,1,70,4|0,0:0|0:0,0:0:0:0:
244,259,53707,5,2,0:1:0:0:
344,119,53857,1,0,0:0:0:0:
304,295,54007,1,0,0:0:0:0:
235,123,54157,1,0,0:0:0:0:
364,262,54307,5,2,0:1:0:0:
190,220,54457,1,0,0:0:0:0:
394,173,54607,1,0,0:0:0:0:
184,286,54757,1,0,0:0:0:0:
287,81,54907,5,2,0:1:0:0:
244,259,55057,1,0,0:0:0:0:
222,70,55207,1,0,0:0:0:0:
301,298,55357,1,0,0:0:0:0:
150,158,55507,5,2,0:1:0:0:
394,173,55657,1,0,0:0:0:0:
152,242,55807,1,0,0:0:0:0:
369,91,55957,1,0,0:0:0:0:
212,307,56107,5,4,0:3:0:0:
256,192,56182,12,0,58207,0:0:0:0:
44,332,58507,5,2,0:1:0:0:
