osu file format v14

[General]
AudioFilename: audio.mp3
AudioLeadIn: 0
PreviewTime: 19507
Countdown: 0
SampleSet: Normal
StackLeniency: 0.2
Mode: 1
LetterboxInBreaks: 0
WidescreenStoryboard: 1

[Editor]
Bookmarks: 5634,29670,46434,48870
DistanceSpacing: 2.5
BeatDivisor: 4
GridSize: 32
TimelineZoom: 1.5

[Metadata]
Title:Weaponized
TitleUnicode:Weaponized
Artist:Celldweller
ArtistUnicode:Celldweller
Creator:Hiicantpk
Version:Oni
Source:
Tags:Terraform Drums Vol. 01 Position Music Gun Symphony HPK Crowie
BeatmapID:1444919
BeatmapSetID:616637

[Difficulty]
HPDrainRate:5.5
CircleSize:2
OverallDifficulty:5.5
ApproachRate:10
SliderMultiplier:1.4
SliderTickRate:3

[Events]
//Background and Video events
0,0,"Sinon.jpg",0,0
//Break Periods
//Storyboard Layer 0 (Background)
//Storyboard Layer 1 (Fail)
//Storyboard Layer 2 (Pass)
//Storyboard Layer 3 (Foreground)
//Storyboard Sound Samples

[TimingPoints]
907,600,4,1,0,80,1,0
907,-58.8235294117647,4,1,0,80,0,0
14707,-58.8235294117647,4,1,0,30,0,0
14807,-58.8235294117647,4,1,0,40,0,0
14907,-58.8235294117647,4,1,0,50,0,0
15007,-58.8235294117647,4,1,0,60,0,0
15107,-58.8235294117647,4,1,0,70,0,0
15207,-58.8235294117647,4,1,0,80,0,0
20107,-51.150895140665,4,1,0,100,0,1
38257,-51.150895140665,4,3,0,5,0,1
39307,-58.8235294117647,4,1,0,80,0,0
48907,-54.4662309368192,4,1,0,80,0,0
56257,-54.4662309368192,4,3,0,5,0,0
58207,-54.4662309368192,4,1,0,80,0,0

[Colours]
Combo1 : 150,169,150
Combo2 : 200,200,200
Combo3 : 77,82,94

[HitObjects]
320,128,907,5,4,0:0:0:0:
320,128,1057,1,4,0:0:0:0:
320,128,1507,1,4,0:0:0:0:
320,256,2107,1,6,0:0:0:0:
320,256,2707,1,6,0:0:0:0:
320,128,3307,1,4,0:0:0:0:
320,128,3457,1,4,0:0:0:0:
320,128,3907,1,4,0:0:0:0:
320,256,4507,1,6,0:0:0:0:
320,256,5107,1,6,0:0:0:0:
320,128,5707,1,4,0:0:0:0:
320,128,5857,1,4,0:0:0:0:
320,128,6307,1,4,0:0:0:0:
320,256,6907,1,6,0:0:0:0:
320,256,7507,1,6,0:0:0:0:
192,128,8107,1,0,0:0:0:0:
192,128,8407,1,0,0:0:0:0:
192,256,8707,1,2,0:0:0:0:
192,256,8857,1,2,0:0:0:0:
192,256,9007,1,2,0:0:0:0:
192,256,9157,1,2,0:0:0:0:
320,128,9307,1,4,0:0:0:0:
320,128,10507,1,4,0:0:0:0:
320,128,10657,1,4,0:0:0:0:
320,128,11107,1,4,0:0:0:0:
192,128,11407,1,0,0:0:0:0:
192,128,11557,1,0,0:0:0:0:
320,256,11707,1,6,0:0:0:0:
192,128,12007,1,0,0:0:0:0:
192,128,12157,1,0,0:0:0:0:
320,256,12307,1,6,0:0:0:0:
192,256,12607,1,2,0:0:0:0:
320,128,12907,1,4,0:0:0:0:
320,128,13057,1,4,0:0:0:0:
320,128,13507,1,4,0:0:0:0:
192,256,13807,1,2,0:0:0:0:
192,128,13957,1,0,0:0:0:0:
320,256,14107,1,6,0:0:0:0:
32,32,14707,2,0,L|32:224,1,178.500003404617
320,128,15307,1,4,0:0:0:0:
320,128,15457,1,4,0:0:0:0:
320,128,15907,1,4,0:0:0:0:
192,128,16207,1,0,0:0:0:0:
192,128,16357,1,0,0:0:0:0:
320,256,16507,1,6,0:0:0:0:
192,128,16807,1,0,0:0:0:0:
192,128,16957,1,0,0:0:0:0:
320,256,17107,1,6,0:0:0:0:
192,256,17407,1,2,0:0:0:0:
320,128,17707,1,4,0:0:0:0:
320,256,18307,1,6,0:0:0:0:
192,256,18907,1,2,0:0:0:0:
192,256,19107,1,2,0:0:0:0:
192,128,19307,1,2,0:0:0:0:
320,128,20107,1,4,0:0:0:0:
320,128,20257,1,4,0:0:0:0:
320,128,20557,1,4,0:0:0:0:
320,256,20707,1,6,0:0:0:0:
192,128,21007,1,0,0:0:0:0:
192,128,21157,1,0,0:0:0:0:
192,256,21307,1,2,0:0:0:0:
192,128,21457,1,0,0:0:0:0:
192,256,21607,1,2,0:0:0:0:
192,256,21757,1,2,0:0:0:0:
192,128,21907,1,0,0:0:0:0:
192,256,22207,1,2,0:0:0:0:
320,128,22507,1,4,0:0:0:0:
320,128,22657,1,4,0:0:0:0:
320,128,22957,1,4,0:0:0:0:
320,256,23107,1,6,0:0:0:0:
192,128,23407,1,0,0:0:0:0:
192,128,23557,1,0,0:0:0:0:
320,256,23707,1,6,0:0:0:0:
192,128,23857,1,0,0:0:0:0:
192,256,24007,1,2,0:0:0:0:
192,256,24157,1,2,0:0:0:0:
192,128,24307,1,0,0:0:0:0:
192,128,24457,1,0,0:0:0:0:
192,256,24607,1,2,0:0:0:0:
192,256,24757,1,2,0:0:0:0:
320,128,24907,1,4,0:0:0:0:
320,128,25057,1,4,0:0:0:0:
320,128,25357,1,4,0:0:0:0:
320,256,25507,1,6,0:0:0:0:
192,128,25807,1,0,0:0:0:0:
192,128,25957,1,0,0:0:0:0:
192,256,26107,1,2,0:0:0:0:
192,256,26257,1,2,0:0:0:0:
192,128,26407,1,0,0:0:0:0:
192,256,26557,1,2,0:0:0:0:
192,128,26707,1,0,0:0:0:0:
192,256,27007,1,2,0:0:0:0:
320,128,27307,1,4,0:0:0:0:
192,256,28207,1,2,0:0:0:0:
192,256,28507,1,2,0:0:0:0:
192,256,28707,1,2,0:0:0:0:
192,128,28907,1,0,0:0:0:0:
320,256,29107,1,6,0:0:0:0:
320,128,29707,1,4,0:0:0:0:
320,128,29857,1,4,0:0:0:0:
320,128,30157,1,4,0:0:0:0:
320,256,30307,1,6,0:0:0:0:
192,128,30607,1,0,0:0:0:0:
192,128,30757,1,0,0:0:0:0:
192,256,30907,1,2,0:0:0:0:
192,128,31057,1,0,0:0:0:0:
192,128,31207,1,0,0:0:0:0:
192,256,31357,1,2,0:0:0:0:
192,256,31507,1,2,0:0:0:0:
192,256,31807,1,2,0:0:0:0:
320,128,32107,1,4,0:0:0:0:
320,128,32257,1,4,0:0:0:0:
320,128,32557,1,4,0:0:0:0:
320,256,32707,1,6,0:0:0:0:
192,256,33007,1,2,0:0:0:0:
192,128,33157,1,0,0:0:0:0:
320,256,33307,1,6,0:0:0:0:
192,256,33907,1,2,0:0:0:0:
192,256,34007,1,2,0:0:0:0:
192,256,34107,1,2,0:0:0:0:
192,256,34207,1,2,0:0:0:0:
192,256,34307,1,2,0:0:0:0:
192,256,34407,1,2,0:0:0:0:
320,128,34507,1,4,0:0:0:0:
320,128,34657,1,4,0:0:0:0:
320,128,34957,1,4,0:0:0:0:
320,256,35107,1,6,0:0:0:0:
192,128,35407,1,0,0:0:0:0:
192,128,35557,1,0,0:0:0:0:
192,256,35707,1,2,0:0:0:0:
192,256,35857,1,2,0:0:0:0:
192,256,36007,1,2,0:0:0:0:
320,128,36307,1,4,0:0:0:0:
192,128,36607,1,0,0:0:0:0:
192,128,36907,1,0,0:0:0:0:
192,128,37057,1,0,0:0:0:0:
192,256,37207,1,2,0:0:0:0:
192,256,37357,1,2,0:0:0:0:
192,128,37507,1,0,0:0:0:0:
192,128,37657,1,0,0:0:0:0:
192,256,37807,1,2,0:0:0:0:
192,256,37957,1,2,0:0:0:0:
320,128,38107,1,4,0:0:0:0:
192,128,39307,5,0,0:0:0:0:
192,256,39457,1,2,0:0:0:0:
192,128,39607,1,0,0:0:0:0:
192,256,39757,1,2,0:0:0:0:
320,128,39907,1,4,0:0:0:0:
320,256,40507,1,6,0:0:0:0:
320,256,41107,1,6,0:0:0:0:
192,128,41707,1,0,0:0:0:0:
192,256,41857,1,2,0:0:0:0:
192,128,42007,1,0,0:0:0:0:
192,256,42157,1,2,0:0:0:0:
320,128,42307,1,4,0:0:0:0:
320,256,42907,1,6,0:0:0:0:
320,256,43507,1,6,0:0:0:0:
192,128,44107,1,0,0:0:0:0:
192,256,44257,1,2,0:0:0:0:
192,128,44407,1,0,0:0:0:0:
192,256,44557,1,2,0:0:0:0:
320,128,44707,1,4,0:0:0:0:
320,256,45307,1,6,0:0:0:0:
320,256,45907,1,6,0:0:0:0:
192,128,46507,1,0,0:0:0:0:
192,256,46657,1,2,0:0:0:0:
192,128,46807,1,0,0:0:0:0:
192,256,46957,1,2,0:0:0:0:
320,128,47107,1,4,0:0:0:0:
320,256,47707,1,6,0:0:0:0:
320,256,48307,1,6,0:0:0:0:
192,128,48907,1,0,0:0:0:0:
192,256,49057,1,2,0:0:0:0:
192,128,49207,1,0,0:0:0:0:
192,256,49357,1,2,0:0:0:0:
320,128,49507,1,4,0:0:0:0:
192,256,49807,1,2,0:0:0:0:
192,256,49957,1,2,0:0:0:0:
192,128,50107,1,0,0:0:0:0:
192,256,50257,1,2,0:0:0:0:
192,128,50407,1,0,0:0:0:0:
192,256,50557,1,2,0:0:0:0:
320,128,50707,1,4,0:0:0:0:
192,256,51007,1,2,0:0:0:0:
192,256,51157,1,2,0:0:0:0:
192,128,51307,1,0,0:0:0:0:
192,256,51457,1,2,0:0:0:0:
192,128,51607,1,0,0:0:0:0:
192,256,51757,1,2,0:0:0:0:
320,128,51907,1,4,0:0:0:0:
192,256,52207,1,2,0:0:0:0:
192,256,52357,1,2,0:0:0:0:
192,128,52507,1,0,0:0:0:0:
192,256,52657,1,2,0:0:0:0:
192,128,52807,1,0,0:0:0:0:
192,256,52957,1,2,0:0:0:0:
320,128,53107,1,4,0:0:0:0:
192,256,53407,1,2,0:0:0:0:
192,256,53557,1,2,0:0:0:0:
192,128,53707,1,0,0:0:0:0:
192,256,53857,1,2,0:0:0:0:
192,128,54007,1,0,0:0:0:0:
192,256,54157,1,2,0:0:0:0:
192,128,54307,1,0,0:0:0:0:
192,256,54457,1,2,0:0:0:0:
192,128,54607,1,0,0:0:0:0:
192,256,54757,1,2,0:0:0:0:
320,128,54907,1,4,0:0:0:0:
320,128,55057,1,4,0:0:0:0:
320,256,55207,1,6,0:0:0:0:
320,256,55357,1,6,0:0:0:0:
320,128,55507,1,4,0:0:0:0:
320,128,55657,1,4,0:0:0:0:
320,256,55807,1,6,0:0:0:0:
320,256,55957,1,6,0:0:0:0:
320,128,56107,1,4,0:0:0:0:
256,192,56257,12,0,57907,0:0:0:0:
192,256,58207,5,2,0:0:0:0:
192,256,58357,1,2,0:0:0:0:
320,128,58507,1,4,0:0:0:0:
