osu file format v14

[General]
AudioFilename: audio.mp3
AudioLeadIn: 0
PreviewTime: 19507
Countdown: 0
SampleSet: Normal
StackLeniency: 0.2
Mode: 1
LetterboxInBreaks: 0
WidescreenStoryboard: 0

[Editor]
Bookmarks: 5634,29670,46434,48870
DistanceSpacing: 2.5
BeatDivisor: 6
GridSize: 4
TimelineZoom: 1.5

[Metadata]
Title:Weaponized
TitleUnicode:Weaponized
Artist:Celldweller
ArtistUnicode:Celldweller
Creator:Hiicantpk
Version:Muzukashii
Source:
Tags:Terraform Drums Vol. 01 Position Music Gun Symphony HPK Crowie
BeatmapID:1349021
BeatmapSetID:616637

[Difficulty]
HPDrainRate:6
CircleSize:2
OverallDifficulty:5
ApproachRate:10
SliderMultiplier:1.4
SliderTickRate:1

[Events]
//Background and Video events
0,0,"Sinon.jpg",0,0
//Break Periods
//Storyboard Layer 0 (Background)
//Storyboard Layer 1 (Fail)
//Storyboard Layer 2 (Pass)
//Storyboard Layer 3 (Foreground)
//Storyboard Sound Samples

[TimingPoints]
907,600,4,1,0,80,1,0
907,-58.8235294117647,4,1,0,80,0,0
20107,-51.150895140665,4,1,0,100,0,1
38257,-51.150895140665,4,3,0,5,0,1
39307,-58.8235294117647,4,1,0,80,0,0
48907,-54.4662309368192,4,1,0,80,0,0
56257,-54.4662309368192,4,3,0,5,0,0
58207,-54.4662309368192,4,1,0,80,0,0

[Colours]
Combo1 : 150,169,150
Combo2 : 200,200,200
Combo3 : 77,82,94

[HitObjects]
304,144,907,5,4,0:0:0:0:
304,144,1057,1,4,0:0:0:0:
304,144,1507,1,4,0:0:0:0:
208,240,2107,1,2,0:0:0:0:
208,240,2707,1,2,0:0:0:0:
304,144,3307,1,4,0:0:0:0:
304,144,3457,1,4,0:0:0:0:
304,144,3907,1,4,0:0:0:0:
208,240,4507,1,2,0:0:0:0:
208,240,5107,1,2,0:0:0:0:
304,144,5707,1,4,0:0:0:0:
304,144,5857,1,4,0:0:0:0:
304,144,6307,1,4,0:0:0:0:
208,240,6907,1,2,0:0:0:0:
208,240,7507,1,2,0:0:0:0:
208,144,8107,1,0,0:0:0:0:
208,144,8407,1,0,0:0:0:0:
208,240,8707,1,2,0:0:0:0:
208,240,8857,1,2,0:0:0:0:
208,240,9007,1,2,0:0:0:0:
208,240,9157,1,2,0:0:0:0:
300,144,9307,1,4,0:0:0:0:
304,144,10507,1,4,0:0:0:0:
304,144,10657,1,4,0:0:0:0:
304,144,11107,1,4,0:0:0:0:
208,144,11407,1,0,0:0:0:0:
208,144,11557,1,0,0:0:0:0:
208,240,11707,1,2,0:0:0:0:
208,144,12007,1,0,0:0:0:0:
208,144,12157,1,0,0:0:0:0:
208,240,12307,1,2,0:0:0:0:
208,144,12607,1,0,0:0:0:0:
304,144,12907,1,4,0:0:0:0:
304,144,13057,1,4,0:0:0:0:
304,144,13507,1,4,0:0:0:0:
208,240,13807,1,2,0:0:0:0:
208,240,13957,1,2,0:0:0:0:
208,144,14107,1,0,0:0:0:0:
304,144,15307,1,4,0:0:0:0:
304,144,15457,1,4,0:0:0:0:
304,144,15907,1,4,0:0:0:0:
208,144,16207,1,0,0:0:0:0:
208,144,16357,1,0,0:0:0:0:
208,240,16507,1,2,0:0:0:0:
208,144,16807,1,0,0:0:0:0:
208,144,16957,1,0,0:0:0:0:
208,240,17107,1,2,0:0:0:0:
208,144,17407,1,0,0:0:0:0:
304,144,17707,1,4,0:0:0:0:
304,240,18307,1,6,0:0:0:0:
208,240,18907,1,2,0:0:0:0:
208,240,19107,1,2,0:0:0:0:
208,240,19307,1,2,0:0:0:0:
304,144,20107,1,4,0:0:0:0:
304,144,20257,1,4,0:0:0:0:
304,144,20557,1,4,0:0:0:0:
304,240,20707,1,6,0:0:0:0:
208,240,21007,1,2,0:0:0:0:
208,240,21307,1,2,0:0:0:0:
208,240,21457,1,2,0:0:0:0:
208,144,21607,1,0,0:0:0:0:
208,240,21757,1,2,0:0:0:0:
208,144,21907,1,0,0:0:0:0:
208,240,22207,1,2,0:0:0:0:
304,144,22507,1,4,0:0:0:0:
304,144,22657,1,4,0:0:0:0:
304,144,22957,1,4,0:0:0:0:
304,240,23107,1,6,0:0:0:0:
208,144,23407,1,0,0:0:0:0:
208,240,23707,1,2,0:0:0:0:
208,240,23857,1,2,0:0:0:0:
208,144,24007,1,0,0:0:0:0:
208,240,24307,1,2,0:0:0:0:
208,144,24457,1,0,0:0:0:0:
208,240,24607,1,2,0:0:0:0:
304,144,24907,1,4,0:0:0:0:
304,144,25057,1,4,0:0:0:0:
304,144,25357,1,4,0:0:0:0:
304,240,25507,1,6,0:0:0:0:
208,240,25807,1,2,0:0:0:0:
208,240,26107,1,2,0:0:0:0:
208,240,26257,1,2,0:0:0:0:
208,144,26407,1,0,0:0:0:0:
208,240,26557,1,2,0:0:0:0:
208,240,26707,1,2,0:0:0:0:
208,240,27007,1,2,0:0:0:0:
304,144,27307,1,4,0:0:0:0:
208,240,28507,1,2,0:0:0:0:
208,240,28707,1,2,0:0:0:0:
208,144,28907,1,0,0:0:0:0:
304,240,29107,1,6,0:0:0:0:
304,144,29707,1,4,0:0:0:0:
304,144,29857,1,4,0:0:0:0:
304,144,30157,1,4,0:0:0:0:
304,240,30307,1,6,0:0:0:0:
208,240,30607,1,2,0:0:0:0:
208,144,30907,1,0,0:0:0:0:
208,144,31057,1,0,0:0:0:0:
208,144,31207,1,0,0:0:0:0:
208,240,31357,1,2,0:0:0:0:
208,240,31507,1,2,0:0:0:0:
208,240,31807,1,2,0:0:0:0:
304,144,32107,1,4,0:0:0:0:
304,144,32257,1,4,0:0:0:0:
304,144,32557,1,4,0:0:0:0:
304,240,32707,1,6,0:0:0:0:
208,240,33007,1,2,0:0:0:0:
208,240,33157,1,2,0:0:0:0:
304,144,33307,1,4,0:0:0:0:
208,240,33907,1,2,0:0:0:0:
208,240,34207,1,2,0:0:0:0:
304,144,34507,1,4,0:0:0:0:
304,144,34657,1,4,0:0:0:0:
304,144,34957,1,4,0:0:0:0:
304,240,35107,1,6,0:0:0:0:
208,144,35407,1,0,0:0:0:0:
208,144,35557,1,0,0:0:0:0:
208,240,35707,1,2,0:0:0:0:
208,240,35857,1,2,0:0:0:0:
208,240,36007,1,2,0:0:0:0:
304,144,36307,1,4,0:0:0:0:
208,144,36907,1,0,0:0:0:0:
208,144,37057,1,0,0:0:0:0:
208,240,37207,1,2,0:0:0:0:
208,240,37357,1,2,0:0:0:0:
208,144,37507,1,0,0:0:0:0:
208,144,37657,1,0,0:0:0:0:
208,240,37807,1,2,0:0:0:0:
208,240,37957,1,2,0:0:0:0:
304,144,38107,1,4,0:0:0:0:
208,144,39307,5,0,0:0:0:0:
208,240,39457,1,2,0:0:0:0:
208,144,39607,1,0,0:0:0:0:
208,240,39757,1,2,0:0:0:0:
304,144,39907,1,4,0:0:0:0:
208,240,40507,1,2,0:0:0:0:
208,240,41107,1,2,0:0:0:0:
208,144,41707,1,0,0:0:0:0:
208,240,41857,1,2,0:0:0:0:
208,144,42007,1,0,0:0:0:0:
208,240,42157,1,2,0:0:0:0:
304,144,42307,1,4,0:0:0:0:
208,240,42907,1,2,0:0:0:0:
208,240,43507,1,2,0:0:0:0:
208,144,44107,1,0,0:0:0:0:
208,240,44257,1,2,0:0:0:0:
208,144,44407,1,0,0:0:0:0:
208,240,44557,1,2,0:0:0:0:
304,144,44707,1,4,0:0:0:0:
208,240,45307,1,2,0:0:0:0:
208,240,45907,1,2,0:0:0:0:
208,144,46507,1,0,0:0:0:0:
208,240,46657,1,2,0:0:0:0:
208,144,46807,1,0,0:0:0:0:
208,240,46957,1,2,0:0:0:0:
304,144,47107,1,4,0:0:0:0:
208,240,47707,1,2,0:0:0:0:
208,240,48307,1,2,0:0:0:0:
208,144,48907,1,0,0:0:0:0:
208,240,49057,1,2,0:0:0:0:
208,144,49207,1,0,0:0:0:0:
208,240,49357,1,2,0:0:0:0:
300,144,49507,1,4,0:0:0:0:
208,144,50107,1,0,0:0:0:0:
208,240,50257,1,2,0:0:0:0:
208,144,50407,1,0,0:0:0:0:
208,240,50557,1,2,0:0:0:0:
300,144,50707,1,4,0:0:0:0:
208,144,51307,1,0,0:0:0:0:
208,240,51457,1,2,0:0:0:0:
208,144,51607,1,0,0:0:0:0:
208,240,51757,1,2,0:0:0:0:
300,144,51907,1,4,0:0:0:0:
208,144,52507,1,0,0:0:0:0:
208,240,52657,1,2,0:0:0:0:
208,144,52807,1,0,0:0:0:0:
208,240,52957,1,2,0:0:0:0:
300,144,53107,1,4,0:0:0:0:
208,144,53707,1,0,0:0:0:0:
208,144,53857,1,0,0:0:0:0:
208,240,54007,1,2,0:0:0:0:
208,144,54307,1,0,0:0:0:0:
208,144,54457,1,0,0:0:0:0:
208,240,54607,1,2,0:0:0:0:
304,144,54907,1,0,0:0:0:0:
304,144,55057,1,0,0:0:0:0:
208,240,55207,1,2,0:0:0:0:
304,144,55507,1,0,0:0:0:0:
304,144,55657,1,0,0:0:0:0:
208,240,55807,1,2,0:0:0:0:
208,240,55957,1,2,0:0:0:0:
304,144,56107,1,4,0:0:0:0:
256,192,56257,12,0,57907,0:0:0:0:
208,240,58207,5,2,0:0:0:0:
208,240,58357,1,2,0:0:0:0:
304,144,58507,1,4,0:0:0:0:
